osu file format v14

[General]
AudioFilename: audio.mp3
AudioLeadIn: 0
PreviewTime: 61733
Countdown: 0
SampleSet: Soft
StackLeniency: 0.3
Mode: 0
LetterboxInBreaks: 0
WidescreenStoryboard: 1

[Editor]
DistanceSpacing: 2.2
BeatDivisor: 4
GridSize: 4
TimelineZoom: 1

[Metadata]
Title:Q&A Recital!
TitleUnicode:Q&Aリサイタル!
Artist:Pastel*Palettes
ArtistUnicode:Pastel*Palettes
Creator:-Mikan
Version:Taeyang's Special
Source:バンドリ!ガールズバンドパーティ!
Tags:Daycore Underdogs Hantrik Garden Taeyang iljaaz Shizuku- Anime Japanese となりの怪物くん My little Monster Tonari no Kaibutsu-kun 戸松遥 Haruka Tomatsu Video Game cover BanG Dream! Girls Band Party! Garupa Bandori! ガルパ! PasuPare パスパレ Paspale パステルパレット ぱすてるぱれっと 丸山彩 Maruyama Aya 大和麻弥 Yamato Maya 若宮イヴ Wakamiya Eve 白鷺千聖 Shirasagi Chisato 氷川日菜 Hikawa Hina 前島亜美 Maeshima Ami 中上育美 Nakagami Ikumi 秦佐和子 Hata Sawako 上坂すみれ Uesaka Sumire 小澤亜李 Ozawa Ari
BeatmapID:2100003
BeatmapSetID:1003383

[Difficulty]
HPDrainRate:7
CircleSize:4
OverallDifficulty:8.8
ApproachRate:9.2
SliderMultiplier:1.95
SliderTickRate:1

[Events]
//Background and Video events
0,0,"8cf0df45aca962356e31aed1f336582cc5013be3_s2_n2.jpg",0,0
Video,1015,"Mikan.avi"
//Break Periods
//Storyboard Layer 0 (Background)
//Storyboard Layer 1 (Fail)
//Storyboard Layer 2 (Pass)
//Storyboard Layer 3 (Foreground)
//Storyboard Layer 4 (Overlay)
//Storyboard Sound Samples

[TimingPoints]
-533,329.67032967033,4,2,1,70,1,0
126,-100,4,2,1,10,0,0
291,-100,4,2,1,30,0,0
456,-100,4,2,1,45,0,0
620,-100,4,2,1,60,0,0
785,-100,4,2,1,75,0,0
950,-100,4,2,1,90,0,0
1115,-100,4,2,1,5,0,0
1774,-166.666666666667,4,2,1,80,0,0
1857,-166.666666666667,4,2,1,5,0,0
2021,-166.666666666667,4,2,1,5,0,0
2104,-83.3333333333333,4,2,1,100,0,0
2351,-83.3333333333333,4,2,1,5,0,0
2434,-83.3333333333333,4,2,1,90,0,0
7049,-83.3333333333333,4,2,2,90,0,0
7379,-83.3333333333333,4,2,1,100,0,0
7873,-83.3333333333333,4,2,1,90,0,0
11994,-83.3333333333333,4,2,2,90,0,0
12159,-83.3333333333333,4,2,1,90,0,0
12653,-100,4,2,1,70,0,0
15291,-100,4,2,1,100,0,0
17928,-100,4,2,1,50,0,0
25346,-100,4,2,1,60,0,0
25758,-100,4,2,1,5,0,0
25840,-100,4,2,1,80,0,0
26994,-100,4,2,2,80,0,0
27324,-100,4,2,1,80,0,0
28477,-100,4,2,1,65,0,0
36390,-100,4,2,1,80,0,0
37543,-100,4,2,2,80,0,0
37873,-100,4,2,1,80,0,0
39274,-100,4,2,1,5,0,0
39357,-100,4,2,1,70,0,0
40181,-100,4,2,2,70,0,0
40510,-100,4,2,1,70,0,0
44549,-100,4,2,1,5,0,0
44631,-83.3333333333333,4,2,2,70,0,0
44961,-100,4,2,1,70,0,0
46774,-100,4,2,2,70,0,0
47104,-100,4,2,1,70,0,0
52131,-100,4,2,1,70,0,0
52214,-100,4,2,2,70,0,0
52543,-100,4,2,1,70,0,0
53203,-133.333333333333,4,2,2,70,0,0
53532,-133.333333333333,4,2,1,70,0,0
54851,-100,4,2,1,70,0,0
60126,-133.333333333333,4,2,1,90,0,0
60456,-133.333333333333,4,2,1,60,0,0
60620,-133.333333333333,4,2,1,60,0,0
60785,-133.333333333333,4,2,1,90,0,0
61115,-133.333333333333,4,2,1,60,0,0
61280,-133.333333333333,4,2,1,60,0,0
61445,-133.333333333333,4,2,1,90,0,0
61774,-133.333333333333,4,2,1,90,0,0
62434,-100,4,2,1,90,0,0
62516,-100,4,2,1,5,0,0
62763,-83.3333333333333,4,2,1,100,0,1
63093,-83.3333333333333,4,2,1,90,0,1
67708,-83.3333333333333,4,2,2,90,0,1
68038,-83.3333333333333,4,2,1,100,0,1
68368,-83.3333333333333,4,2,1,90,0,1
72653,-83.3333333333333,4,2,2,90,0,1
73313,-83.3333333333333,4,2,1,100,0,1
73642,-83.3333333333333,4,2,1,90,0,1
78258,-83.3333333333333,4,2,2,90,0,1
78587,-83.3333333333333,4,2,1,100,0,1
78917,-83.3333333333333,4,2,1,90,0,1
80565,-83.3333333333333,4,2,2,90,0,1
80730,-83.3333333333333,4,2,1,90,0,1
83862,-100,4,2,2,70,0,0
84439,-100,4,2,2,5,0,0
84521,-100,4,2,1,80,0,0
85181,-100,4,2,1,100,0,0
86417,-100,4,2,1,5,0,0
86499,-83.3333333333333,4,2,1,80,0,1
95730,-83.3333333333333,4,2,2,80,0,1
95895,-83.3333333333333,4,2,1,80,0,1
96884,-83.3333333333333,4,2,2,80,0,1
97214,-83.3333333333333,4,2,1,80,0,1
98862,-83.3333333333333,4,2,2,80,0,1
99192,-83.3333333333333,4,2,1,70,0,1
101499,-100,4,2,1,80,0,1
101912,-100,4,2,1,5,0,1
101994,-100,4,2,1,80,0,1
102241,-100,4,2,1,5,0,1
102324,-100,4,2,1,50,0,1
102488,-83.3333333333333,4,2,1,40,0,1
102571,-83.3333333333333,4,2,1,50,0,1
102653,-83.3333333333333,4,2,1,60,0,1
102736,-83.3333333333333,4,2,1,70,0,1
102818,-83.3333333333333,4,2,1,80,0,1
102901,-83.3333333333333,4,2,1,90,0,1
102983,-83.3333333333333,4,2,1,100,0,0
103642,-83.3333333333333,4,2,1,5,0,0

[Colours]
Combo1 : 189,189,223
Combo2 : 255,168,211
Combo3 : 174,255,174
Combo4 : 255,255,191
Combo5 : 176,255,255

[HitObjects]
256,192,126,12,0,1115,0:0:0:0:
217,194,1774,6,0,P|227:152|215:111,1,87.7499973220826,8|0,3:2|0:0,0:0:0:0:
205,99,2104,6,0,L|198:275,1,175.499994644165,4|0,3:2|0:0,0:0:0:0:
193,353,2434,1,10,0:0:0:0:
297,203,2598,1,0,0:0:0:0:
88,228,2763,1,10,0:0:0:0:
286,365,2928,1,0,3:0:0:0:
83,319,3093,1,10,0:0:0:0:
286,190,3258,1,0,3:0:0:0:
177,367,3423,6,0,L|182:250,1,116.999996429443,10|0,0:0|0:0,0:0:0:0:
69,42,3752,1,10,0:0:0:0:
286,190,3917,1,0,0:0:0:0:
195,14,4082,1,10,0:0:0:0:
89,181,4247,1,0,3:0:0:0:
321,58,4412,1,10,0:0:0:0:
184,227,4576,1,0,3:0:0:0:
84,58,4741,5,10,0:0:0:0:
302,70,4906,1,0,0:0:0:0:
135,159,5071,2,0,P|190:142|242:166,1,116.999996429443,10|0,0:0|0:0,0:0:0:0:
178,350,5401,1,10,0:0:0:0:
116,170,5565,1,0,3:0:0:0:
315,282,5730,1,10,0:0:0:0:
68,380,5895,1,0,3:0:0:0:
27,188,6060,5,10,0:0:0:0:
68,380,6225,2,0,L|73:263,1,116.999996429443,0|10,3:0|0:0,0:0:0:0:
306,199,6555,1,0,3:0:0:0:
204,373,6719,1,10,0:0:0:0:
172,148,6884,1,0,3:0:0:0:
363,262,7049,2,0,P|310:284|256:266,1,116.999996429443,12|0,0:0|3:0,0:0:0:0:
122,72,7379,5,12,0:0:0:0:
299,173,7543,1,0,0:0:0:0:
96,198,7708,1,10,0:0:0:0:
197,21,7873,1,0,0:0:0:0:
222,224,8038,1,10,0:0:0:0:
41,120,8203,1,0,3:0:0:0:
248,98,8368,1,10,0:0:0:0:
144,279,8532,1,0,3:0:0:0:
190,36,8697,6,0,P|242:13|296:30,1,116.999996429443,10|0,0:0|0:0,0:0:0:0:
364,286,9027,1,10,0:0:0:0:
462,126,9192,1,0,0:0:0:0:
287,114,9357,1,10,0:0:0:0:
464,242,9521,1,0,3:0:0:0:
385,69,9686,1,10,0:0:0:0:
275,221,9851,1,0,0:0:0:0:
432,133,10016,6,0,B|380:110|380:110|323:123,1,116.999996429443,10|0,0:0|0:0,0:0:0:0:
498,71,10346,2,0,B|388:24|388:24|274:47,1,233.999992858887,10|10,0:0|0:0,0:0:0:0:
126,220,10840,1,0,3:0:0:0:
307,134,11005,1,10,0:0:0:0:
139,15,11170,1,0,3:0:0:0:
110,232,11335,5,10,0:0:0:0:
121,10,11499,2,0,L|115:126,1,116.999996429443,0|10,3:0|0:0,0:0:0:0:
265,227,11829,1,0,3:0:0:0:
236,73,11994,1,4,3:2:0:0:
188,267,12159,1,8,0:0:0:0:
207,290,12241,1,8,0:0:0:0:
231,306,12323,1,8,0:0:0:0:
260,312,12406,1,8,0:0:0:0:
289,309,12488,1,8,0:0:0:0:
315,297,12571,1,8,0:0:0:0:
335,275,12653,1,4,3:2:0:0:
388,202,12983,5,2,0:0:0:0:
375,110,13642,1,2,0:0:0:0:
284,122,14302,1,2,0:0:0:0:
296,213,14961,1,2,0:0:0:0:
445,121,15291,5,12,0:1:0:0:
280,46,15456,1,0,3:0:0:0:
297,226,15620,1,0,3:0:0:0:
381,58,15785,5,12,0:1:0:0:
182,76,15950,1,0,3:0:0:0:
297,239,16114,1,0,3:0:0:0:
279,34,16280,5,12,0:1:0:0:
99,160,16445,1,0,3:0:0:0:
298,252,16609,1,0,3:0:0:0:
161,68,16774,5,12,0:1:0:0:
58,287,16939,1,0,3:0:0:0:
298,265,17103,1,0,3:0:0:0:
76,173,17269,6,0,L|86:236,1,48.75,8|0,0:0|0:0,0:0:0:0:
160,374,17434,1,8,0:0:0:0:
161,349,17516,1,8,0:0:0:0:
163,325,17598,1,8,0:0:0:0:
165,300,17681,1,8,0:0:0:0:
167,276,17763,1,8,0:0:0:0:
168,252,17846,1,8,0:0:0:0:
169,227,17928,1,0,3:0:0:0:
244,169,18258,5,2,0:1:0:0:
322,222,18917,1,2,0:1:0:0:
296,313,19576,1,2,0:1:0:0:
201,315,20236,1,2,0:1:0:0:
169,227,20895,5,2,0:1:0:0:
169,227,21554,1,2,0:1:0:0:
169,227,22214,1,2,0:1:0:0:
169,227,22873,1,2,0:1:0:0:
244,169,23532,5,2,0:1:0:0:
201,315,24192,1,2,0:1:0:0:
322,222,24851,1,2,0:1:0:0:
244,169,25346,5,0,0:0:0:0:
165,314,25510,2,0,P|166:371|207:330,1,146.25,2|0,0:0|0:0,0:0:0:0:
211,247,25840,5,8,0:0:0:0:
310,357,26005,2,0,P|307:309|311:260,1,97.5,8|0,0:0|3:0,0:0:0:0:
317,239,26499,1,8,0:0:0:0:
372,80,26664,2,0,P|385:129|371:176,1,97.5,8|0,0:0|3:0,0:0:0:0:
444,34,26994,6,0,P|471:126|444:218,1,195,4|8,3:2|3:2,0:0:0:0:
215,323,27488,1,8,0:0:0:0:
300,127,27653,1,0,3:0:0:0:
307,231,27818,1,0,3:0:0:0:
307,231,28148,5,8,0:0:0:0:
285,221,28230,1,8,0:0:0:0:
261,217,28312,1,8,0:0:0:0:
237,219,28395,1,8,0:0:0:0:
214,226,28477,6,0,P|221:279|214:324,1,97.5,4|0,3:2|0:0,0:0:0:0:
50,231,28807,2,0,P|28:271|48:315,1,97.5,8|0,0:0|0:0,0:0:0:0:
137,172,29137,1,2,3:1:0:0:
209,337,29302,1,0,3:0:0:0:
63,325,29467,1,8,0:0:0:0:
237,219,29631,1,0,0:0:0:0:
120,71,29796,6,0,L|122:169,1,97.5,0|0,0:0|0:0,0:0:0:0:
311,270,30126,2,0,P|326:226|313:171,1,97.5,8|0,0:0|0:0,0:0:0:0:
226,313,30456,1,2,3:1:0:0:
389,346,30620,1,0,3:0:0:0:
219,169,30785,1,8,0:0:0:0:
394,132,30950,1,0,3:0:0:0:
172,245,31115,5,2,3:1:0:0:
438,236,31280,1,0,0:0:0:0:
317,86,31445,2,0,P|301:131|316:177,1,97.5,8|0,0:0|0:0,0:0:0:0:
461,255,31774,1,2,3:1:0:0:
388,48,31939,1,0,3:0:0:0:
265,242,32104,2,0,P|308:261|355:251,1,97.5,8|0,0:0|0:0,0:0:0:0:
183,170,32434,6,0,L|176:267,1,97.5,2|0,3:1|0:0,0:0:0:0:
94,135,32763,2,0,L|87:232,1,97.5,8|0,0:0|0:0,0:0:0:0:
189,81,33093,1,2,3:1:0:0:
85,253,33258,1,0,3:0:0:0:
283,200,33423,1,8,0:0:0:0:
95,120,33587,1,8,0:0:0:0:
173,294,33752,5,4,3:2:0:0:
354,248,33917,2,0,P|369:202|355:156,1,97.5,0|8,0:0|0:0,0:0:0:0:
207,74,34247,1,0,0:0:0:0:
278,285,34412,1,0,0:0:0:0:
278,285,34576,1,0,3:0:0:0:
404,91,34741,2,0,P|361:73|314:85,1,97.5,8|0,0:0|0:0,0:0:0:0:
192,230,35071,5,2,3:1:0:0:
191,110,35236,2,0,L|191:207,1,97.5,0|8,0:0|0:0,0:0:0:0:
109,61,35565,1,0,0:0:0:0:
275,164,35730,1,0,0:0:0:0:
275,164,35895,1,0,3:0:0:0:
121,256,36060,2,0,P|108:301|120:348,1,97.5,8|0,0:0|3:0,0:0:0:0:
255,378,36390,5,12,0:1:0:0:
376,188,36554,2,0,P|383:235|372:288,1,97.5,8|0,0:1|3:0,0:0:0:0:
368,301,37049,1,12,0:1:0:0:
247,124,37214,2,0,L|249:221,1,97.5,8|0,0:1|3:0,0:0:0:0:
160,78,37543,6,0,L|163:273,1,195,4|0,3:2|3:0,0:0:0:0:
164,291,37956,1,0,3:0:0:0:
164,308,38038,1,8,0:0:0:0:
57,121,38203,1,4,3:0:0:0:
260,172,38368,1,2,3:0:0:0:
164,327,38532,1,8,0:0:0:0:
161,175,38697,1,8,0:0:0:0:
161,151,38779,1,8,0:0:0:0:
160,126,38862,1,8,0:0:0:0:
160,102,38944,1,8,0:0:0:0:
160,78,39027,6,0,B|230:57|230:57|308:75,1,146.25,4|0,3:2|0:0,0:0:0:0:
346,87,39357,2,0,P|364:132|346:176,1,97.5,10|0,0:0|0:0,0:0:0:0:
156,324,39686,1,2,3:2:0:0:
245,167,39851,1,0,3:0:0:0:
291,342,40016,1,10,0:0:0:0:
146,235,40181,6,0,B|199:231|231:273|231:273|268:242|324:255,1,195,4|0,3:2|3:0,0:0:0:0:
129,244,40675,1,10,0:0:0:0:
337,266,40840,1,0,0:0:0:0:
166,130,41005,1,2,3:2:0:0:
230,291,41170,1,0,3:0:0:0:
291,78,41335,1,10,0:0:0:0:
85,157,41499,6,0,P|156:215|239:174,1,195,4|0,3:2|3:0,0:0:0:0:
69,71,41994,1,8,0:0:0:0:
278,96,42159,1,8,0:3:0:0:
278,96,42241,1,4,0:3:0:0:
278,96,42324,1,2,0:3:0:0:
186,12,42488,1,2,0:3:0:0:
85,157,42653,1,8,0:0:0:0:
313,215,42818,6,0,L|324:20,1,195,4|0,3:2|3:0,0:0:0:0:
416,196,43313,1,8,0:0:0:0:
209,231,43477,1,8,0:3:0:0:
209,231,43560,1,4,0:3:0:0:
209,231,43642,1,2,0:3:0:0:
437,196,43807,1,2,0:3:0:0:
258,88,43972,1,8,0:0:0:0:
277,290,44137,1,8,0:0:0:0:
277,290,44219,1,8,0:0:0:0:
277,290,44302,6,0,B|349:313|349:313|423:291,1,146.25,0|0,3:0|0:0,0:0:0:0:
448,252,44631,2,0,P|465:207|434:138,1,116.999996429443,12|0,0:0|0:0,0:0:0:0:
258,88,44961,1,2,3:2:0:0:
352,228,45126,1,0,3:0:0:0:
408,14,45291,1,10,0:0:0:0:
188,39,45456,6,0,B|157:84|184:132|184:132|212:181|185:223,1,195,4|0,3:2|3:0,0:0:0:0:
44,349,45950,1,10,0:0:0:0:
115,182,46115,1,0,0:0:0:0:
265,278,46280,1,2,3:2:0:0:
63,263,46445,1,0,3:0:0:0:
248,169,46609,1,10,0:0:0:0:
342,314,46774,6,0,P|263:364|187:312,1,195,4|0,3:2|3:0,0:0:0:0:
162,109,47269,1,8,0:0:0:0:
63,263,47434,1,8,0:3:0:0:
63,263,47516,1,4,0:3:0:0:
63,263,47598,1,2,0:3:0:0:
265,278,47763,1,2,0:3:0:0:
91,155,47928,1,8,0:0:0:0:
40,340,48093,6,0,B|72:377|72:377|217:363,1,195,4|0,3:2|3:0,0:0:0:0:
300,196,48587,1,8,0:0:0:0:
381,350,48752,1,8,0:3:0:0:
381,350,48835,1,4,0:3:0:0:
381,350,48917,1,2,0:3:0:0:
198,253,49082,1,2,0:3:0:0:
370,149,49247,1,8,0:0:0:0:
382,171,49329,1,8,0:0:0:0:
386,195,49411,1,8,0:0:0:0:
383,219,49494,1,8,0:0:0:0:
373,241,49576,6,0,L|263:235,1,97.5,4|0,3:2|0:0,0:0:0:0:
421,326,49906,1,10,0:0:0:0:
421,326,50071,2,0,L|208:316,1,195,0|0,0:0|3:0,0:0:0:0:
181,144,50565,1,10,0:0:0:0:
18,223,50730,6,0,B|76:227|104:187|104:187|132:234|184:232,1,195,0|0,0:0|0:0,0:0:0:0:
105,96,51225,2,0,P|90:142|103:188,1,97.5,10|0,0:0|0:0,0:0:0:0:
240,307,51554,1,2,3:2:0:0:
197,84,51719,1,0,3:0:0:0:
35,236,51884,2,0,P|96:271|164:245,1,146.25,10|0,0:0|0:0,0:0:0:0:
225,191,52214,6,0,P|270:177|318:191,1,97.5,4|0,3:2|0:0,0:0:0:0:
404,308,52543,1,8,0:0:0:0:
411,97,52708,2,0,L|404:291,1,195,4|8,3:2|0:0,0:0:0:0:
229,317,53203,6,0,B|260:304|271:260|271:260|278:306|311:328,1,146.250005578995,4|2,3:2|0:3,0:0:0:0:
155,359,53697,1,4,0:3:0:0:
235,185,53862,1,8,0:0:0:0:
252,180,53945,1,8,0:0:0:0:
270,178,54026,1,8,0:0:0:0:
288,180,54109,1,8,0:0:0:0:
305,186,54191,1,8,0:0:0:0:
161,271,54357,6,0,L|164:217,1,36.5625013947487,0|0,3:0|0:0,0:0:0:0:
117,118,54521,1,8,0:0:0:0:
117,118,54604,1,0,3:0:0:0:
117,118,54686,2,0,L|114:172,1,36.5625013947487,0|0,3:0|3:0,0:0:0:0:
46,204,54851,6,0,B|117:208|117:208|173:182|173:182|235:185,1,195,4|10,3:2|0:0,0:0:0:0:
444,198,55346,1,0,0:0:0:0:
255,275,55510,1,2,3:2:0:0:
333,109,55675,1,0,3:0:0:0:
387,289,55840,1,10,0:0:0:0:
222,352,56005,6,0,P|172:273|241:192,1,195,0|0,0:0|0:0,0:0:0:0:
126,311,56499,2,0,P|80:325|36:307,1,97.5,10|0,0:0|0:0,0:0:0:0:
11,111,56829,1,2,3:2:0:0:
158,200,56994,1,0,3:0:0:0:
86,240,57159,2,0,P|76:177|101:139,1,97.5,10|0,0:0|0:0,0:0:0:0:
305,105,57488,6,0,B|335:199|335:199|304:290,1,195,2|10,3:2|0:0,0:0:0:0:
158,200,57983,1,0,0:0:0:0:
232,155,58148,2,0,B|246:201|246:201|230:248,1,97.5,2|0,3:2|3:0,0:0:0:0:
187,81,58477,1,10,0:0:0:0:
269,312,58642,6,0,P|177:285|82:305,1,195,0|0,3:0|3:0,0:0:0:0:
71,318,59137,2,0,P|83:272|78:223,1,97.5,10|0,0:0|0:0,0:0:0:0:
43,128,59467,1,2,3:2:0:0:
58,333,59631,1,0,3:2:0:0:
143,159,59796,2,0,P|188:144|234:157,1,97.5,10|0,0:0|0:0,0:0:0:0:
346,286,60126,5,8,0:0:0:0:
346,286,60291,1,8,0:0:0:0:
392,163,60456,2,0,P|413:133|444:114,1,73.1250027894975,2|0,0:1|0:0,0:0:0:0:
345,305,60785,5,8,0:0:0:0:
345,305,60950,1,8,0:0:0:0:
306,113,61115,2,0,P|287:82|257:61,1,73.1250027894975,2|0,0:1|0:0,0:0:0:0:
124,283,61445,5,12,0:2:0:0:
315,203,61609,1,8,0:0:0:0:
237,169,61774,6,0,P|228:204|236:239,1,73.1250027894975,0|0,0:0|0:0,0:0:0:0:
244,83,62104,2,0,P|253:117|245:153,1,73.1250027894975,0|0,0:0|0:0,0:0:0:0:
204,41,62434,6,0,P|253:13|235:67,1,146.25,8|0,0:0|0:0,0:0:0:0:
165,117,62763,6,0,B|108:103|108:103|51:117,1,116.999996429443,4|0,3:2|0:0,0:0:0:0:
297,154,63093,2,0,B|354:168|354:168|411:154,1,116.999996429443,10|0,0:0|0:0,0:0:0:0:
234,67,63423,1,10,0:0:0:0:
326,303,63587,1,0,3:0:0:0:
486,121,63752,1,10,0:0:0:0:
208,211,63917,1,0,3:0:0:0:
392,358,64082,6,0,P|412:303|392:249,1,116.999996429443,10|0,0:0|0:0,0:0:0:0:
225,106,64412,2,0,P|167:108|109:101,1,116.999996429443,10|0,0:0|0:0,0:0:0:0:
328,59,64741,1,10,0:0:0:0:
217,294,64906,1,0,3:0:0:0:
90,99,65071,1,10,0:0:0:0:
351,173,65236,1,0,3:0:0:0:
151,350,65401,6,0,P|130:296|148:241,1,116.999996429443,4|0,3:2|0:0,0:0:0:0:
210,56,65730,2,0,P|230:109|212:164,1,116.999996429443,10|0,0:0|0:0,0:0:0:0:
35,320,66060,1,10,0:0:0:0:
144,113,66225,1,0,3:0:0:0:
235,365,66390,1,10,0:0:0:0:
35,194,66554,1,0,3:0:0:0:
210,56,66719,5,10,0:0:0:0:
153,303,66884,1,0,3:0:0:0:
133,94,67049,5,10,0:0:0:0:
235,365,67213,1,0,3:0:0:0:
365,107,67378,5,10,0:0:0:0:
235,365,67543,1,0,3:0:0:0:
295,59,67708,5,12,0:0:0:0:
325,318,67873,1,0,3:0:0:0:
76,159,68038,6,0,P|131:141|186:158,1,116.999996429443,4|0,3:2|0:0,0:0:0:0:
335,332,68368,2,0,L|340:215,1,116.999996429443,10|0,0:0|0:0,0:0:0:0:
222,372,68697,1,10,0:0:0:0:
444,296,68862,1,0,3:0:0:0:
264,135,69027,1,10,0:0:0:0:
334,352,69192,1,0,3:0:0:0:
454,201,69357,6,0,B|398:182|398:182|341:197,1,116.999996429443,10|0,0:0|0:0,0:0:0:0:
137,252,69686,2,0,B|80:267|80:267|24:248,1,116.999996429443,10|0,0:0|0:0,0:0:0:0:
191,94,70016,1,10,0:0:0:0:
245,320,70181,1,0,3:0:0:0:
82,176,70346,1,10,0:0:0:0:
259,37,70510,1,0,3:0:0:0:
245,320,70675,6,0,L|251:196,1,116.999996429443,4|0,3:2|0:0,0:0:0:0:
149,352,71005,1,10,0:0:0:0:
341,294,71170,1,0,0:0:0:0:
341,294,71335,2,0,L|347:170,1,116.999996429443,10|0,0:0|3:0,0:0:0:0:
422,340,71664,1,10,0:0:0:0:
252,180,71829,1,0,3:0:0:0:
431,49,71994,6,0,P|451:103|430:157,1,116.999996429443,10|0,0:0|3:0,0:0:0:0:
180,252,72324,1,10,0:0:0:0:
274,54,72488,1,0,3:0:0:0:
399,236,72653,1,12,0:0:0:0:
128,148,72818,1,8,0:0:0:0:
291,337,72983,1,8,0:0:0:0:
365,103,73148,1,8,0:0:0:0:
365,103,73230,1,0,0:0:0:0:
365,103,73313,6,0,L|248:94,1,116.999996429443,4|0,3:2|0:0,0:0:0:0:
142,268,73642,2,0,L|258:259,1,116.999996429443,10|0,0:0|0:0,0:0:0:0:
150,80,73972,1,10,0:0:0:0:
54,278,74137,1,0,3:0:0:0:
276,259,74302,1,10,0:0:0:0:
55,150,74467,1,0,3:0:0:0:
108,357,74631,6,0,L|224:348,1,116.999996429443,10|0,0:0|0:0,0:0:0:0:
456,309,74961,2,0,B|475:254|475:254|457:197,1,116.999996429443,10|0,0:0|0:0,0:0:0:0:
212,139,75291,1,10,0:0:0:0:
375,328,75456,1,0,3:0:0:0:
311,87,75620,1,10,0:0:0:0:
242,347,75785,1,0,3:0:0:0:
366,146,75950,6,0,P|309:137|252:145,1,116.999996429443,4|0,3:2|0:0,0:0:0:0:
54,278,76280,2,0,P|105:301|161:284,1,116.999996429443,10|0,0:0|0:0,0:0:0:0:
311,87,76609,1,10,0:0:0:0:
109,221,76774,1,0,3:0:0:0:
314,316,76939,1,10,0:0:0:0:
189,90,77104,1,0,3:0:0:0:
90,344,77269,5,10,0:0:0:0:
78,108,77434,1,0,3:0:0:0:
246,358,77598,5,10,0:0:0:0:
306,129,77763,1,0,3:0:0:0:
166,376,77928,5,10,0:0:0:0:
196,73,78093,1,0,0:0:0:0:
30,287,78258,5,12,0:0:0:0:
314,316,78423,1,0,3:0:0:0:
195,73,78587,6,0,P|178:127|197:182,1,116.999996429443,4|0,3:2|0:0,0:0:0:0:
242,367,78917,2,0,P|259:312|240:258,1,116.999996429443,10|0,0:0|0:0,0:0:0:0:
52,114,79247,1,10,0:0:0:0:
175,312,79412,1,0,3:0:0:0:
263,129,79576,1,10,0:0:0:0:
53,311,79741,1,0,3:0:0:0:
315,212,79906,6,0,P|372:200|428:213,1,116.999996429443,10|0,0:0|3:0,0:0:0:0:
225,243,80236,2,0,P|168:255|111:244,1,116.999996429443,10|0,0:0|3:0,0:0:0:0:
228,88,80565,1,4,3:2:0:0:
296,334,80730,1,8,0:0:0:0:
296,334,80813,1,8,0:0:0:0:
296,334,80895,1,8,0:0:0:0:
94,238,81060,1,8,0:0:0:0:
370,148,81225,5,0,3:0:0:0:
168,34,81390,1,0,0:0:0:0:
168,34,81554,2,0,L|171:150,1,116.999996429443,10|0,0:0|0:0,0:0:0:0:
181,352,81884,1,0,3:0:0:0:
117,212,82049,2,0,B|173:191|173:191|228:208,1,116.999996429443,0|10,3:0|0:0,0:0:0:0:
58,145,82379,6,0,B|169:105|169:105|281:134,1,233.999992858887,0|0,0:0|0:0,0:0:0:0:
448,307,82873,2,0,P|473:255|457:201,1,116.999996429443,10|0,0:0|0:0,0:0:0:0:
257,373,83203,1,0,0:0:0:0:
460,318,83368,1,0,3:0:0:0:
296,141,83532,1,10,0:0:0:0:
366,353,83697,1,0,0:0:0:0:
451,188,83862,5,4,3:2:0:0:
439,197,84521,2,0,P|391:207|344:197,1,97.5,0|0,0:0|3:0,0:0:0:0:
153,108,84851,1,12,0:0:0:0:
150,93,85181,5,12,0:1:0:0:
201,348,85346,1,0,3:0:0:0:
201,348,85510,1,0,3:0:0:0:
233,66,85675,5,12,0:1:0:0:
118,375,85840,1,0,3:0:0:0:
118,375,86005,1,0,3:0:0:0:
408,309,86170,6,0,P|339:285|271:307,1,146.25,12|0,0:1|0:0,0:0:0:0:
201,347,86499,6,0,P|225:295|215:239,1,116.999996429443,12|0,0:0|0:0,0:0:0:0:
151,89,86829,2,0,P|184:135|237:155,1,116.999996429443,10|0,0:0|0:0,0:0:0:0:
441,64,87159,1,10,0:0:0:0:
396,301,87324,1,0,3:0:0:0:
331,113,87488,1,10,0:0:0:0:
402,321,87653,1,0,3:0:0:0:
456,76,87818,6,0,P|471:131|453:186,1,116.999996429443,10|0,0:0|0:0,0:0:0:0:
271,306,88148,2,0,L|140:300,1,116.999996429443,10|0,0:0|0:0,0:0:0:0:
155,87,88477,1,10,0:0:0:0:
321,220,88642,1,0,3:0:0:0:
68,294,88807,1,10,0:0:0:0:
162,73,88972,1,0,3:0:0:0:
321,220,89137,6,0,L|190:214,1,116.999996429443,10|0,0:0|0:0,0:0:0:0:
387,311,89467,2,0,L|256:305,1,116.999996429443,10|0,0:0|0:0,0:0:0:0:
68,294,89796,1,10,0:0:0:0:
155,95,89961,1,0,3:0:0:0:
202,342,90126,1,10,0:0:0:0:
151,76,90291,1,0,3:0:0:0:
54,306,90456,5,10,0:0:0:0:
334,264,90620,1,0,3:0:0:0:
96,204,90785,5,10,0:0:0:0:
419,285,90950,1,0,3:0:0:0:
173,117,91115,5,10,0:0:0:0:
398,370,91280,1,0,3:0:0:0:
282,70,91445,5,10,0:0:0:0:
313,349,91609,1,0,3:0:0:0:
399,67,91774,6,0,L|393:185,1,116.999996429443,10|0,0:0|0:0,0:0:0:0:
219,355,92104,2,0,L|213:237,1,116.999996429443,12|0,0:0|0:0,0:0:0:0:
357,358,92434,1,10,0:0:0:0:
112,284,92598,1,0,3:0:0:0:
291,141,92763,1,10,0:0:0:0:
220,375,92928,1,0,3:0:0:0:
59,220,93093,6,0,P|112:199|165:219,1,116.999996429443,10|0,0:0|3:0,0:0:0:0:
357,270,93423,2,0,P|303:290|250:270,1,116.999996429443,10|0,0:0|3:0,0:0:0:0:
132,100,93752,1,12,0:0:0:0:
26,298,93917,1,8,0:0:0:0:
26,298,93999,1,0,0:0:0:0:
26,298,94082,1,10,0:0:0:0:
236,260,94247,1,8,0:0:0:0:
67,157,94412,5,4,3:2:0:0:
67,157,94576,2,0,P|48:86|74:38,1,116.999996429443,0|10,3:0|0:0,0:0:0:0:
259,207,94906,1,0,0:0:0:0:
259,207,95071,2,0,L|135:210,1,116.999996429443,0|0,3:2|3:0,0:0:0:0:
349,201,95401,1,10,0:0:0:0:
349,201,95565,1,0,0:0:0:0:
220,123,95730,5,4,3:2:0:0:
70,264,95895,1,0,0:0:0:0:
70,264,96060,2,0,P|54:319|77:372,1,116.999996429443,10|0,0:0|0:0,0:0:0:0:
350,321,96390,1,0,3:0:0:0:
131,202,96554,1,0,3:0:0:0:
241,371,96719,1,10,0:0:0:0:
321,122,96884,1,4,3:2:0:0:
321,122,97214,5,8,0:0:0:0:
321,122,97296,1,8,0:0:0:0:
321,122,97379,1,8,0:0:0:0:
92,87,97543,1,8,0:3:0:0:
176,302,97708,1,4,0:3:0:0:
217,49,97873,1,4,3:2:0:0:
217,49,98203,5,8,0:0:0:0:
217,49,98285,1,8,0:0:0:0:
217,49,98368,1,8,0:0:0:0:
72,229,98532,1,4,0:3:0:0:
301,264,98697,1,2,0:3:0:0:
217,49,98862,1,4,3:2:0:0:
217,49,99192,5,0,3:0:0:0:
313,249,99357,2,0,P|333:195|323:137,1,116.999996429443,10|0,0:0|0:0,0:0:0:0:
172,319,99686,1,0,3:0:0:0:
30,309,99851,2,0,L|146:317,1,116.999996429443,0|10,3:0|0:0,0:0:0:0:
312,126,100181,1,0,0:0:0:0:
93,150,100346,6,0,B|76:205|76:205|92:262,1,116.999996429443,4|0,3:2|0:0,0:0:0:0:
301,117,100675,2,0,L|184:108,1,116.999996429443,10|0,0:0|0:0,0:0:0:0:
325,324,101005,1,0,3:0:0:0:
347,42,101170,1,0,3:0:0:0:
189,208,101335,1,10,0:0:0:0:
473,234,101499,6,0,P|449:122|380:183,1,243.75,4|0,3:2|0:0,0:0:0:0:
387,253,101994,2,0,B|409:279|375:320|375:320|329:292|339:265,1,146.25,2|0,0:1|0:0,0:0:0:0:
303,195,102324,1,2,0:1:0:0:
194,250,102488,6,0,P|187:278|172:303,1,58.4999982147217,2|2,0:1|0:1,2:0:0:0:
118,124,102653,2,0,P|96:104|82:78,1,58.4999982147217,2|2,0:1|0:1,2:0:0:0:
264,121,102818,2,0,P|291:112|320:113,1,58.4999982147217,2|2,0:1|0:1,2:0:0:0:
191,165,102983,5,4,3:2:0:0:
