osu file format v14

[General]
AudioFilename: audio.mp3
AudioLeadIn: 0
PreviewTime: 61733
Countdown: 0
SampleSet: Soft
StackLeniency: 0.3
Mode: 0
LetterboxInBreaks: 0
WidescreenStoryboard: 1

[Editor]
DistanceSpacing: 1
BeatDivisor: 4
GridSize: 4
TimelineZoom: 1

[Metadata]
Title:Q&A Recital!
TitleUnicode:Q&Aリサイタル!
Artist:Pastel*Palettes
ArtistUnicode:Pastel*Palettes
Creator:-Mikan
Version:Garden's Another
Source:バンドリ!ガールズバンドパーティ!
Tags:Daycore Underdogs Hantrik Garden Taeyang iljaaz Shizuku- Anime Japanese となりの怪物くん My little Monster Tonari no Kaibutsu-kun 戸松遥 Haruka Tomatsu Video Game cover BanG Dream! Girls Band Party! Garupa Bandori! ガルパ! PasuPare パスパレ Paspale パステルパレット ぱすてるぱれっと 丸山彩 Maruyama Aya 大和麻弥 Yamato Maya 若宮イヴ Wakamiya Eve 白鷺千聖 Shirasagi Chisato 氷川日菜 Hikawa Hina 前島亜美 Maeshima Ami 中上育美 Nakagami Ikumi 秦佐和子 Hata Sawako 上坂すみれ Uesaka Sumire 小澤亜李 Ozawa Ari
BeatmapID:2100001
BeatmapSetID:1003383

[Difficulty]
HPDrainRate:7
CircleSize:4
OverallDifficulty:8
ApproachRate:9
SliderMultiplier:1.7
SliderTickRate:1

[Events]
//Background and Video events
0,0,"8cf0df45aca962356e31aed1f336582cc5013be3_s2_n2.jpg",0,0
Video,1015,"Mikan.avi"
//Break Periods
2,18128,24746
//Storyboard Layer 0 (Background)
//Storyboard Layer 1 (Fail)
//Storyboard Layer 2 (Pass)
//Storyboard Layer 3 (Foreground)
//Storyboard Layer 4 (Overlay)
//Storyboard Sound Samples

[TimingPoints]
-533,329.67032967033,4,2,1,70,1,0
126,-100,4,2,1,10,0,0
291,-100,4,2,1,30,0,0
456,-100,4,2,1,45,0,0
620,-100,4,2,1,60,0,0
785,-100,4,2,1,75,0,0
950,-100,4,2,1,90,0,0
1115,-100,4,2,1,5,0,0
1774,-66.6666666666667,4,2,1,80,0,0
1815,-66.6666666666667,4,2,1,5,0,0
2104,-100,4,2,1,100,0,0
2434,-100,4,2,1,90,0,0
7049,-80,4,2,2,90,0,0
7296,-80,4,2,2,5,0,0
7379,-100,4,2,1,100,0,0
7873,-100,4,2,1,90,0,0
11994,-100,4,2,2,90,0,0
12159,-100,4,2,1,90,0,0
12488,-66.6666666666667,4,2,1,90,0,0
12653,-100,4,2,1,70,0,0
13972,-100,4,2,1,70,0,0
15291,-80,4,2,1,100,0,0
15373,-80,4,2,1,5,0,0
15456,-80,4,2,1,100,0,0
15868,-80,4,2,1,5,0,0
15950,-80,4,2,1,100,0,0
16362,-80,4,2,1,5,0,0
16445,-80,4,2,1,100,0,0
16857,-80,4,2,1,5,0,0
16939,-80,4,2,1,100,0,0
17351,-80,4,2,1,5,0,0
17434,-80,4,2,1,100,0,0
17516,-80,4,2,1,5,0,0
17598,-80,4,2,1,100,0,0
17681,-80,4,2,1,5,0,0
17763,-80,4,2,1,100,0,0
17846,-80,4,2,1,5,0,0
17928,-80,4,2,1,50,0,0
25346,-133.333333333333,4,2,1,60,0,0
25840,-100,4,2,1,80,0,0
26994,-80,4,2,2,80,0,0
27324,-80,4,2,1,80,0,0
27488,-100,4,2,1,80,0,0
28477,-100,4,2,1,65,0,0
36390,-100,4,2,1,80,0,0
37543,-100,4,2,2,80,0,0
37873,-100,4,2,1,80,0,0
39357,-66.6666666666667,4,2,1,70,0,0
39686,-100,4,2,1,70,0,0
40181,-100,4,2,2,70,0,0
40510,-100,4,2,1,70,0,0
44631,-66.6666666666667,4,2,2,70,0,0
44961,-100,4,2,1,70,0,0
46774,-100,4,2,2,70,0,0
47104,-100,4,2,1,70,0,0
52214,-80,4,2,2,70,0,0
52543,-80,4,2,1,70,0,0
53203,-80,4,2,2,70,0,0
53532,-100,4,2,1,70,0,0
60126,-100,4,2,1,90,0,0
60456,-100,4,2,1,60,0,0
60785,-100,4,2,1,90,0,0
61115,-100,4,2,1,60,0,0
61445,-100,4,2,1,90,0,0
62434,-66.6666666666667,4,2,1,90,0,0
62475,-100,4,2,1,5,0,0
62763,-90.9090909090909,4,2,1,100,0,0
63093,-90.9090909090909,4,2,1,90,0,0
67708,-90.9090909090909,4,2,2,90,0,0
68038,-90.9090909090909,4,2,1,100,0,0
68368,-90.9090909090909,4,2,1,90,0,0
70675,-66.6666666666667,4,2,1,90,0,0
71005,-90.9090909090909,4,2,1,90,0,0
71994,-76.9230769230769,4,2,1,90,0,0
72653,-66.6666666666667,4,2,2,90,0,0
73313,-90.9090909090909,4,2,1,100,0,0
73642,-90.9090909090909,4,2,1,90,0,0
78093,-76.9230769230769,4,2,1,90,0,0
78258,-76.9230769230769,4,2,2,90,0,0
78587,-90.9090909090909,4,2,1,100,0,0
78917,-90.9090909090909,4,2,1,90,0,0
80565,-90.9090909090909,4,2,2,90,0,0
80730,-90.9090909090909,4,2,1,90,0,0
83862,-90.9090909090909,4,2,2,70,0,0
84439,-90.9090909090909,4,2,2,5,0,0
84521,-90.9090909090909,4,2,1,80,0,0
85181,-90.9090909090909,4,2,1,100,0,0
86417,-90.9090909090909,4,2,1,5,0,0
86499,-90.9090909090909,4,2,1,80,0,0
86829,-66.6666666666667,4,2,1,80,0,0
87159,-90.9090909090909,4,2,1,80,0,0
91445,-76.9230769230769,4,2,1,80,0,0
91774,-90.9090909090909,4,2,1,80,0,0
95730,-90.9090909090909,4,2,2,80,0,0
95895,-90.9090909090909,4,2,1,80,0,0
96884,-90.9090909090909,4,2,2,80,0,0
97214,-90.9090909090909,4,2,1,80,0,0
98862,-100,4,2,2,80,0,0
99192,-100,4,2,1,70,0,0
101499,-222.222222222221,4,2,1,80,0,0
102324,-222.222222222221,4,2,1,10,0,0
102488,-222.222222222221,4,2,1,40,0,0
102571,-222.222222222221,4,2,1,50,0,0
102653,-222.222222222221,4,2,1,60,0,0
102736,-222.222222222221,4,2,1,70,0,0
102818,-222.222222222221,4,2,1,80,0,0
102901,-222.222222222221,4,2,1,90,0,0
102983,-500,4,2,1,100,0,0
103642,-222.222222222221,4,2,1,5,0,0

[Colours]
Combo1 : 255,255,255
Combo2 : 255,181,218

[HitObjects]
289,146,1774,6,0,L|281:101,1,31.8750012159348,8|0,3:2|0:0,0:0:0:0:
289,146,2104,6,0,B|195:120|230:214|112:173,1,170,4|10,3:2|0:0,0:0:0:0:
155,84,2598,1,0,0:0:0:0:
0,244,2763,6,0,B|94:218|59:312|177:271,1,170,10|10,0:0|0:0,0:0:0:0:
131,178,3258,1,0,3:0:0:0:
260,326,3423,6,0,P|264:283|263:241,1,85,10|0,0:0|0:0,0:0:0:0:
390,88,3752,2,0,P|385:130|386:172,1,85,10|0,0:0|0:0,0:0:0:0:
510,308,4082,1,10,0:0:0:0:
510,308,4247,2,0,P|444:257|363:274,1,170,0|0,3:0|3:0,0:0:0:0:
157,276,4741,5,10,0:0:0:0:
260,326,4906,2,0,P|264:283|263:241,1,85,0|10,0:0|0:0,0:0:0:0:
493,138,5236,1,0,0:0:0:0:
390,88,5401,2,0,P|385:130|386:172,1,85,10|0,0:0|3:0,0:0:0:0:
155,84,5730,5,10,0:0:0:0:
155,84,5895,2,0,P|234:88|295:20,2,170,0|0|0,3:0|3:0|3:0,0:0:0:0:
0,189,6719,2,0,L|98:175,1,85,10|0,0:0|3:0,0:0:0:0:
200,384,7049,6,0,B|188:326|188:326|211:297|211:297|198:233,1,159.375,12|0,0:0|0:0,0:0:0:0:
179,212,7379,6,0,B|281:227|237:151|349:171,1,170,12|10,0:0|0:0,0:0:0:0:
337,367,7873,1,0,0:0:0:0:
477,314,8038,6,0,B|375:329|419:253|307:273,1,170,10|10,0:0|0:0,0:0:0:0:
410,99,8532,2,0,P|435:140|437:182,1,85,0|10,3:0|0:0,0:0:0:0:
219,277,8862,1,0,0:0:0:0:
292,348,9027,2,0,P|315:312|319:270,1,85,10|0,0:0|0:0,0:0:0:0:
162,196,9357,6,0,L|58:204,1,85,10|0,0:0|3:0,0:0:0:0:
325,92,9686,2,0,L|409:98,1,85,10|0,0:0|0:0,0:0:0:0:
169,13,10016,2,0,L|0:26,2,170,10|10|10,0:0|0:0|0:0,0:0:0:0:
258,168,10840,6,0,P|231:136|222:90,1,85,0|10,3:0|0:0,0:0:0:0:
389,15,11170,2,0,P|416:47|425:88,1,85,0|10,3:0|0:0,0:0:0:0:
325,92,11499,1,0,3:0:0:0:
325,92,11829,1,0,3:0:0:0:
512,188,11994,2,0,L|427:182,1,85,4|8,3:2|0:0,0:0:0:0:
427,182,12241,1,0,0:0:0:0:
427,182,12324,1,8,0:0:0:0:
254,267,12488,2,0,L|317:268,1,63.7500024318696,8|0,0:0|0:0,0:0:0:0:
443,357,12653,1,4,3:2:0:0:
443,357,12983,5,2,0:0:0:0:
443,357,13642,1,2,0:0:0:0:
443,357,14302,1,2,0:0:0:0:
443,357,14961,1,2,0:0:0:0:
443,357,15291,6,0,P|433:330|417:308,1,53.125,12|0,0:1|0:0,0:0:0:0:
317,268,15456,1,0,3:0:0:0:
317,268,15620,1,0,3:0:0:0:
476,192,15785,6,0,P|447:187|420:190,1,53.125,12|0,0:1|0:0,0:0:0:0:
317,268,15950,1,0,3:0:0:0:
317,268,16115,1,0,3:0:0:0:
343,53,16280,6,0,P|324:75|313:100,1,53.125,12|0,0:1|0:0,0:0:0:0:
317,268,16445,1,0,3:0:0:0:
317,268,16609,1,0,3:0:0:0:
145,91,16774,6,0,P|155:118|171:140,1,53.125,12|0,0:1|0:0,0:0:0:0:
317,268,16939,1,0,3:0:0:0:
317,268,17104,1,0,3:0:0:0:
168,137,17269,6,0,P|153:115|145:91,1,53.125,8|0,0:0|0:0,0:0:0:0:
314,96,17434,6,0,P|326:72|344:53,1,53.125,8|0,0:0|0:0,0:0:0:0:
423,189,17598,6,0,P|449:187|476:192,1,53.125,8|0,0:0|0:0,0:0:0:0:
419,310,17763,6,0,P|434:332|443:357,1,53.125,8|0,0:0|0:0,0:0:0:0:
317,268,17928,5,0,3:0:0:0:
317,267,25346,6,0,P|270:308|208:303,1,127.500004863739,0|0,0:0|0:0,0:0:0:0:
208,303,25840,5,8,0:0:0:0:
362,171,26005,2,0,L|449:181,1,85,8|0,0:0|3:0,0:0:0:0:
428,192,26499,5,8,0:0:0:0:
205,65,26664,2,0,L|118:78,1,85,8|0,0:0|3:0,0:0:0:0:
120,77,26994,6,0,B|171:54|171:54|231:103|231:103|263:81|263:81|308:87,1,212.5,4|8,3:2|3:2,0:0:0:0:
416,0,27488,2,0,L|404:84,1,85,8|0,0:0|3:0,0:0:0:0:
399,287,27818,1,0,3:0:0:0:
399,287,28148,5,8,0:0:0:0:
418,254,28230,1,8,0:0:0:0:
413,215,28313,1,8,0:0:0:0:
389,185,28395,1,8,0:0:0:0:
352,175,28477,6,0,P|309:185|256:191,1,85,4|0,3:2|0:0,0:0:0:0:
10,274,28807,2,0,P|52:279|93:289,1,85,8|0,0:0|0:0,0:0:0:0:
232,331,29137,1,2,3:1:0:0:
76,191,29302,1,0,3:0:0:0:
138,372,29467,1,8,0:0:0:0:
321,288,29631,6,0,P|261:231|180:245,1,170,0|0,0:0|0:0,0:0:0:0:
50,110,30126,2,0,P|65:149|75:190,1,85,8|0,0:0|0:0,0:0:0:0:
228,0,30456,1,2,3:1:0:0:
159,121,30620,1,0,3:0:0:0:
339,166,30785,2,0,P|383:155|432:154,1,85,8|0,0:0|3:0,0:0:0:0:
249,220,31115,5,2,3:1:0:0:
316,61,31280,1,0,0:0:0:0:
330,278,31445,2,0,P|246:265|161:262,1,170,8|2,0:0|3:1,0:0:0:0:
284,364,31939,1,0,3:0:0:0:
423,244,32104,2,0,P|430:285|433:328,1,85,8|0,0:0|0:0,0:0:0:0:
503,174,32434,6,0,P|498:94|416:56,2,170,2|8|2,3:1|0:0|3:1,0:0:0:0:
338,254,33258,1,0,3:0:0:0:
338,254,33423,2,0,P|383:246|432:244,1,85,8|8,0:0|0:0,0:0:0:0:
240,198,33752,5,4,3:2:0:0:
380,145,33917,1,0,0:0:0:0:
156,75,34082,1,8,0:0:0:0:
237,222,34247,2,0,P|277:149|269:64,1,170,0|0,0:0|3:0,0:0:0:0:
125,215,34741,5,8,0:0:0:0:
125,215,34906,2,0,P|135:306|140:398,1,170,0|0,0:0|0:0,0:0:0:0:
31,268,35401,1,8,0:0:0:0:
235,351,35565,2,0,P|276:345|316:320,1,85,0|0,0:0|0:0,0:0:0:0:
456,189,35895,1,0,3:0:0:0:
456,189,36060,2,0,P|414:182|378:160,1,85,8|0,0:0|3:0,0:0:0:0:
125,215,36390,5,12,0:1:0:0:
224,64,36554,2,0,L|213:149,1,85,8|0,0:1|3:0,0:0:0:0:
213,148,37049,5,12,0:1:0:0:
113,299,37214,2,0,L|124:214,1,85,8|0,0:1|3:0,0:0:0:0:
312,322,37543,6,0,P|394:326|459:274,1,170,4|0,3:2|3:0,0:0:0:0:
512,175,38038,2,0,P|469:171|427:163,1,85,8|4,0:0|3:0,0:0:0:0:
300,119,38368,1,2,3:0:0:0:
419,0,38532,1,8,0:0:0:0:
338,222,38697,5,8,0:0:0:0:
300,232,38780,1,8,0:0:0:0:
262,224,38862,1,8,0:0:0:0:
229,203,38945,1,8,0:0:0:0:
204,174,39027,6,0,P|203:134|209:77,1,85,4|0,3:2|0:0,0:0:0:0:
207,89,39357,6,0,B|223:132|223:132|191:172|191:172|199:218|199:218|197:274,1,191.250007295609,10|0,0:0|0:0,0:0:0:0:
197,265,39686,1,2,3:2:0:0:
86,209,39851,2,0,P|57:193|6:190,1,85,0|10,3:0|0:0,0:0:0:0:
182,374,40181,6,0,B|289:379|244:309|357:326,1,170,4|0,3:2|3:0,0:0:0:0:
501,233,40675,1,10,0:0:0:0:
302,159,40840,1,0,0:0:0:0:
441,382,41005,2,0,L|432:297,1,85,2|0,3:2|3:0,0:0:0:0:
389,105,41335,1,10,0:0:0:0:
237,238,41499,6,0,P|317:254|383:204,1,170,4|0,3:2|3:0,0:0:0:0:
476,62,41994,5,8,0:0:0:0:
321,46,42159,1,8,0:3:0:0:
321,46,42241,1,4,0:3:0:0:
321,46,42324,1,2,0:3:0:0:
209,80,42488,1,2,0:3:0:0:
155,155,42653,1,8,0:0:0:0:
151,238,42818,6,0,P|67:244|-10:174,1,170,4|0,3:2|3:0,0:0:0:0:
121,71,43313,5,8,0:0:0:0:
252,173,43477,1,8,0:3:0:0:
252,173,43560,1,4,0:3:0:0:
252,173,43642,1,2,0:3:0:0:
290,265,43807,1,2,0:3:0:0:
263,354,43972,1,8,0:0:0:0:
383,272,44137,5,8,0:0:0:0:
383,272,44219,1,8,0:0:0:0:
383,272,44302,2,0,L|492:260,1,85,0|0,3:0|0:0,0:0:0:0:
467,262,44631,6,0,B|429:257|403:250|403:250|355:282|355:282|326:264|265:264,1,191.250007295609,12|0,0:0|0:0,0:0:0:0:
289,264,44961,1,2,3:2:0:0:
142,381,45126,2,0,P|104:371|47:367,1,85,0|10,3:0|0:0,0:0:0:0:
257,358,45456,6,0,P|255:276|186:232,1,170,4|0,3:2|3:0,0:0:0:0:
42,71,45950,1,10,0:0:0:0:
188,133,46115,1,0,0:0:0:0:
75,255,46280,2,0,P|78:214|86:161,1,85,2|0,3:2|3:0,0:0:0:0:
147,35,46609,1,10,0:0:0:0:
317,69,46774,6,0,P|269:134|187:132,1,170,4|0,3:2|3:0,0:0:0:0:
75,255,47269,5,8,0:0:0:0:
168,224,47434,1,8,0:3:0:0:
168,224,47516,1,4,0:3:0:0:
168,224,47598,1,2,0:3:0:0:
283,255,47763,1,2,0:3:0:0:
369,374,47928,1,8,0:0:0:0:
469,343,48093,6,0,P|513:272|485:191,1,170,4|0,3:2|3:0,0:0:0:0:
329,169,48587,5,8,0:0:0:0:
283,255,48752,1,8,0:3:0:0:
283,255,48835,1,4,0:3:0:0:
283,255,48917,1,2,0:3:0:0:
156,296,49082,1,2,0:3:0:0:
14,227,49247,1,8,0:0:0:0:
99,133,49412,5,8,0:0:0:0:
99,133,49494,1,8,0:0:0:0:
99,133,49576,2,0,P|111:169|115:217,1,85,4|0,3:2|0:0,0:0:0:0:
2,108,49906,2,0,B|109:120|52:45|177:65,1,170,10|2,0:0|3:2,0:0:0:0:
365,191,50401,1,0,3:0:0:0:
197,152,50565,2,0,P|240:150|293:139,1,85,10|0,0:0|0:0,0:0:0:0:
452,233,50895,5,2,3:2:0:0:
452,233,51225,2,0,P|438:278|433:328,1,85,10|0,0:0|0:0,0:0:0:0:
281,142,51554,2,0,P|291:105|297:41,1,85,2|0,3:2|3:0,0:0:0:0:
512,157,51884,2,0,P|479:138|432:137,1,85,10|0,0:0|0:0,0:0:0:0:
221,247,52214,6,0,P|142:246|72:209,1,159.375,4|0,3:2|0:0,0:0:0:0:
72,209,52543,1,8,0:0:0:0:
319,263,52708,6,0,P|243:283|192:342,1,159.375,4|0,3:2|0:0,0:0:0:0:
192,342,53038,1,8,0:0:0:0:
405,322,53203,6,0,P|338:242|351:140,1,212.5,4|2,3:2|0:3,0:0:0:0:
413,49,53697,5,4,0:3:0:0:
508,197,53862,1,8,0:0:0:0:
413,49,54027,2,0,L|437:-2,2,42.5,8|8|8,0:0|0:0|0:0,0:0:0:0:
350,140,54357,1,0,3:0:0:0:
215,47,54521,1,8,0:0:0:0:
168,37,54604,1,0,3:0:0:0:
123,48,54686,1,0,3:0:0:0:
90,81,54769,1,0,3:0:0:0:
83,127,54851,6,0,P|40:119|-16:115,1,85,4|0,3:2|0:0,0:0:0:0:
215,47,55181,1,10,0:0:0:0:
196,241,55346,2,0,P|186:199|188:157,1,85,0|2,0:0|3:2,0:0:0:0:
358,39,55675,1,0,3:0:0:0:
293,196,55840,1,10,0:0:0:0:
504,205,56005,6,0,P|455:138|373:134,1,170,0|0,0:0|0:0,0:0:0:0:
281,303,56499,2,0,P|321:291|363:283,1,85,10|0,0:0|0:0,0:0:0:0:
187,365,56829,1,2,3:2:0:0:
293,196,56994,1,0,3:0:0:0:
187,365,57159,2,0,P|142:356|82:351,1,85,10|0,0:0|0:0,0:0:0:0:
0,187,57488,6,0,P|81:182|129:248,1,170,2|10,3:2|0:0,0:0:0:0:
129,248,57983,1,0,0:0:0:0:
172,124,58148,2,0,P|173:81|178:39,1,85,2|0,3:2|3:0,0:0:0:0:
68,78,58477,1,10,0:0:0:0:
272,172,58642,6,0,P|315:171|351:149,1,85,0|2,3:0|0:0,0:0:0:0:
129,248,58972,2,0,P|86:246|50:224,1,85,0|10,3:0|0:0,0:0:0:0:
248,384,59302,1,0,0:0:0:0:
248,384,59467,2,0,P|260:352|266:295,1,85,2|0,3:2|3:2,0:0:0:0:
433,221,59796,2,0,P|483:255|477:315,1,127.5,10|0,0:0|0:0,0:0:0:0:
477,315,60126,5,8,0:0:0:0:
350,149,60291,1,8,0:0:0:0:
359,133,60785,5,8,0:0:0:0:
266,301,60950,1,8,0:0:0:0:
273,317,61445,5,12,0:2:0:0:
220,193,61609,1,8,0:0:0:0:
220,193,62434,6,0,L|221:147,1,31.8750012159348,8|0,0:0|0:0,0:0:0:0:
220,193,62763,6,0,B|118:159|139:248|41:219,1,187.000005706787,4|10,3:2|0:0,0:0:0:0:
71,117,63258,1,0,0:0:0:0:
193,291,63423,2,0,P|285:279|379:273,1,187.000005706787,10|10,0:0|0:0,0:0:0:0:
462,202,63917,1,0,3:0:0:0:
462,202,63999,1,0,3:0:0:0:
462,202,64082,5,10,0:0:0:0:
352,363,64247,1,0,0:0:0:0:
481,300,64412,1,10,0:0:0:0:
271,247,64576,1,0,0:0:0:0:
430,96,64741,1,10,0:0:0:0:
379,273,64906,2,0,P|366:238|359:175,1,93.5000028533936,0|10,3:0|0:0,0:0:0:0:
512,70,65236,1,0,3:0:0:0:
512,70,65318,1,0,3:0:0:0:
512,70,65401,6,0,P|481:95|423:93,1,93.5000028533936,4|0,3:2|0:0,0:0:0:0:
169,132,65730,2,0,P|214:138|273:142,1,93.5000028533936,10|0,0:0|0:0,0:0:0:0:
455,218,66060,1,10,0:0:0:0:
271,247,66225,1,0,3:0:0:0:
339,82,66390,1,10,0:0:0:0:
473,242,66554,6,0,P|424:235|362:234,1,93.5000028533936,0|10,3:0|0:0,0:0:0:0:
161,286,66884,2,0,P|251:277|321:336,1,187.000005706787,0|0,3:0|3:0,0:0:0:0:
215,384,67379,1,10,0:0:0:0:
25,305,67543,1,0,3:0:0:0:
215,170,67708,1,12,0:0:0:0:
120,384,67873,1,0,3:0:0:0:
120,384,67956,1,0,3:0:0:0:
120,384,68038,6,0,P|116:319|117:184,1,187.000005706787,4|10,3:2|0:0,0:0:0:0:
230,66,68532,1,0,0:0:0:0:
0,16,68697,2,0,P|45:94|135:102,1,187.000005706787,10|10,0:0|0:0,0:0:0:0:
327,40,69192,1,0,3:0:0:0:
327,40,69274,1,0,3:0:0:0:
327,40,69357,5,10,0:0:0:0:
396,138,69521,1,0,0:0:0:0:
478,13,69686,1,10,0:0:0:0:
438,218,69851,1,0,0:0:0:0:
288,148,70016,1,10,0:0:0:0:
504,100,70181,1,0,3:0:0:0:
306,254,70346,2,0,P|259:248|214:236,1,93.5000028533936,10|0,0:0|3:0,0:0:0:0:
457,321,70675,6,0,B|342:296|392:387|260:354,1,191.250007295609,4|0,3:2|0:0,0:0:0:0:
278,358,71005,1,10,0:0:0:0:
24,203,71170,2,0,P|40:260|47:306,1,93.5000028533936,0|10,0:0|0:0,0:0:0:0:
174,384,71499,2,0,P|161:339|152:293,1,93.5000028533936,0|10,3:0|0:0,0:0:0:0:
242,173,71829,1,0,3:0:0:0:
242,173,71994,6,0,P|210:184|175:191,1,55.2499974708558,10|0,0:0|0:0,0:0:0:0:
77,74,72159,2,0,P|103:83|131:88,1,55.2499974708558,0|0,3:0|0:0,0:0:0:0:
316,259,72324,6,0,P|288:262|262:270,1,55.2499974708558,10|0,0:0|0:0,0:0:0:0:
215,33,72488,2,0,P|240:42|268:47,1,55.2499974708558,0|0,3:0|0:0,0:0:0:0:
400,319,72653,6,0,P|402:290|413:246,1,63.7500024318696,12|0,0:0|0:0,0:0:0:0:
434,97,72818,2,0,P|421:80|400:44,1,63.7500024318696,8|0,0:0|0:0,0:0:0:0:
256,170,72983,2,0,P|291:167|337:150,1,63.7500024318696,8|0,0:0|0:0,0:0:0:0:
479,193,73148,1,8,0:0:0:0:
479,193,73230,1,8,0:0:0:0:
479,193,73313,6,0,B|366:173|431:270|287:257,1,187.000005706787,4|10,3:2|0:0,0:0:0:0:
79,329,73807,1,0,0:0:0:0:
166,381,73972,2,0,P|210:300|206:208,1,187.000005706787,10|10,0:0|0:0,0:0:0:0:
125,142,74467,1,0,3:0:0:0:
125,142,74549,1,0,3:0:0:0:
125,142,74631,5,10,0:0:0:0:
263,63,74796,1,0,0:0:0:0:
118,241,74961,1,10,0:0:0:0:
315,258,75126,1,0,0:0:0:0:
99,144,75291,1,10,0:0:0:0:
284,49,75456,2,0,P|275:94|271:141,1,93.5000028533936,0|10,3:0|0:0,0:0:0:0:
2,109,75785,6,0,P|63:44|150:66,1,187.000005706787,0|0,3:0|0:0,0:0:0:0:
276,168,76280,2,0,P|321:157|367:150,1,93.5000028533936,10|0,0:0|0:0,0:0:0:0:
466,107,76609,1,10,0:0:0:0:
337,257,76774,1,0,3:0:0:0:
376,45,76939,1,10,0:0:0:0:
512,215,77104,6,0,P|464:219|409:227,1,93.5000028533936,0|10,3:0|0:0,0:0:0:0:
187,305,77434,2,0,B|299:283|246:374|371:355,1,187.000005706787,0|0,3:0|3:0,0:0:0:0:
367,150,77928,1,10,0:0:0:0:
367,150,78093,6,0,P|331:144|292:131,1,55.2499974708558,0|0,0:0|0:0,0:0:0:0:
241,295,78258,2,0,P|210:297|170:312,1,55.2499974708558,12|0,0:0|0:0,0:0:0:0:
106,216,78423,2,0,P|78:214|51:208,1,55.2499974708558,0|0,3:0|0:0,0:0:0:0:
282,44,78587,6,0,P|213:102|219:192,1,187.000005706787,4|10,3:2|0:0,0:0:0:0:
282,44,79082,1,0,0:0:0:0:
312,138,79247,2,0,P|405:125|499:125,1,187.000005706787,10|10,0:0|0:0,0:0:0:0:
404,312,79741,1,0,3:0:0:0:
404,312,79824,1,0,3:0:0:0:
404,312,79906,5,10,0:0:0:0:
512,230,80071,1,0,3:0:0:0:
302,267,80236,2,0,P|296:315|296:367,1,93.5000028533936,10|0,0:0|3:0,0:0:0:0:
362,182,80565,1,4,3:2:0:0:
362,182,80730,2,0,P|272:166|204:224,1,187.000005706787,8|8,0:0|0:0,0:0:0:0:
115,384,81225,5,0,3:0:0:0:
13,271,81390,2,0,P|59:277|105:277,1,93.5000028533936,0|10,0:0|0:0,0:0:0:0:
152,132,81719,1,0,0:0:0:0:
296,229,81884,2,0,P|249:230|203:223,1,93.5000028533936,0|0,3:0|3:0,0:0:0:0:
58,167,82214,1,10,0:0:0:0:
260,121,82379,1,0,3:0:0:0:
260,121,82461,1,0,3:0:0:0:
260,121,82543,1,4,3:2:0:0:
260,121,82873,5,10,0:0:0:0:
138,42,83038,1,0,0:0:0:0:
197,206,83203,1,0,3:0:0:0:
331,55,83368,1,0,3:0:0:0:
103,173,83532,1,10,0:0:0:0:
299,240,83697,1,0,0:0:0:0:
41,346,83862,1,4,3:2:0:0:
41,346,84521,5,0,0:0:0:0:
152,255,84686,1,0,3:0:0:0:
290,304,84851,1,12,0:0:0:0:
290,304,85181,5,12,0:1:0:0:
363,215,85346,2,0,P|376:170|378:123,1,93.5000028533936,0|0,3:0|3:0,0:0:0:0:
290,304,85675,1,12,0:1:0:0:
487,130,85840,2,0,P|481:83|457:41,1,93.5000028533936,0|0,3:0|3:0,0:0:0:0:
273,155,86170,2,0,P|216:115|147:119,1,140.25000428009,12|0,0:1|0:0,0:0:0:0:
123,142,86499,6,0,P|88:160|19:157,1,93.5000028533936,12|0,0:0|0:0,0:0:0:0:
34,161,86829,6,0,B|57:136|93:135|93:135|130:204|203:194,1,191.250007295609,10|0,0:0|0:0,0:0:0:0:
193,194,87159,1,10,0:0:0:0:
404,42,87324,1,0,3:0:0:0:
307,74,87488,2,0,P|297:119|293:166,1,93.5000028533936,10|0,0:0|3:0,0:0:0:0:
494,237,87818,6,0,P|458:230|390:223,1,93.5000028533936,10|0,0:0|0:0,0:0:0:0:
134,344,88148,2,0,P|184:343|245:338,1,93.5000028533936,10|0,0:0|0:0,0:0:0:0:
428,335,88477,2,0,P|401:272|288:261,1,187.000005706787,10|10,0:0|0:0,0:0:0:0:
428,335,88972,1,0,3:0:0:0:
496,120,89137,5,10,0:0:0:0:
496,120,89467,2,0,P|485:67|483:15,1,93.5000028533936,10|0,0:0|0:0,0:0:0:0:
289,254,89796,2,0,P|299:208|302:161,1,93.5000028533936,10|0,0:0|3:0,0:0:0:0:
512,331,90126,2,0,P|505:289|500:231,1,93.5000028533936,10|0,0:0|3:0,0:0:0:0:
264,384,90456,5,10,0:0:0:0:
399,277,90620,1,0,3:0:0:0:
192,306,90785,2,0,P|111:282|11:269,1,140.25000428009,10|0,0:0|0:0,0:0:0:0:
31,247,91115,2,0,P|84:237|127:222,1,93.5000028533936,10|0,0:0|3:0,0:0:0:0:
316,215,91445,6,0,P|309:193|300:146,1,55.2499974708558,10|0,0:0|0:0,0:0:0:0:
141,128,91609,2,0,P|151:104|161:66,1,55.2499974708558,0|0,3:0|0:0,0:0:0:0:
244,0,91774,1,10,0:0:0:0:
244,0,92104,6,0,P|245:58|251:108,1,93.5000028533936,12|0,0:0|0:0,0:0:0:0:
493,139,92434,2,0,P|437:60|349:76,1,187.000005706787,10|10,0:0|0:0,0:0:0:0:
379,263,92928,1,0,3:0:0:0:
210,195,93093,6,0,P|257:195|318:186,1,93.5000028533936,10|0,0:0|3:0,0:0:0:0:
118,359,93423,2,0,P|164:353|211:353,1,93.5000028533936,10|0,0:0|3:0,0:0:0:0:
431,347,93752,1,12,0:0:0:0:
289,293,93917,1,8,0:0:0:0:
289,293,93999,1,8,0:0:0:0:
289,293,94082,1,10,0:0:0:0:
431,176,94247,1,8,0:0:0:0:
411,366,94412,6,0,P|403:312|402:273,1,93.5000028533936,4|0,3:2|3:0,0:0:0:0:
494,91,94741,2,0,P|421:146|329:147,1,187.000005706787,10|0,0:0|3:2,0:0:0:0:
121,93,95236,1,0,3:0:0:0:
213,159,95401,2,0,P|239:198|244:248,1,93.5000028533936,10|0,0:0|0:0,0:0:0:0:
187,373,95730,5,4,3:2:0:0:
25,301,95895,1,0,0:0:0:0:
25,301,96060,2,0,L|125:294,1,93.5000028533936,10|0,0:0|0:0,0:0:0:0:
365,340,96390,1,0,3:0:0:0:
244,243,96554,1,0,3:0:0:0:
205,384,96719,1,10,0:0:0:0:
329,201,96884,1,4,3:2:0:0:
329,201,97214,5,8,0:0:0:0:
329,201,97296,1,8,0:0:0:0:
329,201,97379,1,8,0:0:0:0:
367,327,97543,1,8,0:3:0:0:
409,112,97708,1,4,0:3:0:0:
512,286,97873,1,4,3:2:0:0:
512,286,98203,5,8,0:0:0:0:
512,286,98285,1,8,0:0:0:0:
512,286,98368,1,8,0:0:0:0:
332,224,98532,1,4,0:3:0:0:
501,156,98697,1,2,0:3:0:0:
367,327,98862,6,0,P|282:317|197:317,1,170,4|0,3:2|3:0,0:0:0:0:
105,127,99357,1,10,0:0:0:0:
105,127,99686,1,0,3:0:0:0:
8,182,99851,2,0,P|70:234|172:210,1,170,0|0,3:0|0:0,0:0:0:0:
274,116,100346,6,0,P|189:120|74:130,2,170,4|10|0,3:2|0:0|3:0,0:0:0:0:
430,242,101170,1,0,3:0:0:0:
353,48,101335,1,10,0:0:0:0:
249,216,101499,6,0,B|378:234|324:118|450:141,1,229.499992996216,4|2,3:2|0:1,0:0:0:0:
465,157,102571,1,2,0:1:0:0:
440,152,102653,1,2,0:1:0:0:
423,133,102736,1,2,0:1:0:0:
422,108,102818,1,2,0:1:0:0:
434,86,102901,1,2,0:1:0:0:
453,71,102983,6,0,P|489:76|526:81,1,68,4|0,3:2|0:0,0:0:0:0:
