osu file format v14

[General]
AudioFilename: audio.mp3
AudioLeadIn: 0
PreviewTime: 61306
Countdown: 0
SampleSet: Soft
StackLeniency: 0.7
Mode: 0
LetterboxInBreaks: 0
EpilepsyWarning: 1
WidescreenStoryboard: 1

[Editor]
Bookmarks: 4235,15595,26956,38317,49678,62459,73820,88021,99382,110743
DistanceSpacing: 1
BeatDivisor: 2
GridSize: 4
TimelineZoom: 1

[Metadata]
Title:Luminous Once More
TitleUnicode:もういちどルミナス
Artist:Pastel*Palettes
ArtistUnicode:Pastel*Palettes
Creator:midorijeon
Version:Radiant
Source:バンドリ! ガールズバンドパーティ!
Tags:Mou Ichido BanG Dream! Girls Band Party! Bandori パステル パレット Pasupare パスパレ Aya Maruyama 丸山 彩 Maeshima Ami 前島亜美 Hikawa Hina 氷川 日菜 Ozawa Ari 小澤 亜李 Chisato Shirasagi 白鷺 千聖 Uesaka Sumire 上坂 すみれ Maya Yamato 大和 麻弥 Nakagami Ikumi 中上 育実 Eve Wakamiya 若宮 イヴ Hata Sawako 秦 佐和子 Video Game Anime Pop Jpop J-Pop Japanese Ayesha Altugle Shizuku- Kazato Asa Shikibe Mayu Liyuu Aquivery Rielle Asagi
BeatmapID:3880249
BeatmapSetID:1884593

[Difficulty]
HPDrainRate:5
CircleSize:4.3
OverallDifficulty:8.8
ApproachRate:9
SliderMultiplier:1.9
SliderTickRate:1

[Events]
//Background and Video events
0,0,"1.jpg",0,0
//Break Periods
//Storyboard Layer 0 (Background)
Sprite,Background,Centre,"1.jpg",0,0 M,0,0,,320,240 F,0,0,,0 S,0,0,,0.7 R,10,0,,0 F,0,4235,,1 S,10,4235,7075,0.9,0.7 R,10,4235,7075,0.1,0 S,10,26956,29797,0.9,0.7 M,0,26956,49678,320,200,320,240 S,10,55359,58199,0.9,0.7 S,9,59619,61394,0.7,0.9 F,13,61039,61394,1,0 F,0,88021,,1 S,10,88021,90861,0.9,0.7 R,10,88021,90861,0.1,0 S,9,107902,110742,0.7,0.9 S,10,110742,114293,0.9,0.7 R,10,110742,114293,0.1,0 F,13,113405,114293,1,0
Sprite,Background,Centre,"1.jpg",0,0 F,0,62459,,0,1 M,17,62459,63879,320,240,320.4525,240.6346 R,17,62459,63879,0,0.01072091 S,10,62459,67538,0.9,0.7 M,17,63879,65299,320.4525,240.6346,321.4525,234.6346 R,17,63879,65299,0.01072091,0.0218986 M,17,65299,66719,321.4525,234.6346,329.4525,232.6346 R,17,65299,66719,0.0218986,0.002347608 M,17,66719,68139,329.4525,232.6346,324.4525,227.6346 R,17,66719,68139,0.002347608,0.0116939 M,17,68139,69559,324.4525,227.6346,326.4525,226.6346 R,17,68139,69559,0.0116939,-0.007949122 M,17,69559,70979,326.4525,226.6346,316.4525,233.6346 R,17,69559,70979,-0.007949122,0.01195782 M,17,70979,72399,316.4525,233.6346,319.4525,229.6346 R,17,70979,72399,0.01195782,-0.004380339 M,17,72399,73819,319.4525,229.6346,325.4525,238.6346 R,17,72399,73819,-0.004380339,-0.003727835 M,17,73819,75240,325.4525,238.6346,328.4525,238.6346 R,17,73819,75240,-0.003727835,-0.02240821 M,17,75240,76660,328.4525,238.6346,331.4525,238.6346 R,17,75240,76660,-0.02240821,-0.02078601 M,17,76660,78080,331.4525,238.6346,324.4525,237.6346 R,17,76660,78080,-0.02078601,-0.02672945 M,17,78080,79500,324.4525,237.6346,333.4525,239.6346 R,17,78080,79500,-0.02672945,-0.01147018 M,17,79500,80920,333.4525,239.6346,323.4525,236.6346 R,17,79500,80920,-0.01147018,-0.01833301 M,17,80920,82340,323.4525,236.6346,332.4525,236.6346 R,17,80920,82340,-0.01833301,-0.004013562 M,17,82340,83760,332.4525,236.6346,324.4525,231.6346 R,17,82340,83760,-0.004013562,-0.02215552 M,17,83760,85180,324.4525,231.6346,329.4525,227.6346 R,17,83760,85180,-0.02215552,-0.01301134 M,17,85180,86601,329.4525,227.6346,321.4525,221.6346 R,17,85180,86601,-0.01301134,-0.02121281 M,17,86601,88021,321.4525,221.6346,325.4525,223.6346 R,17,86601,88021,-0.02121281,-0.01145345 F,0,88021,,1,0
Sprite,Background,Centre,"SB\1A.png",0,0 M,0,0,,320,240 F,0,0,,0 S,0,0,,0.7 R,10,0,,0 F,0,4235,,1 S,10,4235,7075,0.9,0.7 R,10,4235,7075,0.1,0 S,10,26956,29797,0.9,0.7 M,0,26956,49678,320,200,320,240 S,10,55359,58199,0.9,0.7 S,9,59619,61394,0.7,0.9 F,13,61039,61394,1,0 F,0,88021,,1 S,10,88021,90861,0.9,0.7 R,10,88021,90861,0.1,0 S,9,107902,110742,0.7,0.9 S,10,110742,114293,0.9,0.7 R,10,110742,114293,0.1,0 F,13,113405,114293,1,0
Sprite,Background,Centre,"sb\g.png",0,0 L,62459,5 F,1,0,852,0,0.4036265 M,1,0,4260,208.65,126.4521,208.65,86.45215 F,2,3408,4260,0.4036265,0 S,0,62459,,0.6 R,0,62459,,4.712389 C,0,62459,,243,243,243 P,0,62459,83760,A
Sprite,Background,Centre,"sb\g.png",0,0 L,62695,5 F,1,0,852,0,0.4036265 M,1,0,4260,489.5993,476.9894,489.5993,436.9894 F,2,3408,4260,0.4036265,0 S,0,62695,,0.6 R,0,62695,,4.712389 C,0,62695,,201,201,201 P,0,62695,83996,A
Sprite,Background,Centre,"sb\g.png",0,0 L,62814,5 F,1,0,852,0,0.4036265 M,1,0,4260,177.6272,208.3459,177.6272,168.3459 F,2,3408,4260,0.4036265,0 S,0,62814,,0.6 R,0,62814,,4.712389 C,0,62814,,211,211,211 P,0,62814,84115,A
Sprite,Background,Centre,"sb\g.png",0,0 L,62932,5 F,1,0,852,0,0.4036265 M,1,0,4260,286.1434,261.6891,286.1434,221.6891 F,2,3408,4260,0.4036265,0 S,0,62932,,0.6 R,0,62932,,4.712389 C,0,62932,,230,230,230 P,0,62932,84233,A
Sprite,Background,Centre,"sb\g.png",0,0 L,63050,5 F,1,0,852,0,0.4036265 M,1,0,4260,345.8347,552.8532,345.8347,512.8532 F,2,3408,4260,0.4036265,0 S,0,63050,,0.6 R,0,63050,,4.712389 C,0,63050,,217,217,217 P,0,63050,84351,A
Sprite,Background,Centre,"sb\g.png",0,0 L,63169,5 F,1,0,852,0,0.4036265 M,1,0,4260,23.90277,250.3161,23.90277,210.3161 F,2,3408,4260,0.4036265,0 S,0,63169,,0.6 R,0,63169,,4.712389 C,0,63169,,183,183,183 P,0,63169,84470,A
Sprite,Background,Centre,"sb\g.png",0,0 L,63287,5 F,1,0,852,0,0.4036265 M,1,0,4260,40.62646,366.7656,40.62646,326.7656 F,2,3408,4260,0.4036265,0 S,0,63287,,0.6 R,0,63287,,4.712389 C,0,63287,,236,236,236 P,0,63287,84588,A
Sprite,Background,Centre,"sb\g.png",0,0 L,63405,5 F,1,0,852,0,0.4036265 M,1,0,4260,692.1967,430.5067,692.1967,390.5067 F,2,3408,4260,0.4036265,0 S,0,63405,,0.6 R,0,63405,,4.712389 C,0,63405,,204,204,204 P,0,63405,84706,A
Sprite,Background,Centre,"sb\g.png",0,0 L,63524,5 F,1,0,852,0,0.4036265 M,1,0,4260,517.9731,419.0748,517.9731,379.0748 F,2,3408,4260,0.4036265,0 S,0,63524,,0.6 R,0,63524,,4.712389 C,0,63524,,221,221,221 P,0,63524,84825,A
Sprite,Background,Centre,"sb\g.png",0,0 L,63642,5 F,1,0,852,0,0.4036265 M,1,0,4260,695.4996,327.1971,695.4996,287.1971 F,2,3408,4260,0.4036265,0 S,0,63642,,0.6 R,0,63642,,4.712389 C,0,63642,,233,233,233 P,0,63642,84943,A
Sprite,Background,Centre,"sb\g.png",0,0 L,63760,5 F,1,0,852,0,0.4036265 M,1,0,4260,150.3521,406.1547,150.3521,366.1547 F,2,3408,4260,0.4036265,0 S,0,63760,,0.6 R,0,63760,,4.712389 C,0,63760,,208,208,208 P,0,63760,85061,A
Sprite,Background,Centre,"sb\g.png",0,0 L,63879,5 F,1,0,852,0,0.4036265 M,1,0,4260,20.9292,502.3984,20.9292,462.3984 F,2,3408,4260,0.4036265,0 S,0,63879,,0.6 R,0,63879,,4.712389 C,0,63879,,236,236,236 P,0,63879,85180,A
Sprite,Background,Centre,"sb\g.png",0,0 L,64352,5 F,1,0,852,0,0.4036265 M,1,0,4260,-39.91846,295.9913,-39.91846,255.9913 F,2,3408,4260,0.4036265,0 S,0,64352,,0.6 R,0,64352,,4.712389 C,0,64352,,232,232,232 P,0,64352,85653,A
Sprite,Background,Centre,"sb\g.png",0,0 L,64470,5 F,1,0,852,0,0.4036265 M,1,0,4260,371.696,73.36139,371.696,33.36139 F,2,3408,4260,0.4036265,0 S,0,64470,,0.6 R,0,64470,,4.712389 C,0,64470,,202,202,202 P,0,64470,85771,A
Sprite,Background,Centre,"sb\g.png",0,0 L,64589,5 F,1,0,852,0,0.4036265 M,1,0,4260,80.57216,232.1127,80.57216,192.1127 F,2,3408,4260,0.4036265,0 S,0,64589,,0.6 R,0,64589,,4.712389 C,0,64589,,202,202,202 P,0,64589,85890,A
Sprite,Background,Centre,"sb\g.png",0,0 L,64707,5 F,1,0,852,0,0.4036265 M,1,0,4260,138.1017,301.9816,138.1017,261.9816 F,2,3408,4260,0.4036265,0 S,0,64707,,0.6 R,0,64707,,4.712389 C,0,64707,,199,199,199 P,0,64707,86008,A
Sprite,Background,Centre,"sb\g.png",0,0 L,64944,5 F,1,0,852,0,0.4036265 M,1,0,4260,199.5789,121.9077,199.5789,81.90765 F,2,3408,4260,0.4036265,0 S,0,64944,,0.6 R,0,64944,,4.712389 C,0,64944,,230,230,230 P,0,64944,86245,A
Sprite,Background,Centre,"sb\g.png",0,0 L,65180,5 F,1,0,852,0,0.4036265 M,1,0,4260,139.4949,491.7273,139.4949,451.7273 F,2,3408,4260,0.4036265,0 S,0,65180,,0.6 R,0,65180,,4.712389 C,0,65180,,235,235,235 P,0,65180,86481,A
Sprite,Background,Centre,"sb\g.png",0,0 L,65299,5 F,1,0,852,0,0.4036265 M,1,0,4260,379.2807,498.9927,379.2807,458.9927 F,2,3408,4260,0.4036265,0 S,0,65299,,0.6 R,0,65299,,4.712389 C,0,65299,,206,206,206 P,0,65299,86600,A
Sprite,Background,Centre,"sb\g.png",0,0 L,65417,5 F,1,0,852,0,0.4036265 M,1,0,4260,436.7942,129.5965,436.7942,89.59653 F,2,3408,4260,0.4036265,0 S,0,65417,,0.6 R,0,65417,,4.712389 C,0,65417,,167,167,167 P,0,65417,86718,A
Sprite,Background,Centre,"sb\g.png",0,0 L,65535,5 F,1,0,852,0,0.4036265 M,1,0,4260,290.0044,166.2488,290.0044,126.2488 F,2,3408,4260,0.4036265,0 S,0,65535,,0.6 R,0,65535,,4.712389 C,0,65535,,203,203,203 P,0,65535,86836,A
Sprite,Background,Centre,"sb\g.png",0,0 L,65890,5 F,1,0,852,0,0.4036265 M,1,0,4260,424.3096,249.4642,424.3096,209.4642 F,2,3408,4260,0.4036265,0 S,0,65890,,0.6 R,0,65890,,4.712389 C,0,65890,,186,186,186 P,0,65890,87191,A
Sprite,Background,Centre,"sb\g.png",0,0 L,66009,5 F,1,0,852,0,0.4036265 M,1,0,4260,-90.65295,479.1814,-90.65295,439.1814 F,2,3408,4260,0.4036265,0 S,0,66009,,0.6 R,0,66009,,4.712389 C,0,66009,,212,212,212 P,0,66009,87310,A
Sprite,Background,Centre,"sb\g.png",0,0 L,66127,5 F,1,0,852,0,0.4036265 M,1,0,4260,330.3697,242.2579,330.3697,202.2579 F,2,3408,4260,0.4036265,0 S,0,66127,,0.6 R,0,66127,,4.712389 C,0,66127,,187,187,187 P,0,66127,87428,A
Sprite,Background,Centre,"sb\g.png",0,0 L,66364,5 F,1,0,852,0,0.4036265 M,1,0,4260,-21.07068,400.0579,-21.07068,360.0579 F,2,3408,4260,0.4036265,0 S,0,66364,,0.6 R,0,66364,,4.712389 C,0,66364,,229,229,229 P,0,66364,87665,A
Sprite,Background,Centre,"sb\g.png",0,0 L,66482,5 F,1,0,852,0,0.4036265 M,1,0,4260,241.016,440.3831,241.016,400.3831 F,2,3408,4260,0.4036265,0 S,0,66482,,0.6 R,0,66482,,4.712389 C,0,66482,,179,179,179 P,0,66482,87783,A
Sprite,Background,Centre,"sb\g.png",0,0 L,66600,5 F,1,0,852,0,0.4036265 M,1,0,4260,221.5522,529.8326,221.5522,489.8326 F,2,3408,4260,0.4036265,0 S,0,66600,,0.6 R,0,66600,,4.712389 C,0,66600,,193,193,193 P,0,66600,87901,A
Sprite,Background,Centre,"SB\1A.png",0,0 F,0,62459,,0,1 M,17,62459,63879,320,240,320.4525,240.6346 R,17,62459,63879,0,0.01072091 S,10,62459,67538,0.9,0.7 M,17,63879,65299,320.4525,240.6346,321.4525,234.6346 R,17,63879,65299,0.01072091,0.0218986 M,17,65299,66719,321.4525,234.6346,329.4525,232.6346 R,17,65299,66719,0.0218986,0.002347608 M,17,66719,68139,329.4525,232.6346,324.4525,227.6346 R,17,66719,68139,0.002347608,0.0116939 M,17,68139,69559,324.4525,227.6346,326.4525,226.6346 R,17,68139,69559,0.0116939,-0.007949122 M,17,69559,70979,326.4525,226.6346,316.4525,233.6346 R,17,69559,70979,-0.007949122,0.01195782 M,17,70979,72399,316.4525,233.6346,319.4525,229.6346 R,17,70979,72399,0.01195782,-0.004380339 M,17,72399,73819,319.4525,229.6346,325.4525,238.6346 R,17,72399,73819,-0.004380339,-0.003727835 M,17,73819,75240,325.4525,238.6346,328.4525,238.6346 R,17,73819,75240,-0.003727835,-0.02240821 M,17,75240,76660,328.4525,238.6346,331.4525,238.6346 R,17,75240,76660,-0.02240821,-0.02078601 M,17,76660,78080,331.4525,238.6346,324.4525,237.6346 R,17,76660,78080,-0.02078601,-0.02672945 M,17,78080,79500,324.4525,237.6346,333.4525,239.6346 R,17,78080,79500,-0.02672945,-0.01147018 M,17,79500,80920,333.4525,239.6346,323.4525,236.6346 R,17,79500,80920,-0.01147018,-0.01833301 M,17,80920,82340,323.4525,236.6346,332.4525,236.6346 R,17,80920,82340,-0.01833301,-0.004013562 M,17,82340,83760,332.4525,236.6346,324.4525,231.6346 R,17,82340,83760,-0.004013562,-0.02215552 M,17,83760,85180,324.4525,231.6346,329.4525,227.6346 R,17,83760,85180,-0.02215552,-0.01301134 M,17,85180,86601,329.4525,227.6346,321.4525,221.6346 R,17,85180,86601,-0.01301134,-0.02121281 M,17,86601,88021,321.4525,221.6346,325.4525,223.6346 R,17,86601,88021,-0.02121281,-0.01145345 F,0,88021,,1,0
//Storyboard Layer 1 (Fail)
//Storyboard Layer 2 (Pass)
//Storyboard Layer 3 (Foreground)
//Storyboard Layer 4 (Overlay)
//Storyboard Sound Samples

[TimingPoints]
2815,355.029585798817,4,2,6,60,1,8
2815,-125,4,2,6,60,0,0
2903,-125,4,2,2,60,0,0
3170,-125,4,2,6,60,0,0
3258,-125,4,2,2,60,0,0
3791,-125,4,2,3,60,0,0
4235,355.029585798817,4,2,1,75,1,0
4235,-100,4,2,1,75,0,0
4323,-100,4,2,2,75,0,0
4501,-100,4,2,2,5,0,0
4590,-100,4,2,10,75,0,0
4678,-100,4,2,2,75,0,0
4945,-100,4,2,10,75,0,0
5033,-100,4,2,2,75,0,0
5300,-100,4,2,10,75,0,0
5388,-100,4,2,2,75,0,0
5655,-100,4,2,10,75,0,0
5743,-100,4,2,2,75,0,0
5921,-100,4,2,2,5,0,0
6010,-100,4,2,10,75,0,0
6098,-100,4,2,2,75,0,0
6365,-100,4,2,10,75,0,0
6453,-100,4,2,2,75,0,0
6720,-100,4,2,10,75,0,0
6808,-100,4,2,2,75,0,0
7075,-100,4,2,10,75,0,0
7163,-100,4,2,2,75,0,0
7341,-100,4,2,2,5,0,0
7430,-100,4,2,10,75,0,0
7518,-100,4,2,2,75,0,0
7785,-100,4,2,10,75,0,0
7873,-100,4,2,2,75,0,0
8140,-100,4,2,10,75,0,0
8228,-100,4,2,2,75,0,0
8406,-100,4,2,2,5,0,0
8495,-100,4,2,10,75,0,0
8583,-100,4,2,2,75,0,0
8850,-100,4,2,10,75,0,0
8938,-100,4,2,2,75,0,0
9116,-100,4,2,2,5,0,0
9205,-100,4,2,10,75,0,0
9293,-100,4,2,2,75,0,0
9560,-100,4,2,10,75,0,0
9648,-100,4,2,2,75,0,0
10270,-100,4,2,10,75,0,0
10358,-100,4,2,2,75,0,0
10625,-100,4,2,10,75,0,0
10713,-100,4,2,2,75,0,0
10980,-100,4,2,10,75,0,0
11068,-100,4,2,2,75,0,0
11246,-100,4,2,2,5,0,0
11335,-100,4,2,10,75,0,0
11423,-100,4,2,2,75,0,0
11690,-100,4,2,10,75,0,0
11778,-100,4,2,2,75,0,0
12045,-100,4,2,10,75,0,0
12133,-100,4,2,2,75,0,0
12400,-100,4,2,10,75,0,0
12488,-100,4,2,2,75,0,0
12755,-100,4,2,10,75,0,0
12843,-100,4,2,2,75,0,0
13021,-100,4,2,2,5,0,0
13110,-100,4,2,10,75,0,0
13198,-100,4,2,2,75,0,0
13465,-100,4,2,10,75,0,0
13553,-100,4,2,2,75,0,0
13820,-100,4,2,10,75,0,0
13908,-100,4,2,2,75,0,0
14087,-100,4,2,2,5,0,0
14175,-100,4,2,3,75,0,0
14530,-100,4,2,10,75,0,0
14618,-100,4,2,2,75,0,0
14885,-100,4,2,10,75,0,0
14973,-100,4,2,2,75,0,0
15862,-100,4,2,2,5,0,0
15950,-100,4,2,10,75,0,0
16038,-100,4,2,2,75,0,0
16306,-100,4,2,10,75,0,0
16394,-100,4,2,2,75,0,0
16661,-100,4,2,10,75,0,0
16749,-100,4,2,2,75,0,0
17016,-100,4,2,10,75,0,0
17104,-100,4,2,2,75,0,0
17371,-100,4,2,10,75,0,0
17459,-100,4,2,2,75,0,0
17637,-100,4,2,2,5,0,0
17726,-100,4,2,10,75,0,0
17814,-100,4,2,2,75,0,0
18081,-100,4,2,10,75,0,0
18169,-100,4,2,2,75,0,0
18436,-100,4,2,3,75,0,0
18791,-100,4,2,10,75,0,0
18879,-100,4,2,2,75,0,0
19146,-100,4,2,10,75,0,0
19234,-100,4,2,2,75,0,0
19501,-100,4,2,10,75,0,0
19589,-100,4,2,2,75,0,0
20122,-100,4,2,2,5,0,0
20211,-100,4,2,10,75,0,0
20299,-100,4,2,2,75,0,0
20566,-100,4,2,10,75,0,0
20654,-100,4,2,2,75,0,0
20921,-100,4,2,10,75,0,0
21009,-100,4,2,2,75,0,0
21276,-111.111111111111,4,2,3,75,0,0
21631,-111.111111111111,4,2,10,75,0,0
21719,-111.111111111111,4,2,2,75,0,0
21986,-111.111111111111,4,2,10,75,0,0
22074,-111.111111111111,4,2,2,75,0,0
22341,-111.111111111111,4,2,10,75,0,0
22429,-111.111111111111,4,2,2,75,0,0
22696,-111.111111111111,4,2,10,75,0,0
22784,-111.111111111111,4,2,2,75,0,0
22874,-111.111111111111,4,2,5,75,0,0
23051,-111.111111111111,4,2,10,75,0,0
23139,-111.111111111111,4,2,2,75,0,0
23406,-111.111111111111,4,2,10,75,0,0
23494,-111.111111111111,4,2,2,75,0,0
23672,-111.111111111111,4,2,2,5,0,0
23761,-111.111111111111,4,2,10,75,0,0
23849,-111.111111111111,4,2,2,75,0,0
23939,-111.111111111111,4,2,5,75,0,0
24116,-111.111111111111,4,2,3,75,0,0
24294,-111.111111111111,4,2,3,45,0,0
24471,-111.111111111111,4,2,3,50,0,0
24649,-111.111111111111,4,2,3,54,0,0
24826,-111.111111111111,4,2,3,59,0,0
24915,-111.111111111111,4,2,3,61,0,0
25004,-111.111111111111,4,2,3,63,0,0
25092,-111.111111111111,4,2,3,66,0,0
25181,-111.111111111111,4,2,3,68,0,0
25270,-111.111111111111,4,2,3,70,0,0
25359,-111.111111111111,4,2,3,73,0,0
25448,-111.111111111111,4,2,3,75,0,0
25536,-142.857142857143,4,2,3,50,0,0
25625,-142.857142857143,4,2,3,5,0,0
25714,-142.857142857143,4,2,3,50,0,0
25803,-142.857142857143,4,2,3,5,0,0
25891,-90.9090909090909,4,2,2,75,0,0
26424,-111.111111111111,4,2,2,70,0,0
26868,-111.111111111111,4,2,2,5,0,0
26956,-125,4,2,3,65,0,0
28199,-125,4,2,14,65,0,0
28288,-125,4,2,2,65,0,0
29264,-125,4,2,14,65,0,0
29353,-125,4,2,2,65,0,0
29619,-125,4,2,14,65,0,0
29708,-125,4,2,2,65,0,0
31039,-125,4,2,14,65,0,0
31128,-125,4,2,2,65,0,0
32459,-125,4,2,3,65,0,0
32637,-125,4,2,2,65,0,0
33879,-125,4,2,14,65,0,0
33968,-125,4,2,2,5,0,0
34057,-125,4,2,2,65,0,0
34945,-125,4,2,14,65,0,0
35034,-125,4,2,2,65,0,0
35300,-125,4,2,14,65,0,0
35389,-125,4,2,2,65,0,0
36720,-125,4,2,14,65,0,0
36809,-125,4,2,2,65,0,0
37519,-125,4,2,2,5,0,0
37607,-125,4,2,2,65,0,0
37962,-125,4,2,12,65,0,0
38051,-125,4,2,2,65,0,0
39560,-125,4,2,14,65,0,0
39649,-125,4,2,2,65,0,0
40625,-125,4,2,14,65,0,0
40714,-125,4,2,2,65,0,0
40980,-125,4,2,14,65,0,0
41069,-125,4,2,2,65,0,0
42400,-125,4,2,14,65,0,0
42489,-125,4,2,2,65,0,0
43820,-125,4,2,3,65,0,0
43998,-125,4,2,2,65,0,0
46661,-125,4,2,3,65,0,0
46838,-125,4,2,2,65,0,0
47726,-125,4,2,6,65,0,0
47815,-125,4,2,2,65,0,0
47903,-125,4,2,6,65,0,0
47992,-125,4,2,2,65,0,0
48081,-125,4,2,7,65,0,0
48170,-125,4,2,2,65,0,0
48258,-125,4,2,6,65,0,0
48347,-125,4,2,2,65,0,0
48524,-125,4,2,2,5,0,0
48613,-125,4,2,6,65,0,0
48702,-125,4,2,2,65,0,0
48968,-125,4,2,6,65,0,0
49057,-125,4,2,2,65,0,0
49323,-125,4,2,6,65,0,0
49412,-125,4,2,2,65,0,0
49678,-142.857142857143,4,2,2,60,0,0
50033,-200,4,2,2,60,0,0
52519,-200,4,2,7,60,0,0
52607,-200,4,2,2,60,0,0
54826,-83.3333333333333,4,2,2,60,0,0
55004,-83.3333333333333,4,2,2,65,0,0
55359,-111.111111111111,4,2,2,70,0,0
55536,-111.111111111111,4,2,12,70,0,0
55625,-111.111111111111,4,2,2,5,0,0
55714,-111.111111111111,4,2,2,70,0,0
55891,-111.111111111111,4,2,12,70,0,0
55980,-111.111111111111,4,2,2,70,0,0
56246,-111.111111111111,4,2,12,70,0,0
56335,-111.111111111111,4,2,2,70,0,0
56601,-111.111111111111,4,2,12,70,0,0
56690,-111.111111111111,4,2,2,5,0,0
56779,-111.111111111111,4,2,2,70,0,0
56956,-111.111111111111,4,2,12,70,0,0
57045,-111.111111111111,4,2,2,70,0,0
57311,-111.111111111111,4,2,12,70,0,0
57400,-111.111111111111,4,2,2,70,0,0
57666,-111.111111111111,4,2,12,70,0,0
57755,-111.111111111111,4,2,2,70,0,0
58021,-111.111111111111,4,2,12,70,0,0
58110,-111.111111111111,4,2,2,5,0,0
58199,-125,4,2,3,70,0,0
58554,-125,4,2,6,70,0,0
58643,-125,4,2,2,70,0,0
58909,-125,4,2,6,70,0,0
58998,-125,4,2,2,70,0,0
59264,-125,4,2,6,70,0,0
59353,-125,4,2,2,70,0,0
59442,-125,4,2,5,70,0,0
59619,-125,4,2,6,70,0,0
59708,-125,4,2,2,70,0,0
59797,-125,4,2,5,70,0,0
59974,-125,4,2,6,70,0,0
60063,-125,4,2,2,70,0,0
60329,-125,4,2,6,70,0,0
60418,-125,4,2,2,70,0,0
60684,-125,4,2,6,70,0,0
60773,-125,4,2,2,70,0,0
60950,-125,4,2,2,5,0,0
61039,-142.857142857143,4,2,2,55,0,0
62459,355.029585798817,4,2,1,80,1,0
62459,-83.3333333333333,4,2,1,80,0,0
62547,-83.3333333333333,4,2,2,80,0,0
62725,-83.3333333333333,4,2,2,5,0,0
62814,-83.3333333333333,4,2,10,80,0,0
62902,-83.3333333333333,4,2,2,80,0,0
63169,-83.3333333333333,4,2,10,80,0,0
63257,-83.3333333333333,4,2,2,80,0,0
63524,-83.3333333333333,4,2,10,80,0,0
63612,-83.3333333333333,4,2,2,80,0,0
63790,-83.3333333333333,4,2,2,5,0,0
63879,-83.3333333333333,4,2,10,80,0,0
63967,-83.3333333333333,4,2,2,80,0,0
64145,-83.3333333333333,4,2,2,5,0,0
64234,-83.3333333333333,4,2,10,80,0,0
64322,-83.3333333333333,4,2,2,80,0,0
64589,-83.3333333333333,4,2,10,80,0,0
64677,-83.3333333333333,4,2,2,80,0,0
64944,-83.3333333333333,4,2,10,80,0,0
65032,-83.3333333333333,4,2,2,80,0,0
65299,-83.3333333333333,4,2,10,80,0,0
65387,-83.3333333333333,4,2,2,80,0,0
65565,-83.3333333333333,4,2,2,5,0,0
65654,-83.3333333333333,4,2,10,80,0,0
65742,-83.3333333333333,4,2,2,80,0,0
66009,-83.3333333333333,4,2,10,80,0,0
66097,-83.3333333333333,4,2,2,80,0,0
66364,-83.3333333333333,4,2,10,80,0,0
66452,-83.3333333333333,4,2,2,80,0,0
66719,-83.3333333333333,4,2,10,80,0,0
66807,-83.3333333333333,4,2,2,80,0,0
67074,-83.3333333333333,4,2,10,80,0,0
67162,-83.3333333333333,4,2,2,80,0,0
67429,-83.3333333333333,4,2,10,80,0,0
67517,-83.3333333333333,4,2,2,80,0,0
67784,-83.3333333333333,4,2,10,80,0,0
67872,-83.3333333333333,4,2,2,80,0,0
68139,-83.3333333333333,4,2,3,80,0,0
68494,-83.3333333333333,4,2,10,80,0,0
68582,-83.3333333333333,4,2,2,80,0,0
68849,-83.3333333333333,4,2,10,80,0,0
68937,-83.3333333333333,4,2,2,80,0,0
69204,-83.3333333333333,4,2,10,80,0,0
69292,-83.3333333333333,4,2,2,80,0,0
69559,-83.3333333333333,4,2,10,80,0,0
69647,-83.3333333333333,4,2,2,80,0,0
69825,-83.3333333333333,4,2,2,5,0,0
69914,-83.3333333333333,4,2,10,80,0,0
70002,-83.3333333333333,4,2,2,80,0,0
70269,-83.3333333333333,4,2,10,80,0,0
70357,-83.3333333333333,4,2,2,80,0,0
70624,-83.3333333333333,4,2,10,80,0,0
70712,-83.3333333333333,4,2,2,80,0,0
70979,-83.3333333333333,4,2,10,80,0,0
71067,-83.3333333333333,4,2,2,80,0,0
71245,-83.3333333333333,4,2,2,5,0,0
71334,-83.3333333333333,4,2,10,80,0,0
71422,-83.3333333333333,4,2,2,80,0,0
71689,-83.3333333333333,4,2,10,80,0,0
71777,-83.3333333333333,4,2,2,80,0,0
72044,-83.3333333333333,4,2,10,80,0,0
72132,-83.3333333333333,4,2,2,80,0,0
72488,-83.3333333333333,4,2,2,60,0,0
72754,-83.3333333333333,4,2,2,80,0,0
72843,-83.3333333333333,4,2,2,60,0,0
73109,-83.3333333333333,4,2,2,80,0,0
73198,-83.3333333333333,4,2,2,60,0,0
73287,-83.3333333333333,4,2,3,60,0,0
73464,-83.3333333333333,4,2,3,80,0,0
73553,-83.3333333333333,4,2,3,60,0,0
73819,-83.3333333333333,4,2,2,80,0,0
74086,-83.3333333333333,4,2,2,5,0,0
74174,-83.3333333333333,4,2,10,80,0,0
74262,-83.3333333333333,4,2,2,80,0,0
74530,-83.3333333333333,4,2,10,80,0,0
74618,-83.3333333333333,4,2,2,80,0,0
74885,-83.3333333333333,4,2,10,80,0,0
74973,-83.3333333333333,4,2,2,80,0,0
75240,-83.3333333333333,4,2,10,80,0,0
75328,-83.3333333333333,4,2,2,80,0,0
75506,-83.3333333333333,4,2,2,5,0,0
75595,-83.3333333333333,4,2,10,80,0,0
75683,-83.3333333333333,4,2,2,80,0,0
75950,-83.3333333333333,4,2,10,80,0,0
76038,-83.3333333333333,4,2,2,80,0,0
76305,-142.857142857143,4,2,10,80,0,0
76393,-142.857142857143,4,2,2,80,0,0
76571,-142.857142857143,4,2,2,5,0,0
76660,-83.3333333333333,4,2,9,80,0,0
76748,-83.3333333333333,4,2,2,80,0,0
77015,-83.3333333333333,4,2,10,80,0,0
77103,-83.3333333333333,4,2,2,80,0,0
77370,-83.3333333333333,4,2,9,80,0,0
77458,-83.3333333333333,4,2,2,80,0,0
77725,-83.3333333333333,4,2,10,80,0,0
77813,-83.3333333333333,4,2,2,80,0,0
77991,-83.3333333333333,4,2,2,5,0,0
78080,-83.3333333333333,4,2,9,80,0,0
78168,-83.3333333333333,4,2,2,80,0,0
78435,-83.3333333333333,4,2,10,80,0,0
78523,-83.3333333333333,4,2,2,80,0,0
78790,-83.3333333333333,4,2,10,80,0,0
78878,-83.3333333333333,4,2,2,80,0,0
79145,-83.3333333333333,4,2,10,80,0,0
79233,-83.3333333333333,4,2,2,80,0,0
79500,-142.857142857143,4,2,3,70,0,0
79855,-142.857142857143,4,2,11,70,0,0
79943,-142.857142857143,4,2,2,70,0,0
80210,-142.857142857143,4,2,10,70,0,0
80298,-142.857142857143,4,2,2,70,0,0
80565,-142.857142857143,4,2,10,70,0,0
80653,-142.857142857143,4,2,2,70,0,0
80831,-142.857142857143,4,2,2,5,0,0
80920,-142.857142857143,4,2,10,70,0,0
81008,-142.857142857143,4,2,2,70,0,0
81275,-142.857142857143,4,2,10,70,0,0
81363,-142.857142857143,4,2,2,70,0,0
81630,-142.857142857143,4,2,10,70,0,0
81718,-142.857142857143,4,2,2,70,0,0
81985,-142.857142857143,4,2,10,70,0,0
82073,-142.857142857143,4,2,2,70,0,0
82251,-142.857142857143,4,2,2,5,0,0
82340,-142.857142857143,4,2,10,70,0,0
82428,-142.857142857143,4,2,2,70,0,0
82695,-142.857142857143,4,2,10,70,0,0
82783,-142.857142857143,4,2,2,70,0,0
83050,-142.857142857143,4,2,10,70,0,0
83138,-142.857142857143,4,2,2,70,0,0
83405,-142.857142857143,4,2,10,70,0,0
83493,-142.857142857143,4,2,2,70,0,0
83760,-142.857142857143,4,2,10,70,0,0
83848,-142.857142857143,4,2,2,70,0,0
84115,-142.857142857143,4,2,10,70,0,0
84203,-142.857142857143,4,2,2,70,0,0
84470,-142.857142857143,4,2,10,70,0,0
84558,-142.857142857143,4,2,2,70,0,0
84825,-142.857142857143,4,2,10,70,0,0
84913,-142.857142857143,4,2,2,70,0,0
85092,-142.857142857143,4,2,2,5,0,0
85180,-142.857142857143,4,2,2,70,0,0
85358,-142.857142857143,4,2,2,45,0,0
85535,-142.857142857143,4,2,2,48,0,0
85713,-142.857142857143,4,2,2,50,0,0
85890,-142.857142857143,4,2,2,53,0,0
86068,-142.857142857143,4,2,2,56,0,0
86245,-142.857142857143,4,2,2,59,0,0
86423,-142.857142857143,4,2,2,61,0,0
86601,-142.857142857143,4,2,2,64,0,0
86689,-142.857142857143,4,2,2,65,0,0
86778,-142.857142857143,4,2,2,67,0,0
86866,-142.857142857143,4,2,2,68,0,0
86956,-142.857142857143,4,2,2,70,0,0
87044,-142.857142857143,4,2,2,71,0,0
87133,-142.857142857143,4,2,2,72,0,0
87221,-142.857142857143,4,2,2,74,0,0
87311,-111.111111111111,4,2,6,75,0,0
87399,-111.111111111111,4,2,2,75,0,0
87843,-66.6666666666667,4,2,2,75,0,0
88021,355.029585798817,4,2,1,75,1,0
88021,-100,4,2,1,75,0,0
88109,-100,4,2,2,75,0,0
88287,-100,4,2,2,5,0,0
88376,-100,4,2,10,75,0,0
88464,-100,4,2,2,75,0,0
88731,-100,4,2,10,75,0,0
88819,-100,4,2,2,75,0,0
89086,-100,4,2,10,75,0,0
89174,-100,4,2,2,75,0,0
89441,-100,4,2,10,75,0,0
89529,-100,4,2,2,75,0,0
89707,-100,4,2,2,5,0,0
89796,-100,4,2,10,75,0,0
89884,-100,4,2,2,75,0,0
90151,-100,4,2,10,75,0,0
90239,-100,4,2,2,75,0,0
90506,-100,4,2,10,75,0,0
90594,-100,4,2,2,75,0,0
90861,-100,4,2,10,75,0,0
90949,-100,4,2,2,75,0,0
91127,-100,4,2,2,5,0,0
91216,-100,4,2,10,75,0,0
91304,-100,4,2,2,75,0,0
91571,-100,4,2,10,75,0,0
91659,-100,4,2,2,75,0,0
91926,-100,4,2,10,75,0,0
92014,-100,4,2,2,75,0,0
92192,-100,4,2,2,5,0,0
92281,-100,4,2,10,75,0,0
92369,-100,4,2,2,75,0,0
92636,-100,4,2,10,75,0,0
92724,-100,4,2,2,75,0,0
92902,-100,4,2,2,5,0,0
92991,-100,4,2,10,75,0,0
93079,-100,4,2,2,75,0,0
93346,-100,4,2,10,75,0,0
93434,-100,4,2,2,75,0,0
94056,-100,4,2,10,75,0,0
94144,-100,4,2,2,75,0,0
94411,-100,4,2,10,75,0,0
94499,-100,4,2,2,75,0,0
94766,-100,4,2,10,75,0,0
94854,-100,4,2,2,75,0,0
95032,-100,4,2,2,5,0,0
95121,-100,4,2,10,75,0,0
95209,-100,4,2,2,75,0,0
95476,-100,4,2,10,75,0,0
95564,-100,4,2,2,75,0,0
95831,-100,4,2,10,75,0,0
95919,-100,4,2,2,75,0,0
96186,-100,4,2,10,75,0,0
96274,-100,4,2,2,75,0,0
96541,-100,4,2,10,75,0,0
96629,-100,4,2,2,75,0,0
96807,-100,4,2,2,5,0,0
96896,-100,4,2,10,75,0,0
96984,-100,4,2,2,75,0,0
97251,-100,4,2,10,75,0,0
97339,-100,4,2,2,75,0,0
97606,-100,4,2,10,75,0,0
97694,-100,4,2,2,75,0,0
97873,-100,4,2,2,5,0,0
97961,-100,4,2,3,75,0,0
98316,-100,4,2,10,75,0,0
98404,-100,4,2,2,75,0,0
98671,-100,4,2,10,75,0,0
98759,-100,4,2,2,75,0,0
99648,-100,4,2,2,5,0,0
99736,-100,4,2,10,75,0,0
99824,-100,4,2,2,75,0,0
100092,-100,4,2,10,75,0,0
100180,-100,4,2,2,75,0,0
100447,-100,4,2,10,75,0,0
100535,-100,4,2,2,75,0,0
100802,-100,4,2,10,75,0,0
100890,-100,4,2,2,75,0,0
101157,-100,4,2,10,75,0,0
101245,-100,4,2,2,75,0,0
101423,-100,4,2,2,5,0,0
101512,-100,4,2,10,75,0,0
101600,-100,4,2,2,75,0,0
101867,-100,4,2,10,75,0,0
101955,-100,4,2,2,75,0,0
102222,-100,4,2,3,75,0,0
102577,-100,4,2,10,75,0,0
102665,-100,4,2,2,75,0,0
102932,-100,4,2,10,75,0,0
103020,-100,4,2,2,75,0,0
103287,-100,4,2,10,75,0,0
103375,-100,4,2,2,75,0,0
103997,-100,4,2,10,75,0,0
104085,-100,4,2,2,75,0,0
104263,-100,4,2,2,5,0,0
104352,-100,4,2,10,75,0,0
104440,-100,4,2,2,75,0,0
104707,-100,4,2,10,75,0,0
104795,-100,4,2,2,75,0,0
105062,-111.111111111111,4,2,3,75,0,0
105417,-111.111111111111,4,2,10,75,0,0
105505,-111.111111111111,4,2,2,75,0,0
105772,-111.111111111111,4,2,10,75,0,0
105860,-111.111111111111,4,2,2,75,0,0
106127,-111.111111111111,4,2,10,75,0,0
106215,-111.111111111111,4,2,2,75,0,0
106482,-111.111111111111,4,2,10,75,0,0
106570,-111.111111111111,4,2,2,75,0,0
106660,-111.111111111111,4,2,5,75,0,0
106837,-111.111111111111,4,2,10,75,0,0
106925,-111.111111111111,4,2,2,75,0,0
107192,-111.111111111111,4,2,10,75,0,0
107280,-111.111111111111,4,2,2,75,0,0
107458,-111.111111111111,4,2,2,5,0,0
107547,-111.111111111111,4,2,10,75,0,0
107635,-111.111111111111,4,2,2,75,0,0
107725,-111.111111111111,4,2,5,75,0,0
107902,-111.111111111111,4,2,3,75,0,0
108080,-111.111111111111,4,2,3,45,0,0
108257,-111.111111111111,4,2,3,50,0,0
108435,-111.111111111111,4,2,3,54,0,0
108612,-111.111111111111,4,2,3,59,0,0
108701,-111.111111111111,4,2,3,61,0,0
108790,-111.111111111111,4,2,3,63,0,0
108878,-111.111111111111,4,2,3,66,0,0
108967,-111.111111111111,4,2,3,68,0,0
109056,-111.111111111111,4,2,3,70,0,0
109145,-111.111111111111,4,2,3,73,0,0
109234,-111.111111111111,4,2,3,75,0,0
109322,-111.111111111111,4,2,3,50,0,0
109500,-111.111111111111,4,2,3,50,0,0
109589,-111.111111111111,4,2,3,5,0,0
109677,-111.111111111111,4,2,2,75,0,0
110121,-111.111111111111,4,2,2,5,0,0
110210,-111.111111111111,4,2,2,75,0,0
110742,-166.666666666667,4,2,1,65,0,0
110831,-166.666666666667,4,2,2,65,0,0
113405,-258.152173913043,4,2,2,65,0,0
114293,-258.152173913043,4,2,2,5,0,0

[Colours]
Combo1 : 221,187,255
Combo2 : 255,136,187
Combo3 : 85,221,238
Combo4 : 255,238,170
Combo5 : 153,221,136

[HitObjects]
396,367,2815,5,2,0:3:0:0:
396,367,3170,1,2,0:3:0:0:
468,328,3347,6,0,L|476:291,1,38,2|0,0:2|0:0,0:0:0:0:
354,185,3525,1,10,0:2:0:0:
361,192,3613,1,8,0:2:0:0:
367,198,3702,2,0,L|415:189,1,38,10|8,0:3|0:3,0:0:0:0:
314,276,3880,1,10,0:2:0:0:
307,283,3968,1,8,0:2:0:0:
301,289,4057,2,0,L|253:280,1,38,10|8,0:1|0:1,0:0:0:0:
0,358,4235,6,0,P|77:364|132:307,1,142.5,14|0,0:1|0:0,0:0:0:0:
140,339,4590,2,0,P|148:293|158:246,1,95,8|0,0:2|0:0,0:0:0:0:
42,73,4945,1,8,0:1:0:0:
15,202,5122,1,8,0:1:0:0:
145,148,5300,2,0,P|191:129|237:122,1,95,10|0,0:2|0:0,0:0:0:0:
456,235,5655,6,0,P|365:251|311:198,1,142.5,10|0,0:1|0:0,0:0:0:0:
314,202,6010,1,8,0:2:0:0:
421,83,6187,2,0,P|406:126|395:180,1,95,10|2,0:1|0:3,0:0:0:0:
201,72,6542,1,8,0:1:0:0:
142,233,6720,2,0,P|132:186|116:141,1,95,10|0,0:2|0:0,0:0:0:0:
357,303,7075,6,0,P|289:295|222:345,1,142.5,10|0,0:1|0:0,0:0:0:0:
198,360,7430,2,0,P|156:348|95:338,1,95,8|0,0:2|0:0,0:0:0:0:
38,143,7785,1,8,0:1:0:0:
184,253,7962,1,8,0:1:0:0:
4,224,8140,2,0,P|61:185|145:191,1,142.5,10|0,0:2|0:0,0:0:0:0:
188,132,8495,6,0,P|200:85|210:35,1,95,10|8,0:1|0:1,0:0:0:0:
286,283,8850,2,0,P|351:262|437:245,1,142.5,10|0,0:2|0:0,0:0:0:0:
497,270,9205,2,0,P|521:227|511:176,1,95,10|8,0:1|0:1,0:0:0:0:
367,52,9560,2,0,P|361:98|384:138,1,95,10|8,0:2|0:1,0:0:0:0:
356,377,9915,6,0,P|295:325|178:354,1,190,14|8,0:1|0:2,0:0:0:0:
17,235,10448,1,8,0:1:0:0:
17,235,10536,1,8,0:1:0:0:
17,235,10625,2,0,P|4:192|0:138,1,95,8|8,0:1|0:1,0:0:0:0:
223,146,10980,2,0,P|135:145|84:198,1,142.5,10|0,0:2|0:0,0:0:0:0:
119,253,11335,6,0,P|175:260|222:274,1,95,10|8,0:1|0:1,0:0:0:0:
356,94,11690,2,0,P|300:87|253:73,1,95,10|8,0:2|0:1,0:0:0:0:
460,48,12045,1,10,0:1:0:0:
309,180,12223,1,8,0:1:0:0:
453,234,12400,2,0,P|446:183|429:136,1,95,10|0,0:2|0:0,0:0:0:0:
176,340,12755,6,0,P|244:328|310:370,1,142.5,10|0,0:1|0:0,0:0:0:0:
317,377,13110,1,8,0:2:0:0:
453,234,13288,2,0,P|410:247|360:258,1,95,2|8,0:2|0:1,0:0:0:0:
174,106,13643,1,8,0:1:0:0:
138,182,13820,6,0,P|198:190|262:132,1,142.5,8|0,0:2|0:0,0:0:0:0:
353,57,14175,5,12,0:1:0:0:
341,63,14264,1,8,0:1:0:0:
328,67,14353,2,0,L|339:11,1,47.5,8|8,0:1|0:1,0:0:0:0:
411,131,14530,6,0,P|462:143|514:160,1,95,10|8,0:2|0:1,0:0:0:0:
246,354,14885,2,0,P|195:366|143:383,1,95,10|8,0:2|0:2,0:0:0:0:
99,376,15152,1,8,0:2:0:0:
73,337,15240,1,10,0:2:0:0:
85,287,15329,1,8,0:2:0:0:
130,264,15418,2,0,P|152:273|177:279,1,47.5,8|8,0:1|0:1,0:0:0:0:
389,368,15595,6,0,P|348:313|371:248,1,142.5,14|0,0:1|0:0,0:0:0:0:
397,230,15950,2,0,P|398:182|384:137,1,95,8|0,0:2|0:0,0:0:0:0:
278,8,16306,1,8,0:1:0:0:
249,168,16483,1,8,0:1:0:0:
428,22,16661,1,10,0:2:0:0:
196,71,16838,6,0,P|105:90|32:34,1,190,2|8,0:2|0:1,0:0:0:0:
134,174,17371,2,0,B|136:208|145:230|145:230|126:277|117:327,1,142.5,10|0,0:2|0:0,0:0:0:0:
193,356,17726,2,0,P|239:359|278:333,1,95,10|8,0:1|0:1,0:0:0:0:
412,208,18081,1,10,0:2:0:0:
369,330,18258,5,8,0:1:0:0:
369,330,18347,1,8,0:1:0:0:
369,330,18436,2,0,P|360:199|361:141,1,190,14|8,0:1|0:2,0:0:0:0:
460,22,18968,1,0,0:0:0:0:
361,140,19146,2,0,P|314:142|275:116,1,95,8|8,0:1|0:1,0:0:0:0:
171,0,19501,1,10,0:2:0:0:
337,63,19678,1,10,0:1:0:0:
173,245,19856,6,0,B|141:226|141:226|123:167|164:129,1,142.5,12|0,0:1|0:0,0:0:0:0:
188,107,20211,1,8,0:2:0:0:
289,238,20388,1,8,0:1:0:0:
289,238,20477,1,8,0:1:0:0:
289,238,20566,2,0,P|284:293|277:335,1,95,10|10,0:1|0:1,0:0:0:0:
79,261,20921,2,0,P|125:251|172:244,1,95,10|10,0:2|0:1,0:0:0:0:
13,360,21276,6,0,B|21:300|36:252|36:252|27:222|23:188,1,170.999994781494,14|2,0:1|0:3,0:0:0:0:
120,31,21808,1,8,0:1:0:0:
36,66,21986,2,0,P|88:113|192:85,1,170.999994781494,8|10,0:2|0:1,0:0:0:0:
287,0,22519,6,0,P|271:39|271:82,1,85.4999973907472,10|8,0:2|0:1,0:0:0:0:
402,186,22874,2,0,P|401:143|386:103,1,85.4999973907472,8|8,0:3|0:1,0:0:0:0:
219,211,23229,1,0,0:0:0:0:
433,302,23406,6,0,P|376:272|313:273,1,128.249996086121,8|0,0:2|0:0,0:0:0:0:
244,330,23761,2,0,P|203:342|164:327,1,85.4999973907472,10|10,0:1|0:3,0:0:0:0:
21,168,24116,5,8,0:2:0:0:
47,326,24294,1,8,0:2:0:0:
200,103,24471,1,8,0:2:0:0:
164,327,24649,1,8,0:2:0:0:
21,78,24826,5,8,0:2:0:0:
0,105,24914,1,8,0:2:0:0:
0,140,25003,1,8,0:2:0:0:
21,168,25092,1,8,0:2:0:0:
53,179,25181,2,0,P|73:170|94:165,1,42.7499986953736,8|8,0:2|0:2,0:0:0:0:
239,70,25359,5,8,0:2:0:0:
270,69,25448,1,8,0:2:0:0:
292,90,25536,2,0,P|307:94|324:96,1,33.2499989852906,2|0,0:3|0:0,0:0:0:0:
444,48,25714,2,0,P|427:50|411:54,1,33.2499989852906,2|0,0:3|0:0,0:0:0:0:
433,302,25891,6,0,B|479:274|479:274|505:188|446:132,1,209.000006378174,14|0,0:1|0:0,0:0:0:0:
333,321,26424,1,8,0:1:0:0:
266,247,26601,2,0,P|202:239|142:258,1,128.249996086121,8|0,0:2|0:0,0:0:0:0:
72,213,26956,6,0,P|81:176|89:139,1,76,12|0,0:1|0:0,0:0:0:0:
4,338,27311,2,0,P|77:338|141:389,1,152,10|8,0:1|0:1,0:0:0:0:
199,259,27844,1,0,0:0:0:0:
315,311,28021,2,0,P|279:319|236:330,1,76,10|10,0:1|0:2,0:0:0:0:
125,217,28377,1,8,0:1:0:0:
125,217,28732,6,0,P|91:161|112:76,1,152,10|10,0:1|0:1,0:0:0:0:
277,45,29264,1,8,0:2:0:0:
202,0,29442,2,0,P|193:40|186:79,1,76,10|8,0:1|0:2,0:0:0:0:
347,203,29797,6,0,B|388:200|436:181|436:181|467:194|519:206,1,152,10|8,0:1|0:1,0:0:0:0:
395,111,30329,1,2,0:2:0:0:
472,74,30507,2,0,P|480:36|483:-11,1,76,8|0,0:1|0:0,0:0:0:0:
300,135,30862,5,8,0:1:0:0:
251,15,31039,1,8,0:2:0:0:
129,68,31217,1,8,0:1:0:0:
129,68,31572,6,0,P|119:106|89:233,1,152,10|10,0:1|0:1,0:0:0:0:
20,158,32104,1,8,0:2:0:0:
138,295,32282,2,0,P|94:295|52:311,1,76,10|8,0:1|0:3,0:0:0:0:
157,153,32637,6,0,P|225:163|305:112,1,152,10|8,0:1|0:1,0:0:0:0:
355,184,33169,2,0,P|346:221|335:277,1,76,0|8,0:0|0:1,0:0:0:0:
463,376,33524,1,0,0:0:0:0:
505,300,33702,2,0,P|453:294|389:326,1,114,10|0,0:1|0:0,0:0:0:0:
336,366,34057,6,0,B|296:366|269:341|269:341|228:341|181:370,1,152,10|10,0:1|0:1,0:0:0:0:
299,228,34590,1,0,0:0:0:0:
204,193,34767,2,0,P|214:232|223:274,1,76,10|8,0:1|0:2,0:0:0:0:
99,384,35122,2,0,P|90:346|81:310,1,76,10|8,0:1|0:2,0:0:0:0:
135,136,35477,6,0,P|72:150|-3:105,1,152,10|8,0:1|0:1,0:0:0:0:
125,238,36010,1,2,0:2:0:0:
230,115,36187,2,0,P|219:153|210:194,1,76,8|0,0:1|0:0,0:0:0:0:
319,246,36542,1,8,0:1:0:0:
180,307,36720,1,8,0:2:0:0:
335,368,36897,1,8,0:1:0:0:
335,368,37252,6,0,B|392:350|392:350|461:369,1,114,8|0,0:1|0:0,0:0:0:0:
451,368,37607,1,10,0:1:0:0:
506,306,37785,1,0,0:0:0:0:
490,224,37962,1,10,0:1:0:0:
416,191,38140,1,0,0:0:0:0:
289,263,38317,6,0,P|226:277|151:232,1,152,14|8,0:1|0:1,0:0:0:0:
99,312,38850,1,0,0:0:0:0:
65,156,39028,2,0,P|53:192|47:229,1,76,8|0,0:1|0:0,0:0:0:0:
147,102,39382,1,10,0:1:0:0:
15,90,39560,6,0,B|42:59|89:68|89:68|115:105|157:103,1,152,10|0,0:2|0:0,0:0:0:0:
233,5,40092,2,0,P|196:-1|164:17,1,76,8|0,0:1|0:0,0:0:0:0:
293,98,40448,1,10,0:1:0:0:
383,56,40625,1,8,0:2:0:0:
461,108,40803,2,0,P|467:145|464:183,1,76,10|8,0:1|0:2,0:0:0:0:
350,271,41158,6,0,P|413:257|474:312,1,152,10|8,0:1|0:1,0:0:0:0:
347,180,41691,1,0,0:0:0:0:
256,261,41868,2,0,P|263:226|261:184,1,76,8|0,0:1|0:0,0:0:0:0:
120,147,42223,5,10,0:1:0:0:
51,192,42400,2,0,B|68:223|68:223|125:256|177:218,1,152,10|0,0:2|0:0,0:0:0:0:
125,71,42933,2,0,P|118:106|120:148,1,76,10|0,0:1|0:0,0:0:0:0:
289,79,43288,2,0,P|251:71|219:52,1,76,10|8,0:1|0:2,0:0:0:0:
261,185,43643,1,10,0:1:0:0:
359,13,43820,5,8,0:3:0:0:
359,13,43909,1,8,0:3:0:0:
359,13,43998,2,0,B|379:28|391:45|391:45|374:100|384:166,1,152,10|8,0:1|0:1,0:0:0:0:
433,277,44530,1,0,0:0:0:0:
255,261,44708,2,0,P|293:254|331:249,1,76,8|8,0:1|0:2,0:0:0:0:
218,343,45063,1,8,0:1:0:0:
80,248,45240,1,8,0:2:0:0:
116,323,45418,6,0,P|159:263|142:191,1,152,8|10,0:1|0:1,0:0:0:0:
34,52,45950,1,0,0:0:0:0:
107,96,46128,2,0,P|145:92|191:81,1,76,10|8,0:1|0:2,0:0:0:0:
288,159,46483,1,10,0:1:0:0:
319,22,46661,1,8,0:3:0:0:
495,55,46838,6,0,P|439:104|365:103,1,152,10|8,0:1|0:1,0:0:0:0:
406,21,47371,1,0,0:0:0:0:
500,168,47548,2,0,P|496:206|485:252,1,76,8|2,0:1|0:3,0:0:0:0:
328,218,47903,2,0,P|366:214|412:203,1,76,10|2,0:1|0:2,0:0:0:0:
357,357,48258,6,0,P|302:370|254:343,1,114,10|0,0:1|0:0,0:0:0:0:
191,286,48613,2,0,P|153:286|115:291,1,76,10|0,0:1|0:0,0:0:0:0:
97,144,48968,2,0,P|116:176|139:206,1,76,10|0,0:1|0:0,0:0:0:0:
22,297,49323,2,0,P|40:263|55:228,1,76,10|8,0:1|0:1,0:0:0:0:
55,228,49590,1,8,0:1:0:0:
55,228,49679,1,8,0:1:0:0:
282,346,50033,6,0,P|362:299|460:299,1,190,2|0,0:2|0:0,0:0:0:0:
512,371,51098,2,0,P|414:373|333:220,1,285,0|10,0:0|0:1,0:0:0:0:
205,64,52519,6,0,P|191:129|179:214,1,142.5,14|0,0:1|0:0,0:0:0:0:
82,188,53229,2,0,P|96:123|108:38,1,142.5,2|0,0:2|0:0,0:0:0:0:
102,43,53850,1,0,0:0:0:0:
98,39,53939,2,0,P|23:62|11:136,1,142.5,2|0,0:2|0:0,0:0:0:0:
156,253,54649,5,2,0:2:0:0:
236,214,54826,2,0,L|257:90,1,113.999996520996,8|8,0:1|0:2,0:0:0:0:
455,116,55181,5,8,0:1:0:0:
455,116,55270,1,8,0:1:0:0:
455,116,55359,2,0,P|395:129|327:142,1,128.249996086121,12|0,0:1|0:0,0:0:0:0:
255,101,55714,2,0,P|264:56|270:15,1,85.4999973907472,10|2,0:1|0:3,0:0:0:0:
397,215,56069,2,0,P|388:260|382:301,1,85.4999973907472,10|2,0:1|0:3,0:0:0:0:
228,343,56424,2,0,B|197:349|179:344|179:344|146:368|102:360,1,128.249996086121,10|0,0:1|0:0,0:0:0:0:
86,356,56779,6,0,P|79:310|69:269,1,85.4999973907472,10|2,0:1|0:3,0:0:0:0:
168,172,57134,2,0,P|177:213|184:255,1,85.4999973907472,8|2,0:1|0:3,0:0:0:0:
118,48,57489,5,10,0:1:0:0:
67,209,57666,1,2,0:3:0:0:
258,150,57844,2,0,B|287:157|287:157|330:129|396:141,1,128.249996086121,8|0,0:1|0:0,0:0:0:0:
439,76,58199,6,0,P|426:147|411:231,1,152,14|2,0:1|0:3,0:0:0:0:
411,225,58732,1,8,0:1:0:0:
203,229,58909,6,0,P|216:300|231:384,1,152,10|8,0:2|0:1,0:0:0:0:
230,378,59442,1,8,0:3:0:0:
368,336,59619,2,0,P|340:319|285:319,1,76,10|8,0:1|0:3,0:0:0:0:
142,376,59974,1,8,0:1:0:0:
191,188,60152,1,0,0:0:0:0:
6,285,60329,6,0,P|15:320|24:368,1,76,10|8,0:2|0:1,0:0:0:0:
289,219,60684,2,0,P|341:232|403:246,1,114,8|0,0:2|0:0,0:0:0:0:
512,282,61039,6,0,B|339:220|367:394|198:345,1,332.499989852906,2|0,0:3|0:0,0:0:0:0:
122,384,62104,5,2,0:2:0:0:
14,295,62282,1,10,0:1:0:0:
118,68,62459,6,0,B|137:129|113:163|113:163|134:205|118:245,1,170.999994781494,12|0,0:1|0:0,0:0:0:0:
98,302,62814,2,0,P|139:265|193:274,1,113.999996520996,8|0,0:2|0:0,0:0:0:0:
329,363,63169,1,8,0:1:0:0:
256,161,63346,1,8,0:1:0:0:
442,243,63524,2,0,P|386:181|431:109,1,170.999994781494,10|0,0:2|0:0,0:0:0:0:
496,77,63879,6,0,B|445:89|405:57|430:51|390:19|340:32,1,170.999994781494,10|0,0:1|0:0,0:0:0:0:
281,95,64234,2,0,B|271:114|246:122|246:122|212:124|180:103,1,113.999996520996,10|0,0:2|0:0,0:0:0:0:
0,31,64589,1,10,0:1:0:0:
228,0,64766,1,8,0:1:0:0:
99,180,64944,2,0,P|79:125|80:70,1,113.999996520996,10|8,0:2|0:1,0:0:0:0:
61,326,65299,6,0,P|113:276|229:317,1,170.999994781494,10|0,0:1|0:0,0:0:0:0:
252,350,65654,1,8,0:2:0:0:
460,315,65831,2,0,B|407:328|407:328|334:265|363:172,1,227.999993041992,2|8,0:2|0:1,0:0:0:0:
452,88,66364,2,0,P|396:86|346:60,1,113.999996520996,8|0,0:2|0:0,0:0:0:0:
222,1,66719,5,8,0:1:0:0:
289,166,66896,1,8,0:1:0:0:
163,87,67074,2,0,P|106:89|56:115,1,113.999996520996,10|8,0:2|0:1,0:0:0:0:
103,289,67429,2,0,P|129:238|131:182,1,113.999996520996,10|8,0:1|0:1,0:0:0:0:
22,337,67784,1,10,0:2:0:0:
242,268,67961,5,2,0:2:0:0:
242,268,68050,1,2,0:2:0:0:
242,268,68139,2,0,B|310:251|363:294|330:302|383:345|450:328,1,227.999993041992,12|8,0:1|0:2,0:0:0:0:
493,185,68672,1,0,0:0:0:0:
411,135,68849,2,0,P|400:190|418:244,1,113.999996520996,8|8,0:1|0:1,0:0:0:0:
490,25,69204,1,10,0:2:0:0:
333,89,69382,1,2,0:2:0:0:
204,19,69559,6,0,B|135:27|135:27|99:82|32:66,1,170.999994781494,10|0,0:1|0:0,0:0:0:0:
0,14,69914,1,10,0:2:0:0:
190,107,70092,2,0,P|201:162|178:213,1,113.999996520996,2|8,0:2|0:1,0:0:0:0:
22,337,70447,2,0,P|-1:285|10:230,1,113.999996520996,10|8,0:1|0:2,0:0:0:0:
240,311,70802,5,2,0:2:0:0:
311,252,70979,2,0,P|387:215|467:239,1,170.999994781494,10|0,0:1|0:0,0:0:0:0:
512,304,71334,1,10,0:2:0:0:
485,76,71512,2,0,B|448:109|394:98|394:98|374:126|374:126|324:113|285:147,1,227.999993041992,2|8,0:2|0:1,0:0:0:0:
159,20,72044,2,0,P|214:13|263:41,1,113.999996520996,8|8,0:2|0:1,0:0:0:0:
34,143,72399,5,8,0:2:0:0:
29,123,72488,1,8,0:2:0:0:
24,103,72577,1,8,0:2:0:0:
20,84,72666,1,8,0:2:0:0:
15,64,72754,2,0,L|1:8,1,56.9999982604981,10|8,0:2|0:2,0:0:0:0:
195,98,72932,2,0,L|181:153,1,56.9999982604981,10|8,0:2|0:2,0:0:0:0:
38,282,73109,5,10,0:2:0:0:
65,267,73197,1,8,0:2:0:0:
95,264,73286,1,8,0:3:0:0:
125,272,73375,1,8,0:3:0:0:
150,289,73464,5,10,0:2:0:0:
199,323,73553,1,8,0:2:0:0:
258,310,73642,1,10,0:3:0:0:
288,258,73731,1,8,0:3:0:0:
271,200,73819,6,0,L|300:26,1,170.999994781494,12|0,0:1|0:0,0:0:0:0:
376,64,74174,2,0,P|437:63|469:6,1,113.999996520996,8|0,0:2|0:0,0:0:0:0:
199,153,74530,1,8,0:1:0:0:
141,3,74707,1,8,0:1:0:0:
8,114,74885,2,0,P|64:107|119:92,1,113.999996520996,10|0,0:2|0:0,0:0:0:0:
287,331,75240,6,0,P|208:355|136:313,1,170.999994781494,10|0,0:1|0:0,0:0:0:0:
52,328,75595,2,0,P|60:272|74:216,1,113.999996520996,10|0,0:2|0:0,0:0:0:0:
256,168,75950,1,10,0:1:0:0:
296,336,76127,1,8,0:1:0:0:
460,272,76305,6,0,P|420:264|362:253,1,99.7499969558717,10|0,0:2|0:0,0:0:0:0:
353,260,76660,5,14,0:1:0:0:
500,86,76837,1,0,0:0:0:0:
292,51,77015,1,10,0:2:0:0:
483,193,77192,1,0,0:0:0:0:
265,334,77370,6,0,P|242:285|242:227,1,113.999996520996,14|8,0:1|0:1,0:0:0:0:
512,104,77725,2,0,P|471:170|377:163,1,170.999994781494,10|0,0:2|0:0,0:0:0:0:
326,114,78080,5,12,0:1:0:0:
84,150,78257,1,8,0:1:0:0:
307,250,78435,1,10,0:2:0:0:
197,51,78612,1,8,0:1:0:0:
147,295,78790,2,0,P|93:312|36:321,1,113.999996520996,10|8,0:2|0:1,0:0:0:0:
301,364,79145,1,10,0:2:0:0:
220,244,79322,1,8,0:1:0:0:
370,118,79500,6,0,P|357:181|343:255,1,132.999995941162,12|2,0:1|0:2,0:0:0:0:
380,360,80032,1,8,0:1:0:0:
252,244,80210,1,10,0:2:0:0:
404,196,80387,1,0,0:0:0:0:
278,336,80565,6,0,P|236:328|175:319,1,99.7499969558717,10|0,0:1|0:0,0:0:0:0:
172,313,80920,2,0,P|144:328|91:335,1,66.4999979705811,8|0,0:1|0:0,0:0:0:0:
0,232,81275,1,10,0:1:0:0:
36,384,81453,1,0,0:0:0:0:
144,232,81630,6,0,P|137:198|129:154,1,66.4999979705811,10|0,0:2|0:0,0:0:0:0:
306,275,81985,2,0,B|326:275|340:280|340:280|371:261|410:262,1,99.7499969558717,10|0,0:1|0:0,0:0:0:0:
477,295,82341,6,0,P|483:262|488:230,1,66.4999979705811,8|0,0:1|0:0,0:0:0:0:
428,8,82695,2,0,P|422:40|416:73,1,66.4999979705811,10|0,0:1|0:0,0:0:0:0:
366,167,83050,6,0,P|409:158|507:136,1,132.999995941162,10|10,0:2|0:1,0:0:0:0:
415,73,83583,1,8,0:2:0:0:
290,228,83760,6,0,P|257:219|225:214,1,66.4999979705811,8|0,0:1|0:0,0:0:0:0:
112,148,84115,1,10,0:1:0:0:
168,300,84293,1,2,0:2:0:0:
0,279,84470,6,0,P|32:270|64:265,1,66.4999979705811,10|0,0:2|0:0,0:0:0:0:
253,131,84825,2,0,P|266:82|275:33,1,99.7499969558717,10|0,0:1|0:0,0:0:0:0:
275,33,85180,5,8,0:2:0:0:
379,224,85358,1,8,0:2:0:0:
428,15,85535,1,8,0:2:0:0:
247,139,85713,1,8,0:2:0:0:
473,269,85890,5,8,0:2:0:0:
357,82,86068,1,8,0:2:0:0:
269,332,86245,1,8,0:2:0:0:
511,178,86423,1,8,0:2:0:0:
237,64,86601,5,8,0:2:0:0:
201,84,86689,1,8,0:2:0:0:
166,78,86778,1,8,0:2:0:0:
134,51,86867,1,8,0:2:0:0:
124,9,86956,5,10,0:2:0:0:
62,0,87044,1,8,0:2:0:0:
8,29,87133,1,8,0:2:0:0:
0,92,87222,1,8,0:2:0:0:
30,147,87311,6,0,B|125:139|95:202|189:189,1,170.999994781494,10|2,0:1|0:2,0:0:0:0:
288,160,87843,2,0,P|295:137|285:159,1,71.2500027179719,8|8,0:1|0:1,0:0:0:0:
485,320,88021,6,0,P|427:282|360:301,1,142.5,14|0,0:1|0:0,0:0:0:0:
340,325,88376,2,0,P|293:333|246:332,1,95,8|0,0:2|0:0,0:0:0:0:
29,243,88731,1,8,0:1:0:0:
122,378,88908,1,8,0:1:0:0:
209,233,89086,2,0,P|222:186|196:136,1,95,10|0,0:2|0:0,0:0:0:0:
20,35,89441,6,0,B|39:67|39:67|98:85|136:44,1,142.5,10|0,0:1|0:0,0:0:0:0:
158,20,89796,1,8,0:2:0:0:
358,84,89973,2,0,P|311:91|263:91,1,95,10|2,0:1|0:3,0:0:0:0:
371,186,90328,1,8,0:1:0:0:
475,41,90506,2,0,P|467:87|467:135,1,95,10|0,0:2|0:0,0:0:0:0:
508,315,90861,6,0,P|441:299|354:290,1,142.5,10|0,0:1|0:0,0:0:0:0:
298,250,91216,2,0,P|251:248|213:275,1,95,8|0,0:2|0:0,0:0:0:0:
8,208,91571,1,8,0:1:0:0:
104,384,91748,1,8,0:1:0:0:
133,226,91926,2,0,B|135:192|144:170|144:170|125:123|116:73,1,142.5,10|0,0:2|0:0,0:0:0:0:
98,17,92281,6,0,P|134:45|179:36,1,95,10|8,0:1|0:1,0:0:0:0:
302,101,92636,2,0,P|380:70|441:107,1,142.5,10|0,0:2|0:0,0:0:0:0:
500,144,92991,2,0,P|490:190|490:237,1,95,10|8,0:1|0:1,0:0:0:0:
304,201,93346,2,0,P|350:191|397:191,1,95,10|8,0:2|0:1,0:0:0:0:
267,373,93701,6,0,B|221:373|190:344|190:344|137:334|90:377,1,190,14|8,0:1|0:2,0:0:0:0:
13,211,94234,1,8,0:1:0:0:
13,211,94322,1,8,0:1:0:0:
12,211,94411,2,0,P|57:198|102:210,1,95,8|8,0:1|0:1,0:0:0:0:
186,65,94766,2,0,P|234:113|301:100,1,142.5,10|0,0:2|0:0,0:0:0:0:
388,109,95121,6,0,P|375:63|370:15,1,95,10|8,0:1|0:1,0:0:0:0:
370,217,95476,2,0,P|415:204|463:199,1,95,10|8,0:2|0:1,0:0:0:0:
263,167,95831,1,10,0:1:0:0:
405,326,96009,1,8,0:1:0:0:
237,297,96186,2,0,P|189:291|143:279,1,95,10|0,0:2|0:0,0:0:0:0:
17,161,96541,6,0,B|49:180|49:180|67:239|26:277,1,142.5,10|0,0:1|0:0,0:0:0:0:
1,292,96896,1,8,0:2:0:0:
104,110,97074,2,0,P|150:102|196:115,1,95,2|8,0:2|0:1,0:0:0:0:
87,25,97429,1,8,0:1:0:0:
189,200,97606,2,0,B|232:210|266:182|245:177|279:150|322:161,1,142.5,8|0,0:2|0:0,0:0:0:0:
356,65,97961,5,12,0:1:0:0:
362,53,98050,1,8,0:1:0:0:
366,40,98139,2,0,L|310:51,1,47.5,8|8,0:1|0:1,0:0:0:0:
500,101,98316,6,0,P|498:53|512:8,1,95,10|8,0:2|0:1,0:0:0:0:
424,198,98671,2,0,P|425:245|411:290,1,95,10|8,0:2|0:2,0:0:0:0:
375,328,98938,1,8,0:2:0:0:
339,338,99026,1,10,0:2:0:0:
304,325,99115,1,8,0:2:0:0:
281,295,99204,2,0,P|260:282|237:277,1,47.5,8|8,0:1|0:1,0:0:0:0:
41,316,99381,6,0,P|5:257|23:180,1,142.5,14|0,0:1|0:0,0:0:0:0:
1,168,99736,2,0,L|98:153,1,95,8|0,0:2|0:0,0:0:0:0:
282,184,100092,1,8,0:1:0:0:
154,56,100269,1,8,0:1:0:0:
185,236,100447,1,10,0:2:0:0:
392,176,100624,6,0,P|372:264|356:362,1,190,2|8,0:3|0:1,0:0:0:0:
201,345,101157,2,0,B|172:359|146:350|146:350|106:369|56:362,1,142.5,10|0,0:2|0:0,0:0:0:0:
2,319,101512,1,10,0:1:0:0:
124,205,101689,1,8,0:1:0:0:
25,150,101867,2,0,P|31:197|43:246,1,95,10|0,0:2|0:0,0:0:0:0:
153,133,102222,5,14,0:1:0:0:
195,312,102399,1,0,0:0:0:0:
278,158,102577,1,8,0:2:0:0:
114,190,102754,1,8,0:1:0:0:
118,201,102843,1,8,0:1:0:0:
124,213,102932,2,0,P|172:221|220:233,1,95,8|8,0:1|0:1,0:0:0:0:
189,111,103287,1,10,0:0:0:0:
149,330,103464,1,10,0:1:0:0:
299,183,103642,6,0,P|291:129|281:86,1,95,12|0,0:1|0:0,0:0:0:0:
381,248,103997,2,0,P|452:252|511:204,1,142.5,8|0,0:2|0:0,0:0:0:0:
511,198,104352,1,10,0:1:0:0:
321,164,104529,1,10,0:1:0:0:
417,95,104707,1,10,0:0:0:0:
381,248,104884,1,10,0:1:0:0:
496,384,105062,6,0,P|428:342|322:365,1,170.999994781494,14|2,0:1|0:3,0:0:0:0:
193,247,105594,1,8,0:1:0:0:
126,300,105772,2,0,P|117:343|110:387,1,85.4999973907472,8|0,0:2|0:0,0:0:0:0:
193,247,106127,1,10,0:1:0:0:
39,166,106305,6,0,P|109:175|189:120,1,170.999994781494,10|8,0:2|0:3,0:0:0:0:
257,161,106837,2,0,P|309:149|357:140,1,85.4999973907472,8|0,0:1|0:0,0:0:0:0:
504,322,107192,6,0,P|433:335|376:286,1,128.249996086121,8|0,0:2|0:0,0:0:0:0:
377,290,107547,1,10,0:1:0:0:
446,207,107725,2,0,L|455:272,1,42.7499986953736,10|8,0:3|0:3,0:0:0:0:
204,372,107902,5,8,0:2:0:0:
305,141,108080,1,8,0:2:0:0:
107,193,108257,1,8,0:2:0:0:
316,292,108435,1,8,0:2:0:0:
56,361,108612,5,8,0:2:0:0:
68,326,108701,1,8,0:2:0:0:
108,298,108790,1,8,0:2:0:0:
156,292,108878,1,8,0:2:0:0:
193,311,108967,2,0,L|238:322,1,42.7499986953736,8|8,0:2|0:2,0:0:0:0:
431,182,109145,5,8,0:2:0:0:
436,167,109234,1,8,0:2:0:0:
442,153,109322,1,2,0:3:0:0:
341,96,109500,2,0,L|348:138,1,42.7499986953736,2|0,0:3|0:0,0:0:0:0:
496,242,109677,6,0,B|444:198|388:232|388:232|363:293|293:277,1,213.749993476868,14|0,0:1|0:0,0:0:0:0:
301,275,110210,1,8,0:1:0:0:
48,365,110387,1,8,0:2:0:0:
48,365,110742,6,0,B|84:311|15:265|15:265|12:256|12:256|50:194|125:215|125:215|250:174|206:5|78:22|78:22|118:48|128:127|86:113|64:176|109:233,1,797.999975646973,14|8,0:1|0:2,0:0:0:0:
183,316,113316,1,8,0:2:0:0:
183,316,113405,22,0,B|184:314|184:314|188:311|190:308|189:302|189:302|192:307|197:308|201:307|201:307|203:308|203:308|202:307|202:307|202:301|200:298|194:296|194:296|200:296|203:294|205:289|205:289|207:287|207:287|204:288|204:288|200:285|196:285|192:289|192:289|194:284|194:280|190:276|190:276|190:274|190:274|189:276|189:276|185:278|183:282|184:287|184:287|181:282|177:281|172:282|172:282|170:281|170:281|172:283|172:283|171:288|174:291|179:294|179:294|173:294|170:296|168:301|168:301|166:302|166:302|168:302|168:302|173:304|177:304|181:301|181:301|179:306|179:310|182:313,1,184.000009457237,8|0,0:1|0:0,0:0:0:0:
