osu file format v14

[General]
AudioFilename: audio.mp3
AudioLeadIn: 0
PreviewTime: 61306
Countdown: 0
SampleSet: Soft
StackLeniency: 0.4
Mode: 0
LetterboxInBreaks: 0
EpilepsyWarning: 1
WidescreenStoryboard: 1

[Editor]
Bookmarks: 4235,15595,26956,38317,49678,62459,73820,88021,99382,110743
DistanceSpacing: 1
BeatDivisor: 4
GridSize: 16
TimelineZoom: 1.6

[Metadata]
Title:Luminous Once More
TitleUnicode:もういちどルミナス
Artist:Pastel*Palettes
ArtistUnicode:Pastel*Palettes
Creator:midorijeon
Version:Liyuu's Insane
Source:バンドリ! ガールズバンドパーティ!
Tags:Mou Ichido BanG Dream! Girls Band Party! Bandori パステル パレット Pasupare パスパレ Aya Maruyama 丸山 彩 Maeshima Ami 前島亜美 Hikawa Hina 氷川 日菜 Ozawa Ari 小澤 亜李 Chisato Shirasagi 白鷺 千聖 Uesaka Sumire 上坂 すみれ Maya Yamato 大和 麻弥 Nakagami Ikumi 中上 育実 Eve Wakamiya 若宮 イヴ Hata Sawako 秦 佐和子 Video Game Anime Pop Jpop J-Pop Japanese Ayesha Altugle Shizuku- Kazato Asa Shikibe Mayu Liyuu Aquivery Rielle Asagi
BeatmapID:3880541
BeatmapSetID:1884593

[Difficulty]
HPDrainRate:4.5
CircleSize:4
OverallDifficulty:8
ApproachRate:8.7
SliderMultiplier:1.6
SliderTickRate:1

[Events]
//Background and Video events
0,0,"2.jpg",0,0
//Break Periods
2,49878,51518
2,52719,54181
//Storyboard Layer 0 (Background)
Sprite,Background,Centre,"2.jpg",0,0 M,0,0,,320,240 F,0,0,,0 S,0,0,,0.7 R,10,0,,0 F,0,4235,,1 S,10,4235,7075,0.9,0.7 R,10,4235,7075,0.1,0 S,10,26956,29797,0.9,0.7 M,0,26956,49678,320,200,320,240 S,10,55359,58199,0.9,0.7 S,9,59619,61394,0.7,0.9 F,13,61039,61394,1,0 F,0,88021,,1 S,10,88021,90861,0.9,0.7 R,10,88021,90861,0.1,0 S,9,107902,110742,0.7,0.9 S,10,110742,114293,0.9,0.7 R,10,110742,114293,0.1,0 F,13,113405,114293,1,0
Sprite,Background,Centre,"2.jpg",0,0 F,0,62459,,0,1 M,17,62459,63879,320,240,320.4525,240.6346 R,17,62459,63879,0,0.01072091 S,10,62459,67538,0.9,0.7 M,17,63879,65299,320.4525,240.6346,321.4525,234.6346 R,17,63879,65299,0.01072091,0.0218986 M,17,65299,66719,321.4525,234.6346,329.4525,232.6346 R,17,65299,66719,0.0218986,0.002347608 M,17,66719,68139,329.4525,232.6346,324.4525,227.6346 R,17,66719,68139,0.002347608,0.0116939 M,17,68139,69559,324.4525,227.6346,326.4525,226.6346 R,17,68139,69559,0.0116939,-0.007949122 M,17,69559,70979,326.4525,226.6346,316.4525,233.6346 R,17,69559,70979,-0.007949122,0.01195782 M,17,70979,72399,316.4525,233.6346,319.4525,229.6346 R,17,70979,72399,0.01195782,-0.004380339 M,17,72399,73819,319.4525,229.6346,325.4525,238.6346 R,17,72399,73819,-0.004380339,-0.003727835 M,17,73819,75240,325.4525,238.6346,328.4525,238.6346 R,17,73819,75240,-0.003727835,-0.02240821 M,17,75240,76660,328.4525,238.6346,331.4525,238.6346 R,17,75240,76660,-0.02240821,-0.02078601 M,17,76660,78080,331.4525,238.6346,324.4525,237.6346 R,17,76660,78080,-0.02078601,-0.02672945 M,17,78080,79500,324.4525,237.6346,333.4525,239.6346 R,17,78080,79500,-0.02672945,-0.01147018 M,17,79500,80920,333.4525,239.6346,323.4525,236.6346 R,17,79500,80920,-0.01147018,-0.01833301 M,17,80920,82340,323.4525,236.6346,332.4525,236.6346 R,17,80920,82340,-0.01833301,-0.004013562 M,17,82340,83760,332.4525,236.6346,324.4525,231.6346 R,17,82340,83760,-0.004013562,-0.02215552 M,17,83760,85180,324.4525,231.6346,329.4525,227.6346 R,17,83760,85180,-0.02215552,-0.01301134 M,17,85180,86601,329.4525,227.6346,321.4525,221.6346 R,17,85180,86601,-0.01301134,-0.02121281 M,17,86601,88021,321.4525,221.6346,325.4525,223.6346 R,17,86601,88021,-0.02121281,-0.01145345 F,0,88021,,1,0
Sprite,Background,Centre,"SB\2A.png",0,0 M,0,0,,320,240 F,0,0,,0 S,0,0,,0.7 R,10,0,,0 F,0,4235,,1 S,10,4235,7075,0.9,0.7 R,10,4235,7075,0.1,0 S,10,26956,29797,0.9,0.7 M,0,26956,49678,320,200,320,240 S,10,55359,58199,0.9,0.7 S,9,59619,61394,0.7,0.9 F,13,61039,61394,1,0 F,0,88021,,1 S,10,88021,90861,0.9,0.7 R,10,88021,90861,0.1,0 S,9,107902,110742,0.7,0.9 S,10,110742,114293,0.9,0.7 R,10,110742,114293,0.1,0 F,13,113405,114293,1,0
Sprite,Background,Centre,"sb\g.png",0,0 L,62459,5 F,1,0,852,0,0.4036265 M,1,0,4260,208.65,126.4521,208.65,86.45215 F,2,3408,4260,0.4036265,0 S,0,62459,,0.6 R,0,62459,,4.712389 C,0,62459,,243,243,243 P,0,62459,83760,A
Sprite,Background,Centre,"sb\g.png",0,0 L,62695,5 F,1,0,852,0,0.4036265 M,1,0,4260,489.5993,476.9894,489.5993,436.9894 F,2,3408,4260,0.4036265,0 S,0,62695,,0.6 R,0,62695,,4.712389 C,0,62695,,201,201,201 P,0,62695,83996,A
Sprite,Background,Centre,"sb\g.png",0,0 L,62814,5 F,1,0,852,0,0.4036265 M,1,0,4260,177.6272,208.3459,177.6272,168.3459 F,2,3408,4260,0.4036265,0 S,0,62814,,0.6 R,0,62814,,4.712389 C,0,62814,,211,211,211 P,0,62814,84115,A
Sprite,Background,Centre,"sb\g.png",0,0 L,62932,5 F,1,0,852,0,0.4036265 M,1,0,4260,286.1434,261.6891,286.1434,221.6891 F,2,3408,4260,0.4036265,0 S,0,62932,,0.6 R,0,62932,,4.712389 C,0,62932,,230,230,230 P,0,62932,84233,A
Sprite,Background,Centre,"sb\g.png",0,0 L,63050,5 F,1,0,852,0,0.4036265 M,1,0,4260,345.8347,552.8532,345.8347,512.8532 F,2,3408,4260,0.4036265,0 S,0,63050,,0.6 R,0,63050,,4.712389 C,0,63050,,217,217,217 P,0,63050,84351,A
Sprite,Background,Centre,"sb\g.png",0,0 L,63169,5 F,1,0,852,0,0.4036265 M,1,0,4260,23.90277,250.3161,23.90277,210.3161 F,2,3408,4260,0.4036265,0 S,0,63169,,0.6 R,0,63169,,4.712389 C,0,63169,,183,183,183 P,0,63169,84470,A
Sprite,Background,Centre,"sb\g.png",0,0 L,63287,5 F,1,0,852,0,0.4036265 M,1,0,4260,40.62646,366.7656,40.62646,326.7656 F,2,3408,4260,0.4036265,0 S,0,63287,,0.6 R,0,63287,,4.712389 C,0,63287,,236,236,236 P,0,63287,84588,A
Sprite,Background,Centre,"sb\g.png",0,0 L,63405,5 F,1,0,852,0,0.4036265 M,1,0,4260,692.1967,430.5067,692.1967,390.5067 F,2,3408,4260,0.4036265,0 S,0,63405,,0.6 R,0,63405,,4.712389 C,0,63405,,204,204,204 P,0,63405,84706,A
Sprite,Background,Centre,"sb\g.png",0,0 L,63524,5 F,1,0,852,0,0.4036265 M,1,0,4260,517.9731,419.0748,517.9731,379.0748 F,2,3408,4260,0.4036265,0 S,0,63524,,0.6 R,0,63524,,4.712389 C,0,63524,,221,221,221 P,0,63524,84825,A
Sprite,Background,Centre,"sb\g.png",0,0 L,63642,5 F,1,0,852,0,0.4036265 M,1,0,4260,695.4996,327.1971,695.4996,287.1971 F,2,3408,4260,0.4036265,0 S,0,63642,,0.6 R,0,63642,,4.712389 C,0,63642,,233,233,233 P,0,63642,84943,A
Sprite,Background,Centre,"sb\g.png",0,0 L,63760,5 F,1,0,852,0,0.4036265 M,1,0,4260,150.3521,406.1547,150.3521,366.1547 F,2,3408,4260,0.4036265,0 S,0,63760,,0.6 R,0,63760,,4.712389 C,0,63760,,208,208,208 P,0,63760,85061,A
Sprite,Background,Centre,"sb\g.png",0,0 L,63879,5 F,1,0,852,0,0.4036265 M,1,0,4260,20.9292,502.3984,20.9292,462.3984 F,2,3408,4260,0.4036265,0 S,0,63879,,0.6 R,0,63879,,4.712389 C,0,63879,,236,236,236 P,0,63879,85180,A
Sprite,Background,Centre,"sb\g.png",0,0 L,64352,5 F,1,0,852,0,0.4036265 M,1,0,4260,-39.91846,295.9913,-39.91846,255.9913 F,2,3408,4260,0.4036265,0 S,0,64352,,0.6 R,0,64352,,4.712389 C,0,64352,,232,232,232 P,0,64352,85653,A
Sprite,Background,Centre,"sb\g.png",0,0 L,64470,5 F,1,0,852,0,0.4036265 M,1,0,4260,371.696,73.36139,371.696,33.36139 F,2,3408,4260,0.4036265,0 S,0,64470,,0.6 R,0,64470,,4.712389 C,0,64470,,202,202,202 P,0,64470,85771,A
Sprite,Background,Centre,"sb\g.png",0,0 L,64589,5 F,1,0,852,0,0.4036265 M,1,0,4260,80.57216,232.1127,80.57216,192.1127 F,2,3408,4260,0.4036265,0 S,0,64589,,0.6 R,0,64589,,4.712389 C,0,64589,,202,202,202 P,0,64589,85890,A
Sprite,Background,Centre,"sb\g.png",0,0 L,64707,5 F,1,0,852,0,0.4036265 M,1,0,4260,138.1017,301.9816,138.1017,261.9816 F,2,3408,4260,0.4036265,0 S,0,64707,,0.6 R,0,64707,,4.712389 C,0,64707,,199,199,199 P,0,64707,86008,A
Sprite,Background,Centre,"sb\g.png",0,0 L,64944,5 F,1,0,852,0,0.4036265 M,1,0,4260,199.5789,121.9077,199.5789,81.90765 F,2,3408,4260,0.4036265,0 S,0,64944,,0.6 R,0,64944,,4.712389 C,0,64944,,230,230,230 P,0,64944,86245,A
Sprite,Background,Centre,"sb\g.png",0,0 L,65180,5 F,1,0,852,0,0.4036265 M,1,0,4260,139.4949,491.7273,139.4949,451.7273 F,2,3408,4260,0.4036265,0 S,0,65180,,0.6 R,0,65180,,4.712389 C,0,65180,,235,235,235 P,0,65180,86481,A
Sprite,Background,Centre,"sb\g.png",0,0 L,65299,5 F,1,0,852,0,0.4036265 M,1,0,4260,379.2807,498.9927,379.2807,458.9927 F,2,3408,4260,0.4036265,0 S,0,65299,,0.6 R,0,65299,,4.712389 C,0,65299,,206,206,206 P,0,65299,86600,A
Sprite,Background,Centre,"sb\g.png",0,0 L,65417,5 F,1,0,852,0,0.4036265 M,1,0,4260,436.7942,129.5965,436.7942,89.59653 F,2,3408,4260,0.4036265,0 S,0,65417,,0.6 R,0,65417,,4.712389 C,0,65417,,167,167,167 P,0,65417,86718,A
Sprite,Background,Centre,"sb\g.png",0,0 L,65535,5 F,1,0,852,0,0.4036265 M,1,0,4260,290.0044,166.2488,290.0044,126.2488 F,2,3408,4260,0.4036265,0 S,0,65535,,0.6 R,0,65535,,4.712389 C,0,65535,,203,203,203 P,0,65535,86836,A
Sprite,Background,Centre,"sb\g.png",0,0 L,65890,5 F,1,0,852,0,0.4036265 M,1,0,4260,424.3096,249.4642,424.3096,209.4642 F,2,3408,4260,0.4036265,0 S,0,65890,,0.6 R,0,65890,,4.712389 C,0,65890,,186,186,186 P,0,65890,87191,A
Sprite,Background,Centre,"sb\g.png",0,0 L,66009,5 F,1,0,852,0,0.4036265 M,1,0,4260,-90.65295,479.1814,-90.65295,439.1814 F,2,3408,4260,0.4036265,0 S,0,66009,,0.6 R,0,66009,,4.712389 C,0,66009,,212,212,212 P,0,66009,87310,A
Sprite,Background,Centre,"sb\g.png",0,0 L,66127,5 F,1,0,852,0,0.4036265 M,1,0,4260,330.3697,242.2579,330.3697,202.2579 F,2,3408,4260,0.4036265,0 S,0,66127,,0.6 R,0,66127,,4.712389 C,0,66127,,187,187,187 P,0,66127,87428,A
Sprite,Background,Centre,"sb\g.png",0,0 L,66364,5 F,1,0,852,0,0.4036265 M,1,0,4260,-21.07068,400.0579,-21.07068,360.0579 F,2,3408,4260,0.4036265,0 S,0,66364,,0.6 R,0,66364,,4.712389 C,0,66364,,229,229,229 P,0,66364,87665,A
Sprite,Background,Centre,"sb\g.png",0,0 L,66482,5 F,1,0,852,0,0.4036265 M,1,0,4260,241.016,440.3831,241.016,400.3831 F,2,3408,4260,0.4036265,0 S,0,66482,,0.6 R,0,66482,,4.712389 C,0,66482,,179,179,179 P,0,66482,87783,A
Sprite,Background,Centre,"sb\g.png",0,0 L,66600,5 F,1,0,852,0,0.4036265 M,1,0,4260,221.5522,529.8326,221.5522,489.8326 F,2,3408,4260,0.4036265,0 S,0,66600,,0.6 R,0,66600,,4.712389 C,0,66600,,193,193,193 P,0,66600,87901,A
Sprite,Background,Centre,"SB\2A.png",0,0 F,0,62459,,0,1 M,17,62459,63879,320,240,320.4525,240.6346 R,17,62459,63879,0,0.01072091 S,10,62459,67538,0.9,0.7 M,17,63879,65299,320.4525,240.6346,321.4525,234.6346 R,17,63879,65299,0.01072091,0.0218986 M,17,65299,66719,321.4525,234.6346,329.4525,232.6346 R,17,65299,66719,0.0218986,0.002347608 M,17,66719,68139,329.4525,232.6346,324.4525,227.6346 R,17,66719,68139,0.002347608,0.0116939 M,17,68139,69559,324.4525,227.6346,326.4525,226.6346 R,17,68139,69559,0.0116939,-0.007949122 M,17,69559,70979,326.4525,226.6346,316.4525,233.6346 R,17,69559,70979,-0.007949122,0.01195782 M,17,70979,72399,316.4525,233.6346,319.4525,229.6346 R,17,70979,72399,0.01195782,-0.004380339 M,17,72399,73819,319.4525,229.6346,325.4525,238.6346 R,17,72399,73819,-0.004380339,-0.003727835 M,17,73819,75240,325.4525,238.6346,328.4525,238.6346 R,17,73819,75240,-0.003727835,-0.02240821 M,17,75240,76660,328.4525,238.6346,331.4525,238.6346 R,17,75240,76660,-0.02240821,-0.02078601 M,17,76660,78080,331.4525,238.6346,324.4525,237.6346 R,17,76660,78080,-0.02078601,-0.02672945 M,17,78080,79500,324.4525,237.6346,333.4525,239.6346 R,17,78080,79500,-0.02672945,-0.01147018 M,17,79500,80920,333.4525,239.6346,323.4525,236.6346 R,17,79500,80920,-0.01147018,-0.01833301 M,17,80920,82340,323.4525,236.6346,332.4525,236.6346 R,17,80920,82340,-0.01833301,-0.004013562 M,17,82340,83760,332.4525,236.6346,324.4525,231.6346 R,17,82340,83760,-0.004013562,-0.02215552 M,17,83760,85180,324.4525,231.6346,329.4525,227.6346 R,17,83760,85180,-0.02215552,-0.01301134 M,17,85180,86601,329.4525,227.6346,321.4525,221.6346 R,17,85180,86601,-0.01301134,-0.02121281 M,17,86601,88021,321.4525,221.6346,325.4525,223.6346 R,17,86601,88021,-0.02121281,-0.01145345 F,0,88021,,1,0
//Storyboard Layer 1 (Fail)
//Storyboard Layer 2 (Pass)
//Storyboard Layer 3 (Foreground)
//Storyboard Layer 4 (Overlay)
//Storyboard Sound Samples

[TimingPoints]
2815,355.029585798817,4,2,6,60,1,8
2903,-100,4,2,2,60,0,8
3170,-100,4,2,6,60,0,8
3258,-100,4,2,2,60,0,8
3791,-100,4,2,3,60,0,8
4235,355.029585798817,4,2,1,75,1,0
4235,-100,4,2,1,75,0,0
4323,-100,4,2,2,75,0,0
4501,-100,4,2,2,5,0,0
4590,-100,4,2,10,75,0,0
4678,-100,4,2,2,75,0,0
4945,-100,4,2,10,75,0,0
5033,-100,4,2,2,75,0,0
5300,-100,4,2,10,75,0,0
5388,-100,4,2,2,75,0,0
5655,-100,4,2,10,75,0,0
5743,-100,4,2,2,75,0,0
6010,-100,4,2,10,75,0,0
6098,-100,4,2,2,75,0,0
6365,-100,4,2,10,75,0,0
6453,-100,4,2,2,5,0,0
6542,-100,4,2,2,75,0,0
6720,-100,4,2,10,75,0,0
6808,-100,4,2,2,75,0,0
7075,-100,4,2,10,75,0,0
7163,-100,4,2,2,75,0,0
7430,-100,4,2,10,75,0,0
7518,-100,4,2,2,75,0,0
7785,-100,4,2,10,75,0,0
7873,-100,4,2,2,75,0,0
8140,-100,4,2,10,75,0,0
8228,-100,4,2,2,75,0,0
8406,-100,4,2,2,5,0,0
8495,-100,4,2,10,75,0,0
8583,-100,4,2,2,75,0,0
8850,-100,4,2,10,75,0,0
8938,-100,4,2,2,75,0,0
9205,-100,4,2,10,75,0,0
9293,-100,4,2,2,75,0,0
9560,-100,4,2,10,75,0,0
9648,-100,4,2,2,75,0,0
10270,-100,4,2,10,75,0,0
10358,-100,4,2,2,75,0,0
10625,-100,4,2,10,75,0,0
10713,-100,4,2,2,75,0,0
10980,-100,4,2,10,75,0,0
11068,-100,4,2,2,75,0,0
11246,-100,4,2,2,5,0,0
11335,-100,4,2,10,75,0,0
11423,-100,4,2,2,75,0,0
11690,-100,4,2,10,75,0,0
11778,-100,4,2,2,75,0,0
12045,-100,4,2,10,75,0,0
12133,-100,4,2,2,75,0,0
12400,-100,4,2,10,75,0,0
12488,-100,4,2,2,75,0,0
12755,-100,4,2,10,75,0,0
12843,-100,4,2,2,75,0,0
13110,-100,4,2,10,75,0,0
13198,-100,4,2,2,75,0,0
13465,-100,4,2,10,75,0,0
13553,-100,4,2,2,75,0,0
13820,-100,4,2,10,75,0,0
13908,-100,4,2,2,75,0,0
14175,-100,4,2,3,75,0,0
14530,-100,4,2,10,75,0,0
14618,-100,4,2,2,75,0,0
14797,-100,4,2,2,5,0,0
14885,-100,4,2,10,75,0,0
14973,-100,4,2,2,75,0,0
15950,-100,4,2,10,75,0,0
16038,-100,4,2,2,75,0,0
16306,-100,4,2,10,75,0,0
16394,-100,4,2,2,75,0,0
16661,-100,4,2,10,75,0,0
16749,-100,4,2,2,75,0,0
17016,-100,4,2,10,75,0,0
17104,-100,4,2,2,75,0,0
17371,-100,4,2,10,75,0,0
17459,-100,4,2,2,75,0,0
17726,-100,4,2,10,75,0,0
17814,-100,4,2,2,75,0,0
18081,-100,4,2,10,75,0,0
18169,-100,4,2,2,75,0,0
18436,-100,4,2,3,75,0,0
18702,-100,4,2,3,5,0,0
18791,-100,4,2,10,75,0,0
18879,-100,4,2,2,75,0,0
19146,-100,4,2,10,75,0,0
19234,-100,4,2,2,75,0,0
19501,-100,4,2,10,75,0,0
19589,-100,4,2,2,75,0,0
20211,-100,4,2,10,75,0,0
20299,-100,4,2,2,75,0,0
20566,-100,4,2,10,75,0,0
20654,-100,4,2,2,75,0,0
20921,-100,4,2,10,75,0,0
21009,-100,4,2,2,75,0,0
21276,-111.111111111111,4,2,3,75,0,0
21631,-111.111111111111,4,2,10,75,0,0
21719,-111.111111111111,4,2,2,75,0,0
21986,-111.111111111111,4,2,10,75,0,0
22074,-111.111111111111,4,2,2,75,0,0
22341,-111.111111111111,4,2,10,75,0,0
22429,-111.111111111111,4,2,2,75,0,0
22696,-111.111111111111,4,2,10,75,0,0
22784,-111.111111111111,4,2,2,75,0,0
22874,-111.111111111111,4,2,5,75,0,0
23051,-111.111111111111,4,2,10,75,0,0
23139,-111.111111111111,4,2,2,75,0,0
23406,-111.111111111111,4,2,10,75,0,0
23494,-111.111111111111,4,2,2,75,0,0
23761,-111.111111111111,4,2,10,75,0,0
23849,-111.111111111111,4,2,2,75,0,0
23939,-111.111111111111,4,2,5,75,0,0
24116,-111.111111111111,4,2,3,75,0,0
24294,-111.111111111111,4,2,3,45,0,0
24471,-111.111111111111,4,2,3,50,0,0
24649,-111.111111111111,4,2,3,54,0,0
24826,-111.111111111111,4,2,3,59,0,0
24915,-111.111111111111,4,2,3,61,0,0
25004,-111.111111111111,4,2,3,63,0,0
25092,-111.111111111111,4,2,3,66,0,0
25181,-111.111111111111,4,2,3,68,0,0
25270,-111.111111111111,4,2,3,70,0,0
25359,-111.111111111111,4,2,3,73,0,0
25448,-111.111111111111,4,2,3,75,0,0
25536,-111.111111111111,4,2,3,50,0,0
25891,-111.111111111111,4,2,2,75,0,0
26424,-111.111111111111,4,2,2,70,0,0
26868,-111.111111111111,4,2,2,5,0,0
26956,-125,4,2,3,65,0,0
28199,-125,4,2,14,65,0,0
28288,-125,4,2,2,65,0,0
29264,-125,4,2,14,65,0,0
29353,-125,4,2,2,65,0,0
29619,-125,4,2,14,65,0,0
29708,-125,4,2,2,65,0,0
31039,-125,4,2,14,65,0,0
31128,-125,4,2,2,65,0,0
32459,-125,4,2,3,65,0,0
32637,-125,4,2,2,65,0,0
33879,-125,4,2,14,65,0,0
33968,-125,4,2,2,65,0,0
34678,-125,4,2,2,5,0,0
34767,-125,4,2,2,65,0,0
34945,-125,4,2,14,65,0,0
35034,-125,4,2,2,65,0,0
35300,-125,4,2,14,65,0,0
35389,-125,4,2,2,65,0,0
36720,-125,4,2,14,65,0,0
36809,-125,4,2,2,65,0,0
37962,-125,4,2,12,65,0,0
38051,-125,4,2,2,65,0,0
39560,-125,4,2,14,65,0,0
39649,-125,4,2,2,65,0,0
40625,-125,4,2,14,65,0,0
40714,-125,4,2,2,65,0,0
40980,-125,4,2,14,65,0,0
41069,-125,4,2,2,65,0,0
42400,-125,4,2,14,65,0,0
42489,-125,4,2,2,65,0,0
43820,-125,4,2,3,65,0,0
43998,-125,4,2,2,65,0,0
46661,-125,4,2,3,65,0,0
46838,-125,4,2,2,65,0,0
47726,-125,4,2,6,65,0,0
47815,-125,4,2,2,65,0,0
47903,-125,4,2,6,65,0,0
47992,-125,4,2,2,65,0,0
48081,-125,4,2,7,65,0,0
48170,-125,4,2,2,65,0,0
48258,-125,4,2,6,65,0,0
48347,-125,4,2,2,65,0,0
48524,-125,4,2,2,5,0,0
48613,-125,4,2,6,65,0,0
48702,-125,4,2,2,65,0,0
48968,-125,4,2,6,65,0,0
49057,-125,4,2,2,65,0,0
49323,-125,4,2,6,65,0,0
49412,-125,4,2,2,5,0,0
49501,-125,4,2,2,65,0,0
49678,-125,4,2,2,60,0,0
52519,-125,4,2,7,60,0,0
52607,-125,4,2,2,60,0,0
55004,-125,4,2,2,65,0,0
55270,-125,4,2,2,5,0,0
55359,-111.111111111111,4,2,2,70,0,0
55536,-111.111111111111,4,2,12,70,0,0
55625,-111.111111111111,4,2,2,70,0,0
55891,-111.111111111111,4,2,12,70,0,0
55980,-111.111111111111,4,2,2,70,0,0
56246,-111.111111111111,4,2,12,70,0,0
56335,-111.111111111111,4,2,2,70,0,0
56601,-111.111111111111,4,2,12,70,0,0
56690,-111.111111111111,4,2,2,70,0,0
56956,-111.111111111111,4,2,12,70,0,0
57045,-111.111111111111,4,2,2,70,0,0
57311,-111.111111111111,4,2,12,70,0,0
57400,-111.111111111111,4,2,2,70,0,0
57666,-111.111111111111,4,2,12,70,0,0
57755,-111.111111111111,4,2,2,70,0,0
58021,-111.111111111111,4,2,12,70,0,0
58110,-111.111111111111,4,2,2,70,0,0
58199,-125,4,2,3,70,0,0
58554,-125,4,2,6,70,0,0
58643,-125,4,2,2,70,0,0
58909,-125,4,2,6,70,0,0
58998,-125,4,2,2,70,0,0
59264,-125,4,2,6,70,0,0
59353,-125,4,2,2,70,0,0
59442,-125,4,2,5,70,0,0
59619,-125,4,2,6,70,0,0
59708,-125,4,2,2,70,0,0
59797,-125,4,2,5,70,0,0
59974,-125,4,2,6,70,0,0
60063,-125,4,2,2,70,0,0
60329,-125,4,2,6,70,0,0
60418,-125,4,2,2,70,0,0
60684,-111.111111111111,4,2,6,70,0,0
60773,-111.111111111111,4,2,2,70,0,0
61039,-111.111111111111,4,2,2,55,0,0
62459,355.029585798817,4,2,1,80,1,0
62459,-90.9090909090909,4,2,1,80,0,0
62547,-90.9090909090909,4,2,2,80,0,0
62725,-90.9090909090909,4,2,2,5,0,0
62814,-90.9090909090909,4,2,10,80,0,0
62902,-90.9090909090909,4,2,2,80,0,0
63169,-90.9090909090909,4,2,10,80,0,0
63257,-90.9090909090909,4,2,2,80,0,0
63524,-90.9090909090909,4,2,10,80,0,0
63612,-90.9090909090909,4,2,2,80,0,0
63790,-90.9090909090909,4,2,2,5,0,0
63879,-90.9090909090909,4,2,10,80,0,0
63967,-90.9090909090909,4,2,2,80,0,0
64234,-90.9090909090909,4,2,10,80,0,0
64322,-90.9090909090909,4,2,2,80,0,0
64589,-90.9090909090909,4,2,10,80,0,0
64677,-90.9090909090909,4,2,2,80,0,0
64855,-90.9090909090909,4,2,2,5,0,0
64944,-90.9090909090909,4,2,10,80,0,0
65032,-90.9090909090909,4,2,2,80,0,0
65299,-90.9090909090909,4,2,10,80,0,0
65387,-90.9090909090909,4,2,2,80,0,0
65654,-90.9090909090909,4,2,10,80,0,0
65742,-90.9090909090909,4,2,2,80,0,0
66009,-90.9090909090909,4,2,10,80,0,0
66097,-90.9090909090909,4,2,2,80,0,0
66364,-90.9090909090909,4,2,10,80,0,0
66452,-90.9090909090909,4,2,2,80,0,0
66719,-90.9090909090909,4,2,10,80,0,0
66807,-90.9090909090909,4,2,2,80,0,0
67074,-90.9090909090909,4,2,10,80,0,0
67162,-90.9090909090909,4,2,2,80,0,0
67429,-90.9090909090909,4,2,10,80,0,0
67517,-90.9090909090909,4,2,2,80,0,0
67784,-90.9090909090909,4,2,10,80,0,0
67872,-90.9090909090909,4,2,2,80,0,0
68139,-90.9090909090909,4,2,3,80,0,0
68405,-90.9090909090909,4,2,3,5,0,0
68494,-90.9090909090909,4,2,10,80,0,0
68582,-90.9090909090909,4,2,2,80,0,0
68849,-90.9090909090909,4,2,10,80,0,0
68937,-90.9090909090909,4,2,2,80,0,0
69204,-90.9090909090909,4,2,10,80,0,0
69292,-90.9090909090909,4,2,2,80,0,0
69559,-90.9090909090909,4,2,10,80,0,0
69647,-90.9090909090909,4,2,2,80,0,0
69825,-90.9090909090909,4,2,2,5,0,0
69914,-90.9090909090909,4,2,10,80,0,0
70002,-90.9090909090909,4,2,2,80,0,0
70269,-90.9090909090909,4,2,10,80,0,0
70357,-90.9090909090909,4,2,2,80,0,0
70624,-90.9090909090909,4,2,10,80,0,0
70712,-90.9090909090909,4,2,2,80,0,0
70979,-90.9090909090909,4,2,10,80,0,0
71067,-90.9090909090909,4,2,2,80,0,0
71245,-90.9090909090909,4,2,2,5,0,0
71334,-90.9090909090909,4,2,10,80,0,0
71422,-90.9090909090909,4,2,2,80,0,0
71689,-90.9090909090909,4,2,10,80,0,0
71777,-90.9090909090909,4,2,2,80,0,0
72044,-90.9090909090909,4,2,10,80,0,0
72132,-90.9090909090909,4,2,2,80,0,0
72488,-90.9090909090909,4,2,2,60,0,0
72754,-90.9090909090909,4,2,2,80,0,0
72843,-90.9090909090909,4,2,2,60,0,0
73109,-90.9090909090909,4,2,2,80,0,0
73198,-90.9090909090909,4,2,2,60,0,0
73287,-90.9090909090909,4,2,3,60,0,0
73464,-90.9090909090909,4,2,3,80,0,0
73553,-90.9090909090909,4,2,3,60,0,0
73819,-90.9090909090909,4,2,2,80,0,0
74086,-90.9090909090909,4,2,2,5,0,0
74174,-90.9090909090909,4,2,10,80,0,0
74262,-90.9090909090909,4,2,2,80,0,0
74530,-90.9090909090909,4,2,10,80,0,0
74618,-90.9090909090909,4,2,2,80,0,0
74885,-90.9090909090909,4,2,10,80,0,0
74973,-90.9090909090909,4,2,2,80,0,0
75240,-90.9090909090909,4,2,10,80,0,0
75328,-90.9090909090909,4,2,2,80,0,0
75506,-90.9090909090909,4,2,2,5,0,0
75595,-90.9090909090909,4,2,10,80,0,0
75683,-90.9090909090909,4,2,2,80,0,0
75950,-90.9090909090909,4,2,10,80,0,0
76038,-90.9090909090909,4,2,2,80,0,0
76305,-90.9090909090909,4,2,10,80,0,0
76393,-90.9090909090909,4,2,2,80,0,0
76660,-90.9090909090909,4,2,9,80,0,0
76748,-90.9090909090909,4,2,2,80,0,0
76926,-90.9090909090909,4,2,2,5,0,0
77015,-90.9090909090909,4,2,10,80,0,0
77103,-90.9090909090909,4,2,2,80,0,0
77370,-90.9090909090909,4,2,9,80,0,0
77458,-90.9090909090909,4,2,2,80,0,0
77725,-90.9090909090909,4,2,10,80,0,0
77813,-90.9090909090909,4,2,2,80,0,0
77991,-90.9090909090909,4,2,2,5,0,0
78080,-90.9090909090909,4,2,9,80,0,0
78168,-90.9090909090909,4,2,2,80,0,0
78435,-90.9090909090909,4,2,10,80,0,0
78523,-90.9090909090909,4,2,2,80,0,0
78790,-90.9090909090909,4,2,10,80,0,0
78878,-90.9090909090909,4,2,2,80,0,0
79145,-90.9090909090909,4,2,10,80,0,0
79233,-90.9090909090909,4,2,2,80,0,0
79500,-100,4,2,3,70,0,0
79766,-100,4,2,3,5,0,0
79855,-100,4,2,11,70,0,0
79943,-100,4,2,2,70,0,0
80210,-100,4,2,10,70,0,0
80298,-100,4,2,2,70,0,0
80565,-100,4,2,10,70,0,0
80653,-100,4,2,2,70,0,0
80920,-100,4,2,10,70,0,0
81008,-100,4,2,2,70,0,0
81275,-100,4,2,10,70,0,0
81363,-100,4,2,2,70,0,0
81630,-100,4,2,10,70,0,0
81718,-100,4,2,2,70,0,0
81896,-100,4,2,2,5,0,0
81985,-100,4,2,10,70,0,0
82073,-100,4,2,2,70,0,0
82340,-100,4,2,10,70,0,0
82428,-100,4,2,2,70,0,0
82606,-100,4,2,2,5,0,0
82695,-100,4,2,10,70,0,0
82783,-100,4,2,2,70,0,0
83050,-100,4,2,10,70,0,0
83138,-100,4,2,2,70,0,0
83316,-100,4,2,2,5,0,0
83405,-100,4,2,10,70,0,0
83493,-100,4,2,2,70,0,0
83760,-100,4,2,10,70,0,0
83848,-100,4,2,2,70,0,0
84115,-100,4,2,10,70,0,0
84203,-100,4,2,2,70,0,0
84470,-100,4,2,10,70,0,0
84558,-100,4,2,2,70,0,0
84737,-100,4,2,2,5,0,0
84825,-100,4,2,10,70,0,0
84913,-100,4,2,2,70,0,0
85358,-90.9090909090909,4,2,2,45,0,0
85535,-90.9090909090909,4,2,2,48,0,0
85713,-90.9090909090909,4,2,2,50,0,0
85890,-90.9090909090909,4,2,2,53,0,0
86068,-90.9090909090909,4,2,2,56,0,0
86245,-90.9090909090909,4,2,2,59,0,0
86423,-90.9090909090909,4,2,2,61,0,0
86601,-90.9090909090909,4,2,2,64,0,0
86689,-90.9090909090909,4,2,2,65,0,0
86778,-90.9090909090909,4,2,2,67,0,0
86866,-90.9090909090909,4,2,2,68,0,0
86956,-90.9090909090909,4,2,2,70,0,0
87044,-90.9090909090909,4,2,2,71,0,0
87133,-90.9090909090909,4,2,2,72,0,0
87221,-90.9090909090909,4,2,2,74,0,0
87311,-90.9090909090909,4,2,6,75,0,0
87399,-90.9090909090909,4,2,2,75,0,0
88021,355.029585798817,4,2,1,75,1,0
88021,-100,4,2,1,75,0,0
88109,-100,4,2,2,75,0,0
88376,-100,4,2,10,75,0,0
88464,-100,4,2,2,75,0,0
88731,-100,4,2,10,75,0,0
88819,-100,4,2,2,75,0,0
89086,-100,4,2,10,75,0,0
89174,-100,4,2,2,75,0,0
89441,-100,4,2,10,75,0,0
89529,-100,4,2,2,75,0,0
89796,-100,4,2,10,75,0,0
89884,-100,4,2,2,75,0,0
90151,-100,4,2,10,75,0,0
90239,-100,4,2,2,5,0,0
90328,-100,4,2,2,75,0,0
90506,-100,4,2,10,75,0,0
90594,-100,4,2,2,75,0,0
90861,-100,4,2,10,75,0,0
90949,-100,4,2,2,75,0,0
91216,-100,4,2,10,75,0,0
91304,-100,4,2,2,75,0,0
91571,-100,4,2,10,75,0,0
91659,-100,4,2,2,75,0,0
91926,-100,4,2,10,75,0,0
92014,-100,4,2,2,75,0,0
92192,-100,4,2,2,5,0,0
92281,-100,4,2,10,75,0,0
92369,-100,4,2,2,75,0,0
92636,-100,4,2,10,75,0,0
92724,-100,4,2,2,75,0,0
92991,-100,4,2,10,75,0,0
93079,-100,4,2,2,75,0,0
93346,-100,4,2,10,75,0,0
93434,-100,4,2,2,75,0,0
94056,-100,4,2,10,75,0,0
94144,-100,4,2,2,75,0,0
94411,-100,4,2,10,75,0,0
94499,-100,4,2,2,75,0,0
94766,-100,4,2,10,75,0,0
94854,-100,4,2,2,75,0,0
95121,-100,4,2,10,75,0,0
95209,-100,4,2,2,75,0,0
95476,-100,4,2,10,75,0,0
95564,-100,4,2,2,75,0,0
95831,-100,4,2,10,75,0,0
95919,-100,4,2,2,75,0,0
96186,-100,4,2,10,75,0,0
96274,-100,4,2,2,75,0,0
96541,-100,4,2,10,75,0,0
96629,-100,4,2,2,75,0,0
96896,-100,4,2,10,75,0,0
96984,-100,4,2,2,75,0,0
97251,-100,4,2,10,75,0,0
97339,-100,4,2,2,75,0,0
97606,-100,4,2,10,75,0,0
97694,-100,4,2,2,75,0,0
97961,-100,4,2,3,75,0,0
98316,-100,4,2,10,75,0,0
98404,-100,4,2,2,75,0,0
98583,-100,4,2,2,5,0,0
98671,-100,4,2,10,75,0,0
98759,-100,4,2,2,75,0,0
99736,-100,4,2,10,75,0,0
99824,-100,4,2,2,75,0,0
100092,-100,4,2,10,75,0,0
100180,-100,4,2,2,75,0,0
100447,-100,4,2,10,75,0,0
100535,-100,4,2,2,75,0,0
100802,-100,4,2,10,75,0,0
100890,-100,4,2,2,75,0,0
101157,-100,4,2,10,75,0,0
101245,-100,4,2,2,75,0,0
101512,-100,4,2,10,75,0,0
101600,-100,4,2,2,75,0,0
101867,-100,4,2,10,75,0,0
101955,-100,4,2,2,75,0,0
102222,-100,4,2,3,75,0,0
102488,-100,4,2,3,5,0,0
102577,-100,4,2,10,75,0,0
102665,-100,4,2,2,75,0,0
102932,-100,4,2,10,75,0,0
103020,-100,4,2,2,75,0,0
103287,-100,4,2,10,75,0,0
103375,-100,4,2,2,75,0,0
103997,-100,4,2,10,75,0,0
104085,-100,4,2,2,75,0,0
104352,-100,4,2,10,75,0,0
104440,-100,4,2,2,75,0,0
104707,-100,4,2,10,75,0,0
104795,-100,4,2,2,75,0,0
105062,-111.111111111111,4,2,3,75,0,0
105417,-111.111111111111,4,2,10,75,0,0
105505,-111.111111111111,4,2,2,75,0,0
105772,-111.111111111111,4,2,10,75,0,0
105860,-111.111111111111,4,2,2,75,0,0
106127,-111.111111111111,4,2,10,75,0,0
106215,-111.111111111111,4,2,2,75,0,0
106482,-111.111111111111,4,2,10,75,0,0
106570,-111.111111111111,4,2,2,75,0,0
106660,-111.111111111111,4,2,5,75,0,0
106837,-111.111111111111,4,2,10,75,0,0
106925,-111.111111111111,4,2,2,75,0,0
107192,-111.111111111111,4,2,10,75,0,0
107280,-111.111111111111,4,2,2,75,0,0
107458,-111.111111111111,4,2,2,5,0,0
107547,-111.111111111111,4,2,10,75,0,0
107635,-111.111111111111,4,2,2,75,0,0
107725,-111.111111111111,4,2,5,75,0,0
107902,-111.111111111111,4,2,3,75,0,0
108080,-111.111111111111,4,2,3,45,0,0
108257,-111.111111111111,4,2,3,50,0,0
108435,-111.111111111111,4,2,3,54,0,0
108612,-111.111111111111,4,2,3,59,0,0
108701,-111.111111111111,4,2,3,61,0,0
108790,-111.111111111111,4,2,3,63,0,0
108878,-111.111111111111,4,2,3,66,0,0
108967,-111.111111111111,4,2,3,68,0,0
109056,-111.111111111111,4,2,3,70,0,0
109145,-111.111111111111,4,2,3,73,0,0
109234,-111.111111111111,4,2,3,75,0,0
109322,-111.111111111111,4,2,3,50,0,0
109677,-222.222222222222,4,2,2,75,0,0
110742,-222.222222222222,4,2,1,65,0,0
110831,-222.222222222222,4,2,2,65,0,0

[Colours]
Combo1 : 221,187,255
Combo2 : 255,136,187
Combo3 : 85,221,238
Combo4 : 255,238,170
Combo5 : 153,221,136

[HitObjects]
329,245,3347,5,2,0:2:0:0:
476,268,3525,2,0,L|491:205,2,40,10|8|10,0:2|0:2|0:3,0:0:0:0:
395,304,3880,2,0,L|404:342,2,40,10|8|10,0:2|0:2|0:1,0:0:0:0:
322,233,4235,6,0,P|223:257|197:263,1,120,14|0,0:1|0:0,0:0:0:0:
193,237,4590,2,0,P|211:163|216:143,1,80,8|0,0:2|0:0,0:0:0:0:
149,86,4945,1,8,0:1:0:0:
149,86,5122,1,8,0:1:0:0:
76,189,5300,2,0,P|57:115|52:95,1,80,10|0,0:2|0:0,0:0:0:0:
101,0,5655,6,0,P|143:44|233:27,1,160,10|8,0:1|0:2,0:0:0:0:
416,68,6187,2,0,P|357:82|299:97,1,120,10|0,0:1|0:0,0:0:0:0:
277,104,6542,1,8,0:1:0:0:
360,233,6720,2,0,P|381:207|375:157,1,80,10|0,0:2|0:0,0:0:0:0:
233,27,7075,6,0,P|188:69|205:159,1,160,10|8,0:1|0:2,0:0:0:0:
277,254,7607,1,0,0:0:0:0:
277,254,7785,2,0,P|238:263|199:273,1,80,8|8,0:1|0:1,0:0:0:0:
0,355,8140,2,0,P|58:369|116:384,1,120,10|0,0:2|0:0,0:0:0:0:
138,367,8495,6,0,P|119:293|114:273,1,80,10|8,0:1|0:1,0:0:0:0:
7,178,8850,2,0,P|25:251|30:271,1,80,10|8,0:2|0:1,0:0:0:0:
119,181,9205,1,10,0:1:0:0:
119,181,9382,1,8,0:1:0:0:
199,273,9560,2,0,P|208:234|218:195,1,80,10|8,0:2|0:1,0:0:0:0:
449,194,9915,6,0,B|386:209|386:209|363:231|363:231|274:251,1,160,14|8,0:1|0:2,0:0:0:0:
202,118,10448,1,0,0:0:0:0:
202,118,10625,2,0,P|240:113|272:136,1,80,8|8,0:1|0:1,0:0:0:0:
461,60,10980,2,0,P|425:94|339:77,1,120,10|0,0:2|0:0,0:0:0:0:
338,77,11335,6,0,P|356:3|361:-16,1,80,10|8,0:1|0:1,0:0:0:0:
480,168,11690,2,0,P|441:178|402:187,1,80,10|8,0:2|0:1,0:0:0:0:
319,326,12045,2,0,P|357:315|396:306,1,80,10|8,0:1|0:1,0:0:0:0:
419,327,12311,1,8,0:1:0:0:
419,327,12400,2,0,P|458:336|496:347,1,80,10|0,0:2|0:0,0:0:0:0:
306,228,12755,6,0,B|222:204|238:264|151:244,1,160,10|8,0:1|0:2,0:0:0:0:
61,161,13288,1,2,0:2:0:0:
61,161,13465,2,0,P|50:199|41:238,1,80,8|8,0:1|0:1,0:0:0:0:
95,314,13820,1,8,0:2:0:0:
237,276,13998,5,8,0:1:0:0:
237,276,14087,1,8,0:1:0:0:
237,276,14175,1,12,0:1:0:0:
177,162,14353,1,8,0:1:0:0:
335,111,14530,6,0,P|319:169|305:227,1,120,10|0,0:2|0:0,0:0:0:0:
320,257,14885,2,0,P|351:280|390:275,1,80,10|8,0:2|0:2,0:0:0:0:
480,183,15240,1,10,0:2:0:0:
480,183,15329,1,8,0:2:0:0:
480,183,15418,2,0,L|471:145,1,40,8|8,0:1|0:1,0:0:0:0:
347,19,15595,6,0,B|284:34|284:34|261:56|261:56|172:76,1,160,14|8,0:1|0:2,0:0:0:0:
60,0,16128,1,0,0:0:0:0:
60,0,16306,2,0,P|98:10|137:19,1,80,8|8,0:1|0:1,0:0:0:0:
59,194,16661,5,10,0:2:0:0:
117,265,16838,2,0,P|98:191|70:78,1,160,2|8,0:2|0:1,0:0:0:0:
199,70,17371,2,0,P|188:108|179:147,1,80,10|8,0:2|0:1,0:0:0:0:
268,191,17726,1,10,0:1:0:0:
268,191,17903,1,8,0:1:0:0:
117,265,18081,2,0,P|155:254|194:245,1,80,10|0,0:2|0:0,0:0:0:0:
363,232,18436,6,0,P|347:290|333:348,1,120,14|0,0:1|0:0,0:0:0:0:
304,364,18791,2,0,P|265:373|227:384,1,80,8|0,0:2|0:0,0:0:0:0:
117,265,19146,2,0,P|127:226|136:187,1,80,8|8,0:1|0:1,0:0:0:0:
0,259,19501,1,10,0:2:0:0:
210,298,19678,5,10,0:1:0:0:
210,298,19767,1,8,0:1:0:0:
210,298,19856,2,0,P|268:248|342:270,1,160,12|8,0:1|0:2,0:0:0:0:
361,286,20300,1,8,0:1:0:0:
361,286,20388,1,8,0:1:0:0:
448,210,20566,1,10,0:1:0:0:
448,210,20743,1,10,0:1:0:0:
512,312,20921,1,10,0:2:0:0:
360,189,21098,5,10,0:1:0:0:
360,189,21187,1,8,0:1:0:0:
360,189,21276,2,0,P|340:111|321:33,1,143.999995605469,14|2,0:1|0:3,0:0:0:0:
443,76,21808,1,8,0:1:0:0:
457,0,21986,2,0,P|476:77|495:155,1,143.999995605469,8|10,0:2|0:1,0:0:0:0:
360,189,22519,5,10,0:2:0:0:
360,189,22607,1,8,0:2:0:0:
360,189,22696,2,0,P|325:180|290:171,1,71.9999978027344,8|8,0:1|0:3,0:0:0:0:
297,81,23051,2,0,P|262:89|227:98,1,71.9999978027344,8|0,0:1|0:0,0:0:0:0:
175,25,23406,2,0,P|134:62|144:147,1,143.999995605469,8|10,0:2|0:1,0:0:0:0:
205,207,23939,1,10,0:3:0:0:
51,254,24116,6,0,P|59:288|68:323,1,71.9999978027344,8|8,0:2|0:2,0:0:0:0:
150,286,24471,1,8,0:2:0:0:
232,381,24649,1,8,0:2:0:0:
309,249,24826,5,8,0:2:0:0:
338,235,24915,1,8,0:2:0:0:
370,237,25004,1,8,0:2:0:0:
400,248,25092,1,8,0:2:0:0:
421,272,25181,2,0,L|412:306,1,35.9999989013672,8|8,0:2|0:2,0:0:0:0:
331,384,25359,2,0,L|339:349,1,35.9999989013672,8|8,0:2|0:2,0:0:0:0:
338,160,25536,5,2,0:3:0:0:
338,160,25891,6,0,B|281:174|281:174|260:193|260:193|204:206,1,143.999995605469,14|0,0:1|0:0,0:0:0:0:
84,166,26424,1,8,0:1:0:0:
126,99,26601,2,0,P|163:85|220:127,1,107.999996704102,8|0,0:2|0:0,0:0:0:0:
220,144,26956,6,0,P|212:174|204:205,1,64,12|0,0:1|0:0,0:0:0:0:
157,307,27311,2,0,P|219:291|281:276,2,128,10|8|10,0:1|0:1|0:1,0:0:0:0:
78,383,28199,2,0,P|24:364|2:286,1,128,10|0,0:2|0:0,0:0:0:0:
98,210,28732,6,0,P|90:240|82:271,1,64,10|0,0:1|0:0,0:0:0:0:
0,195,29087,2,0,P|7:164|15:133,1,64,10|8,0:1|0:2,0:0:0:0:
100,113,29442,1,10,0:1:0:0:
67,30,29619,5,8,0:2:0:0:
67,30,29708,1,0,0:0:0:0:
67,30,29797,2,0,P|114:70|176:61,1,128,10|8,0:1|0:1,0:0:0:0:
286,0,30329,2,0,P|270:62|255:124,2,128,2|0|8,0:2|0:0|0:2,0:0:0:0:
175,61,31217,1,8,0:1:0:0:
248,211,31572,6,0,P|279:210|307:194,1,64,10|0,0:1|0:0,0:0:0:0:
404,289,31927,2,0,P|376:273|344:272,1,64,10|8,0:1|0:2,0:0:0:0:
395,178,32282,1,10,0:1:0:0:
395,178,32459,1,8,0:3:0:0:
480,255,32637,6,0,P|487:316|448:365,2,128,10|8|8,0:1|0:1|0:1,0:0:0:0:
401,87,33702,2,0,P|369:94|338:102,1,64,10|8,0:1|0:2,0:0:0:0:
199,29,34057,6,0,P|191:60|183:91,1,64,10|0,0:1|0:0,0:0:0:0:
226,267,34412,2,0,P|237:220|249:173,1,96,10|0,0:1|0:0,0:0:0:0:
256,148,34767,1,10,0:1:0:0:
183,91,34945,1,8,0:2:0:0:
107,143,35122,2,0,P|114:174|122:205,1,64,10|8,0:1|0:2,0:0:0:0:
23,326,35477,6,0,P|71:287|133:294,1,128,10|8,0:1|0:1,0:0:0:0:
315,384,36010,2,0,P|252:368|190:353,1,128,2|0,0:2|0:0,0:0:0:0:
133,294,36542,1,8,0:1:0:0:
196,242,36720,1,8,0:2:0:0:
310,298,36897,6,0,P|363:279|385:201,1,128,8|8,0:1|0:1,0:0:0:0:
283,140,37430,1,0,0:0:0:0:
283,140,37607,2,0,P|290:171|298:202,1,64,10|0,0:1|0:0,0:0:0:0:
395,302,37962,2,0,P|426:294|457:286,1,64,10|0,0:1|0:0,0:0:0:0:
499,112,38317,6,0,P|436:127|374:142,2,128,14|8|8,0:1|0:1|0:1,0:0:0:0:
277,49,39382,5,10,0:1:0:0:
361,59,39560,2,0,P|307:77|285:155,1,128,10|0,0:2|0:0,0:0:0:0:
336,222,40092,2,0,P|304:229|273:237,1,64,8|0,0:1|0:0,0:0:0:0:
200,100,40448,2,0,P|192:131|184:162,1,64,10|8,0:1|0:2,0:0:0:0:
85,211,40803,2,0,P|92:179|100:148,1,64,10|8,0:1|0:2,0:0:0:0:
36,54,41158,6,0,P|97:61|146:22,2,128,10|8|8,0:1|0:1|0:1,0:0:0:0:
36,54,42223,5,10,0:1:0:0:
146,22,42400,2,0,P|161:84|176:146,1,128,10|0,0:2|0:0,0:0:0:0:
122,233,42933,2,0,P|152:240|184:248,1,64,10|0,0:1|0:0,0:0:0:0:
291,315,43288,2,0,P|260:323|229:331,1,64,10|8,0:1|0:2,0:0:0:0:
342,241,43643,1,10,0:1:0:0:
342,241,43820,1,8,0:3:0:0:
433,329,43998,6,0,P|487:311|509:233,2,128,10|8|8,0:1|0:1|0:1,0:0:0:0:
293,346,44885,1,8,0:2:0:0:
367,384,45063,2,0,P|336:383|308:367,1,64,8|8,0:1|0:2,0:0:0:0:
183,384,45418,6,0,P|198:322|213:260,1,128,8|10,0:1|0:1,0:0:0:0:
158,188,45950,1,0,0:0:0:0:
158,188,46128,2,0,P|185:172|217:170,1,64,10|8,0:1|0:2,0:0:0:0:
302,217,46483,1,10,0:1:0:0:
302,217,46661,1,8,0:3:0:0:
370,120,46838,6,0,P|308:127|259:88,2,128,10|8|8,0:1|0:1|0:1,0:0:0:0:
269,0,47903,2,0,P|238:7|206:15,1,64,10|2,0:1|0:2,0:0:0:0:
71,155,48258,6,0,P|120:167|170:178,1,96,10|0,0:1|0:0,0:0:0:0:
187,151,48613,2,0,P|179:120|171:88,1,64,10|0,0:1|0:0,0:0:0:0:
75,12,48968,2,0,P|82:42|90:74,1,64,10|0,0:1|0:0,0:0:0:0:
82,241,49323,5,10,0:1:0:0:
202,272,49501,1,8,0:1:0:0:
202,272,49590,1,8,0:1:0:0:
202,272,49678,1,8,0:1:0:0:
317,43,52163,5,10,0:1:0:0:
390,74,52519,1,14,0:1:0:0:
390,74,54826,5,8,0:1:0:0:
317,43,55004,2,0,P|272:55|256:98,1,96,8|0,0:2|0:0,0:0:0:0:
259,127,55359,5,12,0:1:0:0:
371,164,55536,1,2,0:3:0:0:
371,164,55625,1,0,0:0:0:0:
371,164,55714,2,0,P|433:148|458:142,1,71.9999978027344,10|2,0:1|0:3,0:0:0:0:
512,219,56069,2,0,P|449:234|424:240,1,71.9999978027344,10|2,0:1|0:3,0:0:0:0:
382,312,56424,1,10,0:1:0:0:
382,312,56601,1,2,0:3:0:0:
227,218,56779,6,0,P|210:150|255:98,1,143.999995605469,10|8,0:1|0:1,0:0:0:0:
359,82,57311,1,2,0:3:0:0:
359,82,57400,1,0,0:0:0:0:
359,82,57489,2,0,P|350:116|341:151,1,71.9999978027344,10|2,0:1|0:3,0:0:0:0:
227,218,57844,1,8,0:1:0:0:
227,218,58021,1,2,0:3:0:0:
136,116,58199,6,0,P|73:131|11:146,1,128,14|2,0:1|0:3,0:0:0:0:
147,29,58732,1,8,0:1:0:0:
147,29,58909,2,0,P|206:45|226:104,1,128,10|8,0:2|0:1,0:0:0:0:
133,211,59442,5,8,0:3:0:0:
133,211,59531,1,8,0:3:0:0:
133,211,59619,2,0,P|141:245|150:280,1,64,10|8,0:1|0:3,0:0:0:0:
228,323,59974,1,8,0:1:0:0:
296,275,60152,1,0,0:0:0:0:
358,332,60329,2,0,P|392:323|427:314,1,64,10|8,0:2|0:1,0:0:0:0:
474,153,60684,6,0,B|417:167|417:167|396:186|396:186|340:199,1,143.999995605469,8|2,0:2|0:3,0:0:0:0:
0,353,62459,6,0,P|122:383|139:387,1,132.00000402832,12|0,0:1|0:0,0:0:0:0:
150,362,62814,2,0,P|139:319|128:276,1,88.000002685547,8|0,0:2|0:0,0:0:0:0:
167,189,63169,1,8,0:1:0:0:
36,265,63346,1,8,0:1:0:0:
221,303,63524,2,0,P|270:290|307:216,1,132.00000402832,10|0,0:2|0:0,0:0:0:0:
292,194,63879,6,0,P|249:183|206:172,1,88.000002685547,10|0,0:1|0:0,0:0:0:0:
48,134,64234,2,0,P|47:78|80:49,1,88.000002685547,10|0,0:2|0:0,0:0:0:0:
168,0,64589,2,0,P|137:122|133:139,1,132.00000402832,10|0,0:1|0:0,0:0:0:0:
129,154,64944,1,10,0:2:0:0:
221,303,65121,5,8,0:1:0:0:
221,303,65210,1,8,0:1:0:0:
221,303,65299,2,0,B|317:319|285:255|397:271,1,176.000005371094,10|8,0:1|0:2,0:0:0:0:
301,131,65831,2,0,P|225:147|249:222,1,176.000005371094,2|8,0:2|0:1,0:0:0:0:
455,211,66364,2,0,P|466:168|478:126,1,88.000002685547,8|0,0:2|0:0,0:0:0:0:
314,324,66719,5,8,0:1:0:0:
508,279,66896,1,8,0:1:0:0:
367,184,67074,2,0,P|377:226|388:269,1,88.000002685547,10|8,0:2|0:1,0:0:0:0:
397,292,67340,1,8,0:1:0:0:
397,292,67429,1,10,0:1:0:0:
259,200,67606,1,8,0:1:0:0:
395,99,67784,1,10,0:2:0:0:
269,302,67961,5,2,0:2:0:0:
269,302,68050,1,2,0:2:0:0:
269,302,68139,2,0,B|217:289|217:289|198:271|198:271|147:260,1,132.00000402832,12|0,0:1|0:0,0:0:0:0:
116,275,68494,2,0,P|91:310|97:353,1,88.000002685547,8|0,0:2|0:0,0:0:0:0:
259,200,68849,2,0,P|269:157|280:114,1,88.000002685547,8|8,0:1|0:1,0:0:0:0:
248,7,69204,1,10,0:2:0:0:
395,99,69382,1,2,0:2:0:0:
177,184,69559,6,0,P|55:153|38:149,1,132.00000402832,10|0,0:1|0:0,0:0:0:0:
23,145,69914,1,10,0:2:0:0:
122,0,70092,2,0,P|132:42|143:85,1,88.000002685547,2|8,0:2|0:1,0:0:0:0:
47,238,70447,1,10,0:1:0:0:
47,238,70535,1,8,0:1:0:0:
47,238,70624,2,0,P|89:248|132:259,1,88.000002685547,8|2,0:2|0:2,0:0:0:0:
315,162,70979,6,0,P|263:200|198:195,1,132.00000402832,10|0,0:1|0:0,0:0:0:0:
177,184,71334,1,10,0:2:0:0:
262,30,71512,1,2,0:2:0:0:
262,30,71601,1,2,0:2:0:0:
262,30,71689,2,0,P|251:72|240:115,1,88.000002685547,8|8,0:1|0:1,0:0:0:0:
398,139,72044,2,0,P|379:100|339:83,1,88.000002685547,8|8,0:2|0:1,0:0:0:0:
177,184,72399,6,0,L|187:226,3,44.0000013427735,8|8|8|8,0:2|0:2|0:2|0:2,0:0:0:0:
272,274,72754,1,10,0:2:0:0:
272,274,72843,1,8,0:2:0:0:
272,274,72932,2,0,L|261:316,1,44.0000013427735,10|8,0:2|0:2,0:0:0:0:
359,383,73109,5,10,0:2:0:0:
398,381,73198,1,8,0:2:0:0:
432,360,73287,1,8,0:3:0:0:
452,325,73376,1,8,0:3:0:0:
453,285,73464,2,0,L|442:242,1,44.0000013427735,10|8,0:2|0:2,0:0:0:0:
407,82,73642,5,10,0:3:0:0:
407,82,73731,1,8,0:3:0:0:
407,82,73819,2,0,B|329:70|353:118|281:106,1,132.00000402832,12|0,0:1|0:0,0:0:0:0:
259,99,74174,1,8,0:2:0:0:
138,0,74352,1,8,0:1:0:0:
138,0,74441,1,8,0:1:0:0:
138,0,74529,2,0,P|127:42|116:85,1,88.000002685547,8|8,0:1|0:1,0:0:0:0:
207,241,74885,2,0,P|171:265|128:259,1,88.000002685547,10|0,0:2|0:0,0:0:0:0:
0,139,75240,6,0,P|64:155|128:172,1,132.00000402832,10|0,0:1|0:0,0:0:0:0:
151,179,75595,1,10,0:2:0:0:
36,62,75772,1,0,0:0:0:0:
221,23,75950,2,0,P|210:65|199:108,1,88.000002685547,10|8,0:1|0:1,0:0:0:0:
360,156,76305,2,0,P|349:113|338:70,1,88.000002685547,10|8,0:2|0:1,0:0:0:0:
108,251,76660,6,0,P|159:212|224:217,1,132.00000402832,14|0,0:1|0:0,0:0:0:0:
245,240,77015,2,0,P|234:282|223:325,1,88.000002685547,10|0,0:2|0:0,0:0:0:0:
374,380,77370,6,0,P|416:385|452:361,1,88.000002685547,14|8,0:1|0:1,0:0:0:0:
360,156,77725,2,0,P|376:219|392:283,1,132.00000402832,10|0,0:2|0:0,0:0:0:0:
397,305,78080,1,12,0:1:0:0:
467,210,78257,1,8,0:1:0:0:
312,312,78435,1,10,0:2:0:0:
492,205,78612,1,8,0:1:0:0:
492,205,78701,1,8,0:1:0:0:
492,205,78790,2,0,P|502:162|513:119,1,88.000002685547,10|8,0:2|0:1,0:0:0:0:
433,0,79145,2,0,P|423:43|412:86,1,88.000002685547,10|8,0:2|0:1,0:0:0:0:
168,75,79500,6,0,B|219:62|219:62|238:44|238:44|289:33,1,120,12|0,0:1|0:0,0:0:0:0:
316,46,79855,2,0,P|306:89|295:132,1,80,2|8,0:2|0:1,0:0:0:0:
207,256,80210,2,0,P|197:213|186:170,1,80,10|0,0:2|0:0,0:0:0:0:
345,234,80565,1,10,0:1:0:0:
233,350,80743,5,8,0:2:0:0:
233,350,80831,1,8,0:2:0:0:
233,350,80920,2,0,P|190:355|154:331,1,80,8|0,0:1|0:0,0:0:0:0:
27,257,81275,2,0,P|69:247|112:236,1,80,10|0,0:1|0:0,0:0:0:0:
238,105,81630,2,0,P|116:135|99:139,1,120,10|0,0:2|0:0,0:0:0:0:
87,142,81985,1,10,0:1:0:0:
34,4,82163,5,8,0:2:0:0:
34,4,82251,1,8,0:2:0:0:
34,4,82340,2,0,P|97:-4|144:38,1,120,8|0,0:1|0:0,0:0:0:0:
153,62,82695,1,10,0:1:0:0:
87,142,82873,1,0,0:0:0:0:
197,217,83050,2,0,P|319:187|336:183,1,120,10|0,0:2|0:0,0:0:0:0:
348,180,83405,1,10,0:1:0:0:
258,19,83583,5,8,0:2:0:0:
258,19,83672,1,8,0:2:0:0:
258,19,83760,2,0,P|247:61|237:104,1,80,8|0,0:1|0:0,0:0:0:0:
348,180,84115,1,10,0:1:0:0:
153,131,84293,1,2,0:2:0:0:
348,62,84470,6,0,P|400:100|465:95,1,120,10|0,0:2|0:0,0:0:0:0:
486,84,84825,1,10,0:1:0:0:
435,251,85003,5,8,0:1:0:0:
432,240,85092,1,8,0:1:0:0:
429,229,85180,1,8,0:2:0:0:
348,62,85358,1,8,0:2:0:0:
214,280,85535,5,8,0:2:0:0:
273,115,85713,1,8,0:2:0:0:
331,312,85890,5,8,0:2:0:0:
182,84,86068,1,8,0:2:0:0:
84,384,86245,5,8,0:2:0:0:
205,175,86423,1,8,0:2:0:0:
331,312,86601,6,0,L|373:301,3,44.0000013427735,8|8|8|8,0:2|0:2|0:2|0:2,0:0:0:0:
437,356,86956,1,10,0:2:0:0:
467,361,87044,1,8,0:2:0:0:
493,345,87133,1,8,0:2:0:0:
505,316,87222,5,8,0:2:0:0:
488,275,87311,1,10,0:1:0:0:
457,243,87399,1,2,0:2:0:0:
446,200,87488,1,2,0:2:0:0:
461,158,87577,1,2,0:2:0:0:
495,131,87666,2,0,L|505:88,1,44.0000013427735,2|0,0:2|0:2,0:0:0:0:
365,0,87843,5,8,0:1:0:0:
365,0,87932,1,8,0:1:0:0:
365,0,88021,2,0,P|296:9|278:98,1,160,14|8,0:1|0:2,0:0:0:0:
324,246,88553,1,0,0:0:0:0:
337,160,88731,2,0,P|298:168|259:180,1,80,8|8,0:1|0:1,0:0:0:0:
133,236,89086,2,0,P|171:244|210:256,1,80,10|0,0:2|0:0,0:0:0:0:
85,162,89441,6,0,P|41:204|58:294,1,160,10|8,0:1|0:2,0:0:0:0:
194,344,89973,2,0,P|252:328|310:315,1,120,10|0,0:1|0:0,0:0:0:0:
334,311,90328,1,8,0:1:0:0:
227,185,90506,2,0,P|206:211|212:261,1,80,10|0,0:2|0:0,0:0:0:0:
367,384,90861,6,0,P|412:342|395:252,1,160,10|8,0:1|0:2,0:0:0:0:
393,144,91393,1,0,0:0:0:0:
393,144,91571,2,0,P|354:153|315:163,1,80,8|8,0:1|0:1,0:0:0:0:
151,64,91926,2,0,P|187:98|273:81,1,120,10|0,0:2|0:0,0:0:0:0:
276,77,92281,6,0,P|257:3|252:-17,1,80,10|8,0:1|0:1,0:0:0:0:
412,66,92636,2,0,P|402:104|392:143,1,80,10|8,0:2|0:1,0:0:0:0:
450,263,92991,1,10,0:1:0:0:
315,167,93168,1,8,0:1:0:0:
489,121,93346,2,0,P|498:159|507:198,1,80,10|8,0:2|0:1,0:0:0:0:
512,352,93701,6,0,P|470:307|380:324,1,160,14|8,0:1|0:2,0:0:0:0:
256,235,94234,1,0,0:0:0:0:
201,305,94411,2,0,P|240:315|279:324,1,80,8|8,0:1|0:1,0:0:0:0:
314,166,94766,2,0,P|275:156|237:148,1,80,10|0,0:2|0:0,0:0:0:0:
70,107,95121,6,0,P|65:68|88:36,1,80,10|8,0:1|0:1,0:0:0:0:
154,130,95476,2,0,P|144:168|135:207,1,80,10|8,0:2|0:1,0:0:0:0:
131,232,95742,1,8,0:1:0:0:
131,232,95831,1,10,0:1:0:0:
7,165,96009,1,8,0:1:0:0:
171,50,96186,2,0,P|209:58|248:68,1,80,10|0,0:2|0:0,0:0:0:0:
370,6,96541,6,0,P|415:48|398:138,1,160,10|8,0:1|0:2,0:0:0:0:
242,192,97074,1,2,0:2:0:0:
330,213,97251,2,0,P|321:174|309:135,1,80,8|8,0:1|0:1,0:0:0:0:
489,152,97606,2,0,P|477:190|468:229,1,80,8|8,0:2|0:1,0:0:0:0:
468,259,97873,1,8,0:1:0:0:
468,259,97961,1,12,0:1:0:0:
398,137,98139,1,8,0:1:0:0:
280,284,98316,6,0,P|222:268|164:254,1,120,10|0,0:2|0:0,0:0:0:0:
136,246,98671,2,0,P|130:207|153:175,1,80,10|8,0:2|0:2,0:0:0:0:
309,135,99026,1,10,0:2:0:0:
309,135,99115,1,8,0:2:0:0:
309,135,99204,2,0,L|300:173,1,40,8|8,0:1|0:1,0:0:0:0:
142,339,99381,6,0,P|67:321|42:248,1,160,14|8,0:1|0:2,0:0:0:0:
136,88,99914,1,0,0:0:0:0:
153,175,100092,2,0,P|114:166|76:156,1,80,8|8,0:1|0:1,0:0:0:0:
175,6,100447,1,10,0:2:0:0:
0,50,100624,6,0,B|61:36|61:36|84:14|84:14|147:0,1,160,2|8,0:2|0:1,0:0:0:0:
308,100,101157,2,0,P|269:89|230:80,1,80,10|8,0:2|0:1,0:0:0:0:
76,156,101512,1,10,0:1:0:0:
147,0,101689,1,8,0:1:0:0:
248,170,101867,2,0,P|209:178|170:189,1,80,10|0,0:2|0:0,0:0:0:0:
106,332,102222,6,0,P|164:346|222:362,1,120,14|0,0:1|0:0,0:0:0:0:
243,343,102577,2,0,P|234:304|223:266,1,80,8|0,0:2|0:0,0:0:0:0:
361,192,102932,2,0,P|349:230|340:269,1,80,8|8,0:1|0:1,0:0:0:0:
248,170,103287,1,10,0:2:0:0:
340,369,103464,5,10,0:1:0:0:
340,369,103553,1,8,0:1:0:0:
340,369,103642,2,0,P|414:351|439:278,1,160,12|8,0:1|0:2,0:0:0:0:
441,258,104086,1,8,0:1:0:0:
441,258,104174,1,8,0:1:0:0:
360,189,104352,1,10,0:1:0:0:
482,88,104529,1,10,0:1:0:0:
443,168,104707,1,10,0:2:0:0:
312,102,104884,5,10,0:1:0:0:
312,102,104973,1,8,0:1:0:0:
312,102,105062,2,0,P|234:82|156:63,1,143.999995605469,14|2,0:1|0:3,0:0:0:0:
59,89,105594,1,8,0:1:0:0:
73,13,105772,2,0,P|92:90|111:168,1,143.999995605469,8|10,0:2|0:1,0:0:0:0:
4,339,106305,5,10,0:2:0:0:
4,339,106393,1,8,0:2:0:0:
4,339,106482,2,0,P|39:330|74:321,1,71.9999978027344,8|8,0:1|0:3,0:0:0:0:
67,231,106837,2,0,P|102:239|137:248,1,71.9999978027344,8|0,0:1|0:0,0:0:0:0:
189,175,107192,2,0,P|230:212|222:292,1,107.999996704102,8|0,0:2|0:0,0:0:0:0:
226,289,107547,1,10,0:1:0:0:
163,372,107725,1,10,0:3:0:0:
67,231,107902,5,8,0:2:0:0:
268,194,108080,1,8,0:2:0:0:
60,83,108257,5,8,0:2:0:0:
189,175,108435,1,8,0:2:0:0:
326,6,108612,5,8,0:2:0:0:
340,35,108701,1,8,0:2:0:0:
338,67,108790,1,8,0:2:0:0:
327,97,108878,1,8,0:2:0:0:
303,118,108967,2,0,L|269:109,1,35.9999989013672,8|8,0:2|0:2,0:0:0:0:
191,28,109145,2,0,L|226:36,1,35.9999989013672,8|8,0:2|0:2,0:0:0:0:
430,71,109322,5,2,0:3:0:0:
430,71,109677,2,0,P|421:105|413:140,1,71.9999978027344,14|0,0:1|0:0,0:0:0:0:
371,302,110210,1,8,0:1:0:0:
256,192,110387,1,8,0:2:0:0:
138,384,110742,5,14,0:1:0:0:
256,192,110831,12,8,113405,0:1:0:0:
