osu file format v14

[General]
AudioFilename: audio.mp3
AudioLeadIn: 0
PreviewTime: 61306
Countdown: 0
SampleSet: Soft
StackLeniency: 0.4
Mode: 0
LetterboxInBreaks: 0
EpilepsyWarning: 1
WidescreenStoryboard: 1

[Editor]
Bookmarks: 4235,15595,26956,38317,49678,62459,73820,88021,99382,110743
DistanceSpacing: 0.6
BeatDivisor: 4
GridSize: 32
TimelineZoom: 1.6

[Metadata]
Title:Luminous Once More
TitleUnicode:もういちどルミナス
Artist:Pastel*Palettes
ArtistUnicode:Pastel*Palettes
Creator:midorijeon
Version:Asagi's Hard
Source:バンドリ! ガールズバンドパーティ!
Tags:Mou Ichido BanG Dream! Girls Band Party! Bandori パステル パレット Pasupare パスパレ Aya Maruyama 丸山 彩 Maeshima Ami 前島亜美 Hikawa Hina 氷川 日菜 Ozawa Ari 小澤 亜李 Chisato Shirasagi 白鷺 千聖 Uesaka Sumire 上坂 すみれ Maya Yamato 大和 麻弥 Nakagami Ikumi 中上 育実 Eve Wakamiya 若宮 イヴ Hata Sawako 秦 佐和子 Video Game Anime Pop Jpop J-Pop Japanese Ayesha Altugle Shizuku- Kazato Asa Shikibe Mayu Liyuu Aquivery Rielle Asagi
BeatmapID:3880246
BeatmapSetID:1884593

[Difficulty]
HPDrainRate:3.5
CircleSize:4
OverallDifficulty:7
ApproachRate:7.5
SliderMultiplier:1.5
SliderTickRate:1

[Events]
//Background and Video events
0,0,"3.jpg",0,0
//Break Periods
2,49878,51338
2,52719,54001
//Storyboard Layer 0 (Background)
Sprite,Background,Centre,"3.jpg",0,0 M,0,0,,320,240 F,0,0,,0 S,0,0,,0.7 R,10,0,,0 F,0,4235,,1 S,10,4235,7075,0.9,0.7 R,10,4235,7075,0.1,0 S,10,26956,29797,0.9,0.7 M,0,26956,49678,320,200,320,240 S,10,55359,58199,0.9,0.7 S,9,59619,61394,0.7,0.9 F,13,61039,61394,1,0 F,0,88021,,1 S,10,88021,90861,0.9,0.7 R,10,88021,90861,0.1,0 S,9,107902,110742,0.7,0.9 S,10,110742,114293,0.9,0.7 R,10,110742,114293,0.1,0 F,13,113405,114293,1,0
Sprite,Background,Centre,"3.jpg",0,0 F,0,62459,,0,1 M,17,62459,63879,320,240,320.4525,240.6346 R,17,62459,63879,0,0.01072091 S,10,62459,67538,0.9,0.7 M,17,63879,65299,320.4525,240.6346,321.4525,234.6346 R,17,63879,65299,0.01072091,0.0218986 M,17,65299,66719,321.4525,234.6346,329.4525,232.6346 R,17,65299,66719,0.0218986,0.002347608 M,17,66719,68139,329.4525,232.6346,324.4525,227.6346 R,17,66719,68139,0.002347608,0.0116939 M,17,68139,69559,324.4525,227.6346,326.4525,226.6346 R,17,68139,69559,0.0116939,-0.007949122 M,17,69559,70979,326.4525,226.6346,316.4525,233.6346 R,17,69559,70979,-0.007949122,0.01195782 M,17,70979,72399,316.4525,233.6346,319.4525,229.6346 R,17,70979,72399,0.01195782,-0.004380339 M,17,72399,73819,319.4525,229.6346,325.4525,238.6346 R,17,72399,73819,-0.004380339,-0.003727835 M,17,73819,75240,325.4525,238.6346,328.4525,238.6346 R,17,73819,75240,-0.003727835,-0.02240821 M,17,75240,76660,328.4525,238.6346,331.4525,238.6346 R,17,75240,76660,-0.02240821,-0.02078601 M,17,76660,78080,331.4525,238.6346,324.4525,237.6346 R,17,76660,78080,-0.02078601,-0.02672945 M,17,78080,79500,324.4525,237.6346,333.4525,239.6346 R,17,78080,79500,-0.02672945,-0.01147018 M,17,79500,80920,333.4525,239.6346,323.4525,236.6346 R,17,79500,80920,-0.01147018,-0.01833301 M,17,80920,82340,323.4525,236.6346,332.4525,236.6346 R,17,80920,82340,-0.01833301,-0.004013562 M,17,82340,83760,332.4525,236.6346,324.4525,231.6346 R,17,82340,83760,-0.004013562,-0.02215552 M,17,83760,85180,324.4525,231.6346,329.4525,227.6346 R,17,83760,85180,-0.02215552,-0.01301134 M,17,85180,86601,329.4525,227.6346,321.4525,221.6346 R,17,85180,86601,-0.01301134,-0.02121281 M,17,86601,88021,321.4525,221.6346,325.4525,223.6346 R,17,86601,88021,-0.02121281,-0.01145345 F,0,88021,,1,0
Sprite,Background,Centre,"SB\3A.png",0,0 M,0,0,,320,240 F,0,0,,0 S,0,0,,0.7 R,10,0,,0 F,0,4235,,1 S,10,4235,7075,0.9,0.7 R,10,4235,7075,0.1,0 S,10,26956,29797,0.9,0.7 M,0,26956,49678,320,200,320,240 S,10,55359,58199,0.9,0.7 S,9,59619,61394,0.7,0.9 F,13,61039,61394,1,0 F,0,88021,,1 S,10,88021,90861,0.9,0.7 R,10,88021,90861,0.1,0 S,9,107902,110742,0.7,0.9 S,10,110742,114293,0.9,0.7 R,10,110742,114293,0.1,0 F,13,113405,114293,1,0
Sprite,Background,Centre,"sb\g.png",0,0 L,62459,5 F,1,0,852,0,0.4036265 M,1,0,4260,208.65,126.4521,208.65,86.45215 F,2,3408,4260,0.4036265,0 S,0,62459,,0.6 R,0,62459,,4.712389 C,0,62459,,243,243,243 P,0,62459,83760,A
Sprite,Background,Centre,"sb\g.png",0,0 L,62695,5 F,1,0,852,0,0.4036265 M,1,0,4260,489.5993,476.9894,489.5993,436.9894 F,2,3408,4260,0.4036265,0 S,0,62695,,0.6 R,0,62695,,4.712389 C,0,62695,,201,201,201 P,0,62695,83996,A
Sprite,Background,Centre,"sb\g.png",0,0 L,62814,5 F,1,0,852,0,0.4036265 M,1,0,4260,177.6272,208.3459,177.6272,168.3459 F,2,3408,4260,0.4036265,0 S,0,62814,,0.6 R,0,62814,,4.712389 C,0,62814,,211,211,211 P,0,62814,84115,A
Sprite,Background,Centre,"sb\g.png",0,0 L,62932,5 F,1,0,852,0,0.4036265 M,1,0,4260,286.1434,261.6891,286.1434,221.6891 F,2,3408,4260,0.4036265,0 S,0,62932,,0.6 R,0,62932,,4.712389 C,0,62932,,230,230,230 P,0,62932,84233,A
Sprite,Background,Centre,"sb\g.png",0,0 L,63050,5 F,1,0,852,0,0.4036265 M,1,0,4260,345.8347,552.8532,345.8347,512.8532 F,2,3408,4260,0.4036265,0 S,0,63050,,0.6 R,0,63050,,4.712389 C,0,63050,,217,217,217 P,0,63050,84351,A
Sprite,Background,Centre,"sb\g.png",0,0 L,63169,5 F,1,0,852,0,0.4036265 M,1,0,4260,23.90277,250.3161,23.90277,210.3161 F,2,3408,4260,0.4036265,0 S,0,63169,,0.6 R,0,63169,,4.712389 C,0,63169,,183,183,183 P,0,63169,84470,A
Sprite,Background,Centre,"sb\g.png",0,0 L,63287,5 F,1,0,852,0,0.4036265 M,1,0,4260,40.62646,366.7656,40.62646,326.7656 F,2,3408,4260,0.4036265,0 S,0,63287,,0.6 R,0,63287,,4.712389 C,0,63287,,236,236,236 P,0,63287,84588,A
Sprite,Background,Centre,"sb\g.png",0,0 L,63405,5 F,1,0,852,0,0.4036265 M,1,0,4260,692.1967,430.5067,692.1967,390.5067 F,2,3408,4260,0.4036265,0 S,0,63405,,0.6 R,0,63405,,4.712389 C,0,63405,,204,204,204 P,0,63405,84706,A
Sprite,Background,Centre,"sb\g.png",0,0 L,63524,5 F,1,0,852,0,0.4036265 M,1,0,4260,517.9731,419.0748,517.9731,379.0748 F,2,3408,4260,0.4036265,0 S,0,63524,,0.6 R,0,63524,,4.712389 C,0,63524,,221,221,221 P,0,63524,84825,A
Sprite,Background,Centre,"sb\g.png",0,0 L,63642,5 F,1,0,852,0,0.4036265 M,1,0,4260,695.4996,327.1971,695.4996,287.1971 F,2,3408,4260,0.4036265,0 S,0,63642,,0.6 R,0,63642,,4.712389 C,0,63642,,233,233,233 P,0,63642,84943,A
Sprite,Background,Centre,"sb\g.png",0,0 L,63760,5 F,1,0,852,0,0.4036265 M,1,0,4260,150.3521,406.1547,150.3521,366.1547 F,2,3408,4260,0.4036265,0 S,0,63760,,0.6 R,0,63760,,4.712389 C,0,63760,,208,208,208 P,0,63760,85061,A
Sprite,Background,Centre,"sb\g.png",0,0 L,63879,5 F,1,0,852,0,0.4036265 M,1,0,4260,20.9292,502.3984,20.9292,462.3984 F,2,3408,4260,0.4036265,0 S,0,63879,,0.6 R,0,63879,,4.712389 C,0,63879,,236,236,236 P,0,63879,85180,A
Sprite,Background,Centre,"sb\g.png",0,0 L,64352,5 F,1,0,852,0,0.4036265 M,1,0,4260,-39.91846,295.9913,-39.91846,255.9913 F,2,3408,4260,0.4036265,0 S,0,64352,,0.6 R,0,64352,,4.712389 C,0,64352,,232,232,232 P,0,64352,85653,A
Sprite,Background,Centre,"sb\g.png",0,0 L,64470,5 F,1,0,852,0,0.4036265 M,1,0,4260,371.696,73.36139,371.696,33.36139 F,2,3408,4260,0.4036265,0 S,0,64470,,0.6 R,0,64470,,4.712389 C,0,64470,,202,202,202 P,0,64470,85771,A
Sprite,Background,Centre,"sb\g.png",0,0 L,64589,5 F,1,0,852,0,0.4036265 M,1,0,4260,80.57216,232.1127,80.57216,192.1127 F,2,3408,4260,0.4036265,0 S,0,64589,,0.6 R,0,64589,,4.712389 C,0,64589,,202,202,202 P,0,64589,85890,A
Sprite,Background,Centre,"sb\g.png",0,0 L,64707,5 F,1,0,852,0,0.4036265 M,1,0,4260,138.1017,301.9816,138.1017,261.9816 F,2,3408,4260,0.4036265,0 S,0,64707,,0.6 R,0,64707,,4.712389 C,0,64707,,199,199,199 P,0,64707,86008,A
Sprite,Background,Centre,"sb\g.png",0,0 L,64944,5 F,1,0,852,0,0.4036265 M,1,0,4260,199.5789,121.9077,199.5789,81.90765 F,2,3408,4260,0.4036265,0 S,0,64944,,0.6 R,0,64944,,4.712389 C,0,64944,,230,230,230 P,0,64944,86245,A
Sprite,Background,Centre,"sb\g.png",0,0 L,65180,5 F,1,0,852,0,0.4036265 M,1,0,4260,139.4949,491.7273,139.4949,451.7273 F,2,3408,4260,0.4036265,0 S,0,65180,,0.6 R,0,65180,,4.712389 C,0,65180,,235,235,235 P,0,65180,86481,A
Sprite,Background,Centre,"sb\g.png",0,0 L,65299,5 F,1,0,852,0,0.4036265 M,1,0,4260,379.2807,498.9927,379.2807,458.9927 F,2,3408,4260,0.4036265,0 S,0,65299,,0.6 R,0,65299,,4.712389 C,0,65299,,206,206,206 P,0,65299,86600,A
Sprite,Background,Centre,"sb\g.png",0,0 L,65417,5 F,1,0,852,0,0.4036265 M,1,0,4260,436.7942,129.5965,436.7942,89.59653 F,2,3408,4260,0.4036265,0 S,0,65417,,0.6 R,0,65417,,4.712389 C,0,65417,,167,167,167 P,0,65417,86718,A
Sprite,Background,Centre,"sb\g.png",0,0 L,65535,5 F,1,0,852,0,0.4036265 M,1,0,4260,290.0044,166.2488,290.0044,126.2488 F,2,3408,4260,0.4036265,0 S,0,65535,,0.6 R,0,65535,,4.712389 C,0,65535,,203,203,203 P,0,65535,86836,A
Sprite,Background,Centre,"sb\g.png",0,0 L,65890,5 F,1,0,852,0,0.4036265 M,1,0,4260,424.3096,249.4642,424.3096,209.4642 F,2,3408,4260,0.4036265,0 S,0,65890,,0.6 R,0,65890,,4.712389 C,0,65890,,186,186,186 P,0,65890,87191,A
Sprite,Background,Centre,"sb\g.png",0,0 L,66009,5 F,1,0,852,0,0.4036265 M,1,0,4260,-90.65295,479.1814,-90.65295,439.1814 F,2,3408,4260,0.4036265,0 S,0,66009,,0.6 R,0,66009,,4.712389 C,0,66009,,212,212,212 P,0,66009,87310,A
Sprite,Background,Centre,"sb\g.png",0,0 L,66127,5 F,1,0,852,0,0.4036265 M,1,0,4260,330.3697,242.2579,330.3697,202.2579 F,2,3408,4260,0.4036265,0 S,0,66127,,0.6 R,0,66127,,4.712389 C,0,66127,,187,187,187 P,0,66127,87428,A
Sprite,Background,Centre,"sb\g.png",0,0 L,66364,5 F,1,0,852,0,0.4036265 M,1,0,4260,-21.07068,400.0579,-21.07068,360.0579 F,2,3408,4260,0.4036265,0 S,0,66364,,0.6 R,0,66364,,4.712389 C,0,66364,,229,229,229 P,0,66364,87665,A
Sprite,Background,Centre,"sb\g.png",0,0 L,66482,5 F,1,0,852,0,0.4036265 M,1,0,4260,241.016,440.3831,241.016,400.3831 F,2,3408,4260,0.4036265,0 S,0,66482,,0.6 R,0,66482,,4.712389 C,0,66482,,179,179,179 P,0,66482,87783,A
Sprite,Background,Centre,"sb\g.png",0,0 L,66600,5 F,1,0,852,0,0.4036265 M,1,0,4260,221.5522,529.8326,221.5522,489.8326 F,2,3408,4260,0.4036265,0 S,0,66600,,0.6 R,0,66600,,4.712389 C,0,66600,,193,193,193 P,0,66600,87901,A
Sprite,Background,Centre,"SB\3A.png",0,0 F,0,62459,,0,1 M,17,62459,63879,320,240,320.4525,240.6346 R,17,62459,63879,0,0.01072091 S,10,62459,67538,0.9,0.7 M,17,63879,65299,320.4525,240.6346,321.4525,234.6346 R,17,63879,65299,0.01072091,0.0218986 M,17,65299,66719,321.4525,234.6346,329.4525,232.6346 R,17,65299,66719,0.0218986,0.002347608 M,17,66719,68139,329.4525,232.6346,324.4525,227.6346 R,17,66719,68139,0.002347608,0.0116939 M,17,68139,69559,324.4525,227.6346,326.4525,226.6346 R,17,68139,69559,0.0116939,-0.007949122 M,17,69559,70979,326.4525,226.6346,316.4525,233.6346 R,17,69559,70979,-0.007949122,0.01195782 M,17,70979,72399,316.4525,233.6346,319.4525,229.6346 R,17,70979,72399,0.01195782,-0.004380339 M,17,72399,73819,319.4525,229.6346,325.4525,238.6346 R,17,72399,73819,-0.004380339,-0.003727835 M,17,73819,75240,325.4525,238.6346,328.4525,238.6346 R,17,73819,75240,-0.003727835,-0.02240821 M,17,75240,76660,328.4525,238.6346,331.4525,238.6346 R,17,75240,76660,-0.02240821,-0.02078601 M,17,76660,78080,331.4525,238.6346,324.4525,237.6346 R,17,76660,78080,-0.02078601,-0.02672945 M,17,78080,79500,324.4525,237.6346,333.4525,239.6346 R,17,78080,79500,-0.02672945,-0.01147018 M,17,79500,80920,333.4525,239.6346,323.4525,236.6346 R,17,79500,80920,-0.01147018,-0.01833301 M,17,80920,82340,323.4525,236.6346,332.4525,236.6346 R,17,80920,82340,-0.01833301,-0.004013562 M,17,82340,83760,332.4525,236.6346,324.4525,231.6346 R,17,82340,83760,-0.004013562,-0.02215552 M,17,83760,85180,324.4525,231.6346,329.4525,227.6346 R,17,83760,85180,-0.02215552,-0.01301134 M,17,85180,86601,329.4525,227.6346,321.4525,221.6346 R,17,85180,86601,-0.01301134,-0.02121281 M,17,86601,88021,321.4525,221.6346,325.4525,223.6346 R,17,86601,88021,-0.02121281,-0.01145345 F,0,88021,,1,0
//Storyboard Layer 1 (Fail)
//Storyboard Layer 2 (Pass)
//Storyboard Layer 3 (Foreground)
//Storyboard Layer 4 (Overlay)
//Storyboard Sound Samples

[TimingPoints]
2815,355.029585798817,4,2,6,60,1,8
2815,-125,4,2,6,60,0,0
2903,-125,4,2,2,60,0,0
3170,-125,4,2,6,60,0,0
3258,-125,4,2,2,60,0,0
3791,-125,4,2,3,60,0,0
4235,355.029585798817,4,2,1,75,1,0
4235,-100,4,2,1,75,0,0
4323,-100,4,2,2,75,0,0
4590,-100,4,2,10,75,0,0
4678,-100,4,2,2,75,0,0
4945,-100,4,2,10,75,0,0
5033,-100,4,2,2,75,0,0
5300,-100,4,2,10,75,0,0
5388,-100,4,2,2,75,0,0
5655,-100,4,2,10,75,0,0
5743,-100,4,2,2,75,0,0
6010,-100,4,2,10,75,0,0
6098,-100,4,2,2,75,0,0
6365,-100,4,2,10,75,0,0
6453,-100,4,2,2,75,0,0
6720,-100,4,2,10,75,0,0
6808,-100,4,2,2,75,0,0
6986,-100,4,2,2,75,0,0
7075,-100,4,2,10,75,0,0
7163,-100,4,2,2,75,0,0
7430,-100,4,2,10,75,0,0
7518,-100,4,2,2,75,0,0
7785,-100,4,2,10,75,0,0
7873,-100,4,2,2,75,0,0
8140,-100,4,2,10,75,0,0
8228,-100,4,2,2,75,0,0
8406,-100,4,2,2,5,0,0
8495,-100,4,2,10,75,0,0
8583,-100,4,2,2,75,0,0
8850,-100,4,2,10,75,0,0
8938,-100,4,2,2,75,0,0
9205,-100,4,2,10,75,0,0
9293,-100,4,2,2,75,0,0
9560,-100,4,2,10,75,0,0
9648,-100,4,2,2,75,0,0
10270,-100,4,2,10,75,0,0
10358,-100,4,2,2,75,0,0
10625,-100,4,2,10,75,0,0
10713,-100,4,2,2,75,0,0
10980,-100,4,2,10,75,0,0
11068,-100,4,2,2,75,0,0
11246,-100,4,2,2,5,0,0
11335,-100,4,2,10,75,0,0
11423,-100,4,2,2,75,0,0
11690,-100,4,2,10,75,0,0
11778,-100,4,2,2,75,0,0
12045,-100,4,2,10,75,0,0
12133,-100,4,2,2,75,0,0
12400,-100,4,2,10,75,0,0
12488,-100,4,2,2,75,0,0
12666,-100,4,2,2,75,0,0
12755,-100,4,2,10,75,0,0
12843,-100,4,2,2,75,0,0
13110,-100,4,2,10,75,0,0
13198,-100,4,2,2,75,0,0
13465,-100,4,2,10,75,0,0
13553,-100,4,2,2,75,0,0
13820,-100,4,2,10,75,0,0
13908,-100,4,2,2,75,0,0
14175,-100,4,2,3,75,0,0
14530,-100,4,2,10,75,0,0
14618,-100,4,2,2,75,0,0
14885,-100,4,2,10,75,0,0
14973,-100,4,2,2,75,0,0
15950,-100,4,2,10,75,0,0
16038,-100,4,2,2,75,0,0
16306,-100,4,2,10,75,0,0
16394,-100,4,2,2,75,0,0
16661,-100,4,2,10,75,0,0
16749,-100,4,2,2,75,0,0
17016,-100,4,2,10,75,0,0
17104,-100,4,2,2,75,0,0
17371,-100,4,2,10,75,0,0
17459,-100,4,2,2,75,0,0
17726,-100,4,2,10,75,0,0
17814,-100,4,2,2,75,0,0
18081,-100,4,2,10,75,0,0
18169,-100,4,2,2,75,0,0
18347,-100,4,2,2,5,0,0
18436,-100,4,2,3,75,0,0
18791,-100,4,2,10,75,0,0
18879,-100,4,2,2,75,0,0
19146,-100,4,2,10,75,0,0
19234,-100,4,2,2,75,0,0
19501,-100,4,2,10,75,0,0
19589,-100,4,2,2,75,0,0
20211,-100,4,2,10,75,0,0
20299,-100,4,2,2,75,0,0
20566,-100,4,2,10,75,0,0
20654,-100,4,2,2,75,0,0
20921,-100,4,2,10,75,0,0
21009,-100,4,2,2,75,0,0
21276,-100,4,2,3,75,0,0
21631,-100,4,2,10,75,0,0
21719,-100,4,2,2,75,0,0
21986,-100,4,2,10,75,0,0
22074,-100,4,2,2,75,0,0
22341,-100,4,2,10,75,0,0
22429,-100,4,2,2,75,0,0
22696,-100,4,2,10,75,0,0
22784,-100,4,2,2,75,0,0
22874,-100,4,2,5,75,0,0
23051,-100,4,2,10,75,0,0
23139,-100,4,2,2,75,0,0
23317,-100,4,2,2,5,0,0
23406,-100,4,2,10,75,0,0
23494,-100,4,2,2,75,0,0
23761,-100,4,2,10,75,0,0
23849,-100,4,2,2,75,0,0
23939,-100,4,2,5,75,0,0
24116,-100,4,2,3,75,0,0
24294,-100,4,2,3,45,0,0
24471,-100,4,2,3,50,0,0
24649,-100,4,2,3,54,0,0
24826,-100,4,2,3,59,0,0
24915,-100,4,2,3,61,0,0
25004,-100,4,2,3,63,0,0
25092,-100,4,2,3,66,0,0
25181,-100,4,2,3,68,0,0
25270,-100,4,2,3,70,0,0
25359,-100,4,2,3,73,0,0
25448,-100,4,2,3,75,0,0
25536,-100,4,2,3,50,0,0
25891,-100,4,2,2,75,0,0
26424,-100,4,2,2,70,0,0
26868,-100,4,2,2,5,0,0
26956,-111.111111111111,4,2,3,65,0,0
28199,-111.111111111111,4,2,14,65,0,0
28288,-111.111111111111,4,2,2,65,0,0
29264,-111.111111111111,4,2,14,65,0,0
29353,-111.111111111111,4,2,2,65,0,0
29619,-111.111111111111,4,2,14,65,0,0
29708,-111.111111111111,4,2,2,65,0,0
31039,-111.111111111111,4,2,14,65,0,0
31128,-111.111111111111,4,2,2,65,0,0
32459,-111.111111111111,4,2,3,65,0,0
32637,-111.111111111111,4,2,2,65,0,0
33879,-111.111111111111,4,2,14,65,0,0
33968,-111.111111111111,4,2,2,65,0,0
34945,-111.111111111111,4,2,14,65,0,0
35034,-111.111111111111,4,2,2,65,0,0
35300,-111.111111111111,4,2,14,65,0,0
35389,-111.111111111111,4,2,2,65,0,0
36720,-111.111111111111,4,2,14,65,0,0
36809,-111.111111111111,4,2,2,65,0,0
37962,-111.111111111111,4,2,12,65,0,0
38051,-111.111111111111,4,2,2,65,0,0
39560,-111.111111111111,4,2,14,65,0,0
39649,-111.111111111111,4,2,2,65,0,0
40625,-111.111111111111,4,2,14,65,0,0
40714,-111.111111111111,4,2,2,65,0,0
40980,-111.111111111111,4,2,14,65,0,0
41069,-111.111111111111,4,2,2,65,0,0
42400,-111.111111111111,4,2,14,65,0,0
42489,-111.111111111111,4,2,2,65,0,0
43820,-111.111111111111,4,2,3,65,0,0
43998,-111.111111111111,4,2,2,65,0,0
46661,-111.111111111111,4,2,3,65,0,0
46838,-111.111111111111,4,2,2,65,0,0
47726,-111.111111111111,4,2,6,65,0,0
47815,-111.111111111111,4,2,2,65,0,0
47903,-111.111111111111,4,2,6,65,0,0
47992,-111.111111111111,4,2,2,65,0,0
48081,-111.111111111111,4,2,7,65,0,0
48170,-111.111111111111,4,2,2,65,0,0
48258,-111.111111111111,4,2,6,65,0,0
48347,-111.111111111111,4,2,2,65,0,0
48613,-111.111111111111,4,2,6,65,0,0
48702,-111.111111111111,4,2,2,65,0,0
48968,-111.111111111111,4,2,6,65,0,0
49057,-111.111111111111,4,2,2,65,0,0
49323,-111.111111111111,4,2,6,65,0,0
49412,-111.111111111111,4,2,2,65,0,0
49678,-111.111111111111,4,2,2,60,0,0
52519,-111.111111111111,4,2,7,60,0,0
52607,-111.111111111111,4,2,2,60,0,0
55004,-111.111111111111,4,2,2,65,0,0
55270,-111.111111111111,4,2,2,5,0,0
55359,-111.111111111111,4,2,2,70,0,0
55536,-111.111111111111,4,2,12,70,0,0
55625,-111.111111111111,4,2,2,70,0,0
55891,-111.111111111111,4,2,12,70,0,0
55980,-111.111111111111,4,2,2,70,0,0
56246,-111.111111111111,4,2,12,70,0,0
56335,-111.111111111111,4,2,2,70,0,0
56601,-111.111111111111,4,2,12,70,0,0
56690,-111.111111111111,4,2,2,70,0,0
56956,-111.111111111111,4,2,12,70,0,0
57045,-111.111111111111,4,2,2,70,0,0
57311,-111.111111111111,4,2,12,70,0,0
57400,-111.111111111111,4,2,2,70,0,0
57666,-111.111111111111,4,2,12,70,0,0
57755,-111.111111111111,4,2,2,70,0,0
58021,-111.111111111111,4,2,12,70,0,0
58110,-111.111111111111,4,2,2,70,0,0
58199,-111.111111111111,4,2,3,70,0,0
58554,-111.111111111111,4,2,6,70,0,0
58643,-111.111111111111,4,2,2,70,0,0
58909,-111.111111111111,4,2,6,70,0,0
58998,-111.111111111111,4,2,2,70,0,0
59264,-111.111111111111,4,2,6,70,0,0
59353,-111.111111111111,4,2,2,70,0,0
59442,-111.111111111111,4,2,5,70,0,0
59619,-111.111111111111,4,2,6,70,0,0
59708,-111.111111111111,4,2,2,70,0,0
59797,-111.111111111111,4,2,5,70,0,0
59974,-111.111111111111,4,2,6,70,0,0
60063,-111.111111111111,4,2,2,70,0,0
60329,-111.111111111111,4,2,6,70,0,0
60418,-111.111111111111,4,2,2,70,0,0
60684,-111.111111111111,4,2,6,70,0,0
60773,-111.111111111111,4,2,2,70,0,0
61039,-111.111111111111,4,2,2,55,0,0
62459,355.029585798817,4,2,1,80,1,0
62459,-90.9090909090909,4,2,1,80,0,0
62547,-90.9090909090909,4,2,2,80,0,0
62814,-90.9090909090909,4,2,10,80,0,0
62902,-90.9090909090909,4,2,2,80,0,0
63169,-90.9090909090909,4,2,10,80,0,0
63257,-90.9090909090909,4,2,2,80,0,0
63524,-90.9090909090909,4,2,10,80,0,0
63612,-90.9090909090909,4,2,2,80,0,0
63790,-90.9090909090909,4,2,2,5,0,0
63879,-90.9090909090909,4,2,10,80,0,0
63967,-90.9090909090909,4,2,2,80,0,0
64234,-90.9090909090909,4,2,10,80,0,0
64322,-90.9090909090909,4,2,2,80,0,0
64589,-90.9090909090909,4,2,10,80,0,0
64677,-90.9090909090909,4,2,2,80,0,0
64944,-90.9090909090909,4,2,10,80,0,0
65032,-90.9090909090909,4,2,2,80,0,0
65299,-90.9090909090909,4,2,10,80,0,0
65387,-90.9090909090909,4,2,2,80,0,0
65654,-90.9090909090909,4,2,10,80,0,0
65742,-90.9090909090909,4,2,2,80,0,0
66009,-90.9090909090909,4,2,10,80,0,0
66097,-90.9090909090909,4,2,2,80,0,0
66364,-90.9090909090909,4,2,10,80,0,0
66452,-90.9090909090909,4,2,2,80,0,0
66719,-90.9090909090909,4,2,10,80,0,0
66807,-90.9090909090909,4,2,2,80,0,0
67074,-90.9090909090909,4,2,10,80,0,0
67162,-90.9090909090909,4,2,2,80,0,0
67429,-90.9090909090909,4,2,10,80,0,0
67517,-90.9090909090909,4,2,2,80,0,0
67784,-90.9090909090909,4,2,10,80,0,0
67872,-90.9090909090909,4,2,2,80,0,0
68139,-90.9090909090909,4,2,3,80,0,0
68494,-90.9090909090909,4,2,10,80,0,0
68582,-90.9090909090909,4,2,2,80,0,0
68849,-90.9090909090909,4,2,10,80,0,0
68937,-90.9090909090909,4,2,2,80,0,0
69204,-90.9090909090909,4,2,10,80,0,0
69292,-90.9090909090909,4,2,2,80,0,0
69559,-90.9090909090909,4,2,10,80,0,0
69647,-90.9090909090909,4,2,2,80,0,0
69914,-90.9090909090909,4,2,10,80,0,0
70002,-90.9090909090909,4,2,2,80,0,0
70269,-90.9090909090909,4,2,10,80,0,0
70357,-90.9090909090909,4,2,2,80,0,0
70624,-90.9090909090909,4,2,10,80,0,0
70712,-90.9090909090909,4,2,2,80,0,0
70979,-90.9090909090909,4,2,10,80,0,0
71067,-90.9090909090909,4,2,2,80,0,0
71334,-90.9090909090909,4,2,10,80,0,0
71422,-90.9090909090909,4,2,2,80,0,0
71689,-90.9090909090909,4,2,10,80,0,0
71777,-90.9090909090909,4,2,2,80,0,0
72044,-90.9090909090909,4,2,10,80,0,0
72132,-90.9090909090909,4,2,2,80,0,0
72488,-90.9090909090909,4,2,2,60,0,0
72754,-90.9090909090909,4,2,2,80,0,0
72843,-90.9090909090909,4,2,2,60,0,0
73109,-90.9090909090909,4,2,2,80,0,0
73198,-90.9090909090909,4,2,2,60,0,0
73287,-90.9090909090909,4,2,3,60,0,0
73464,-90.9090909090909,4,2,3,80,0,0
73553,-90.9090909090909,4,2,3,60,0,0
73819,-90.9090909090909,4,2,2,80,0,0
74174,-90.9090909090909,4,2,10,80,0,0
74262,-90.9090909090909,4,2,2,80,0,0
74530,-90.9090909090909,4,2,10,80,0,0
74618,-90.9090909090909,4,2,2,80,0,0
74885,-90.9090909090909,4,2,10,80,0,0
74973,-90.9090909090909,4,2,2,80,0,0
75151,-90.9090909090909,4,2,2,5,0,0
75240,-90.9090909090909,4,2,10,80,0,0
75328,-90.9090909090909,4,2,2,80,0,0
75595,-90.9090909090909,4,2,10,80,0,0
75683,-90.9090909090909,4,2,2,80,0,0
75950,-90.9090909090909,4,2,10,80,0,0
76038,-90.9090909090909,4,2,2,80,0,0
76305,-90.9090909090909,4,2,10,80,0,0
76393,-90.9090909090909,4,2,2,80,0,0
76660,-90.9090909090909,4,2,9,80,0,0
76748,-90.9090909090909,4,2,2,80,0,0
76926,-90.9090909090909,4,2,2,5,0,0
77015,-90.9090909090909,4,2,10,80,0,0
77103,-90.9090909090909,4,2,2,80,0,0
77370,-90.9090909090909,4,2,9,80,0,0
77458,-90.9090909090909,4,2,2,80,0,0
77636,-90.9090909090909,4,2,2,80,0,0
77725,-90.9090909090909,4,2,10,80,0,0
77813,-90.9090909090909,4,2,2,80,0,0
77991,-90.9090909090909,4,2,2,5,0,0
78080,-90.9090909090909,4,2,9,80,0,0
78168,-90.9090909090909,4,2,2,80,0,0
78346,-90.9090909090909,4,2,2,80,0,0
78435,-90.9090909090909,4,2,10,80,0,0
78523,-90.9090909090909,4,2,2,80,0,0
78790,-90.9090909090909,4,2,10,80,0,0
78878,-90.9090909090909,4,2,2,80,0,0
79145,-90.9090909090909,4,2,10,80,0,0
79233,-90.9090909090909,4,2,2,80,0,0
79500,-100,4,2,3,70,0,0
79855,-100,4,2,11,70,0,0
79943,-100,4,2,2,70,0,0
80210,-100,4,2,10,70,0,0
80298,-100,4,2,2,70,0,0
80565,-100,4,2,10,70,0,0
80653,-100,4,2,2,70,0,0
80920,-100,4,2,10,70,0,0
81008,-100,4,2,2,70,0,0
81275,-100,4,2,10,70,0,0
81363,-100,4,2,2,70,0,0
81630,-100,4,2,10,70,0,0
81718,-100,4,2,2,70,0,0
81985,-100,4,2,10,70,0,0
82073,-100,4,2,2,70,0,0
82340,-100,4,2,10,70,0,0
82428,-100,4,2,2,70,0,0
82695,-100,4,2,10,70,0,0
82783,-100,4,2,2,70,0,0
83050,-100,4,2,10,70,0,0
83138,-100,4,2,2,70,0,0
83405,-100,4,2,10,70,0,0
83493,-100,4,2,2,70,0,0
83760,-100,4,2,10,70,0,0
83848,-100,4,2,2,70,0,0
84115,-100,4,2,10,70,0,0
84203,-100,4,2,2,70,0,0
84470,-100,4,2,10,70,0,0
84558,-100,4,2,2,70,0,0
84825,-100,4,2,10,70,0,0
84913,-100,4,2,2,70,0,0
85358,-100,4,2,2,45,0,0
85535,-100,4,2,2,48,0,0
85713,-100,4,2,2,50,0,0
85890,-100,4,2,2,53,0,0
86068,-100,4,2,2,56,0,0
86245,-100,4,2,2,59,0,0
86423,-100,4,2,2,61,0,0
86601,-100,4,2,2,64,0,0
86689,-100,4,2,2,65,0,0
86778,-100,4,2,2,67,0,0
86866,-100,4,2,2,68,0,0
86956,-100,4,2,2,70,0,0
87044,-100,4,2,2,71,0,0
87133,-100,4,2,2,72,0,0
87221,-100,4,2,2,74,0,0
87311,-100,4,2,6,75,0,0
87399,-100,4,2,2,75,0,0
88021,355.029585798817,4,2,1,75,1,0
88021,-100,4,2,1,75,0,0
88109,-100,4,2,2,75,0,0
88376,-100,4,2,10,75,0,0
88464,-100,4,2,2,75,0,0
88731,-100,4,2,10,75,0,0
88819,-100,4,2,2,75,0,0
89086,-100,4,2,10,75,0,0
89174,-100,4,2,2,75,0,0
89441,-100,4,2,10,75,0,0
89529,-100,4,2,2,75,0,0
89796,-100,4,2,10,75,0,0
89884,-100,4,2,2,75,0,0
90151,-100,4,2,10,75,0,0
90239,-100,4,2,2,75,0,0
90506,-100,4,2,10,75,0,0
90594,-100,4,2,2,75,0,0
90772,-100,4,2,2,75,0,0
90861,-100,4,2,10,75,0,0
90949,-100,4,2,2,75,0,0
91216,-100,4,2,10,75,0,0
91304,-100,4,2,2,75,0,0
91571,-100,4,2,10,75,0,0
91659,-100,4,2,2,75,0,0
91926,-100,4,2,10,75,0,0
92014,-100,4,2,2,75,0,0
92192,-100,4,2,2,5,0,0
92281,-100,4,2,10,75,0,0
92369,-100,4,2,2,75,0,0
92636,-100,4,2,10,75,0,0
92724,-100,4,2,2,75,0,0
92991,-100,4,2,10,75,0,0
93079,-100,4,2,2,75,0,0
93346,-100,4,2,10,75,0,0
93434,-100,4,2,2,75,0,0
94056,-100,4,2,10,75,0,0
94144,-100,4,2,2,75,0,0
94411,-100,4,2,10,75,0,0
94499,-100,4,2,2,75,0,0
94766,-100,4,2,10,75,0,0
94854,-100,4,2,2,75,0,0
95032,-100,4,2,2,5,0,0
95121,-100,4,2,10,75,0,0
95209,-100,4,2,2,75,0,0
95476,-100,4,2,10,75,0,0
95564,-100,4,2,2,75,0,0
95831,-100,4,2,10,75,0,0
95919,-100,4,2,2,75,0,0
96186,-100,4,2,10,75,0,0
96274,-100,4,2,2,75,0,0
96452,-100,4,2,2,75,0,0
96541,-100,4,2,10,75,0,0
96629,-100,4,2,2,75,0,0
96896,-100,4,2,10,75,0,0
96984,-100,4,2,2,75,0,0
97251,-100,4,2,10,75,0,0
97339,-100,4,2,2,75,0,0
97606,-100,4,2,10,75,0,0
97694,-100,4,2,2,75,0,0
97961,-100,4,2,3,75,0,0
98316,-100,4,2,10,75,0,0
98404,-100,4,2,2,75,0,0
98671,-100,4,2,10,75,0,0
98759,-100,4,2,2,75,0,0
99736,-100,4,2,10,75,0,0
99824,-100,4,2,2,75,0,0
100092,-100,4,2,10,75,0,0
100180,-100,4,2,2,75,0,0
100447,-100,4,2,10,75,0,0
100535,-100,4,2,2,75,0,0
100802,-100,4,2,10,75,0,0
100890,-100,4,2,2,75,0,0
101157,-100,4,2,10,75,0,0
101245,-100,4,2,2,75,0,0
101512,-100,4,2,10,75,0,0
101600,-100,4,2,2,75,0,0
101867,-100,4,2,10,75,0,0
101955,-100,4,2,2,75,0,0
102133,-100,4,2,2,5,0,0
102222,-100,4,2,3,75,0,0
102577,-100,4,2,10,75,0,0
102665,-100,4,2,2,75,0,0
102932,-100,4,2,10,75,0,0
103020,-100,4,2,2,75,0,0
103287,-100,4,2,10,75,0,0
103375,-100,4,2,2,75,0,0
103997,-100,4,2,10,75,0,0
104085,-100,4,2,2,75,0,0
104352,-100,4,2,10,75,0,0
104440,-100,4,2,2,75,0,0
104707,-100,4,2,10,75,0,0
104795,-100,4,2,2,75,0,0
105062,-100,4,2,3,75,0,0
105417,-100,4,2,10,75,0,0
105505,-100,4,2,2,75,0,0
105772,-100,4,2,10,75,0,0
105860,-100,4,2,2,75,0,0
106127,-100,4,2,10,75,0,0
106215,-100,4,2,2,75,0,0
106482,-100,4,2,10,75,0,0
106570,-100,4,2,2,75,0,0
106660,-100,4,2,5,75,0,0
106837,-100,4,2,10,75,0,0
106925,-100,4,2,2,75,0,0
107103,-100,4,2,2,5,0,0
107192,-100,4,2,10,75,0,0
107280,-100,4,2,2,75,0,0
107547,-100,4,2,10,75,0,0
107635,-100,4,2,2,75,0,0
107725,-100,4,2,5,75,0,0
107902,-100,4,2,3,75,0,0
108080,-100,4,2,3,45,0,0
108257,-100,4,2,3,50,0,0
108435,-100,4,2,3,54,0,0
108612,-100,4,2,3,59,0,0
108701,-100,4,2,3,61,0,0
108790,-100,4,2,3,63,0,0
108878,-100,4,2,3,66,0,0
108967,-100,4,2,3,68,0,0
109056,-100,4,2,3,70,0,0
109145,-100,4,2,3,73,0,0
109234,-100,4,2,3,75,0,0
109322,-100,4,2,3,50,0,0
109677,-100,4,2,2,75,0,0
110654,-100,4,2,2,5,0,0
110742,-181.818181818182,4,2,1,65,0,0
110831,-222.222222222222,4,2,2,65,0,0
113139,-222.222222222222,4,2,2,5,0,0
113228,-133.333333333334,4,2,2,65,0,0

[Colours]
Combo1 : 221,187,255
Combo2 : 255,136,187
Combo3 : 85,221,238
Combo4 : 255,238,170
Combo5 : 153,221,136

[HitObjects]
20,108,2815,6,0,P|46:57|102:59,1,120,2|2,0:3|0:3,0:0:0:0:
164,116,3347,1,2,0:2:0:0:
105,176,3525,2,0,L|107:205,3,30,10|8|10|8,0:2|0:2|0:3|0:3,0:0:0:0:
141,231,3880,2,0,L|138:260,3,30,10|8|10|8,0:2|0:2|0:1|0:1,0:0:0:0:
113,298,4235,6,1,B|208:289|161:343|258:334,1,150,14|8,0:1|0:2,0:0:0:0:
322,277,4767,1,0,0:0:0:0:
391,342,4945,1,8,0:1:0:0:
391,342,5122,1,8,0:1:0:0:
445,269,5300,2,0,P|447:231|451:194,1,75,10|0,0:2|0:0,0:0:0:0:
478,103,5655,6,0,P|444:165|375:151,1,150,10|8,0:1|0:2,0:0:0:0:
313,87,6187,2,0,P|277:77|245:95,1,75,10|2,0:1|0:3,0:0:0:0:
197,172,6542,1,8,0:1:0:0:
118,128,6720,2,0,P|120:90|124:53,1,75,10|0,0:2|0:0,0:0:0:0:
43,13,7075,6,0,P|37:87|30:162,1,150,10|8,0:1|0:2,0:0:0:0:
86,232,7607,1,0,0:0:0:0:
16,288,7785,1,8,0:1:0:0:
16,288,7962,1,8,0:1:0:0:
76,354,8140,2,0,P|128:364|165:325,1,112.5,10|0,0:2|0:0,0:0:0:0:
172,293,8495,6,0,P|203:272|240:273,1,75,10|8,0:1|0:1,0:0:0:0:
250,184,8850,2,0,P|286:191|311:218,1,75,10|8,0:2|0:1,0:0:0:0:
383,164,9205,2,0,P|403:194|402:231,1,75,10|8,0:1|0:1,0:0:0:0:
489,253,9560,2,0,P|481:289|454:314,1,75,10|8,0:2|0:1,0:0:0:0:
365,330,9915,6,1,B|282:315|304:371|219:353,1,150,14|8,0:1|0:2,0:0:0:0:
155,292,10448,1,0,0:0:0:0:
88,351,10625,1,8,0:1:0:0:
88,351,10803,1,8,0:1:0:0:
20,289,10980,2,0,P|0:239|14:186,1,112.5,10|0,0:2|0:0,0:0:0:0:
41,168,11335,6,0,P|70:190|107:192,1,75,10|8,0:1|0:1,0:0:0:0:
164,262,11690,2,0,P|200:260|230:238,1,75,10|8,0:2|0:1,0:0:0:0:
316,265,12045,2,0,P|343:240|351:204,1,75,10|8,0:1|0:1,0:0:0:0:
430,160,12400,2,0,P|435:123|418:90,1,75,10|0,0:2|0:0,0:0:0:0:
348,33,12755,6,0,P|277:28|244:91,1,150,10|8,0:1|0:2,0:0:0:0:
202,171,13288,1,2,0:2:0:0:
134,120,13465,1,8,0:1:0:0:
134,120,13643,1,8,0:1:0:0:
50,153,13820,2,0,P|54:190|57:227,1,75,8|0,0:2|0:0,0:0:0:0:
8,304,14175,5,12,0:1:0:0:
8,304,14353,1,8,0:1:0:0:
79,357,14530,2,0,L|154:346,1,75,10|8,0:2|0:1,0:0:0:0:
208,274,14885,2,0,L|283:285,1,75,10|8,0:2|0:2,0:0:0:0:
348,345,15240,2,0,L|385:340,3,37.5,10|8|8|8,0:2|0:2|0:1|0:1,0:0:0:0:
426,358,15595,6,0,B|439:338|457:321|457:321|452:274|448:219,1,150,14|8,0:1|0:2,0:0:0:0:
488,133,16128,1,0,0:0:0:0:
488,133,16305,2,0,P|452:137|420:119,1,75,8|8,0:1|0:1,0:0:0:0:
376,37,16661,5,10,0:2:0:0:
311,99,16838,2,1,P|317:173|323:248,1,150,2|8,0:2|0:1,0:0:0:0:
234,232,17371,2,0,P|231:194|228:157,1,75,10|8,0:2|0:1,0:0:0:0:
188,81,17726,1,10,0:1:0:0:
188,81,17903,1,8,0:1:0:0:
108,37,18081,2,0,P|54:33|24:79,1,112.5,10|0,0:2|0:0,0:0:0:0:
7,117,18436,6,0,B|104:109|58:159|148:151,1,150,14|8,0:1|0:2,0:0:0:0:
220,98,18968,1,0,0:0:0:0:
281,164,19146,2,0,L|274:238,1,75,8|8,0:1|0:1,0:0:0:0:
199,288,19501,1,10,0:2:0:0:
199,288,19678,1,10,0:1:0:0:
264,347,19856,6,0,P|332:369|379:314,1,150,12|8,0:1|0:2,0:0:0:0:
450,262,20388,1,0,0:0:0:0:
398,194,20566,1,10,0:1:0:0:
398,194,20743,1,10,0:1:0:0:
473,143,20921,1,10,0:2:0:0:
473,143,21098,1,10,0:1:0:0:
430,62,21276,6,0,P|355:58|284:35,1,150,14|2,0:1|0:3,0:0:0:0:
206,79,21808,1,8,0:1:0:0:
249,157,21985,2,1,P|319:149|346:214,1,150,8|10,0:2|0:1,0:0:0:0:
299,294,22519,5,10,0:2:0:0:
299,294,22607,1,8,0:2:0:0:
299,294,22697,2,0,L|214:284,1,75,8|8,0:1|0:3,0:0:0:0:
153,230,23051,2,0,P|99:221|64:263,1,112.5,8|0,0:1|0:0,0:0:0:0:
37,291,23406,2,0,P|32:216|14:143,1,150,8|10,0:2|0:1,0:0:0:0:
45,61,23939,5,10,0:3:0:0:
45,61,24116,2,0,P|81:52|119:84,1,75,8|8,0:2|0:2,0:0:0:0:
180,128,24471,1,8,0:2:0:0:
234,55,24649,1,8,0:2:0:0:
313,98,24826,2,0,L|316:135,3,37.5,8|8|8|8,0:2|0:2|0:2|0:2,0:0:0:0:
289,171,25181,2,0,L|292:208,3,37.5,8|8|8|8,0:2|0:2|0:2|0:2,0:0:0:0:
339,233,25536,1,2,0:3:0:0:
469,371,25891,6,0,P|437:308|367:318,1,150,14|0,0:1|0:0,0:0:0:0:
293,369,26424,1,8,0:1:0:0:
204,351,26601,2,0,P|199:294|194:238,1,112.5,8|0,0:2|0:0,0:0:0:0:
214,217,26956,1,12,0:1:0:0:
132,75,27311,6,0,P|66:90|-1:91,2,134.999995880127,10|8|10,0:1|0:1|0:1,0:0:0:0:
203,114,28199,1,10,0:2:0:0:
242,43,28377,6,1,P|306:34|341:87,1,134.999995880127,8|10,0:1|0:1,0:0:0:0:
478,236,29086,2,0,P|481:202|489:169,1,67.4999979400635,10|8,0:1|0:2,0:0:0:0:
410,150,29442,2,0,P|402:182|398:216,1,67.4999979400635,10|8,0:1|0:2,0:0:0:0:
413,314,29797,6,0,P|386:256|322:258,1,134.999995880127,10|8,0:1|0:1,0:0:0:0:
263,314,30329,2,0,P|195:312|131:291,1,134.999995880127,2|0,0:2|0:0,0:0:0:0:
179,223,30862,2,0,P|211:232|246:236,1,67.4999979400635,8|8,0:1|0:2,0:0:0:0:
231,153,31217,1,8,0:1:0:0:
58,35,31572,6,0,P|57:68|51:101,1,67.4999979400635,10|0,0:1|0:0,0:0:0:0:
8,180,31927,2,0,P|52:132|116:144,1,134.999995880127,10|10,0:1|0:1,0:0:0:0:
183,188,32459,1,8,0:3:0:0:
250,142,32637,6,0,P|253:74|270:9,2,134.999995880127,10|8|8,0:1|0:1|0:1,0:0:0:0:
402,197,33702,2,0,P|434:199|455:225,1,67.4999979400635,10|8,0:1|0:2,0:0:0:0:
478,303,34057,6,0,B|397:292|439:339|351:331,1,134.999995880127,10|10,0:1|0:1,0:0:0:0:
227,227,34767,2,0,P|164:211|126:265,1,134.999995880127,10|10,0:1|0:1,0:0:0:0:
89,334,35300,1,8,0:2:0:0:
15,301,35477,6,1,P|11:233|-1:167,1,134.999995880127,10|8,0:1|0:1,0:0:0:0:
2,86,36010,2,0,P|64:70|103:124,1,134.999995880127,2|0,0:2|0:0,0:0:0:0:
180,100,36542,2,0,P|182:67|191:34,1,67.4999979400635,8|8,0:1|0:2,0:0:0:0:
269,12,36897,5,8,0:1:0:0:
333,161,37252,1,8,0:1:0:0:
488,59,37607,2,0,B|405:45|444:100|341:80,1,134.999995880127,10|10,0:1|0:1,0:0:0:0:
415,234,38317,6,0,P|478:230|506:288,2,134.999995880127,14|8|8,0:1|0:1|0:1,0:0:0:0:
309,356,39382,2,0,P|275:358|247:340,1,67.4999979400635,10|10,0:1|0:2,0:0:0:0:
212,267,39737,6,0,P|212:199|224:133,1,134.999995880127,8|8,0:1|0:1,0:0:0:0:
89,41,40448,2,0,P|60:23|27:26,1,67.4999979400635,10|8,0:1|0:2,0:0:0:0:
10,105,40803,2,0,P|38:122|71:119,1,67.4999979400635,10|8,0:1|0:2,0:0:0:0:
148,94,41158,6,0,P|212:83|247:137,2,134.999995880127,10|8|8,0:1|0:1|0:1,0:0:0:0:
35,207,42223,1,10,0:1:0:0:
82,272,42400,6,0,B|169:262|130:311|222:297,1,134.999995880127,10|0,0:2|0:0,0:0:0:0:
290,311,42933,2,0,P|297:343|298:377,1,67.4999979400635,10|0,0:1|0:0,0:0:0:0:
379,369,43288,2,0,P|378:335|371:302,1,67.4999979400635,10|8,0:1|0:2,0:0:0:0:
330,238,43643,1,10,0:1:0:0:
330,238,43820,1,8,0:3:0:0:
379,170,43998,6,0,P|446:171|511:152,2,134.999995880127,10|8|8,0:1|0:1|0:1,0:0:0:0:
320,113,44885,1,8,0:2:0:0:
396,86,45062,2,0,P|431:88|463:80,1,67.4999979400635,8|8,0:1|0:2,0:0:0:0:
423,8,45418,1,8,0:1:0:0:
213,38,45773,6,0,P|218:71|222:104,1,67.4999979400635,10|0,0:1|0:0,0:0:0:0:
300,128,46128,2,0,P|294:161|290:194,1,67.4999979400635,10|8,0:1|0:2,0:0:0:0:
218,232,46483,2,0,P|223:265|227:298,1,67.4999979400635,10|8,0:1|0:3,0:0:0:0:
297,357,46838,6,0,P|333:304|396:314,1,134.999995880127,10|8,0:1|0:1,0:0:0:0:
455,371,47371,1,0,0:0:0:0:
501,305,47548,2,0,P|505:237|512:170,1,134.999995880127,8|10,0:1|0:1,0:0:0:0:
470,100,48081,1,2,0:2:0:0:
408,151,48258,6,0,P|344:158|300:107,1,134.999995880127,10|10,0:1|0:1,0:0:0:0:
137,19,48968,2,0,P|143:86|148:153,1,134.999995880127,10|10,0:1|0:1,0:0:0:0:
158,241,49501,1,8,0:1:0:0:
158,241,49590,1,8,0:1:0:0:
158,241,49678,1,8,0:1:0:0:
330,231,52163,5,10,0:1:0:0:
188,151,52519,1,14,0:1:0:0:
49,344,54826,5,8,0:1:0:0:
49,344,55004,2,0,P|73:302|121:304,1,101.249996910095,8|0,0:2|0:0,0:0:0:0:
142,328,55359,6,0,L|133:193,1,134.999995880127,12|10,0:1|0:1,0:0:0:0:
166,108,55891,1,2,0:3:0:0:
166,108,56069,2,0,L|94:114,1,67.4999979400635,10|2,0:1|0:3,0:0:0:0:
91,32,56424,2,0,L|158:27,1,67.4999979400635,10|2,0:1|0:3,0:0:0:0:
232,60,56779,6,0,B|314:50|286:98|373:84,1,134.999995880127,10|8,0:1|0:1,0:0:0:0:
401,13,57311,1,2,0:3:0:0:
401,13,57489,2,0,P|405:80|409:147,1,134.999995880127,10|8,0:1|0:1,0:0:0:0:
466,210,58021,1,2,0:3:0:0:
411,269,58199,6,0,P|348:252|305:300,1,134.999995880127,14|2,0:1|0:3,0:0:0:0:
245,353,58732,1,8,0:1:0:0:
245,353,58909,2,0,P|182:369|139:321,1,134.999995880127,10|8,0:2|0:1,0:0:0:0:
100,252,59442,1,8,0:3:0:0:
100,252,59531,1,8,0:3:0:0:
100,252,59620,6,0,L|106:184,1,67.4999979400635,10|8,0:1|0:3,0:0:0:0:
46,138,59974,1,8,0:1:0:0:
46,138,60152,1,0,0:0:0:0:
92,71,60329,2,0,P|123:81|157:77,1,67.4999979400635,10|8,0:2|0:1,0:0:0:0:
222,30,60684,2,0,P|285:16|326:66,1,134.999995880127,8|2,0:2|0:3,0:0:0:0:
512,203,61394,5,2,0:2:0:0:
512,203,61572,1,2,0:2:0:0:
472,273,61749,2,1,B|395:258|422:311|330:292,1,134.999995880127,2|2,0:2|0:2,0:0:0:0:
288,374,62282,5,10,0:1:0:0:
288,374,62371,1,8,0:1:0:0:
288,374,62459,2,0,L|301:209,1,165.000005035401,12|8,0:1|0:2,0:0:0:0:
229,141,62991,1,0,0:0:0:0:
154,206,63169,1,8,0:1:0:0:
154,206,63346,1,8,0:1:0:0:
61,169,63524,2,0,L|69:45,1,123.75000377655,10|0,0:2|0:0,0:0:0:0:
95,19,63879,6,0,P|134:15|165:40,1,82.5000025177003,10|0,0:1|0:0,0:0:0:0:
235,112,64234,2,0,P|274:116|305:91,1,82.5000025177003,10|0,0:2|0:0,0:0:0:0:
381,24,64589,1,10,0:1:0:0:
381,24,64766,1,8,0:1:0:0:
465,76,64944,2,0,L|457:158,1,82.5000025177003,10|8,0:2|0:1,0:0:0:0:
482,265,65299,6,0,P|449:195|369:206,1,165.000005035401,10|8,0:1|0:2,0:0:0:0:
349,299,65831,2,0,B|246:289|299:346|193:334,1,165.000005035401,2|8,0:2|0:1,0:0:0:0:
106,380,66364,2,0,P|102:338|98:297,1,82.5000025177003,8|0,0:2|0:0,0:0:0:0:
186,249,66719,5,8,0:1:0:0:
186,249,66896,1,8,0:1:0:0:
136,163,67074,2,0,P|95:171|48:170,1,82.5000025177003,10|8,0:2|0:1,0:0:0:0:
5,80,67429,2,0,P|87:85|167:67,1,165.000005035401,10|10,0:1|0:2,0:0:0:0:
260,26,67961,5,2,0:2:0:0:
260,26,68050,1,2,0:2:0:0:
260,26,68139,2,0,B|363:16|310:73|416:61,1,165.000005035401,12|8,0:1|0:2,0:0:0:0:
497,115,68672,1,0,0:0:0:0:
422,179,68849,1,8,0:1:0:0:
422,179,69027,1,8,0:1:0:0:
497,242,69204,2,0,L|490:325,1,82.5000025177003,10|2,0:2|0:2,0:0:0:0:
396,358,69559,6,0,P|318:367|274:302,1,165.000005035401,10|10,0:1|0:2,0:0:0:0:
180,268,70092,2,0,L|172:351,1,82.5000025177003,2|8,0:2|0:1,0:0:0:0:
73,380,70447,2,0,L|89:215,1,165.000005035401,10|2,0:1|0:2,0:0:0:0:
17,135,70979,6,0,P|56:141|99:118,1,82.5000025177003,10|0,0:1|0:0,0:0:0:0:
164,55,71334,2,0,L|246:65,1,82.5000025177003,10|2,0:2|0:2,0:0:0:0:
292,158,71689,1,8,0:1:0:0:
292,158,71867,1,8,0:1:0:0:
384,121,72045,2,0,L|393:39,1,82.5000025177003,8|8,0:2|0:1,0:0:0:0:
491,34,72399,5,8,0:2:0:0:
488,55,72488,1,8,0:2:0:0:
486,75,72577,1,8,0:2:0:0:
483,96,72666,1,8,0:2:0:0:
481,117,72754,2,0,L|475:158,3,41.2500012588501,10|8|10|8,0:2|0:2|0:2|0:2,0:0:0:0:
500,193,73109,2,0,B|397:183|450:240|344:228,1,165.000005035401,10|10,0:2|0:2,0:0:0:0:
300,144,73642,5,10,0:3:0:0:
300,144,73731,1,8,0:3:0:0:
300,144,73819,2,0,L|287:308,1,165.000005035401,12|8,0:1|0:2,0:0:0:0:
197,262,74352,1,0,0:0:0:0:
135,340,74530,1,8,0:1:0:0:
135,340,74707,1,8,0:1:0:0:
44,298,74885,2,0,P|8:251|30:196,1,123.75000377655,10|0,0:2|0:0,0:0:0:0:
48,165,75240,6,0,L|42:82,1,82.5000025177003,10|0,0:1|0:0,0:0:0:0:
140,73,75595,2,0,L|146:156,1,82.5000025177003,10|0,0:2|0:0,0:0:0:0:
237,204,75950,1,10,0:1:0:0:
237,204,76127,1,8,0:1:0:0:
246,105,76304,2,0,P|287:107|327:99,1,82.5000025177003,10|8,0:2|0:1,0:0:0:0:
404,36,76660,6,0,P|460:22|495:69,1,123.75000377655,14|0,0:1|0:0,0:0:0:0:
496,99,77015,2,0,L|487:181,1,82.5000025177003,10|0,0:2|0:0,0:0:0:0:
388,189,77370,2,0,L|396:271,1,82.5000025177003,14|8,0:1|0:1,0:0:0:0:
497,338,77725,2,0,B|420:323|456:378|352:350,1,123.75000377655,10|0,0:2|0:0,0:0:0:0:
344,338,78080,5,12,0:1:0:0:
248,364,78257,1,8,0:1:0:0:
180,291,78435,2,0,P|140:288|108:312,1,82.5000025177003,10|8,0:2|0:1,0:0:0:0:
26,255,78790,2,0,P|25:214|17:172,1,82.5000025177003,10|8,0:2|0:1,0:0:0:0:
43,77,79145,2,0,P|84:75|123:62,1,82.5000025177003,10|8,0:2|0:1,0:0:0:0:
196,125,79500,6,0,B|288:117|245:167|345:156,1,150,12|2,0:1|0:2,0:0:0:0:
391,85,80032,1,8,0:1:0:0:
391,85,80210,2,0,P|466:75|500:141,1,150,10|10,0:2|0:1,0:0:0:0:
477,224,80743,5,8,0:2:0:0:
477,224,80831,1,8,0:2:0:0:
477,224,80920,2,0,L|469:302,1,75,8|0,0:1|0:0,0:0:0:0:
402,358,81275,2,0,P|365:364|334:344,1,75,10|0,0:1|0:0,0:0:0:0:
289,266,81630,2,0,P|219:251|179:309,1,150,10|10,0:2|0:1,0:0:0:0:
116,374,82163,5,8,0:2:0:0:
45,317,82340,2,0,P|40:242|26:168,1,150,8|10,0:1|0:1,0:0:0:0:
3,86,82873,1,0,0:0:0:0:
3,86,83050,2,0,B|91:74|62:130|149:116,1,150,10|10,0:2|0:1,0:0:0:0:
217,62,83583,5,8,0:2:0:0:
217,62,83672,1,8,0:2:0:0:
216,62,83760,2,0,P|252:54|284:75,1,75,8|0,0:1|0:0,0:0:0:0:
364,123,84115,2,0,L|369:48,1,75,10|2,0:1|0:2,0:0:0:0:
459,20,84470,2,0,L|448:169,1,150,10|10,0:2|0:1,0:0:0:0:
480,263,85003,5,8,0:1:0:0:
480,263,85091,1,8,0:1:0:0:
480,262,85180,2,0,P|443:268|407:256,1,75,8|8,0:2|0:2,0:0:0:0:
347,196,85535,1,8,0:2:0:0:
347,196,85713,1,8,0:2:0:0:
293,268,85890,1,8,0:2:0:0:
293,268,86068,1,8,0:2:0:0:
219,215,86245,2,0,L|226:132,1,75,8|8,0:2|0:2,0:0:0:0:
131,112,86601,5,8,0:2:0:0:
128,133,86689,1,8,0:2:0:0:
126,153,86778,1,8,0:2:0:0:
124,174,86867,1,8,0:2:0:0:
122,193,86956,2,0,L|117:234,3,37.5,10|8|8|8,0:2|0:2|0:2|0:2,0:0:0:0:
94,269,87311,2,1,B|184:262|142:318|247:303,1,150,10|2,0:1|0:2,0:0:0:0:
322,351,87843,5,8,0:1:0:0:
322,351,87932,1,8,0:1:0:0:
322,351,88021,2,0,P|392:355|427:290,1,150,14|8,0:1|0:2,0:0:0:0:
400,206,88553,1,0,0:0:0:0:
476,156,88731,1,8,0:1:0:0:
476,156,88908,1,8,0:1:0:0:
448,70,89086,2,0,P|410:66|373:62,1,75,10|0,0:2|0:0,0:0:0:0:
299,10,89441,6,0,P|292:84|285:159,1,150,10|8,0:1|0:2,0:0:0:0:
288,249,89973,2,0,P|250:249|221:225,1,75,10|2,0:1|0:3,0:0:0:0:
194,140,90328,1,8,0:1:0:0:
109,171,90506,2,0,L|102:246,1,75,10|0,0:2|0:0,0:0:0:0:
20,277,90861,6,0,B|108:270|67:321|161:312,1,150,10|8,0:1|0:2,0:0:0:0:
244,279,91393,1,0,0:0:0:0:
304,353,91571,1,8,0:1:0:0:
304,353,91748,1,8,0:1:0:0:
391,332,91926,2,0,P|394:275|400:219,1,112.5,10|0,0:2|0:0,0:0:0:0:
397,180,92281,6,0,P|368:202|331:204,1,75,10|8,0:1|0:1,0:0:0:0:
277,276,92636,2,0,P|241:274|211:252,1,75,10|8,0:2|0:1,0:0:0:0:
122,272,92991,2,0,P|95:247|87:211,1,75,10|8,0:1|0:1,0:0:0:0:
7,168,93346,2,0,P|2:131|19:98,1,75,10|8,0:2|0:1,0:0:0:0:
79,24,93701,6,0,P|121:83|191:73,1,150,14|8,0:1|0:2,0:0:0:0:
279,90,94234,1,0,0:0:0:0:
346,30,94411,1,8,0:1:0:0:
346,30,94589,1,8,0:1:0:0:
419,82,94767,2,0,P|413:137|408:193,1,112.5,10|0,0:2|0:0,0:0:0:0:
404,235,95121,6,0,P|371:216|334:219,1,75,10|8,0:1|0:1,0:0:0:0:
321,129,95476,2,0,P|284:135|258:161,1,75,10|8,0:2|0:1,0:0:0:0:
193,97,95831,2,0,P|169:125|165:162,1,75,10|8,0:1|0:1,0:0:0:0:
74,159,96186,2,0,P|74:195|95:226,1,75,10|0,0:2|0:0,0:0:0:0:
169,278,96541,6,0,B|262:269|222:320|315:311,1,150,10|8,0:1|0:2,0:0:0:0:
381,255,97074,1,2,0:2:0:0:
442,326,97251,1,8,0:1:0:0:
442,326,97429,1,8,0:1:0:0:
505,262,97606,2,0,L|512:187,1,75,8|0,0:2|0:0,0:0:0:0:
490,104,97961,5,12,0:1:0:0:
490,104,98139,1,8,0:1:0:0:
405,134,98316,2,0,P|368:137|335:112,1,75,10|8,0:2|0:1,0:0:0:0:
287,42,98671,2,0,P|250:38|217:63,1,75,10|8,0:2|0:2,0:0:0:0:
160,126,99026,2,0,L|162:163,3,37.5,10|8|8|8,0:2|0:2|0:1|0:1,0:0:0:0:
189,200,99381,6,1,B|99:192|138:243|47:234,1,150,14|8,0:1|0:2,0:0:0:0:
3,312,99914,1,0,0:0:0:0:
88,342,100092,2,0,P|123:333|155:351,1,75,8|8,0:1|0:1,0:0:0:0:
245,382,100447,5,10,0:2:0:0:
245,382,100624,2,0,B|257:361|274:343|274:343|270:296|265:242,1,150,2|8,0:2|0:1,0:0:0:0:
343,196,101157,6,0,P|379:189|417:192,1,75,10|8,0:2|0:1,0:0:0:0:
480,128,101512,1,10,0:1:0:0:
480,128,101689,1,8,0:1:0:0:
442,37,101867,2,0,P|398:24|360:83,1,112.5,10|0,0:2|0:0,0:0:0:0:
337,99,102222,6,0,P|267:118|214:69,1,150,14|8,0:1|0:2,0:0:0:0:
141,17,102754,1,0,0:0:0:0:
69,71,102932,2,0,L|74:147,1,75,8|8,0:1|0:1,0:0:0:0:
22,221,103287,1,10,0:2:0:0:
22,221,103464,1,10,0:1:0:0:
104,254,103642,6,0,P|173:235|216:292,1,150,12|8,0:1|0:2,0:0:0:0:
271,362,104174,1,0,0:0:0:0:
348,314,104352,1,10,0:1:0:0:
348,314,104529,1,10,0:1:0:0:
431,360,104707,1,10,0:2:0:0:
431,360,104884,1,10,0:1:0:0:
499,301,105062,6,0,L|508:151,1,150,14|2,0:1|0:3,0:0:0:0:
438,96,105594,1,8,0:1:0:0:
421,184,105772,2,1,B|332:174|372:227|275:214,1,150,8|10,0:2|0:1,0:0:0:0:
197,204,106305,5,10,0:2:0:0:
197,204,106393,1,8,0:2:0:0:
197,204,106483,2,0,L|193:278,1,75,8|8,0:1|0:3,0:0:0:0:
105,291,106837,2,0,L|111:178,1,112.5,8|0,0:1|0:0,0:0:0:0:
90,139,107192,2,0,P|109:71|179:73,1,150,8|10,0:2|0:1,0:0:0:0:
258,122,107725,5,10,0:3:0:0:
258,122,107902,2,0,L|338:115,1,75,8|8,0:2|0:2,0:0:0:0:
400,56,108257,1,8,0:2:0:0:
474,106,108435,1,8,0:2:0:0:
409,167,108612,2,0,L|411:204,3,37.5,8|8|8|8,0:2|0:2|0:2|0:2,0:0:0:0:
445,233,108967,2,0,L|447:270,3,37.5,8|8|8|8,0:2|0:2|0:2|0:2,0:0:0:0:
414,301,109322,1,2,0:3:0:0:
211,373,109677,6,1,B|190:357|172:346|172:346|170:302|165:243,1,150,14|0,0:1|0:0,0:0:0:0:
90,192,110210,1,8,0:1:0:0:
135,114,110387,2,0,P|190:102|221:147,1,112.5,8|0,0:2|0:0,0:0:0:0:
238,171,110742,6,1,B|305:217|403:221|456:178|462:100|422:48|343:49|299:59|255:147|351:225|366:233|356:292|317:335,1,556.875016994477,14|0,0:1|0:0,0:0:0:0:
288,335,113228,6,0,L|252:329,2,28.1250010728836,8|8|8,0:2|0:2|0:1,0:0:0:0:
