osu file format v14

[General]
AudioFilename: audio.mp3
AudioLeadIn: 0
PreviewTime: 61305
Countdown: 0
SampleSet: Normal
StackLeniency: 0.7
Mode: 1
LetterboxInBreaks: 0
WidescreenStoryboard: 1

[Editor]
Bookmarks: 62509,68190,73870,79551,84166,87007
DistanceSpacing: 0.8
BeatDivisor: 1
GridSize: 32
TimelineZoom: 1.9

[Metadata]
Title:Luminous Once More
TitleUnicode:もういちどルミナス
Artist:Pastel*Palettes
ArtistUnicode:Pastel*Palettes
Creator:kivov
Version:Muzukashii
Source:バンドリ! ガールズバンドパーティ!
Tags:mou ichido luminous bang dream! girls band party bandori garupa gbp ガルパ pasupare パスパレ パステルパレット maruyama aya 丸山彩 maeshima ami 前島亜美 hikawa hina 氷川日菜 ozawa ari 小澤亜李 shirasagi chisato 白鷺千聖 uesaka sumire 上坂すみれ yamato maya 大和麻弥 nakagami ikumi 中上育実 wakamiya eve 若宮イヴ hata sawako 秦佐和子 idol group jpop j-pop jrock j-rock japanese pop rock anime video game
BeatmapID:3897636
BeatmapSetID:1891691

[Difficulty]
HPDrainRate:6
CircleSize:5
OverallDifficulty:5
ApproachRate:5
SliderMultiplier:1.4
SliderTickRate:1

[Events]
//Background and Video events
Video,2865,"output_2.mp4"
0,0,"lumin.png",0,20
//Break Periods
//Storyboard Layer 0 (Background)
//Storyboard Layer 1 (Fail)
//Storyboard Layer 2 (Pass)
//Storyboard Layer 3 (Foreground)
//Storyboard Layer 4 (Overlay)
//Storyboard Sound Samples

[TimingPoints]
2865,355.029585798817,4,1,0,70,1,0
26981,-125,4,1,0,60,0,0
54850,-111.111111111111,4,1,0,60,0,0
62509,-95.2380952380952,4,1,0,75,0,1
79906,-100,4,1,0,70,0,1
88072,-100,4,1,0,70,0,0
110767,-100,4,1,0,60,0,0
111300,-100,4,1,0,50,0,0
113253,-100,4,1,0,60,0,0

[HitObjects]
256,192,3397,5,8,0:0:0:0:
256,192,3575,1,8,0:0:0:0:
256,192,3663,1,8,0:0:0:0:
256,192,3752,1,8,0:0:0:0:
256,192,3930,1,8,0:0:0:0:
256,192,4018,1,8,0:0:0:0:
256,192,4107,1,8,0:0:0:0:
256,192,4285,1,4,0:0:0:0:
256,192,4640,1,8,0:0:0:0:
256,192,4995,1,0,0:0:0:0:
256,192,5172,1,0,0:0:0:0:
256,192,5350,1,8,0:0:0:0:
256,192,5705,1,0,0:0:0:0:
256,192,5882,1,0,0:0:0:0:
256,192,6060,1,8,0:0:0:0:
256,192,6237,1,8,0:0:0:0:
256,192,6326,1,8,0:0:0:0:
256,192,6415,1,8,0:0:0:0:
256,192,6592,1,8,0:0:0:0:
256,192,6770,1,0,0:0:0:0:
256,192,7125,1,0,0:0:0:0:
256,192,7480,1,8,0:0:0:0:
256,192,7835,1,0,0:0:0:0:
256,192,8012,1,0,0:0:0:0:
256,192,8190,1,8,0:0:0:0:
256,192,8545,1,8,0:0:0:0:
256,192,8900,1,8,0:0:0:0:
256,192,9255,1,8,0:0:0:0:
256,192,9433,1,0,0:0:0:0:
256,192,9610,1,8,0:0:0:0:
256,192,9699,1,8,0:0:0:0:
256,192,9788,1,8,0:0:0:0:
256,192,9965,1,12,0:0:0:0:
256,192,10320,1,8,0:0:0:0:
256,192,10675,1,0,0:0:0:0:
256,192,10853,1,0,0:0:0:0:
256,192,11030,1,8,0:0:0:0:
256,192,11385,1,8,0:0:0:0:
256,192,11740,1,8,0:0:0:0:
256,192,12095,1,8,0:0:0:0:
256,192,12273,1,0,0:0:0:0:
256,192,12362,1,0,0:0:0:0:
256,192,12450,1,0,0:0:0:0:
256,192,12628,1,0,0:0:0:0:
256,192,12805,1,8,0:0:0:0:
256,192,13160,1,8,0:0:0:0:
256,192,13338,1,0,0:0:0:0:
256,192,13693,1,0,0:0:0:0:
256,192,13870,1,8,0:0:0:0:
256,192,13959,1,8,0:0:0:0:
256,192,14048,1,8,0:0:0:0:
256,192,14225,1,12,0:0:0:0:
256,192,14580,1,0,0:0:0:0:
256,192,14936,1,8,0:0:0:0:
256,192,15113,1,0,0:0:0:0:
256,192,15291,1,8,0:0:0:0:
256,192,15379,1,8,0:0:0:0:
256,192,15468,1,8,0:0:0:0:
256,192,15646,1,4,0:0:0:0:
256,192,16001,1,8,0:0:0:0:
256,192,16356,1,0,0:0:0:0:
256,192,16711,1,8,0:0:0:0:
256,192,16888,1,0,0:0:0:0:
256,192,17243,1,0,0:0:0:0:
256,192,17421,1,8,0:0:0:0:
256,192,17776,1,0,0:0:0:0:
256,192,17865,1,0,0:0:0:0:
256,192,17953,1,0,0:0:0:0:
256,192,18131,1,8,0:0:0:0:
256,192,18308,1,8,0:0:0:0:
256,192,18486,1,4,0:0:0:0:
256,192,18841,1,8,0:0:0:0:
256,192,19196,1,0,0:0:0:0:
256,192,19373,1,0,0:0:0:0:
256,192,19551,1,8,0:0:0:0:
256,192,19728,1,0,0:0:0:0:
256,192,19906,1,4,0:0:0:0:
256,192,20261,1,8,0:0:0:0:
256,192,20616,1,0,0:0:0:0:
256,192,20705,1,0,0:0:0:0:
256,192,20793,1,0,0:0:0:0:
256,192,20971,1,8,0:0:0:0:
256,192,21149,1,0,0:0:0:0:
256,192,21326,1,12,0:0:0:0:
256,192,21681,1,0,0:0:0:0:
256,192,21859,1,0,0:0:0:0:
256,192,22036,1,8,0:0:0:0:
256,192,22391,1,0,0:0:0:0:
256,192,22569,1,8,0:0:0:0:
256,192,22746,1,0,0:0:0:0:
256,192,22924,1,8,0:0:0:0:
256,192,23279,1,0,0:0:0:0:
256,192,23456,1,8,0:0:0:0:
256,192,23811,1,8,0:0:0:0:
256,192,23989,1,8,0:0:0:0:
256,192,24166,1,0,0:0:0:0:
256,192,24344,1,0,0:0:0:0:
256,192,24521,1,0,0:0:0:0:
256,192,24699,1,0,0:0:0:0:
256,192,24876,1,0,0:0:0:0:
256,192,24965,1,0,0:0:0:0:
256,192,25054,1,0,0:0:0:0:
256,192,25231,1,0,0:0:0:0:
256,192,25320,1,0,0:0:0:0:
256,192,25409,1,0,0:0:0:0:
256,192,25498,1,0,0:0:0:0:
256,192,25586,1,0,0:0:0:0:
256,192,25941,1,12,0:0:0:0:
256,192,26474,1,0,0:0:0:0:
256,192,26651,1,8,0:0:0:0:
256,192,27007,1,4,0:0:0:0:
256,192,27362,1,8,0:0:0:0:
256,192,27717,1,0,0:0:0:0:
256,192,28072,1,8,0:0:0:0:
256,192,28249,1,0,0:0:0:0:
256,192,28782,1,0,0:0:0:0:
256,192,29137,1,0,0:0:0:0:
256,192,29314,1,8,0:0:0:0:
256,192,29492,1,0,0:0:0:0:
256,192,29669,1,8,0:0:0:0:
256,192,29847,1,0,0:0:0:0:
256,192,30202,1,8,0:0:0:0:
256,192,30379,1,0,0:0:0:0:
256,192,30734,1,8,0:0:0:0:
256,192,31089,1,0,0:0:0:0:
256,192,31622,1,8,0:0:0:0:
256,192,31977,1,8,0:0:0:0:
256,192,32154,1,0,0:0:0:0:
256,192,32332,1,0,0:0:0:0:
256,192,32687,1,8,0:0:0:0:
256,192,33042,1,0,0:0:0:0:
256,192,33220,1,8,0:0:0:0:
256,192,33575,1,8,0:0:0:0:
256,192,33752,1,0,0:0:0:0:
256,192,33930,1,8,0:0:0:0:
256,192,34107,1,0,0:0:0:0:
256,192,34462,1,0,0:0:0:0:
256,192,34817,1,8,0:0:0:0:
256,192,34995,1,0,0:0:0:0:
256,192,35172,1,0,0:0:0:0:
256,192,35350,1,8,0:0:0:0:
256,192,35527,1,0,0:0:0:0:
256,192,35882,1,8,0:0:0:0:
256,192,36060,1,0,0:0:0:0:
256,192,36592,1,0,0:0:0:0:
256,192,36947,1,0,0:0:0:0:
256,192,37302,1,8,0:0:0:0:
256,192,37657,1,0,0:0:0:0:
256,192,38012,1,0,0:0:0:0:
256,192,38190,1,0,0:0:0:0:
256,192,38367,1,12,0:0:0:0:
256,192,38722,1,8,0:0:0:0:
256,192,39078,1,0,0:0:0:0:
256,192,39433,1,8,0:0:0:0:
256,192,39610,1,0,0:0:0:0:
256,192,40143,1,8,0:0:0:0:
256,192,40498,1,0,0:0:0:0:
256,192,40675,1,8,0:0:0:0:
256,192,40853,1,0,0:0:0:0:
256,192,41030,1,8,0:0:0:0:
256,192,41208,1,0,0:0:0:0:
256,192,41563,1,0,0:0:0:0:
256,192,41918,1,8,0:0:0:0:
256,192,42273,1,0,0:0:0:0:
256,192,42450,1,8,0:0:0:0:
256,192,42983,1,0,0:0:0:0:
256,192,43338,1,0,0:0:0:0:
256,192,43515,1,8,0:0:0:0:
256,192,43693,1,0,0:0:0:0:
256,192,43870,1,8,0:0:0:0:
256,192,44048,1,0,0:0:0:0:
256,192,44403,1,0,0:0:0:0:
256,192,44758,1,0,0:0:0:0:
256,192,44936,1,8,0:0:0:0:
256,192,45113,1,0,0:0:0:0:
256,192,45291,1,0,0:0:0:0:
256,192,45468,1,8,0:0:0:0:
256,192,45823,1,8,0:0:0:0:
256,192,46178,1,0,0:0:0:0:
256,192,46356,1,0,0:0:0:0:
256,192,46533,1,8,0:0:0:0:
256,192,46888,1,0,0:0:0:0:
256,192,47243,1,0,0:0:0:0:
256,192,47598,1,8,0:0:0:0:
256,192,47953,1,8,0:0:0:0:
256,192,48131,1,8,0:0:0:0:
256,192,48308,1,0,0:0:0:0:
256,192,48486,1,0,0:0:0:0:
256,192,48663,1,8,0:0:0:0:
256,192,48841,1,0,0:0:0:0:
256,192,49018,1,0,0:0:0:0:
256,192,49196,1,0,0:0:0:0:
256,192,49373,1,8,0:0:0:0:
256,192,49551,1,8,0:0:0:0:
256,192,49728,5,4,0:0:0:0:
256,192,52214,1,0,0:0:0:0:
256,192,52569,1,4,0:0:0:0:
256,192,54876,1,0,0:0:0:0:
256,192,55054,1,8,0:0:0:0:
256,192,55409,1,12,0:0:0:0:
256,192,55764,1,8,0:0:0:0:
256,192,55941,1,0,0:0:0:0:
256,192,56119,1,8,0:0:0:0:
256,192,56296,1,0,0:0:0:0:
256,192,56474,1,8,0:0:0:0:
256,192,56651,1,8,0:0:0:0:
256,192,56829,1,0,0:0:0:0:
256,192,56918,1,0,0:0:0:0:
256,192,57007,1,0,0:0:0:0:
256,192,57184,1,8,0:0:0:0:
256,192,57539,1,8,0:0:0:0:
256,192,57717,1,8,0:0:0:0:
256,192,57894,1,0,0:0:0:0:
256,192,58072,1,8,0:0:0:0:
256,192,58249,1,4,0:0:0:0:
256,192,58604,1,0,0:0:0:0:
256,192,58782,1,0,0:0:0:0:
256,192,58959,1,8,0:0:0:0:
256,192,59314,1,0,0:0:0:0:
256,192,59492,1,0,0:0:0:0:
256,192,59669,1,0,0:0:0:0:
256,192,59847,1,8,0:0:0:0:
256,192,60024,1,0,0:0:0:0:
256,192,60202,1,0,0:0:0:0:
256,192,60379,1,8,0:0:0:0:
256,192,60557,1,0,0:0:0:0:
256,192,60734,1,8,0:0:0:0:
256,192,60823,1,8,0:0:0:0:
256,192,60912,1,8,0:0:0:0:
256,192,61089,5,0,0:0:0:0:
256,192,62509,5,12,0:0:0:0:
256,192,62865,1,8,0:0:0:0:
256,192,63220,1,0,0:0:0:0:
256,192,63397,1,0,0:0:0:0:
256,192,63575,1,8,0:0:0:0:
256,192,63752,1,0,0:0:0:0:
256,192,63841,1,0,0:0:0:0:
256,192,63930,1,0,0:0:0:0:
256,192,64107,1,0,0:0:0:0:
256,192,64285,1,8,0:0:0:0:
256,192,64640,1,0,0:0:0:0:
256,192,64817,1,0,0:0:0:0:
256,192,64995,1,8,0:0:0:0:
256,192,65083,1,8,0:0:0:0:
256,192,65172,1,8,0:0:0:0:
256,192,65350,1,0,0:0:0:0:
256,192,65527,1,0,0:0:0:0:
256,192,65705,1,8,0:0:0:0:
256,192,65882,1,0,0:0:0:0:
256,192,66237,1,0,0:0:0:0:
256,192,66415,1,8,0:0:0:0:
256,192,66592,1,0,0:0:0:0:
256,192,66681,1,0,0:0:0:0:
256,192,66770,1,0,0:0:0:0:
256,192,66947,1,0,0:0:0:0:
256,192,67125,1,8,0:0:0:0:
256,192,67214,1,8,0:0:0:0:
256,192,67302,1,8,0:0:0:0:
256,192,67480,1,0,0:0:0:0:
256,192,67835,1,8,0:0:0:0:
256,192,68012,1,8,0:0:0:0:
256,192,68190,1,4,0:0:0:0:
256,192,68545,1,8,0:0:0:0:
256,192,68900,1,0,0:0:0:0:
256,192,69255,1,8,0:0:0:0:
256,192,69433,1,0,0:0:0:0:
256,192,69521,1,0,0:0:0:0:
256,192,69610,1,0,0:0:0:0:
256,192,69788,1,0,0:0:0:0:
256,192,69965,1,8,0:0:0:0:
256,192,70143,1,0,0:0:0:0:
256,192,70498,1,0,0:0:0:0:
256,192,70675,1,8,0:0:0:0:
256,192,70853,1,8,0:0:0:0:
256,192,70941,1,8,0:0:0:0:
256,192,71030,1,8,0:0:0:0:
256,192,71208,1,0,0:0:0:0:
256,192,71385,1,8,0:0:0:0:
256,192,71563,1,8,0:0:0:0:
256,192,71918,1,0,0:0:0:0:
256,192,72095,1,8,0:0:0:0:
256,192,72273,1,0,0:0:0:0:
256,192,72450,1,0,0:0:0:0:
256,192,72539,1,0,0:0:0:0:
256,192,72628,1,0,0:0:0:0:
256,192,72805,1,0,0:0:0:0:
256,192,72983,1,0,0:0:0:0:
256,192,73160,1,0,0:0:0:0:
256,192,73249,1,0,0:0:0:0:
256,192,73338,1,0,0:0:0:0:
256,192,73515,1,8,0:0:0:0:
256,192,73693,1,0,0:0:0:0:
256,192,73870,1,12,0:0:0:0:
256,192,74225,1,8,0:0:0:0:
256,192,74580,1,0,0:0:0:0:
256,192,74936,1,8,0:0:0:0:
256,192,75113,1,0,0:0:0:0:
256,192,75291,1,0,0:0:0:0:
256,192,75379,1,0,0:0:0:0:
256,192,75468,1,0,0:0:0:0:
256,192,75646,1,8,0:0:0:0:
256,192,76001,1,0,0:0:0:0:
256,192,76089,1,0,0:0:0:0:
256,192,76178,1,0,0:0:0:0:
256,192,76356,1,8,0:0:0:0:
256,192,76533,1,0,0:0:0:0:
256,192,76711,1,4,0:0:0:0:
256,192,77066,1,0,0:0:0:0:
256,192,77243,1,0,0:0:0:0:
256,192,77421,1,12,0:0:0:0:
256,192,77776,1,8,0:0:0:0:
256,192,77953,1,8,0:0:0:0:
256,192,78131,1,4,0:0:0:0:
256,192,78486,1,0,0:0:0:0:
256,192,78663,1,0,0:0:0:0:
256,192,78841,1,8,0:0:0:0:
256,192,79018,1,0,0:0:0:0:
256,192,79196,1,8,0:0:0:0:
256,192,79285,1,8,0:0:0:0:
256,192,79373,1,8,0:0:0:0:
256,192,79551,1,4,0:0:0:0:
256,192,79906,1,0,0:0:0:0:
256,192,80261,1,8,0:0:0:0:
256,192,80616,1,0,0:0:0:0:
256,192,80793,1,0,0:0:0:0:
256,192,80971,1,0,0:0:0:0:
256,192,81149,1,8,0:0:0:0:
256,192,81326,1,0,0:0:0:0:
256,192,81681,1,8,0:0:0:0:
256,192,82036,1,0,0:0:0:0:
256,192,82214,1,8,0:0:0:0:
256,192,82391,1,0,0:0:0:0:
256,192,82569,1,0,0:0:0:0:
256,192,82746,1,8,0:0:0:0:
256,192,83101,1,0,0:0:0:0:
256,192,83456,1,0,0:0:0:0:
256,192,83634,1,0,0:0:0:0:
256,192,83811,1,0,0:0:0:0:
256,192,83989,1,8,0:0:0:0:
256,192,84166,1,0,0:0:0:0:
256,192,84521,1,8,0:0:0:0:
256,192,84876,1,0,0:0:0:0:
256,192,85231,1,0,0:0:0:0:
256,192,85320,1,0,0:0:0:0:
256,192,85409,1,0,0:0:0:0:
256,192,85586,1,8,0:0:0:0:
256,192,85764,1,0,0:0:0:0:
256,192,85941,1,0,0:0:0:0:
256,192,86119,1,0,0:0:0:0:
256,192,86208,1,0,0:0:0:0:
256,192,86296,1,0,0:0:0:0:
256,192,86474,1,0,0:0:0:0:
256,192,86651,1,0,0:0:0:0:
256,192,86740,1,0,0:0:0:0:
256,192,86829,1,0,0:0:0:0:
256,192,86918,1,0,0:0:0:0:
256,192,87007,1,0,0:0:0:0:
256,192,87362,1,0,0:0:0:0:
256,192,87717,1,8,0:0:0:0:
256,192,88072,1,12,0:0:0:0:
256,192,88427,1,8,0:0:0:0:
256,192,88782,1,0,0:0:0:0:
256,192,88959,1,0,0:0:0:0:
256,192,89137,1,8,0:0:0:0:
256,192,89492,1,0,0:0:0:0:
256,192,89669,1,0,0:0:0:0:
256,192,89847,1,8,0:0:0:0:
256,192,90024,1,8,0:0:0:0:
256,192,90113,1,8,0:0:0:0:
256,192,90202,1,8,0:0:0:0:
256,192,90379,1,8,0:0:0:0:
256,192,90557,1,0,0:0:0:0:
256,192,90912,1,0,0:0:0:0:
256,192,91267,1,8,0:0:0:0:
256,192,91622,1,0,0:0:0:0:
256,192,91799,1,0,0:0:0:0:
256,192,91977,1,8,0:0:0:0:
256,192,92332,1,8,0:0:0:0:
256,192,92687,1,8,0:0:0:0:
256,192,93042,1,8,0:0:0:0:
256,192,93220,1,0,0:0:0:0:
256,192,93397,1,8,0:0:0:0:
256,192,93486,1,8,0:0:0:0:
256,192,93575,1,8,0:0:0:0:
256,192,93752,1,12,0:0:0:0:
256,192,94107,1,8,0:0:0:0:
256,192,94462,1,0,0:0:0:0:
256,192,94640,1,0,0:0:0:0:
256,192,94817,1,8,0:0:0:0:
256,192,95172,1,8,0:0:0:0:
256,192,95527,1,8,0:0:0:0:
256,192,95882,1,8,0:0:0:0:
256,192,96060,1,0,0:0:0:0:
256,192,96149,1,0,0:0:0:0:
256,192,96237,1,0,0:0:0:0:
256,192,96415,1,0,0:0:0:0:
256,192,96592,1,8,0:0:0:0:
256,192,96947,1,8,0:0:0:0:
256,192,97125,1,0,0:0:0:0:
256,192,97480,1,0,0:0:0:0:
256,192,97657,1,8,0:0:0:0:
256,192,97746,1,8,0:0:0:0:
256,192,97835,1,8,0:0:0:0:
256,192,98012,1,12,0:0:0:0:
256,192,98367,1,0,0:0:0:0:
256,192,98723,1,8,0:0:0:0:
256,192,98900,1,0,0:0:0:0:
256,192,99078,1,8,0:0:0:0:
256,192,99166,1,8,0:0:0:0:
256,192,99255,1,8,0:0:0:0:
256,192,99433,1,4,0:0:0:0:
256,192,99788,1,8,0:0:0:0:
256,192,100143,1,0,0:0:0:0:
256,192,100498,1,8,0:0:0:0:
256,192,100675,1,0,0:0:0:0:
256,192,101030,1,0,0:0:0:0:
256,192,101208,1,8,0:0:0:0:
256,192,101563,1,0,0:0:0:0:
256,192,101652,1,0,0:0:0:0:
256,192,101740,1,0,0:0:0:0:
256,192,101918,1,8,0:0:0:0:
256,192,102095,1,8,0:0:0:0:
256,192,102273,1,4,0:0:0:0:
256,192,102628,1,8,0:0:0:0:
256,192,102983,1,0,0:0:0:0:
256,192,103160,1,0,0:0:0:0:
256,192,103338,1,8,0:0:0:0:
256,192,103515,1,0,0:0:0:0:
256,192,103693,1,4,0:0:0:0:
256,192,104048,1,8,0:0:0:0:
256,192,104403,1,0,0:0:0:0:
256,192,104492,1,0,0:0:0:0:
256,192,104580,1,0,0:0:0:0:
256,192,104758,1,8,0:0:0:0:
256,192,104936,1,0,0:0:0:0:
256,192,105113,1,12,0:0:0:0:
256,192,105468,1,0,0:0:0:0:
256,192,105646,1,0,0:0:0:0:
256,192,105823,1,8,0:0:0:0:
256,192,106178,1,0,0:0:0:0:
256,192,106356,1,8,0:0:0:0:
256,192,106533,1,0,0:0:0:0:
256,192,106711,1,8,0:0:0:0:
256,192,107066,1,0,0:0:0:0:
256,192,107243,1,8,0:0:0:0:
256,192,107598,1,8,0:0:0:0:
256,192,107776,1,8,0:0:0:0:
256,192,107953,1,0,0:0:0:0:
256,192,108131,1,0,0:0:0:0:
256,192,108308,1,0,0:0:0:0:
256,192,108486,1,0,0:0:0:0:
256,192,108663,1,0,0:0:0:0:
256,192,108752,1,0,0:0:0:0:
256,192,108841,1,0,0:0:0:0:
256,192,109018,1,0,0:0:0:0:
256,192,109107,1,0,0:0:0:0:
256,192,109196,1,0,0:0:0:0:
256,192,109285,1,0,0:0:0:0:
256,192,109374,1,0,0:0:0:0:
256,192,109728,5,12,0:0:0:0:
256,192,110261,1,0,0:0:0:0:
256,192,110438,1,8,0:0:0:0:
256,192,110793,5,12,0:0:0:0:
256,192,111326,1,8,0:0:0:0:
256,192,111859,1,8,0:0:0:0:
256,192,112391,1,8,0:0:0:0:
256,192,113279,12,0,113456,0:0:0:0:
