osu file format v14

[General]
AudioFilename: audio.mp3
AudioLeadIn: 0
PreviewTime: 51812
Countdown: 0
SampleSet: Soft
StackLeniency: 0.5
Mode: 0
LetterboxInBreaks: 0
WidescreenStoryboard: 1

[Editor]
Bookmarks: 36920
DistanceSpacing: 1.4
BeatDivisor: 2
GridSize: 32
TimelineZoom: 2.1

[Metadata]
Title:Kyu~mai*flower
TitleUnicode:きゅ~まい*flower
Artist:Pastel*Palettes
ArtistUnicode:Pastel*Palettes
Creator:Petal
Version:byd's Hard
Source:バンドリ! ガールズバンドパーティ!
Tags:BanG Dream! Girls Band Party bandori garupa ガルパ pasupare パスパレ パステルパレット game size maruyama aya 丸山彩 maeshima ami 前島亜美 hikawa hina 氷川日菜 ozawa ari 小澤亜李 shirasagi chisato 白鷺千聖 uesaka sumire 上坂すみれ yamato maya 大和麻弥 nakagami ikumi 中上育実 wakamiya eve 若宮イヴ hata sawako 秦佐和子 anime video game japanese matha agatsu byd bite you death kyumai
BeatmapID:2329935
BeatmapSetID:1115294

[Difficulty]
HPDrainRate:5
CircleSize:3.6
OverallDifficulty:7
ApproachRate:8
SliderMultiplier:1.4
SliderTickRate:1

[Events]
//Background and Video events
0,0,"BG3.jpg",0,0
//Break Periods
//Storyboard Layer 0 (Background)
//Storyboard Layer 1 (Fail)
//Storyboard Layer 2 (Pass)
//Storyboard Layer 3 (Foreground)
//Storyboard Layer 4 (Overlay)
//Storyboard Sound Samples

[TimingPoints]
829,327.868852459016,4,2,1,50,1,0
829,-125,4,2,1,50,0,0
6566,-125,4,2,1,52,0,0
6648,-125,4,2,1,54,0,0
6730,-125,4,2,1,56,0,0
6812,-125,4,2,1,58,0,0
6894,-125,4,2,1,60,0,0
6976,-125,4,2,1,62,0,0
7058,-125,4,2,1,64,0,0
7140,-125,4,2,1,66,0,0
7222,-125,4,2,1,68,0,0
7304,-125,4,2,1,70,0,0
7386,-125,4,2,1,70,0,0
7960,-125,4,2,1,5,0,0
8042,-125,4,2,1,70,0,0
8206,-125,4,2,1,70,0,0
8369,-125,4,2,1,20,0,0
8697,-100,4,2,1,80,0,0
17714,-100,4,2,1,85,0,0
19189,-125,4,2,1,65,0,0
27386,-100,4,2,1,75,0,0
27714,-125,4,2,1,55,0,0
28042,-100,4,2,1,65,0,0
28369,-125,4,2,1,55,0,0
29681,-125,4,2,1,65,0,0
37058,-125,4,2,1,65,0,0
37550,-125,4,2,1,65,0,0
40501,-125,4,2,1,65,0,0
45091,-125,4,2,1,65,0,0
45419,-125,4,2,1,70,0,0
51648,-125,4,2,1,65,0,0
51689,-125,4,2,1,45,0,0
51976,-100,4,2,1,85,0,1
52960,-100,4,2,1,85,0,1
54599,-100,4,2,1,85,0,1
55583,-100,4,2,1,85,0,1
56402,-100,4,2,1,85,0,1
56894,-100,4,2,1,85,0,0
57222,-100,4,2,1,85,0,1
58206,-100,4,2,1,85,0,0
58533,-100,4,2,1,85,0,1
59517,-100,4,2,1,85,0,0
59845,-100,4,2,1,85,0,1
62140,-100,4,2,1,85,0,0
62181,-100,4,2,1,50,0,0
62468,-100,4,2,1,85,0,1
63451,-100,4,2,1,85,0,1
65091,-100,4,2,1,85,0,1
66074,-100,4,2,1,85,0,1
66894,-100,4,2,1,85,0,1
70009,-100,4,2,1,85,0,1
70665,-100,4,2,1,85,0,0
70992,-100,4,2,1,85,0,1
71320,-100,4,2,1,85,0,0
71484,-125,4,2,1,85,0,1
72468,-100,4,2,1,85,0,0
72960,-100,4,2,1,70,0,0
74271,-100,4,2,1,70,0,0
79189,-100,4,2,1,70,0,0
84763,-100,4,2,1,80,0,1
87222,-100,4,2,1,80,0,0
87714,-100,4,2,1,80,0,0
88861,-100,4,2,1,35,0,0
89517,-100,4,2,1,65,0,0
90009,-100,4,2,1,20,0,0

[Colours]
Combo1 : 150,203,177
Combo2 : 133,177,217
Combo3 : 248,240,196
Combo4 : 255,167,247

[HitObjects]
126,251,829,6,0,P|159:245|198:238,1,56,2|2,1:2|0:0,0:0:0:0:
227,304,1156,2,0,P|260:309|299:317,1,56,2|10,0:0|0:0,0:0:0:0:
328,251,1484,2,0,P|350:273|359:311,2,56,2|2|10,1:2|0:0|0:0,0:0:0:0:
257,214,1976,1,2,0:0:0:0:
224,142,2140,6,0,P|229:113|234:86,1,56,10|2,1:2|0:0,0:0:0:0:
162,56,2468,2,0,P|156:84|151:111,1,56,2|10,0:0|0:0,0:0:0:0:
92,163,2796,2,0,P|62:167|35:153,2,56,2|2|10,1:2|0:0|0:0,0:0:0:0:
154,227,3288,1,2,0:0:0:0:
154,227,3369,1,0,0:0:0:0:
154,227,3451,6,0,P|148:255|145:295,1,56,2|2,1:2|0:0,0:0:0:0:
69,300,3779,2,0,P|65:272|60:244,1,56,2|10,0:0|0:0,0:0:0:0:
126,364,4107,2,0,P|153:359|189:355,1,56,2|2,1:2|0:0,0:0:0:0:
227,291,4435,2,0,P|254:295|290:300,1,56,10|2,0:0|0:0,0:0:0:0:
324,366,4763,6,0,P|329:309|360:244,1,112,2|2,1:2|0:0,0:0:0:0:
418,220,5255,1,10,0:0:0:0:
355,172,5419,2,0,B|288:162|312:207|245:198,1,112,2|8,1:2|0:0,0:0:0:0:
116,116,6074,6,0,L|124:85,3,28,10|8|8|8,1:2|3:0|3:0|3:0,0:0:0:0:
151,61,6402,2,0,L|159:30,3,28,8|8|8|8,3:0|3:0|3:0|3:0,0:0:0:0:
196,26,6730,2,0,L|204:57,3,28,8|8|8|8,3:0|3:0|3:0|3:0,0:0:0:0:
233,79,7058,2,0,L|241:110,3,28,4|4|4|4,3:0|3:0|3:0|3:0,0:0:0:0:
320,116,7386,6,0,P|370:81|396:191,1,224,6|8,1:2|0:0,0:0:0:0:
317,194,8206,1,8,0:0:0:0:
152,355,8697,6,0,P|148:319|141:278,1,70,4|2,0:0|0:0,0:0:0:0:
68,245,9025,1,8,0:0:0:0:
120,179,9189,2,0,P|162:162|235:231,1,140,2|0,0:0|1:0,0:0:0:0:
232,212,9681,1,8,0:0:0:0:
290,272,9845,2,0,P|323:263|358:255,1,70,6|0,1:2|0:0,0:0:0:0:
478,205,10173,2,0,P|444:196|410:189,1,70,0|8,1:0|0:0,0:0:0:0:
289,138,10501,2,0,P|323:129|358:122,1,70,2|0,0:0|1:0,0:0:0:0:
477,71,10828,2,0,P|449:30|359:37,1,140,0|0,1:0|0:0,0:0:0:0:
286,1,11320,6,0,P|250:15|211:0,1,70,4|2,1:2|0:0,0:0:0:0:
142,40,11648,1,8,0:0:0:0:
200,100,11812,2,0,P|189:165|177:241,1,140,2|0,0:0|1:0,0:0:0:0:
111,291,12304,1,8,0:0:0:0:
193,364,12468,2,0,B|277:377|245:318|343:343,1,140,4|0,1:2|1:0,0:0:0:0:
402,374,12960,1,8,0:0:0:0:
475,333,13124,2,0,P|484:298|471:266,1,70,2|0,0:0|1:0,0:0:0:0:
400,212,13451,1,8,0:1:0:0:
400,212,13615,2,0,L|386:290,1,70,8|0,0:0|0:0,0:0:0:0:
476,178,13943,6,0,P|440:136|348:143,1,140,4|8,0:0|0:0,0:0:0:0:
306,207,14435,1,0,1:0:0:0:
274,125,14599,1,8,0:0:0:0:
306,207,14763,2,0,P|298:244|288:298,1,70,0|8,1:0|0:0,0:0:0:0:
326,352,15091,2,0,P|308:321|202:329,1,140,4|0,1:0|1:0,0:0:0:0:
151,375,15583,2,0,P|133:350|133:299,1,70,8|0,0:0|1:0,0:0:0:0:
175,241,15910,1,8,0:0:0:0:
90,237,16074,1,0,1:0:0:0:
213,317,16238,1,8,0:0:0:0:
258,245,16402,6,0,P|247:174|236:94,1,140,0|0,1:0|0:0,0:0:0:0:
287,38,16894,1,0,1:0:0:0:
336,105,17058,2,0,P|370:99|408:94,1,70,12|0,0:0|0:0,0:0:0:0:
500,184,17386,2,0,P|465:179|431:174,1,70,0|8,1:0|0:0,0:0:0:0:
336,264,17714,2,0,B|262:271|294:214|195:227,1,140,4|0,0:0|1:0,0:0:0:0:
133,292,18206,2,0,L|129:258,3,35,8|8|8|8,0:0|0:0|3:0|3:0,0:0:0:0:
128,243,18533,1,4,3:0:0:0:
92,370,18697,6,0,P|130:328|229:343,1,140,6|0,1:2|0:0,0:0:0:0:
265,382,19189,5,0,1:0:0:0:
318,326,19353,2,0,P|375:336|448:349,2,112,2|2|0,0:0|0:0|1:0,0:0:0:0:
263,273,20173,2,0,P|252:243|265:205,1,56,8|0,0:0|0:0,0:0:0:0:
320,174,20501,2,0,P|285:145|218:151,1,112,0|8,1:0|0:0,0:0:0:0:
167,206,20992,2,0,P|112:213|68:180,1,112,0|0,1:0|1:0,0:0:0:0:
48,104,21484,1,8,0:0:0:0:
8,255,21812,5,0,1:0:0:0:
64,309,21976,2,0,L|136:301,1,56,2|8,0:0|0:0,0:0:0:0:
193,343,22304,1,2,0:0:0:0:
193,343,22468,2,0,P|204:302|200:281,1,56,0|0,1:0|1:0,0:0:0:0:
281,199,22796,2,0,P|270:240|274:261,1,56,8|2,0:0|0:0,0:0:0:0:
326,309,23124,2,0,L|440:294,2,112,0|8|0,1:0|0:0|1:0,0:0:0:0:
267,361,23943,1,0,1:0:0:0:
319,302,24107,1,8,0:0:0:0:
203,196,24435,5,4,0:0:0:0:
154,257,24599,2,0,L|85:248,1,56,2|8,0:0|0:0,0:0:0:0:
30,286,24927,1,2,0:0:0:0:
30,286,25091,2,0,P|21:260|23:233,1,56,0|0,1:0|1:0,0:0:0:0:
69,121,25419,2,0,P|78:147|77:174,1,56,8|2,0:0|0:0,0:0:0:0:
21,58,25747,2,0,P|77:41|136:73,2,112,0|8|2,1:0|0:0|0:0,0:0:0:0:
155,137,26730,2,0,P|185:132|220:128,1,56,8|8,0:0|0:0,0:0:0:0:
217,137,26976,1,8,0:0:0:0:
224,145,27058,5,0,1:0:0:0:
206,221,27222,1,0,1:0:0:0:
188,297,27386,2,0,P|222:305|258:313,1,70,6|0,0:1|0:0,0:0:0:0:
333,329,27714,5,0,1:0:0:0:
351,253,27878,1,0,1:0:0:0:
369,177,28042,2,0,P|334:168|299:161,1,70,6|0,0:1|0:0,0:0:0:0:
272,88,28369,5,6,1:0:0:0:
204,193,28533,2,0,P|163:205|111:164,2,112,10|10|10,0:1|0:1|0:1,0:0:0:0:
361,17,29681,5,4,1:0:0:0:
304,71,29845,2,0,P|310:103|316:140,1,56,2|8,0:0|0:0,0:0:0:0:
284,201,30173,1,2,0:0:0:0:
284,201,30337,2,0,P|323:207|340:200,1,56,0|2,1:0|0:0,0:0:0:0:
443,141,30665,2,0,P|416:134|390:142,1,56,8|2,0:0|0:0,0:0:0:0:
348,208,30992,2,0,P|356:265|364:326,1,112,0|8,1:0|0:0,0:0:0:0:
291,352,31484,2,0,P|286:323|283:293,1,56,2|0,0:0|1:0,0:0:0:0:
232,235,31812,2,0,P|204:229|178:236,1,56,10|2,0:1|0:0,0:0:0:0:
144,307,32140,1,10,0:1:0:0:
73,213,32304,5,4,1:0:0:0:
73,213,32468,2,0,L|84:142,1,56,2|8,0:0|0:0,0:0:0:0:
127,93,32796,1,2,0:0:0:0:
127,93,32960,2,0,L|190:86,1,56,2|2,1:2|0:0,0:0:0:0:
262,167,33288,2,0,L|207:161,1,56,8|2,0:0|0:0,0:0:0:0:
287,93,33615,2,0,P|317:87|382:148,2,112,2|8|0,1:2|0:0|1:0,0:0:0:0:
244,159,34435,1,8,0:0:0:0:
168,84,34599,2,0,L|127:91,3,28,8|8|8|8,0:0|0:0|0:0|0:0,0:0:0:0:
129,92,34927,5,4,1:0:0:0:
81,154,35091,2,0,P|87:183|94:215,1,56,2|8,0:0|0:0,0:0:0:0:
68,286,35419,1,2,0:0:0:0:
68,286,35583,2,0,P|104:291|134:278,1,56,2|0,1:2|1:0,0:0:0:0:
222,221,35910,2,0,P|195:215|168:221,1,56,8|2,0:0|0:0,0:0:0:0:
258,339,36238,6,0,B|270:263,1,56,2|2,1:2|0:0,0:0:0:0:
334,210,36566,2,0,B|343:266,1,56,8|2,0:0|0:0,0:0:0:0:
257,193,36894,1,6,1:2:0:0:
311,135,37058,1,2,0:0:0:0:
234,118,37222,1,8,0:0:0:0:
334,210,37386,1,2,0:0:0:0:
334,210,37550,6,0,B|399:212|375:174|451:179,2,112,6|2|8,0:0|0:0|0:0,0:0:0:0:
255,54,38533,1,2,0:0:0:0:
169,198,38861,2,0,P|178:255|191:326,2,112,6|0|8,1:2|1:0|0:0,0:0:0:0:
248,174,39681,1,0,1:0:0:0:
248,174,39763,1,8,0:0:0:0:
248,174,39845,2,0,P|252:145|259:109,1,56,8|8,0:0|0:0,0:0:0:0:
81,339,40501,6,0,P|106:311|185:320,1,112,6|0,1:2|1:0,0:0:0:0:
226,379,40992,1,0,1:0:0:0:
226,379,41156,1,8,0:0:0:0:
310,305,41321,2,0,B|376:300|352:343|418:338,1,112,6|0,1:2|1:0,0:0:0:0:
483,303,41812,1,8,0:0:0:0:
433,241,41976,1,8,0:0:0:0:
433,241,42058,1,8,0:0:0:0:
433,241,42140,6,0,L|425:204,2,37.3333333333333,8|8|8,3:0|3:0|3:0,0:0:0:0:
442,233,42468,2,0,L|434:196,2,37.3333333333333,4|8|8,3:0|3:0|3:0,0:0:0:0:
362,298,42796,6,0,P|324:266|247:281,1,112,6|8,1:2|0:0,0:0:0:0:
208,324,43288,1,2,0:0:0:0:
158,263,43451,2,0,L|168:188,1,56,0|0,1:0|1:0,0:0:0:0:
165,207,43779,1,8,0:0:0:0:
101,63,44107,6,0,P|152:98|219:81,1,112,0|8,1:0|0:0,0:0:0:0:
254,35,44599,1,0,1:0:0:0:
254,35,44763,2,0,P|283:26|326:38,1,56,2|0,0:0|1:0,0:0:0:0:
358,96,45091,1,8,0:0:0:0:
358,96,45255,1,0,1:0:0:0:
270,176,45419,6,0,P|273:204|276:232,1,56,12|0,0:0|0:0,0:0:0:0:
336,283,45747,1,8,0:0:0:0:
231,360,45910,2,0,P|169:356|141:310,1,112,0|2,1:0|1:2,0:0:0:0:
192,257,46402,2,0,P|199:226|191:196,1,56,8|0,0:0|1:0,0:0:0:0:
144,141,46730,5,12,0:0:0:0:
193,79,46894,2,0,L|262:70,1,56,0|8,0:0|0:0,0:0:0:0:
335,1,47222,2,0,P|369:15|373:87,1,112,0|0,1:0|1:0,0:0:0:0:
317,135,47714,2,0,P|310:163|319:196,1,56,8|0,0:0|0:0,0:0:0:0:
364,250,48042,5,14,0:0:0:0:
440,237,48206,1,0,1:0:0:0:
467,163,48369,1,0,1:0:0:0:
418,102,48533,5,8,0:0:0:0:
342,114,48696,1,0,1:0:0:0:
315,189,48860,1,0,1:0:0:0:
364,250,49025,2,0,P|376:279|384:315,1,56,8|0,0:0|1:0,0:0:0:0:
306,384,49353,6,0,P|265:349|184:349,1,112,12|0,0:0|1:0,0:0:0:0:
136,381,49845,1,12,2:0:0:0:
68,269,50009,2,0,P|73:241|78:214,1,56,0|0,1:0|1:0,0:0:0:0:
158,134,50337,2,0,P|155:147|152:161,3,28,8|8|8|8,0:0|0:0|0:0|0:0,0:0:0:0:
151,172,50665,5,12,0:0:0:0:
245,206,50828,1,12,0:0:0:0:
424,54,51319,5,12,0:0:0:0:
330,88,51483,1,12,0:0:0:0:
420,368,51976,6,0,P|431:297|442:221,1,140,6|8,1:0|0:0,0:0:0:0:
510,182,52468,1,2,0:0:0:0:
464,111,52632,2,0,P|429:101|385:122,1,70,0|0,1:0|1:0,0:0:0:0:
357,185,52960,2,0,P|323:194|290:184,1,70,8|0,0:0|0:0,0:0:0:0:
247,111,53288,6,0,P|240:173|230:273,1,140,4|8,1:0|0:0,0:0:0:0:
154,282,53779,2,0,P|147:246|162:207,1,70,0|0,1:0|0:0,0:0:0:0:
311,217,54107,2,0,P|317:252|302:291,1,70,0|8,1:0|0:0,0:0:0:0:
232,250,54435,1,2,0:0:0:0:
297,197,54599,6,0,P|363:205|456:217,1,140,6|8,1:0|0:0,0:0:0:0:
512,173,55091,1,2,0:0:0:0:
446,121,55255,2,0,P|437:87|453:52,1,70,0|0,1:0|1:0,0:0:0:0:
356,0,55583,2,0,P|365:34|349:69,1,70,8|0,0:0|0:0,0:0:0:0:
284,113,55910,6,0,P|248:107|192:99,1,70,4|0,1:0|1:0,0:0:0:0:
156,42,56238,1,8,0:0:0:0:
59,82,56402,2,0,P|84:147|87:229,1,140,0|0,1:0|1:0,0:0:0:0:
33,284,56894,1,8,0:0:0:0:
193,259,57222,6,0,P|231:253|281:275,1,70,12|2,0:0|0:0,0:0:0:0:
316,325,57550,1,8,0:0:0:0:
384,275,57714,1,8,3:0:0:0:
384,275,57796,1,8,3:0:0:0:
384,275,57878,2,0,L|372:190,1,70,2|0,1:2|1:0,0:0:0:0:
424,137,58206,1,8,0:0:0:0:
296,28,58533,6,0,P|260:20|218:42,1,70,12|2,0:0|0:0,0:0:0:0:
166,86,58861,1,8,0:0:0:0:
238,146,59025,1,8,3:0:0:0:
238,146,59107,1,8,3:0:0:0:
238,146,59189,2,0,P|232:177|226:218,1,70,2|0,1:2|1:0,0:0:0:0:
158,315,59517,2,0,P|152:280|147:246,1,70,8|0,0:0|0:0,0:0:0:0:
237,346,59845,6,0,P|282:357|316:348,1,70,6|0,1:2|1:0,0:0:0:0:
359,288,60173,1,10,1:0:0:0:
512,220,60501,6,0,P|467:231|433:222,1,70,6|0,1:2|1:0,0:0:0:0:
390,162,60829,1,10,1:0:0:0:
237,94,61156,6,0,P|282:105|316:96,1,70,12|0,0:0|1:0,0:0:0:0:
359,36,61484,1,8,0:0:0:0:
424,87,61648,1,0,1:0:0:0:
390,162,61812,2,0,P|399:198|409:245,1,70,12|0,0:0|1:0,0:0:0:0:
364,303,62140,1,10,0:0:0:0:
233,197,62468,6,0,P|180:193|129:263,1,140,6|8,1:0|0:0,0:0:0:0:
150,337,62960,1,2,0:0:0:0:
69,311,63124,2,0,P|50:281|47:247,1,70,0|0,1:0|1:0,0:0:0:0:
188,199,63451,2,0,P|207:229|210:263,1,70,8|0,0:0|0:0,0:0:0:0:
109,171,63779,6,0,P|113:135|119:89,1,70,4|0,1:0|1:0,0:0:0:0:
90,21,64107,1,8,0:0:0:0:
205,116,64271,2,0,P|254:133|337:63,1,140,0|0,1:0|1:0,0:0:0:0:
396,45,64763,2,0,P|411:79|406:114,1,70,8|0,0:0|0:0,0:0:0:0:
359,180,65091,6,0,P|370:251|381:333,1,140,6|8,1:0|0:0,0:0:0:0:
335,384,65583,1,2,0:0:0:0:
271,327,65747,2,0,P|237:324|206:339,1,70,0|0,1:0|1:0,0:0:0:0:
85,286,66075,2,0,P|119:289|151:275,1,70,8|0,0:0|0:0,0:0:0:0:
200,207,66402,6,0,L|192:134,1,70,4|2,1:2|0:0,0:0:0:0:
154,62,66730,1,8,0:0:0:0:
274,165,66894,2,0,B|359:174|321:114|427:129,1,140,8|0,0:0|1:0,0:0:0:0:
472,175,67386,1,8,0:0:0:0:
376,257,67550,1,8,0:0:0:0:
376,257,67632,1,8,0:0:0:0:
376,257,67714,6,0,P|383:291|387:334,1,70,4|2,1:0|0:0,0:0:0:0:
308,357,68042,2,0,P|301:322|297:280,1,70,8|0,0:0|1:0,0:0:0:0:
156,161,68369,6,0,P|190:141|245:150,1,70,8|0,0:0|1:0,0:0:0:0:
245,222,68697,2,0,P|211:242|156:233,1,70,8|0,0:0|1:0,0:0:0:0:
69,197,69025,1,8,0:0:0:0:
69,197,69107,1,8,0:0:0:0:
69,197,69189,6,0,P|61:161|56:120,1,70,0|8,1:0|0:0,0:0:0:0:
107,16,69517,2,0,P|167:4|208:90,1,140,12|2,0:0|1:2,0:0:0:0:
290,95,70009,2,0,P|308:59|305:22,1,70,8|2,0:0|0:0,0:0:0:0:
219,140,70337,5,12,0:0:0:0:
297,230,70501,1,8,0:0:0:0:
60,314,70991,5,12,0:0:0:0:
97,212,71155,1,8,0:0:0:0:
248,310,71484,6,0,B|313:311|286:271|372:280,1,112,6|0,1:0|0:0,0:0:0:0:
413,329,71976,2,0,P|409:354|405:389,2,56,2|2|0,0:0|0:0|0:0,0:0:0:0:
486,263,72468,5,8,3:0:0:0:
486,263,72550,1,8,3:0:0:0:
486,263,72632,2,0,P|498:221|485:193,1,70,8|0,0:0|0:0,0:0:0:0:
424,143,72960,5,8,3:0:0:0:
368,206,73124,1,8,3:0:0:0:
368,206,73206,1,8,3:0:0:0:
368,206,73288,6,0,L|318:198,3,35,8|8|4|4,3:0|3:0|3:0|3:0,0:0:0:0:
324,189,73615,2,0,L|274:197,3,35,8|8|8|8,0:0|0:0|0:0|0:0,0:0:0:0:
220,243,73944,6,0,P|205:207|215:159,1,70,14|0,0:0|0:0,0:0:0:0:
231,93,74271,6,0,P|194:98|154:104,1,70,6|2,1:2|0:0,0:0:0:0:
93,52,74599,1,8,0:0:0:0:
22,97,74763,2,0,P|0:148|52:215,1,140,2|0,0:0|1:0,0:0:0:0:
120,176,75255,1,8,0:0:0:0:
174,240,75419,2,0,P|167:276|160:316,1,70,6|0,1:2|0:0,0:0:0:0:
257,378,75747,2,0,P|251:344|245:310,1,70,0|8,1:0|0:0,0:0:0:0:
341,239,76074,2,0,P|335:273|328:307,1,70,2|0,0:0|1:0,0:0:0:0:
424,378,76402,1,10,0:0:0:0:
486,322,76566,2,0,P|500:287|491:242,1,70,8|0,0:0|0:0,0:0:0:0:
435,197,76894,6,0,P|440:161|447:120,1,70,4|2,0:0|0:0,0:0:0:0:
511,75,77222,1,8,0:0:0:0:
451,16,77386,2,0,P|409:1|335:64,1,140,2|0,0:0|1:0,0:0:0:0:
275,109,77878,1,8,0:0:0:0:
212,53,78042,2,0,P|142:41|74:32,1,140,4|0,0:0|1:0,0:0:0:0:
13,90,78533,2,0,P|5:124|1:158,1,70,8|2,0:0|0:0,0:0:0:0:
74,285,78861,2,0,P|65:249|62:205,1,70,0|10,1:0|0:0,0:0:0:0:
135,90,79189,2,0,P|127:124|123:158,1,70,8|0,0:0|0:0,0:0:0:0:
181,220,79517,6,0,P|214:214|270:207,1,70,12|0,0:0|0:0,0:0:0:0:
313,264,79845,1,8,0:0:0:0:
313,264,80009,1,0,1:0:0:0:
372,205,80173,2,0,P|381:169|369:139,1,70,8|0,0:0|1:0,0:0:0:0:
309,79,80501,1,8,0:0:0:0:
429,12,80665,2,0,P|487:25|510:105,1,140,4|0,1:0|1:0,0:0:0:0:
459,160,81156,2,0,P|467:194|473:233,1,70,8|0,0:0|1:0,0:0:0:0:
435,305,81485,1,8,0:0:0:0:
387,233,81648,1,0,1:0:0:0:
472,228,81812,1,8,0:0:0:0:
348,309,81976,6,0,B|267:310|305:261|197:269,1,140,0|0,1:0|0:0,0:0:0:0:
153,322,82468,1,0,1:0:0:0:
86,212,82632,2,0,P|96:142|107:62,1,140,12|0,0:0|1:0,0:0:0:0:
62,8,83124,1,8,0:0:0:0:
187,136,83288,2,0,P|259:158|310:99,1,140,4|0,0:0|1:0,0:0:0:0:
350,50,83779,2,0,L|342:12,3,35,8|8|8|8,0:0|0:0|3:0|3:0,0:0:0:0:
340,6,84107,1,4,3:0:0:0:
396,120,84271,2,0,P|387:184|374:277,1,140,14|0,0:0|0:0,0:0:0:0:
414,334,84763,5,12,0:0:0:0:
336,366,84927,1,0,1:0:0:0:
269,314,85091,1,0,1:0:0:0:
280,229,85255,2,0,P|274:156|267:69,1,140,12|0,0:0|1:0,0:0:0:0:
268,89,85747,5,12,0:0:0:0:
190,57,85911,1,0,1:0:0:0:
123,109,86075,1,0,1:0:0:0:
134,193,86238,1,12,0:0:0:0:
134,193,86320,1,0,1:0:0:0:
134,193,86402,2,0,P|128:266|121:353,1,140,0|12,1:0|0:0,0:0:0:0:
129,345,86812,1,8,0:0:0:0:
137,356,86894,2,0,P|158:351|180:348,3,35,8|8|8|8,0:0|0:0|0:0|0:0,0:0:0:0:
217,275,87222,6,0,P|283:263|331:311,1,140,6|0,1:2|1:0,0:0:0:0:
370,383,87714,1,0,1:0:0:0:
415,221,88042,1,0,1:0:0:0:
460,383,88369,1,0,1:0:0:0:
482,302,88532,1,14,1:2:0:0:
295,191,88861,5,2,0:0:0:0:
344,249,89025,1,2,0:0:0:0:
415,221,89189,1,2,0:0:0:0:
409,145,89353,1,2,0:0:0:0:
330,118,89517,6,2,B|209:131|282:224|143:230,1,210,14|2,1:0|0:0,0:0:0:0:
