osu file format v14

[General]
AudioFilename: audio.mp3
AudioLeadIn: 0
PreviewTime: 51812
Countdown: 0
SampleSet: Soft
StackLeniency: 0.2
Mode: 0
LetterboxInBreaks: 0
WidescreenStoryboard: 1

[Editor]
DistanceSpacing: 1.4
BeatDivisor: 4
GridSize: 32
TimelineZoom: 2

[Metadata]
Title:Kyu~mai*flower
TitleUnicode:きゅ~まい*flower
Artist:Pastel*Palettes
ArtistUnicode:Pastel*Palettes
Creator:Petal
Version:Petals
Source:バンドリ! ガールズバンドパーティ!
Tags:BanG Dream! Girls Band Party bandori garupa ガルパ pasupare パスパレ パステルパレット game size maruyama aya 丸山彩 maeshima ami 前島亜美 hikawa hina 氷川日菜 ozawa ari 小澤亜李 shirasagi chisato 白鷺千聖 uesaka sumire 上坂すみれ yamato maya 大和麻弥 nakagami ikumi 中上育実 wakamiya eve 若宮イヴ hata sawako 秦佐和子 anime video game japanese matha agatsu byd bite you death kyumai
BeatmapID:2329937
BeatmapSetID:1115294

[Difficulty]
HPDrainRate:6
CircleSize:4
OverallDifficulty:8.8
ApproachRate:9.3
SliderMultiplier:2
SliderTickRate:1

[Events]
//Background and Video events
0,0,"BG.jpg",0,0
//Break Periods
//Storyboard Layer 0 (Background)
//Storyboard Layer 1 (Fail)
//Storyboard Layer 2 (Pass)
//Storyboard Layer 3 (Foreground)
//Storyboard Layer 4 (Overlay)
//Storyboard Sound Samples

[TimingPoints]
829,327.868852459016,4,2,1,100,1,0
829,-125,4,2,1,50,0,0
6566,-125,4,2,1,52,0,0
6648,-125,4,2,1,54,0,0
6730,-125,4,2,1,56,0,0
6812,-125,4,2,1,58,0,0
6894,-125,4,2,1,60,0,0
6976,-125,4,2,1,62,0,0
7058,-125,4,2,1,64,0,0
7140,-125,4,2,1,66,0,0
7222,-125,4,2,1,68,0,0
7304,-125,4,2,1,70,0,0
7386,-100,4,2,1,70,0,0
7960,-100,4,2,1,5,0,0
8042,-100,4,2,1,70,0,0
8206,-250,4,2,1,70,0,0
8369,-500,4,2,1,20,0,0
8697,-100,4,2,1,80,0,0
17714,-76.9230769230769,4,2,1,85,0,0
19189,-125,4,2,1,65,0,0
27386,-100,4,2,1,75,0,0
27714,-100,4,2,1,55,0,0
28042,-83.3333333333333,4,2,1,65,0,0
28369,-83.3333333333333,4,2,1,55,0,0
29681,-125,4,2,1,65,0,0
37058,-100,4,2,1,65,0,0
37550,-142.857142857143,4,2,1,65,0,0
40501,-100,4,2,1,65,0,0
45091,-83.3333333333333,4,2,1,65,0,0
45419,-83.3333333333333,4,2,1,70,0,0
51648,-100,4,2,1,65,0,0
51689,-71.4285714285714,4,2,1,45,0,0
51976,-83.3333333333333,4,2,1,85,0,1
52960,-100,4,2,1,85,0,1
54599,-83.3333333333333,4,2,1,85,0,1
55583,-100,4,2,1,85,0,1
56402,-83.3333333333333,4,2,1,85,0,1
56894,-83.3333333333333,4,2,1,85,0,0
57222,-83.3333333333333,4,2,1,85,0,1
58206,-83.3333333333333,4,2,1,85,0,0
58533,-83.3333333333333,4,2,1,85,0,1
59517,-83.3333333333333,4,2,1,85,0,0
59845,-83.3333333333333,4,2,1,85,0,1
62140,-100,4,2,1,85,0,0
62181,-100,4,2,1,50,0,0
62468,-83.3333333333333,4,2,1,85,0,1
63451,-100,4,2,1,85,0,1
65091,-83.3333333333333,4,2,1,85,0,1
66074,-100,4,2,1,85,0,1
66894,-83.3333333333333,4,2,1,85,0,1
70009,-100,4,2,1,85,0,1
70665,-100,4,2,1,85,0,0
70992,-100,4,2,1,85,0,1
71320,-100,4,2,1,85,0,0
71484,-83.3333333333333,4,2,1,85,0,1
72468,-76.9230769230769,4,2,1,85,0,0
72960,-76.9230769230769,4,2,1,70,0,0
74271,-100,4,2,1,70,0,0
79189,-83.3333333333333,4,2,1,70,0,0
84763,-83.3333333333333,4,2,1,80,0,1
87222,-83.3333333333333,4,2,1,80,0,0
87714,-125,4,2,1,80,0,0
88861,-125,4,2,1,35,0,0
89517,-83.3333333333333,4,2,1,65,0,0
90009,-83.3333333333333,4,2,1,20,0,0

[Colours]
Combo1 : 150,203,177
Combo2 : 255,233,155
Combo3 : 237,171,196
Combo4 : 230,89,117

[HitObjects]
112,359,829,5,2,1:2:0:0:
31,332,992,1,2,0:0:0:0:
31,248,1156,1,2,0:0:0:0:
112,223,1320,1,10,0:0:0:0:
160,290,1484,5,2,1:2:0:0:
241,265,1648,1,2,0:0:0:0:
241,181,1812,1,10,0:0:0:0:
160,156,1976,1,2,0:0:0:0:
112,223,2140,5,10,1:2:0:0:
241,181,2304,1,2,0:0:0:0:
160,290,2468,1,2,0:0:0:0:
160,156,2632,1,10,0:0:0:0:
241,265,2796,6,0,L|337:270,1,80,2|2,1:2|0:0,0:0:0:0:
317,358,3124,2,0,L|237:353,1,80,10|2,0:0|0:0,0:0:0:0:
471,218,3451,5,2,1:2:0:0:
495,136,3614,1,2,0:0:0:0:
426,87,3778,1,2,0:0:0:0:
359,139,3942,1,10,0:0:0:0:
386,217,4106,5,2,1:2:0:0:
320,269,4270,1,2,0:0:0:0:
251,221,4434,1,10,0:0:0:0:
277,140,4598,1,2,0:0:0:0:
359,139,4762,5,2,1:2:0:0:
251,221,4927,1,2,0:0:0:0:
386,217,5091,1,2,0:0:0:0:
277,140,5255,1,10,0:0:0:0:
320,269,5419,6,0,L|311:360,1,80,2|2,1:2|0:0,0:0:0:0:
165,333,5747,2,0,L|172:253,1,80,8|2,0:0|0:0,0:0:0:0:
53,101,6074,5,10,1:2:0:0:
46,62,6155,1,8,3:0:0:0:
68,29,6237,1,8,3:0:0:0:
105,19,6319,1,8,3:0:0:0:
145,36,6402,1,8,3:0:0:0:
163,70,6483,1,8,3:0:0:0:
160,115,6565,1,8,3:0:0:0:
132,154,6647,1,8,3:0:0:0:
95,180,6730,1,8,3:0:0:0:
65,221,6811,1,8,3:0:0:0:
65,272,6893,1,8,3:0:0:0:
95,314,6975,1,8,3:0:0:0:
143,331,7057,1,4,3:0:0:0:
193,318,7139,1,4,3:0:0:0:
224,277,7221,1,4,3:0:0:0:
229,226,7303,1,4,3:0:0:0:
203,183,7386,6,0,B|251:167|285:209|285:209|332:281|426:273|463:187|358:122|323:220,1,350,6|0,1:2|0:0,0:0:0:0:
365,281,8042,5,8,0:0:0:0:
299,23,8206,2,0,L|292:65,1,40,8|2,0:0|0:0,0:0:0:0:
293,63,8697,5,4,0:0:0:0:
428,23,8861,1,2,0:0:0:0:
333,198,9025,1,8,0:0:0:0:
466,159,9189,2,0,L|454:262,1,100,2|0,0:0|1:0,0:0:0:0:
438,383,9517,1,0,1:0:0:0:
333,198,9681,1,8,0:0:0:0:
196,384,9845,6,0,B|177:338|177:338|297:361,1,150,6|0,1:2|0:0,0:0:0:0:
294,361,10173,1,0,1:0:0:0:
134,262,10337,2,0,P|98:301|96:354,1,100,8|2,0:0|0:0,0:0:0:0:
196,384,10665,1,0,1:0:0:0:
166,182,10828,6,0,P|142:178|104:190,1,50,8|0,0:0|0:0,0:0:0:0:
0,302,10992,2,0,P|64:307|143:248,1,150,8|0,0:0|0:0,0:0:0:0:
166,182,11320,5,4,1:2:0:0:
275,356,11484,1,2,0:0:0:0:
134,262,11648,1,8,0:0:0:0:
305,123,11812,2,0,L|292:222,1,100,2|0,0:0|1:0,0:0:0:0:
275,356,12140,1,0,1:0:0:0:
166,182,12304,1,8,0:0:0:0:
433,190,12468,6,0,B|349:170|365:242|276:218,1,150,4|0,1:2|0:0,0:0:0:0:
276,206,12796,1,0,1:0:0:0:
398,374,12960,2,0,L|415:268,1,100,8|2,0:0|0:0,0:0:0:0:
448,88,13288,1,0,1:0:0:0:
512,240,13451,6,0,P|479:222|460:198,1,50,8|0,0:0|0:0,0:0:0:0:
387,31,13615,2,0,B|339:-7|285:10|285:10|272:41|231:49,1,150,8|0,0:1|0:0,0:0:0:0:
169,15,13943,6,0,L|187:130,1,100,4|2,0:0|0:0,0:0:0:0:
219,293,14271,1,8,0:0:0:0:
118,183,14435,1,0,1:0:0:0:
310,203,14599,1,8,0:0:0:0:
153,356,14763,1,0,1:0:0:0:
340,377,14927,1,8,0:0:0:0:
133,270,15091,6,0,P|83:280|-9:357,1,150,4|0,1:0|0:0,0:0:0:0:
0,357,15419,1,0,1:0:0:0:
219,293,15583,1,8,0:0:0:0:
24,152,15747,1,0,1:0:0:0:
79,384,15910,1,8,0:0:0:0:
207,138,16074,1,0,1:0:0:0:
264,372,16238,1,8,0:0:0:0:
118,183,16402,1,0,1:0:0:0:
349,245,16566,6,0,P|398:229|460:217,1,100,12|0,0:0|0:0,0:0:0:0:
414,80,16894,1,0,1:0:0:0:
274,293,17058,2,0,P|204:277|118:262,1,150,12|0,0:0|0:0,0:0:0:0:
109,273,17386,1,0,1:0:0:0:
177,370,17550,1,8,0:0:0:0:
199,47,17714,6,0,B|179:48|154:66|144:111|193:146|251:138|284:77,1,194.999991073609,4|0,0:0|0:0,0:0:0:0:
284,59,18042,1,0,1:0:0:0:
512,241,18206,1,8,0:0:0:0:
466,235,18287,1,8,0:0:0:0:
421,230,18369,1,8,3:0:0:0:
376,225,18451,1,8,3:0:0:0:
331,220,18533,1,4,3:0:0:0:
331,220,18697,6,0,B|282:207|246:245|246:245|188:313|115:258|114:213|134:169|171:146|240:182,1,324.999985122681,6|0,1:2|0:0,0:0:0:0:
202,173,19189,5,0,1:0:0:0:
103,238,19353,1,2,0:0:0:0:
195,97,19517,2,0,P|210:138|194:183,1,80,8|2,0:0|0:0,0:0:0:0:
13,165,19845,1,0,1:0:0:0:
105,128,20009,1,0,1:0:0:0:
156,296,20173,2,0,P|95:288|25:279,1,120,8|0,0:0|0:0,0:0:0:0:
0,307,20501,6,0,P|43:301|108:292,1,80,0|2,1:0|0:0,0:0:0:0:
237,269,20828,1,8,0:0:0:0:
184,384,20992,2,0,P|165:350|182:284,1,80,0|2,1:0|0:0,0:0:0:0:
201,172,21320,1,0,1:0:0:0:
355,288,21484,2,0,P|298:277|227:267,1,120,8|0,0:0|0:0,0:0:0:0:
166,309,21812,5,0,1:0:0:0:
283,364,21976,1,2,0:0:0:0:
201,172,22140,2,0,P|162:178|122:184,1,80,8|2,0:0|0:0,0:0:0:0:
236,268,22468,1,0,1:0:0:0:
279,111,22632,1,0,1:0:0:0:
354,287,22796,2,0,P|361:243|369:209,1,80,8|2,0:0|0:0,0:0:0:0:
466,33,23124,6,0,P|420:69|347:57,1,120,0|0,1:0|0:0,0:0:0:0:
279,111,23451,2,0,P|271:69|265:33,1,80,8|2,0:0|0:0,0:0:0:0:
369,208,23779,1,0,1:0:0:0:
201,172,23943,1,0,1:0:0:0:
429,159,24107,2,0,P|419:212|405:284,1,120,8|0,0:0|0:0,0:0:0:0:
376,314,24435,5,4,0:0:0:0:
495,272,24599,1,2,0:0:0:0:
305,274,24763,2,0,P|291:327|308:363,1,80,8|2,0:0|0:0,0:0:0:0:
376,314,25091,1,0,1:0:0:0:
288,191,25255,1,0,1:0:0:0:
213,370,25419,2,0,P|172:359|114:348,1,80,8|2,0:0|0:0,0:0:0:0:
0,317,25747,5,0,1:0:0:0:
132,260,25910,1,2,0:0:0:0:
0,218,26074,1,8,0:0:0:0:
135,351,26238,1,0,1:0:0:0:
211,233,26402,5,2,0:0:0:0:
132,260,26566,1,0,1:0:0:0:
48,144,26730,5,8,0:0:0:0:
127,171,26894,1,8,0:0:0:0:
132,158,26976,1,8,0:0:0:0:
137,145,27058,5,0,1:0:0:0:
283,175,27222,1,0,1:0:0:0:
249,0,27386,2,0,B|208:20|208:20|173:73|240:139,1,150,6|0,0:1|0:0,0:0:0:0:
283,175,27714,5,0,1:0:0:0:
354,3,27878,1,0,1:0:0:0:
487,245,28042,2,0,B|443:192|365:200|365:200|357:225|325:239,1,179.999994506836,6|0,0:1|0:0,0:0:0:0:
283,175,28369,5,6,1:0:0:0:
455,377,28533,1,10,0:1:0:0:
467,364,28861,5,10,0:1:0:0:
464,346,29189,5,10,0:1:0:0:
366,375,29353,1,8,3:0:0:0:
283,313,29517,1,8,3:0:0:0:
269,318,29599,1,8,3:0:0:0:
257,323,29681,5,4,1:0:0:0:
192,378,29845,1,2,0:0:0:0:
105,213,30009,2,0,P|146:218|192:222,1,80,8|2,0:0|0:0,0:0:0:0:
337,232,30337,1,0,1:0:0:0:
148,302,30501,1,2,0:0:0:0:
220,144,30665,1,8,0:0:0:0:
283,313,30828,1,2,0:0:0:0:
357,152,30992,6,0,P|362:105|369:57,1,80,0|2,1:0|0:0,0:0:0:0:
494,235,31320,1,8,0:0:0:0:
337,232,31484,1,2,0:0:0:0:
450,124,31648,1,0,1:0:0:0:
417,283,31812,2,0,P|422:322|426:362,1,80,10|2,0:1|0:0,0:0:0:0:
262,242,32140,2,0,L|315:235,1,40,10|0,0:1|0:0,0:0:0:0:
337,232,32304,5,4,1:0:0:0:
288,347,32468,1,2,0:0:0:0:
417,283,32632,1,8,0:0:0:0:
304,153,32796,1,2,0:0:0:0:
389,371,32960,1,2,1:2:0:0:
449,199,33124,1,2,0:0:0:0:
262,242,33288,2,0,P|215:233|156:225,1,80,8|2,0:0|0:0,0:0:0:0:
29,353,33615,5,2,1:2:0:0:
102,295,33779,1,2,0:0:0:0:
3,162,33943,5,8,0:0:0:0:
16,254,34107,1,2,0:0:0:0:
183,228,34271,6,0,L|237:238,1,40,0|0,1:0|0:0,0:0:0:0:
96,194,34435,2,0,L|110:142,1,40,8|0,0:0|0:0,0:0:0:0:
102,295,34599,1,8,0:0:0:0:
141,301,34680,1,8,0:0:0:0:
180,308,34762,1,8,0:0:0:0:
220,315,34844,1,8,0:0:0:0:
259,322,34926,5,4,1:0:0:0:
371,368,35091,1,2,0:0:0:0:
352,189,35255,2,0,P|333:226|339:273,1,80,8|2,0:0|0:0,0:0:0:0:
456,351,35583,1,2,1:2:0:0:
416,244,35747,1,0,1:0:0:0:
259,322,35910,1,8,0:0:0:0:
503,273,36074,1,2,0:0:0:0:
329,107,36238,5,2,1:2:0:0:
352,189,36402,1,2,0:0:0:0:
442,39,36566,1,8,0:0:0:0:
419,121,36730,1,2,0:0:0:0:
259,0,36894,1,6,1:2:0:0:
236,82,37058,6,0,L|182:69,1,50,2|0,0:0|0:0,0:0:0:0:
103,56,37222,2,0,P|80:99|95:150,1,100,8|2,0:0|0:0,0:0:0:0:
216,208,37550,6,0,B|147:187|150:257|73:235,1,139.999995727539,6|2,0:0|0:0,0:0:0:0:
92,146,38042,1,0,1:0:0:0:
251,280,38206,2,0,P|260:212|282:134,1,139.999995727539,8|2,0:0|0:0,0:0:0:0:
348,230,38697,1,8,0:0:0:0:
206,361,38861,5,6,1:2:0:0:
304,342,39025,1,8,0:0:0:0:
197,341,39189,1,0,1:0:0:0:
506,274,39517,5,8,0:0:0:0:
455,213,39681,1,0,1:0:0:0:
426,245,39763,1,8,0:0:0:0:
428,287,39845,1,8,0:0:0:0:
506,274,40009,1,8,0:0:0:0:
352,48,40501,6,0,P|291:62|189:82,1,150,6|0,1:2|0:0,0:0:0:0:
172,73,40828,1,0,1:0:0:0:
297,151,40992,1,0,1:0:0:0:
201,0,41156,1,8,0:0:0:0:
101,172,41320,2,0,P|60:109|108:15,1,150,6|0,1:2|0:0,0:0:0:0:
107,18,41648,1,0,1:0:0:0:
201,163,41812,5,8,0:0:0:0:
31,265,41976,1,8,0:0:0:0:
112,258,42058,1,8,0:0:0:0:
192,249,42140,2,0,L|266:239,1,50,8|0,3:0|0:0,0:0:0:0:
79,343,42304,1,8,3:0:0:0:
113,338,42385,1,8,3:0:0:0:
149,333,42467,1,4,3:0:0:0:
185,330,42549,1,4,3:0:0:0:
222,326,42631,1,4,3:0:0:0:
256,321,42713,1,4,3:0:0:0:
292,318,42796,6,0,P|326:250|293:174,1,150,6|0,1:2|0:0,0:0:0:0:
358,118,43124,2,0,P|331:72|346:2,1,100,8|2,0:0|0:0,0:0:0:0:
456,198,43451,1,0,1:0:0:0:
302,183,43615,1,0,1:0:0:0:
152,166,43779,1,8,0:0:0:0:
152,166,44107,5,0,1:0:0:0:
302,183,44271,1,0,1:0:0:0:
140,257,44435,1,8,0:0:0:0:
219,33,44599,2,0,P|224:78|232:153,1,100,0|2,1:0|0:0,0:0:0:0:
254,323,44927,1,0,1:0:0:0:
412,146,45091,2,0,B|341:135|364:210|255:171,1,119.999996337891,8|0,0:0|1:0,0:0:0:0:
61,153,45419,5,12,0:0:0:0:
46,138,45747,5,8,0:0:0:0:
83,243,45910,1,0,1:0:0:0:
138,105,46074,5,8,0:0:0:0:
42,328,46238,1,2,1:2:0:0:
64,42,46402,5,8,0:0:0:0:
169,282,46566,1,0,1:0:0:0:
276,19,46730,5,12,0:0:0:0:
297,29,47058,5,8,0:0:0:0:
197,62,47222,1,0,1:0:0:0:
360,117,47386,5,8,0:0:0:0:
102,22,47550,1,0,1:0:0:0:
404,0,47714,5,8,0:0:0:0:
423,8,48042,5,14,0:0:0:0:
243,167,48206,1,0,1:0:0:0:
487,239,48369,1,0,1:0:0:0:
404,0,48533,5,8,2:0:0:0:
254,186,48697,1,0,1:0:0:0:
507,216,48860,1,0,1:0:0:0:
379,0,49025,5,8,0:0:0:0:
258,209,49189,1,0,1:0:0:0:
512,187,49352,5,12,0:0:0:0:
225,85,49517,1,0,1:0:0:0:
278,380,49681,1,0,1:0:0:0:
507,167,49845,5,12,2:0:0:0:
209,100,50010,1,0,1:0:0:0:
298,386,50174,1,0,1:0:0:0:
418,160,50337,5,8,0:0:0:0:
376,164,50418,1,8,0:0:0:0:
334,168,50500,1,8,0:0:0:0:
292,173,50582,1,8,0:0:0:0:
250,177,50664,5,12,0:0:0:0:
491,299,50828,1,12,0:0:0:0:
510,285,51320,5,12,0:0:0:0:
170,373,51484,1,12,0:0:0:0:
334,168,51648,2,0,L|327:200,6,25,2|2|2|2|2|2|2,0:0|0:0|0:0|0:0|0:0|0:0|0:0,0:0:0:0:
405,223,51976,6,0,B|374:181|334:178|293:242|322:291|398:318,1,179.999994506836,6|0,1:0|0:0,0:0:0:0:
442,376,52304,2,0,P|382:328|273:351,1,179.999994506836,8|0,0:0|0:0,0:0:0:0:
256,379,52632,1,0,1:0:0:0:
72,257,52796,1,0,1:0:0:0:
247,186,52960,2,0,P|223:229|213:278,1,100,8|0,0:0|0:0,0:0:0:0:
24,72,53288,6,0,B|65:68|93:97|93:97|122:126|187:118,1,150,4|0,1:0|0:0,0:0:0:0:
196,91,53615,1,8,0:0:0:0:
370,3,53779,2,0,P|306:42|320:142,1,150,0|0,1:0|0:0,0:0:0:0:
328,153,54107,1,0,1:0:0:0:
512,237,54271,2,0,P|465:228|393:220,1,100,8|0,0:0|0:0,0:0:0:0:
229,333,54599,6,0,B|260:375|300:378|341:314|312:265|236:238,1,179.999994506836,6|0,1:0|0:0,0:0:0:0:
200,206,54927,2,0,P|264:229|323:130,1,179.999994506836,8|0,0:0|0:0,0:0:0:0:
301,113,55255,1,0,1:0:0:0:
109,176,55419,1,0,1:0:0:0:
230,0,55583,2,0,P|214:45|198:123,1,100,8|0,0:0|0:0,0:0:0:0:
156,288,55910,5,4,1:0:0:0:
353,225,56074,1,0,1:0:0:0:
109,176,56238,1,8,0:0:0:0:
303,376,56402,2,0,P|365:361|488:344,1,179.999994506836,0|0,1:0|0:0,0:0:0:0:
512,366,56730,1,0,1:0:0:0:
398,116,56894,1,8,0:0:0:0:
417,104,57222,5,12,0:0:0:0:
353,225,57386,1,2,0:0:0:0:
351,55,57550,5,8,0:0:0:0:
437,269,57714,1,8,3:0:0:0:
459,264,57796,1,8,3:0:0:0:
480,260,57878,1,2,1:2:0:0:
459,29,58042,5,0,1:0:0:0:
360,311,58206,1,8,0:0:0:0:
372,328,58533,5,12,0:0:0:0:
276,271,58697,1,2,0:0:0:0:
480,260,58861,5,8,0:0:0:0:
223,362,59025,1,8,3:0:0:0:
201,357,59107,1,8,3:0:0:0:
180,353,59189,1,2,1:2:0:0:
298,78,59353,5,0,1:0:0:0:
462,352,59517,1,8,0:0:0:0:
477,341,59845,6,0,P|429:318|391:320,1,59.9999981689454,6|0,1:2|0:0,0:0:0:0:
294,384,60009,2,0,P|337:353|355:320,1,59.9999981689454,0|0,1:0|0:0,0:0:0:0:
405,161,60173,2,0,B|356:147|356:147|293:213|375:283,1,179.999994506836,10|0,1:0|0:0,0:0:0:0:
478,206,60501,6,0,P|492:174|481:129,1,59.9999981689454,6|0,1:2|0:0,0:0:0:0:
267,149,60665,2,0,P|287:177|332:190,1,59.9999981689454,0|0,1:0|0:0,0:0:0:0:
454,32,60828,2,0,P|418:16|348:119,1,179.999994506836,10|0,1:0|0:0,0:0:0:0:
405,161,61156,5,12,0:0:0:0:
176,218,61320,1,0,1:0:0:0:
478,206,61484,5,8,0:0:0:0:
161,97,61648,1,0,1:0:0:0:
233,384,61812,5,12,0:0:0:0:
342,106,61976,1,0,1:0:0:0:
422,376,62140,6,0,L|393:386,6,25,10|2|2|2|2|2|2,0:0|0:0|0:0|0:0|0:0|0:0|0:0,0:0:0:0:
502,356,62468,6,0,P|462:303|339:346,1,179.999994506836,6|0,1:0|0:0,0:0:0:0:
277,313,62796,2,0,P|193:334|133:273,1,179.999994506836,8|0,0:0|0:0,0:0:0:0:
142,230,63124,1,0,1:0:0:0:
316,384,63288,1,0,1:0:0:0:
227,153,63451,2,0,P|221:211|216:261,1,100,8|0,0:0|0:0,0:0:0:0:
46,366,63779,5,4,1:0:0:0:
95,140,63943,1,0,1:0:0:0:
277,313,64107,1,8,0:0:0:0:
41,212,64271,2,0,P|51:134|60:56,1,150,0|0,1:0|0:0,0:0:0:0:
43,27,64599,1,0,1:0:0:0:
227,153,64763,2,0,P|276:145|339:140,1,100,8|0,0:0|0:0,0:0:0:0:
480,140,65091,6,0,B|461:171|428:186|428:186|403:252|474:312,1,179.999994506836,6|0,1:0|0:0,0:0:0:0:
506,367,65419,2,0,P|449:315|331:338,1,179.999994506836,8|0,0:0|0:0,0:0:0:0:
321,351,65747,1,0,1:0:0:0:
512,231,65910,1,0,1:0:0:0:
326,140,66074,2,0,P|338:196|346:247,1,100,8|0,0:0|0:0,0:0:0:0:
240,383,66402,5,4,1:2:0:0:
449,287,66566,1,2,0:0:0:0:
182,224,66730,1,8,0:0:0:0:
397,87,66894,2,0,B|418:55|418:55|380:2|316:-2|270:79,1,179.999994506836,8|0,0:0|0:0,0:0:0:0:
274,77,67222,1,0,1:0:0:0:
443,166,67386,1,8,0:0:0:0:
197,107,67550,1,8,0:0:0:0:
189,82,67632,1,8,0:0:0:0:
196,53,67714,5,4,1:0:0:0:
264,161,67878,1,2,0:0:0:0:
297,42,68042,5,8,0:0:0:0:
182,224,68206,1,0,1:0:0:0:
176,27,68369,5,8,0:0:0:0:
288,266,68533,1,0,1:0:0:0:
318,17,68697,5,8,0:0:0:0:
202,326,68861,1,0,1:0:0:0:
81,96,69025,5,8,0:0:0:0:
57,91,69106,1,8,0:0:0:0:
33,86,69188,1,0,1:0:0:0:
182,224,69353,1,8,0:0:0:0:
318,17,69517,6,0,B|361:2|396:23|396:23|446:85|371:159,1,179.999994506836,12|0,0:0|0:0,0:0:0:0:
377,149,69845,1,2,1:2:0:0:
198,4,70009,2,0,P|144:12|71:25,1,100,8|2,0:0|0:0,0:0:0:0:
182,224,70337,5,12,0:0:0:0:
318,17,70501,1,8,0:0:0:0:
335,270,70992,5,12,0:0:0:0:
198,4,71156,1,8,0:0:0:0:
471,186,71484,86,0,B|493:163|526:122|470:38|384:82|384:82|350:1|256:15|214:92|244:138|271:188|344:165|312:216|335:270|335:270|388:200|459:205,1,719.999978027344,6|8,1:0|3:0,0:0:0:0:
453,205,72550,1,8,3:0:0:0:
453,205,72632,1,8,0:0:0:0:
91,335,72960,5,8,3:0:0:0:
36,271,73124,5,8,3:0:0:0:
71,249,73205,1,8,3:0:0:0:
111,249,73287,1,8,3:0:0:0:
147,271,73369,1,8,3:0:0:0:
152,282,73451,1,4,3:0:0:0:
156,293,73533,1,4,3:0:0:0:
161,303,73615,5,8,0:0:0:0:
193,339,73696,1,8,0:0:0:0:
244,354,73778,1,8,0:0:0:0:
293,338,73860,1,8,0:0:0:0:
336,271,73943,6,0,P|327:207|312:65,1,194.999991073609,14|0,0:0|0:0,0:0:0:0:
336,38,74271,5,6,1:2:0:0:
226,148,74435,1,2,0:0:0:0:
419,166,74599,1,8,0:0:0:0:
246,19,74763,2,0,P|192:30|132:40,1,100,2|0,0:0|1:0,0:0:0:0:
18,41,75091,1,0,1:0:0:0:
226,148,75255,1,8,0:0:0:0:
19,239,75419,6,0,B|-3:197|-3:197|119:214,1,150,6|0,1:2|0:0,0:0:0:0:
117,215,75747,1,0,1:0:0:0:
121,380,75910,2,0,P|88:339|106:269,1,100,8|2,0:0|0:0,0:0:0:0:
117,215,76238,1,0,1:0:0:0:
297,368,76402,6,0,L|248:356,1,50,10|0,0:0|0:0,0:0:0:0:
170,315,76566,2,0,L|340:291,1,150,8|0,0:0|0:0,0:0:0:0:
400,278,76894,5,4,0:0:0:0:
237,263,77058,1,2,0:0:0:0:
382,363,77222,1,8,0:0:0:0:
339,210,77386,2,0,P|347:152|351:92,1,100,2|0,0:0|1:0,0:0:0:0:
275,1,77714,1,0,1:0:0:0:
453,116,77878,1,8,0:0:0:0:
207,131,78042,6,0,P|255:85|358:111,1,150,4|0,0:0|0:0,0:0:0:0:
350,110,78369,1,0,1:0:0:0:
142,188,78533,2,0,P|85:175|31:167,1,100,8|2,0:0|0:0,0:0:0:0:
109,384,78861,1,0,1:0:0:0:
215,237,79025,6,0,P|249:227|284:221,1,50,10|0,0:0|0:0,0:0:0:0:
425,374,79189,2,0,P|345:362|244:276,1,179.999994506836,8|0,0:0|0:0,0:0:0:0:
215,237,79517,5,12,0:0:0:0:
195,242,79845,5,8,0:0:0:0:
371,272,80009,1,0,1:0:0:0:
152,314,80173,5,8,0:0:0:0:
409,194,80337,1,0,1:0:0:0:
93,143,80501,5,8,0:0:0:0:
425,374,80665,6,0,L|407:168,1,179.999994506836,4|0,1:0|0:0,0:0:0:0:
406,161,80992,1,0,1:0:0:0:
299,322,81156,5,8,0:0:0:0:
512,360,81320,1,0,1:0:0:0:
197,384,81484,5,8,0:0:0:0:
371,272,81648,1,0,1:0:0:0:
164,228,81812,5,8,0:0:0:0:
425,374,81976,1,0,1:0:0:0:
401,121,82140,6,0,B|380:81|347:75|313:102|300:149|323:186|361:225,1,179.999994506836,6|0,1:2|0:0,0:0:0:0:
371,272,82468,1,0,1:0:0:0:
379,14,82632,6,0,B|331:2|287:36|287:36|248:69|187:48,1,179.999994506836,12|0,0:0|0:0,0:0:0:0:
145,6,82960,1,0,1:0:0:0:
401,121,83124,1,8,0:0:0:0:
113,207,83288,6,0,B|86:157|139:131|139:131|261:160,1,179.999994506836,4|0,0:0|0:0,0:0:0:0:
241,156,83615,1,0,1:0:0:0:
228,364,83779,1,8,0:0:0:0:
247,318,83860,1,8,0:0:0:0:
288,291,83942,1,8,3:0:0:0:
338,290,84024,1,8,3:0:0:0:
380,316,84106,1,4,3:0:0:0:
380,316,84271,6,0,B|417:275|380:230|380:230|342:187|358:117|446:111|450:170|448:200|426:213,1,299.999990844727,14|0,0:0|0:0,0:0:0:0:
333,208,84763,5,12,0:0:0:0:
512,267,84927,1,0,1:0:0:0:
476,83,85091,1,0,1:0:0:0:
311,215,85255,5,12,0:0:0:0:
495,176,85419,1,0,1:0:0:0:
375,40,85583,1,0,1:0:0:0:
289,222,85746,5,12,0:0:0:0:
476,83,85910,1,0,1:0:0:0:
267,0,86074,1,0,1:0:0:0:
266,230,86238,5,12,0:0:0:0:
375,40,86402,1,0,1:0:0:0:
150,38,86566,1,0,1:0:0:0:
311,300,86730,5,12,0:0:0:0:
345,252,86811,1,8,0:0:0:0:
340,193,86893,1,8,0:0:0:0:
297,153,86975,1,8,0:0:0:0:
239,150,87057,1,8,0:0:0:0:
193,187,87139,1,8,0:0:0:0:
197,266,87222,6,0,P|135:258|14:245,1,179.999994506836,6|0,1:2|0:0,0:0:0:0:
0,263,87550,1,0,1:0:0:0:
98,363,87714,2,0,P|139:355|186:346,1,80,0|0,1:0|0:0,0:0:0:0:
92,172,88042,2,0,P|50:167|2:162,1,80,0|0,1:0|1:0,0:0:0:0:
6,380,88369,5,0,1:0:0:0:
202,91,88533,1,14,1:2:0:0:
202,91,88861,5,2,0:0:0:0:
251,149,89025,1,2,0:0:0:0:
322,121,89189,1,2,0:0:0:0:
316,45,89353,1,2,0:0:0:0:
237,19,89517,6,2,L|257:383,1,359.999989013672,14|2,1:0|0:0,0:1:0:0:
