osu file format v14

[General]
AudioFilename: audio.mp3
AudioLeadIn: 0
PreviewTime: 51812
Countdown: 0
SampleSet: Soft
StackLeniency: 0.2
Mode: 0
LetterboxInBreaks: 0
WidescreenStoryboard: 1

[Editor]
DistanceSpacing: 1.4
BeatDivisor: 4
GridSize: 32
TimelineZoom: 2

[Metadata]
Title:Kyu~mai*flower
TitleUnicode:きゅ~まい*flower
Artist:Pastel*Palettes
ArtistUnicode:Pastel*Palettes
Creator:Petal
Version:Agatsu's Insane
Source:バンドリ! ガールズバンドパーティ!
Tags:BanG Dream! Girls Band Party bandori garupa ガルパ pasupare パスパレ パステルパレット game size maruyama aya 丸山彩 maeshima ami 前島亜美 hikawa hina 氷川日菜 ozawa ari 小澤亜李 shirasagi chisato 白鷺千聖 uesaka sumire 上坂すみれ yamato maya 大和麻弥 nakagami ikumi 中上育実 wakamiya eve 若宮イヴ hata sawako 秦佐和子 anime video game japanese matha agatsu byd bite you death kyumai
BeatmapID:2329934
BeatmapSetID:1115294

[Difficulty]
HPDrainRate:5
CircleSize:4
OverallDifficulty:8
ApproachRate:9
SliderMultiplier:1.7
SliderTickRate:1

[Events]
//Background and Video events
0,0,"BG4.jpg",0,0
//Break Periods
//Storyboard Layer 0 (Background)
//Storyboard Layer 1 (Fail)
//Storyboard Layer 2 (Pass)
//Storyboard Layer 3 (Foreground)
//Storyboard Layer 4 (Overlay)
//Storyboard Sound Samples

[TimingPoints]
829,327.868852459016,4,2,1,50,1,0
829,-125,4,2,1,50,0,0
6565,-125,4,2,1,52,0,0
6647,-125,4,2,1,54,0,0
6730,-125,4,2,1,56,0,0
6812,-125,4,2,1,58,0,0
6894,-125,4,2,1,60,0,0
6976,-125,4,2,1,62,0,0
7058,-125,4,2,1,64,0,0
7139,-125,4,2,1,66,0,0
7222,-125,4,2,1,68,0,0
7303,-125,4,2,1,70,0,0
7960,-125,4,2,1,5,0,0
8042,-125,4,2,1,70,0,0
8369,-125,4,2,1,20,0,0
8533,-125,4,2,1,100,0,0
8697,-100,4,2,1,80,0,0
10008,-100,4,2,1,100,0,0
10173,-100,4,2,1,80,0,0
10747,-125,4,2,1,5,0,0
10828,-100,4,2,1,80,0,0
11155,-100,4,2,1,100,0,0
11320,-100,4,2,1,80,0,0
13778,-100,4,2,1,100,0,0
13943,-100,4,2,1,80,0,0
14189,-125,4,2,1,5,0,0
14271,-100,4,2,1,80,0,0
17304,-125,4,2,1,80,0,0
17386,-100,4,2,1,80,0,0
17714,-100,4,2,1,85,0,0
19188,-100,4,2,1,65,0,0
19353,-125,4,2,1,65,0,0
20336,-125,4,2,1,100,0,0
20501,-125,4,2,1,65,0,0
21647,-125,4,2,1,100,0,0
21812,-125,4,2,1,65,0,0
24270,-125,4,2,1,100,0,0
24435,-125,4,2,1,65,0,0
27058,-111.111111111111,4,2,1,65,0,0
27386,-111.111111111111,4,2,1,75,0,0
27632,-111.111111111111,4,2,1,75,0,0
27714,-111.111111111111,4,2,1,55,0,0
28042,-111.111111111111,4,2,1,65,0,0
28205,-111.111111111111,4,2,1,100,0,0
28369,-111.111111111111,4,2,1,55,0,0
28696,-111.111111111111,4,2,1,100,0,0
28861,-111.111111111111,4,2,1,55,0,0
29107,-111.111111111111,4,2,1,5,0,0
29189,-111.111111111111,4,2,1,55,0,0
29681,-111.111111111111,4,2,1,65,0,0
32058,-111.111111111111,4,2,1,5,0,0
32140,-111.111111111111,4,2,1,65,0,0
37550,-125,4,2,1,65,0,0
39435,-125,4,2,1,5,0,0
39517,-125,4,2,1,65,0,0
39926,-125,4,2,1,100,0,0
40009,-125,4,2,1,65,0,0
40090,-125,4,2,1,100,0,0
40501,-111.111111111111,4,2,1,65,0,0
43942,-111.111111111111,4,2,1,100,0,0
44107,-111.111111111111,4,2,1,65,0,0
45337,-111.111111111111,4,2,1,5,0,0
45419,-111.111111111111,4,2,1,70,0,0
46893,-111.111111111111,4,2,1,100,0,0
47058,-111.111111111111,4,2,1,70,0,0
47877,-111.111111111111,4,2,1,100,0,0
48042,-111.111111111111,4,2,1,70,0,0
51976,-100,4,2,1,85,0,1
52139,-100,4,2,1,100,0,1
52304,-100,4,2,1,85,0,1
52467,-100,4,2,1,100,0,1
52632,-100,4,2,1,85,0,1
53942,-100,4,2,1,100,0,1
54107,-100,4,2,1,85,0,1
54845,-100,4,2,1,85,0,1
54927,-100,4,2,1,85,0,1
55090,-100,4,2,1,100,0,1
55255,-100,4,2,1,85,0,1
56648,-100,4,2,1,85,0,1
56730,-100,4,2,1,85,0,1
57057,-100,4,2,1,100,0,1
57222,-100,4,2,1,85,0,1
58369,-100,4,2,1,100,0,1
58533,-100,4,2,1,85,0,1
59680,-100,4,2,1,100,0,1
59845,-100,4,2,1,85,0,1
60336,-100,4,2,1,100,0,1
60501,-100,4,2,1,85,0,1
60991,-100,4,2,1,100,0,1
61156,-100,4,2,1,85,0,1
62303,-100,4,2,1,50,0,1
62468,-100,4,2,1,85,0,1
62631,-100,4,2,1,100,0,1
62796,-100,4,2,1,85,0,1
65254,-100,4,2,1,100,0,1
65419,-100,4,2,1,85,0,1
67140,-100,4,2,1,85,0,1
67222,-100,4,2,1,85,0,1
70665,-100,4,2,1,100,0,1
70992,-100,4,2,1,85,0,1
71319,-100,4,2,1,100,0,1
71484,-125,4,2,1,85,0,1
71975,-125,4,2,1,100,0,1
72468,-125,4,2,1,85,0,1
72795,-125,4,2,1,100,0,1
72960,-125,4,2,1,70,0,0
74106,-125,4,2,1,100,0,0
74271,-100,4,2,1,70,0,0
75582,-100,4,2,1,100,0,0
75747,-100,4,2,1,70,0,0
76320,-100,4,2,1,5,0,0
76402,-100,4,2,1,70,0,0
76729,-100,4,2,1,100,0,0
76894,-100,4,2,1,70,0,0
79352,-100,4,2,1,100,0,0
79517,-100,4,2,1,70,0,0
79681,-100,4,2,1,100,0,0
79845,-100,4,2,1,70,0,0
82058,-100,4,2,1,100,0,0
82140,-100,4,2,1,70,0,0
82303,-100,4,2,1,100,0,0
82468,-100,4,2,1,70,0,0
82795,-100,4,2,1,100,0,0
82960,-100,4,2,1,70,0,0
84598,-100,4,2,1,100,0,0
84763,-100,4,2,1,80,0,0
87714,-111.111111111111,4,2,1,80,0,0
88861,-125,4,2,1,35,0,0
89517,-166.666666666667,4,2,1,65,0,0
90008,-166.666666666667,4,2,1,20,0,0

[Colours]
Combo1 : 150,203,177
Combo2 : 255,233,155
Combo3 : 237,171,196
Combo4 : 230,89,117

[HitObjects]
53,188,829,6,0,P|51:156|73:112,1,68,2|2,1:2|0:0,0:0:0:0:
148,1,1156,2,0,L|161:89,1,68,2|10,0:0|0:0,0:0:0:0:
254,116,1484,2,0,P|290:118|327:101,2,68,2|2|10,1:2|0:0|0:0,0:0:0:0:
166,171,1976,1,2,0:0:0:0:
274,264,2140,6,0,B|215:249|207:292|132:273,1,136,10|2,1:2|0:0,0:0:0:0:
65,335,2632,1,10,0:0:0:0:
0,258,2796,2,0,P|6:221|13:184,1,68,2|2,1:2|0:0,0:0:0:0:
96,70,3124,2,0,P|114:101|114:141,1,68,10|2,0:0|0:0,0:0:0:0:
205,202,3451,6,0,P|273:207|320:153,1,136,2|2,1:2|0:0,0:0:0:0:
353,74,3943,1,10,0:0:0:0:
283,10,4107,2,0,P|244:7|194:3,1,68,2|2,1:2|0:0,0:0:0:0:
120,47,4435,2,0,P|103:79|108:124,1,68,10|2,0:0|0:0,0:0:0:0:
193,220,4763,6,0,P|153:206|82:259,1,136,2|2,1:2|0:0,0:0:0:0:
266,335,5255,1,10,0:0:0:0:
180,384,5419,2,0,P|175:350|167:306,1,68,2|2,1:2|0:0,0:0:0:0:
291,203,5747,1,8,0:0:0:0:
225,135,5910,1,2,0:0:0:0:
305,74,6074,6,0,L|295:27,3,34,10|8|8|8,1:2|3:0|3:0|3:0,0:0:0:0:
403,0,6402,2,0,L|395:33,3,34,8|8|8|8,3:0|3:0|3:0|3:0,0:0:0:0:
475,128,6730,1,8,3:0:0:0:
432,119,6812,1,8,3:0:0:0:
394,131,6894,1,8,3:0:0:0:
370,167,6976,1,8,3:0:0:0:
372,211,7058,2,0,L|425:219,1,34,4|4,3:0|3:0,0:0:0:0:
460,301,7222,2,0,L|493:295,1,34,4|4,3:0|3:0,0:0:0:0:
356,227,7386,6,0,B|263:215|267:333|114:295,1,238,6|0,1:2|0:0,0:0:0:0:
64,361,8042,5,8,0:0:0:0:
164,135,8206,2,0,P|171:176|179:229,1,68,8|2,0:0|0:0,0:0:0:0:
337,326,8533,1,0,0:0:0:0:
342,320,8615,1,0,0:0:0:0:
348,314,8697,6,0,P|350:268|319:223,1,85,4|2,0:0|0:0,0:0:0:0:
250,288,9025,1,8,0:0:0:0:
405,149,9189,2,0,B|306:125|306:125|279:158|234:162,1,170,2|0,0:0|1:0,0:0:0:0:
74,68,9681,1,8,0:0:0:0:
186,5,9845,6,0,L|171:95,1,85,6|0,1:2|0:0,0:0:0:0:
13,236,10173,2,0,P|10:192|33:152,1,85,0|8,1:0|0:0,0:0:0:0:
166,324,10501,2,0,P|114:307|49:365,1,127.5,2|0,0:0|0:0,0:0:0:0:
50,367,10828,1,0,1:0:0:0:
244,270,10992,2,0,P|263:320|252:366,1,85,8|0,0:0|0:0,0:0:0:0:
129,202,11320,6,0,L|144:109,1,85,4|2,1:2|0:0,0:0:0:0:
236,173,11648,1,8,0:0:0:0:
163,16,11812,2,0,B|91:9|85:65|-10:47,1,170,2|0,0:0|1:0,0:0:0:0:
142,118,12304,1,8,0:0:0:0:
276,11,12468,6,0,P|367:10|402:84,1,170,4|0,1:2|1:0,0:0:0:0:
326,250,12960,2,0,P|319:208|332:166,1,85,8|2,0:0|0:0,0:0:0:0:
419,218,13288,1,0,1:0:0:0:
292,355,13451,1,8,0:1:0:0:
480,332,13615,2,0,P|439:324|390:316,1,85,8|0,0:1|0:0,0:0:0:0:
246,210,13943,6,0,P|234:146|294:87,1,127.5,4|0,0:0|0:0,0:0:0:0:
330,168,14271,5,8,0:0:0:0:
324,269,14435,1,0,1:0:0:0:
216,384,14599,1,8,0:0:0:0:
198,289,14763,1,0,1:0:0:0:
102,348,14927,1,8,0:0:0:0:
255,201,15091,6,0,B|155:182|155:182|131:215|97:223,1,170,4|0,1:0|1:0,0:0:0:0:
225,0,15583,2,0,P|244:44|236:94,1,85,8|0,0:0|1:0,0:0:0:0:
145,51,15910,1,8,0:0:0:0:
275,172,16074,1,0,1:0:0:0:
101,221,16238,1,8,0:0:0:0:
178,148,16402,1,0,1:0:0:0:
24,297,16566,6,0,B|56:260|101:255|101:255|124:291|175:308,1,170,12|0,0:0|1:0,0:0:0:0:
353,339,17058,2,0,P|369:280|331:216,1,127.5,12|0,0:0|0:0,0:0:0:0:
268,290,17386,2,0,L|256:388,1,85,0|8,1:0|0:0,0:0:0:0:
165,197,17714,6,0,B|91:185|89:243|-28:218,1,170,4|0,0:0|1:0,0:0:0:0:
116,90,18206,2,0,L|105:30,1,42.5,8|8,0:0|0:0,0:0:0:0:
222,5,18369,2,0,L|214:46,1,42.5,8|8,3:0|3:0,0:0:0:0:
121,107,18533,1,4,3:0:0:0:
283,91,18697,6,0,P|184:104|164:249,1,255,6|0,1:2|1:0,0:0:0:0:
247,293,19353,6,0,P|252:252|259:213,1,68,2|8,0:0|0:0,0:0:0:0:
154,345,19681,2,0,B|80:329|80:329|57:349|17:350,1,136,2|0,0:0|1:0,0:0:0:0:
145,174,20173,2,0,P|159:211|154:248,1,68,8|0,0:0|0:0,0:0:0:0:
47,134,20501,6,0,P|56:56|64:-3,1,136,0|8,1:0|0:0,0:0:0:0:
204,104,20992,2,0,P|270:112|320:63,1,136,0|0,1:0|1:0,0:0:0:0:
447,114,21484,2,0,P|461:153|457:187,1,68,8|0,0:0|0:0,0:0:0:0:
367,256,21812,6,0,P|362:218|356:180,1,68,0|2,1:0|0:0,0:0:0:0:
470,268,22140,1,8,0:0:0:0:
470,268,22304,1,2,0:0:0:0:
384,364,22468,2,0,P|350:358|316:354,1,68,0|0,1:0|1:0,2:0:0:0:
212,234,22796,2,0,P|245:219|288:225,1,68,8|2,0:0|0:0,0:0:0:0:
153,336,23124,6,0,B|74:323|74:323|48:351|3:353,2,136,0|8|0,1:0|0:0|1:0,0:0:0:0:
34,229,23943,1,0,1:0:0:0:
140,124,24107,2,0,P|132:157|123:204,1,68,8|0,0:0|0:0,0:0:0:0:
0,34,24435,6,0,P|65:51|122:-5,1,136,4|8,0:0|0:0,0:0:0:0:
242,95,24927,1,2,0:0:0:0:
242,95,25091,2,0,P|259:129|255:171,1,68,0|0,1:0|1:0,0:0:0:0:
170,231,25419,2,0,L|89:222,1,68,8|2,0:0|0:0,0:0:0:0:
270,374,25747,6,0,L|368:364,1,68,0|0,1:0|0:0,0:0:0:0:
438,231,26074,2,0,L|340:221,1,68,8|0,0:0|0:0,0:0:0:0:
226,298,26402,2,0,L|324:288,1,68,2|0,0:0|1:0,0:0:0:0:
299,164,26730,2,0,P|308:125|317:85,1,68,8|8,0:0|0:0,0:0:0:0:
315,98,26976,1,8,0:0:0:0:
315,98,27058,5,0,1:0:0:0:
244,42,27222,1,0,1:0:0:0:
133,124,27386,2,0,P|69:131|22:91,1,114.749996498108,6|0,0:1|0:0,0:0:0:0:
95,46,27714,5,0,1:0:0:0:
218,142,27878,1,0,1:0:0:0:
106,257,28042,2,0,P|42:264|-5:224,1,114.749996498108,6|0,0:1|0:0,0:0:0:0:
68,179,28369,5,6,1:0:0:0:
189,285,28533,2,0,L|270:275,1,76.4999976654053,10|0,0:1|0:0,0:0:0:0:
425,177,28861,2,0,P|394:149|314:156,1,114.749996498108,10|0,0:1|0:0,0:0:0:0:
355,237,29189,2,0,B|443:222|443:222|465:251|502:257,1,152.999995330811,10|8,0:1|3:0,0:0:0:0:
404,343,29681,5,4,1:0:0:0:
265,276,29845,1,2,0:0:0:0:
265,276,30009,2,0,P|261:316|256:368,1,76.4999976654053,8|2,0:0|0:0,0:0:0:0:
355,237,30337,2,0,P|363:202|345:143,1,76.4999976654053,0|2,1:0|0:0,0:0:0:0:
296,97,30665,1,8,0:0:0:0:
296,97,30828,1,2,0:0:0:0:
199,199,30992,6,0,B|132:185|124:227|48:212,1,152.999995330811,0|8,1:0|0:0,0:0:0:0:
168,97,31484,2,0,P|163:62|156:19,1,76.4999976654053,2|0,0:0|1:0,0:0:0:0:
283,177,31812,2,0,P|310:213|303:283,1,114.749996498108,10|0,0:1|0:0,0:0:0:0:
202,316,32140,2,0,P|210:274|218:236,1,76.4999976654053,10|4,0:1|1:0,0:0:0:0:
162,175,32468,5,2,0:0:0:0:
288,89,32632,2,0,P|322:101|369:97,1,76.4999976654053,8|2,0:0|0:0,0:0:0:0:
470,9,32960,2,0,P|465:43|458:92,2,76.4999976654053,2|2|8,1:2|0:0|0:0,0:0:0:0:
361,99,33451,1,2,0:0:0:0:
499,240,33615,6,0,P|445:188|369:210,2,152.999995330811,2|8|0,1:2|0:0|1:0,0:0:0:0:
357,288,34435,1,8,0:0:0:0:
260,184,34599,1,8,0:0:0:0:
228,164,34681,1,8,0:0:0:0:
183,162,34763,1,8,0:0:0:0:
145,188,34845,1,8,0:0:0:0:
131,229,34927,6,0,P|138:272|143:317,1,76.4999976654053,4|2,1:0|0:0,0:0:0:0:
225,359,35255,1,8,0:0:0:0:
225,359,35419,1,2,0:0:0:0:
357,288,35583,2,0,P|308:282|263:273,1,76.4999976654053,2|0,1:2|1:0,0:0:0:0:
152,158,35910,2,0,P|130:201|134:241,1,76.4999976654053,8|2,0:0|0:0,0:0:0:0:
253,98,36238,6,0,P|248:57|244:16,1,76.4999976654053,2|2,1:2|0:0,0:0:0:0:
359,62,36566,2,0,P|403:65|448:51,1,76.4999976654053,8|2,0:0|0:0,0:0:0:0:
343,164,36894,1,6,1:2:0:0:
329,252,37058,1,2,0:0:0:0:
315,340,37222,1,8,0:0:0:0:
423,226,37386,5,2,0:0:0:0:
265,102,37550,2,0,B|202:113|197:75|123:86,2,136,6|2|8,0:0|0:0|0:0,0:0:0:0:
86,264,38533,2,0,P|78:229|87:194,1,68,2|8,0:0|0:0,0:0:0:0:
183,236,38861,6,0,P|187:271|192:315,1,68,6|8,1:2|0:0,0:0:0:0:
346,364,39189,2,0,P|409:369|451:343,1,102,0|0,1:0|0:0,0:0:0:0:
481,281,39517,1,8,0:0:0:0:
377,290,39681,1,0,1:0:0:0:
374,278,39763,1,8,0:0:0:0:
371,268,39845,2,0,L|364:234,1,34,8|0,0:0|0:0,0:0:0:0:
456,160,40009,2,0,L|462:126,1,34,8|0,0:0|0:0,0:0:0:0:
215,28,40501,6,0,B|312:7|312:7|340:35|374:33,1,152.999995330811,6|0,1:2|1:0,0:0:0:0:
222,211,40992,2,0,P|214:170|228:132,1,76.4999976654053,0|8,1:0|0:0,0:0:0:0:
444,162,41320,6,0,P|380:131|315:182,1,152.999995330811,6|0,1:2|1:0,0:0:0:0:
389,295,41812,1,8,0:0:0:0:
290,361,41976,2,0,L|300:324,2,38.2499988327027,8|8|8,0:0|0:0|3:0,0:0:0:0:
197,267,42304,1,8,3:0:0:0:
188,271,42386,1,8,3:0:0:0:
180,274,42468,1,4,3:0:0:0:
140,276,42550,1,4,3:0:0:0:
99,249,42632,1,4,3:0:0:0:
83,202,42714,1,4,3:0:0:0:
97,153,42796,6,0,B|137:117|185:126|185:126|208:165|245:177,2,152.999995330811,6|8|0,1:2|0:0|1:0,0:0:0:0:
245,259,43615,1,0,1:0:0:0:
317,191,43779,2,0,P|319:153|299:112,1,76.4999976654053,8|0,0:0|0:0,0:0:0:0:
223,167,44107,5,0,1:0:0:0:
337,286,44271,1,0,1:0:0:0:
230,334,44435,2,0,P|238:298|246:250,1,76.4999976654053,8|0,0:0|1:0,0:0:0:0:
426,158,44763,2,0,P|418:194|410:242,1,76.4999976654053,2|0,0:0|1:0,0:0:0:0:
304,118,45091,2,0,P|290:51|325:4,1,114.749996498108,8|0,0:0|0:0,0:0:0:0:
385,74,45419,5,12,0:0:0:0:
210,246,45747,1,8,0:0:0:0:
121,225,45910,1,0,1:0:0:0:
13,352,46074,5,8,0:0:0:0:
104,331,46238,1,2,1:2:0:0:
21,198,46402,5,8,0:0:0:0:
151,122,46566,2,0,B|81:133|74:89|1:98,1,152.999995330811,0|0,1:0|0:0,0:0:0:0:
135,23,47058,1,8,0:0:0:0:
244,161,47222,2,0,P|253:118|231:74,1,76.4999976654053,0|8,1:0|0:0,0:0:0:0:
151,122,47550,1,0,1:0:0:0:
228,261,47714,2,0,P|270:254|323:246,1,76.4999976654053,8|0,0:0|0:0,0:0:0:0:
492,357,48042,5,14,0:0:0:0:
380,384,48206,2,0,P|388:348|398:293,1,76.4999976654053,0|0,1:0|1:0,0:0:0:0:
258,163,48533,5,8,2:0:0:0:
339,95,48697,2,0,P|346:132|354:169,1,76.4999976654053,0|0,1:0|1:0,0:0:0:0:
258,300,49025,5,8,0:0:0:0:
168,271,49189,1,0,1:0:0:0:
107,373,49353,5,12,0:0:0:0:
270,291,49517,1,0,1:0:0:0:
123,174,49681,1,0,1:0:0:0:
242,42,49845,5,12,2:0:0:0:
231,125,50009,1,0,1:0:0:0:
220,208,50173,1,0,1:0:0:0:
352,301,50337,5,8,0:0:0:0:
391,278,50419,1,8,0:0:0:0:
437,278,50501,1,8,0:0:0:0:
476,304,50583,1,8,0:0:0:0:
491,353,50665,5,12,0:0:0:0:
433,183,50828,1,12,0:0:0:0:
292,115,51320,5,12,0:0:0:0:
240,308,51483,1,12,0:0:0:0:
49,125,51976,6,0,P|36:81|56:31,1,85,6|0,1:0|0:0,0:0:0:0:
148,80,52304,2,0,P|196:78|244:76,1,85,8|0,0:0|0:0,0:0:0:0:
84,239,52632,2,0,P|36:237|-12:235,1,85,0|0,1:0|1:0,0:0:0:0:
183,202,52960,2,0,P|196:246|176:296,1,85,8|0,0:0|0:0,0:0:0:0:
341,351,53288,6,0,B|441:334|441:334|463:369|501:376,1,170,4|8,1:0|0:0,0:0:0:0:
392,166,53779,2,0,P|368:209|375:255,1,85,0|0,1:0|0:0,0:0:0:0:
469,233,54107,1,0,1:0:0:0:
361,73,54271,2,0,L|272:65,1,85,8|0,0:0|0:0,0:0:0:0:
110,170,54599,6,0,P|94:118|131:57,1,127.5,6|0,1:0|0:0,0:0:0:0:
193,123,54927,2,0,P|201:173|211:233,1,85,8|0,0:0|0:0,0:0:0:0:
353,368,55255,2,0,P|286:371|257:346,1,85,0|0,1:0|1:0,0:0:0:0:
322,267,55583,2,0,L|414:259,1,85,8|0,0:0|0:0,0:0:0:0:
348,166,55910,5,4,1:0:0:0:
508,66,56074,2,0,P|454:71|416:53,1,85,0|8,1:0|0:0,0:0:0:0:
229,135,56402,2,0,P|211:78|250:15,1,127.5,0|0,1:0|0:0,0:0:0:0:
310,87,56730,1,0,1:0:0:0:
203,236,56894,2,0,P|160:231|95:225,1,85,8|0,0:0|0:0,0:0:0:0:
7,374,57222,6,0,P|50:332|150:360,1,170,12|8,0:0|0:0,0:0:0:0:
301,268,57714,1,8,3:0:0:0:
303,277,57796,1,8,3:0:0:0:
302,288,57878,1,2,1:2:0:0:
228,199,58042,1,0,1:0:0:0:
396,356,58206,2,0,P|407:307|389:256,1,85,8|0,0:0|0:0,0:0:0:0:
209,301,58533,6,0,B|178:264|130:258|130:258|103:294|57:307,1,170,12|8,0:0|0:0,0:0:0:0:
153,97,59025,2,0,L|158:145,2,42.5,8|8|2,3:0|3:0|1:2,0:0:0:0:
241,185,59353,1,0,1:0:0:0:
72,34,59517,2,0,P|50:82|62:127,1,85,8|0,0:0|0:0,0:0:0:0:
179,245,59845,5,6,1:2:0:0:
0,350,60009,1,0,1:0:0:0:
86,217,60173,2,0,P|82:259|79:301,1,85,10|0,1:0|0:0,0:0:0:0:
223,378,60501,5,6,1:2:0:0:
363,316,60665,1,0,1:0:0:0:
287,196,60828,2,0,P|267:242|277:294,1,85,10|0,1:0|0:0,0:0:0:0:
383,173,61156,5,12,0:0:0:0:
367,72,61320,1,0,1:0:0:0:
501,11,61484,5,8,0:0:0:0:
486,113,61648,1,0,1:0:0:0:
512,244,61812,5,12,0:0:0:0:
383,173,61976,1,0,1:0:0:0:
415,364,62140,6,0,P|425:319|411:277,1,85,10|2,0:0|0:0,0:0:0:0:
265,179,62468,6,0,P|271:224|279:289,1,85,6|0,1:0|0:0,0:0:0:0:
484,128,62796,2,0,P|430:150|342:90,1,170,8|0,0:0|1:0,0:0:0:0:
429,51,63288,1,0,1:0:0:0:
455,252,63451,2,0,P|415:248|351:243,1,85,8|0,0:0|0:0,0:0:0:0:
226,146,63779,6,0,P|206:189|219:238,1,85,4|0,1:0|1:0,0:0:0:0:
327,144,64107,1,8,0:0:0:0:
186,48,64271,2,0,B|88:34|88:34|62:66|16:67,1,170,0|0,1:0|1:0,0:0:0:0:
117,234,64763,2,0,B|126:189|126:189|117:138,1,85,8|0,0:0|0:0,0:0:0:0:
9,201,65091,6,0,P|15:245|21:299,1,85,6|0,1:0|0:0,0:0:0:0:
171,360,65419,2,0,B|245:343|251:389|342:369,1,170,8|0,0:0|1:0,0:0:0:0:
223,269,65910,1,0,1:0:0:0:
278,137,66074,2,0,P|303:181|289:239,1,85,8|0,0:0|0:0,0:0:0:0:
185,126,66402,5,4,1:2:0:0:
308,46,66566,2,0,L|418:57,1,85,2|8,0:0|0:0,0:0:0:0:
507,209,66894,2,0,P|448:224|392:181,1,127.5,8|0,0:0|0:0,0:0:0:0:
467,128,67222,1,0,1:0:0:0:
433,306,67386,1,8,0:0:0:0:
291,175,67550,6,0,L|284:227,2,42.5,8|8|4,0:0|0:0|1:0,0:0:0:0:
130,321,67878,2,0,P|123:279|139:240,1,85,2|8,0:0|0:0,0:0:0:0:
230,299,68206,2,0,P|226:346|223:392,1,85,0|8,1:0|0:0,0:0:0:0:
418,352,68533,2,0,P|367:358|328:342,1,85,0|8,1:0|0:0,0:0:0:0:
477,266,68861,1,0,1:0:0:0:
392,168,69025,6,0,L|399:220,2,42.5,8|8|0,0:0|0:0|1:0,0:0:0:0:
307,251,69353,1,8,0:0:0:0:
480,118,69517,2,0,P|419:64|340:84,1,170,12|2,0:0|1:2,0:0:0:0:
246,132,70009,2,0,P|234:91|245:43,1,85,8|2,0:0|0:0,0:0:0:0:
338,178,70337,5,12,0:0:0:0:
193,288,70501,1,8,0:0:0:0:
279,349,70665,2,0,P|284:302|291:257,1,85,2|2,0:0|0:0,0:0:0:0:
183,378,70992,5,12,0:0:0:0:
31,261,71156,2,0,P|76:265|116:251,1,85,8|2,0:0|0:0,0:0:0:0:
232,146,71484,6,0,B|333:137|328:216|446:204,1,204,6|2,1:0|0:0,0:0:0:0:
24,20,72304,5,0,0:0:0:0:
118,117,72468,1,8,3:0:0:0:
112,120,72550,1,8,3:0:0:0:
106,123,72632,2,0,P|63:118|17:113,1,68,8|0,0:0|0:0,0:0:0:0:
178,38,72960,5,8,3:0:0:0:
272,135,73124,1,8,3:0:0:0:
277,129,73206,1,8,3:0:0:0:
285,123,73288,2,0,L|279:89,1,34,8|8,3:0|3:0,0:0:0:0:
192,179,73451,2,0,L|186:212,1,34,4|4,3:0|3:0,0:0:0:0:
280,306,73615,5,8,0:0:0:0:
321,321,73697,1,8,0:0:0:0:
370,311,73779,1,8,0:0:0:0:
402,271,73861,1,8,0:0:0:0:
401,220,73943,2,0,P|364:215|308:207,1,68,14|0,0:0|0:0,0:0:0:0:
189,330,74271,6,0,P|178:283|198:234,1,85,6|2,1:2|0:0,0:0:0:0:
98,384,74599,1,8,0:0:0:0:
290,290,74763,2,0,B|367:284|372:343|455:338,1,170,2|0,0:0|1:0,0:0:0:0:
314,191,75255,1,8,0:0:0:0:
381,86,75419,6,0,P|405:128|395:189,1,85,6|0,1:2|0:0,0:0:0:0:
290,290,75747,2,0,P|244:284|195:280,1,85,0|8,1:0|0:0,0:0:0:0:
34,178,76074,2,0,P|87:135|161:159,1,127.5,2|0,0:0|0:0,0:0:0:0:
224,189,76402,1,10,0:0:0:0:
236,0,76566,2,0,P|259:45|253:93,1,85,8|0,0:0|0:0,0:0:0:0:
141,143,76894,6,0,P|147:99|154:49,1,85,4|2,0:0|0:0,0:0:0:0:
39,156,77222,1,8,0:0:0:0:
171,281,77386,2,0,B|267:268|267:268|287:301|327:310,1,170,2|0,0:0|1:0,0:0:0:0:
273,162,77878,1,8,0:0:0:0:
389,44,78042,6,0,L|361:218,1,170,4|0,0:0|1:0,0:0:0:0:
464,366,78533,2,0,P|475:315|451:261,1,85,8|2,0:0|0:0,0:0:0:0:
361,313,78861,1,0,1:0:0:0:
469,176,79025,1,10,0:0:0:0:
277,203,79189,2,0,P|324:207|376:213,1,85,8|0,0:0|0:0,0:0:0:0:
261,299,79517,5,12,0:0:0:0:
130,211,79681,1,0,0:0:0:0:
73,326,79845,5,8,0:0:0:0:
207,242,80009,1,0,1:0:0:0:
85,122,80173,5,8,0:0:0:0:
193,15,80337,2,0,P|188:59|182:121,1,85,0|8,1:0|0:0,0:0:0:0:
51,226,80665,6,0,B|151:206|151:206|178:243|222:243,1,170,4|0,1:0|1:0,0:0:0:0:
360,322,81156,2,0,P|369:276|343:227,1,85,8|0,0:0|1:0,0:0:0:0:
288,384,81484,1,8,0:0:0:0:
460,287,81648,1,0,1:0:0:0:
289,172,81812,1,8,0:0:0:0:
409,63,81976,1,0,1:0:0:0:
416,68,82058,1,0,1:0:0:0:
423,73,82140,6,0,P|416:117|410:169,1,85,6|0,1:2|0:0,0:0:0:0:
258,267,82468,1,0,1:0:0:0:
352,351,82632,2,0,P|363:314|351:264,1,85,12|0,0:0|0:0,0:0:0:0:
189,188,82960,2,0,P|150:203|99:201,1,85,0|8,1:0|0:0,0:0:0:0:
306,2,83288,6,0,P|299:75|286:197,1,170,4|0,0:0|1:0,0:0:0:0:
170,314,83779,2,0,L|182:368,1,42.5,8|8,0:0|0:0,0:0:0:0:
77,265,83943,2,0,L|86:223,1,42.5,8|8,3:0|3:0,0:0:0:0:
181,297,84107,1,4,3:0:0:0:
19,159,84271,2,0,B|105:144|103:211|203:196,1,170,14|0,0:0|0:0,0:0:0:0:
270,260,84763,5,12,0:0:0:0:
280,178,84927,1,0,1:0:0:0:
290,96,85091,1,0,1:0:0:0:
398,250,85255,5,12,0:0:0:0:
506,167,85419,2,0,P|458:162|388:146,1,85,0|0,1:0|1:0,0:0:0:0:
311,17,85747,5,12,0:0:0:0:
205,139,85910,2,0,P|193:100|208:58,1,85,0|0,1:0|1:0,0:0:0:0:
303,191,86238,5,12,0:0:0:0:
148,282,86402,1,0,1:0:0:0:
305,382,86566,1,0,1:0:0:0:
252,274,86730,6,0,L|243:326,1,42.5,12|8,0:0|0:0,0:0:0:0:
347,241,86894,2,0,L|339:199,1,42.5,8|8,0:0|0:0,0:0:0:0:
240,92,87058,1,8,0:0:0:0:
233,98,87140,1,8,0:0:0:0:
226,104,87222,6,0,B|137:88|137:88|104:124|65:121,1,170,6|0,1:2|1:0,0:0:0:0:
161,195,87714,2,0,P|150:236|138:285,1,76.4999976654053,0|0,1:0|0:0,0:0:0:0:
261,380,88042,2,0,P|267:339|235:289,1,76.4999976654053,0|0,1:0|1:0,0:0:0:0:
146,376,88369,5,0,1:0:0:0:
281,215,88533,1,14,1:2:0:0:
281,215,88861,6,0,P|286:174|291:131,2,68,2|2|2,0:0|0:0|0:0,0:0:0:0:
189,171,89353,1,2,0:0:0:0:
349,361,89517,6,2,B|321:329|273:321|273:321|252:356|226:369,1,152.999995330811,14|2,1:0|0:0,0:1:0:0:
