osu file format v14

[General]
AudioFilename: audio.mp3
AudioLeadIn: 0
PreviewTime: 51976
Countdown: 0
SampleSet: Soft
StackLeniency: 0.7
Mode: 0
LetterboxInBreaks: 0
WidescreenStoryboard: 1

[Editor]
Bookmarks: 19189
DistanceSpacing: 1
BeatDivisor: 4
GridSize: 32
TimelineZoom: 1

[Metadata]
Title:Kyu~mai*flower
TitleUnicode:きゅ~まい*flower
Artist:Pastel*Palettes
ArtistUnicode:Pastel*Palettes
Creator:Nijika Ijichi
Version:Qiyana & Mari's Normal
Source:バンドリ! ガールズバンドパーティ!
Tags:potatodew meowusername IAmWayneKing Leomine kloster LeomineXD Qiyana slyme dyl-byl meaqua tete HeTo Present Mari_0hara pop jpop j-pop BanG Dream! Girls Band Party bandori garupa ガルパ pasupare パスパレ パステルパレット game size maruyama aya 丸山彩 maeshima ami 前島亜美 hikawa hina 氷川日菜 ozawa ari 小澤亜李 shirasagi chisato 白鷺千聖 uesaka sumire 上坂すみれ yamato maya 大和麻弥 nakagami ikumi 中上育実 wakamiya eve 若宮イヴ hata sawako 秦佐和子 anime video game japanese kyumai cut ver.
BeatmapID:3942024
BeatmapSetID:1911119

[Difficulty]
HPDrainRate:3
CircleSize:3
OverallDifficulty:4
ApproachRate:5
SliderMultiplier:1
SliderTickRate:1

[Events]
//Background and Video events
0,0,"card_after_training (6).png",0,0
//Break Periods
//Storyboard Layer 0 (Background)
//Storyboard Layer 1 (Fail)
//Storyboard Layer 2 (Pass)
//Storyboard Layer 3 (Foreground)
//Storyboard Layer 4 (Overlay)
//Storyboard Sound Samples

[TimingPoints]
829,327.868852459016,4,2,3,55,1,0
6074,-100,4,2,3,40,0,0
6401,-100,4,2,3,50,0,0
6729,-100,4,2,3,60,0,0
7058,-100,4,2,3,70,0,0
7386,-100,4,2,3,80,0,0
8041,-100,4,2,3,75,0,0
8697,-100,4,2,4,85,0,0
9026,-100,4,2,3,85,0,0
14270,-100,4,2,5,85,0,0
15091,-100,4,2,6,85,0,0
15583,-100,4,2,5,85,0,0
16566,-100,4,2,3,85,0,0
17058,-100,4,2,6,85,0,0
17714,-100,4,2,3,85,0,0
18697,-100,4,2,7,85,0,0
19189,-100,4,2,3,75,0,0
19517,-100,4,2,3,70,0,0
24435,-100,4,2,6,70,0,0
27385,-100,4,2,3,70,0,0
28369,-100,4,2,7,70,0,0
29353,-100,4,2,3,70,0,0
29516,-100,4,2,4,70,0,0
29681,-100,4,2,3,70,0,0
30500,-100,4,2,8,70,0,0
30992,-100,4,2,3,70,0,0
31156,-100,4,2,8,70,0,0
32304,-100,4,2,3,70,0,0
32468,-100,4,2,8,70,0,0
32960,-100,4,2,3,70,0,0
33123,-100,4,2,8,70,0,0
33615,-100,4,2,3,70,0,0
34435,-100,4,2,8,70,0,0
34927,-100,4,2,6,70,0,0
35419,-100,4,2,9,70,0,0
35583,-100,4,2,3,70,0,0
35747,-100,4,2,9,70,0,0
35910,-100,4,2,3,70,0,0
36401,-100,4,2,9,70,0,0
36566,-100,4,2,3,70,0,0
36729,-100,4,2,9,70,0,0
36894,-100,4,2,3,70,0,0
37550,-100,4,2,5,70,0,0
40501,-100,4,2,3,70,0,0
42468,-100,4,2,4,70,0,0
42796,-100,4,2,6,70,0,0
45419,-100,4,2,3,75,0,0
45746,-100,4,2,5,75,0,0
46730,-100,4,2,6,75,0,0
47057,-100,4,2,5,75,0,0
48042,-100,4,2,7,75,0,0
49025,-100,4,2,3,75,0,0
49353,-100,4,2,6,75,0,0
50665,-100,4,2,7,80,0,0
51976,-90.9090909090909,4,2,4,85,0,1
52960,-90.9090909090909,4,2,7,85,0,1
56894,-90.9090909090909,4,2,7,85,0,0
57222,-90.9090909090909,4,2,3,85,0,1
57550,-90.9090909090909,4,2,5,85,0,1
57878,-90.9090909090909,4,2,10,85,0,1
58041,-90.9090909090909,4,2,5,85,0,1
58206,-90.9090909090909,4,2,5,85,0,0
58533,-90.9090909090909,4,2,3,85,0,1
58861,-90.9090909090909,4,2,5,85,0,1
59025,-90.9090909090909,4,2,3,85,0,1
59189,-90.9090909090909,4,2,10,85,0,1
59352,-90.9090909090909,4,2,5,85,0,1
59517,-90.9090909090909,4,2,5,85,0,0
59845,-90.9090909090909,4,2,3,85,0,1
61156,-90.9090909090909,4,2,5,85,0,1
62140,-90.9090909090909,4,2,6,85,0,0
62468,-90.9090909090909,4,2,4,85,0,1
62795,-90.9090909090909,4,2,7,85,0,1
66402,-90.9090909090909,4,2,6,85,0,1
67714,-90.9090909090909,4,2,3,85,0,1
68041,-90.9090909090909,4,2,5,85,0,1
69025,-90.9090909090909,4,2,3,85,0,1
69353,-90.9090909090909,4,2,5,85,0,1
70337,-90.9090909090909,4,2,11,75,0,1
70665,-90.9090909090909,4,2,11,75,0,0
70992,-90.9090909090909,4,2,7,75,0,1
71320,-90.9090909090909,4,2,7,75,0,0
71484,-90.9090909090909,4,2,3,75,0,1
71975,-90.9090909090909,4,2,3,70,0,1
72468,-90.9090909090909,4,2,3,70,0,0
72632,-100,4,2,7,75,0,0
72795,-100,4,2,7,70,0,0
72960,-100,4,2,3,70,0,0
73288,-100,4,2,4,70,0,0
73615,-100,4,2,7,70,0,0
73943,-100,4,2,7,80,0,0
74271,-100,4,2,4,85,0,0
74600,-100,4,2,3,85,0,0
79844,-100,4,2,5,85,0,0
80665,-100,4,2,6,85,0,0
81157,-100,4,2,5,85,0,0
82140,-100,4,2,3,85,0,0
82632,-100,4,2,6,85,0,0
83288,-100,4,2,3,85,0,0
84271,-100,4,2,7,85,0,0
84763,-90.9090909090909,4,2,12,85,0,1
84927,-90.9090909090909,4,2,3,85,0,1
85254,-90.9090909090909,4,2,12,85,0,1
85910,-90.9090909090909,4,2,3,85,0,1
86238,-90.9090909090909,4,2,12,85,0,1
87222,-90.9090909090909,4,2,3,85,0,0
87550,-90.9090909090909,4,2,3,75,0,0
87714,-100,4,2,3,75,0,0
89517,-100,4,2,13,75,0,0

[Colours]
Combo1 : 255,149,202
Combo2 : 255,193,224
Combo3 : 255,193,255

[HitObjects]
94,373,829,6,0,L|99:270,1,100,0|0,1:0|2:0,2:0:0:0:
148,255,1320,1,8,2:0:0:0:
148,255,1483,2,0,L|153:152,1,100,0|8,1:0|2:0,2:0:0:0:
92,74,2140,2,0,P|46:59|-1:76,2,100,0|0|0,1:0|2:0|1:0,2:0:0:0:
169,10,3124,1,8,2:0:0:0:
255,58,3451,6,0,L|256:166,1,100,0|0,1:0|2:0,2:0:0:0:
294,189,3943,1,8,2:0:0:0:
294,189,4107,2,0,P|310:235|291:280,1,100,0|8,1:0|2:0,2:0:0:0:
207,334,4763,2,0,L|96:331,1,100,0|0,1:0|2:0,2:0:0:0:
78,296,5255,1,8,2:0:0:0:
78,296,5419,2,0,P|59:250|76:204,1,100,0|8,1:0|2:0,2:0:0:0:
144,132,6074,6,0,P|193:138|224:176,2,100,8|8|8,1:2|1:2|1:2,2:0:0:0:
75,204,7058,1,8,1:2:0:0:
141,278,7386,2,0,B|193:254|240:282|233:287|274:315|334:286,1,200,4|8,1:2|2:0,2:0:0:0:
380,304,8206,1,8,2:0:0:0:
443,168,8697,6,0,L|446:89,1,50,6|2,1:2|2:0,2:0:0:0:
443,71,9026,1,10,2:0:0:0:
443,71,9190,2,0,P|405:91|350:78,1,100,2|2,2:0|1:2,2:0:0:0:
260,36,9845,2,0,P|215:15|168:28,1,100,2|2,1:2|1:2,2:0:0:0:
85,80,10501,1,2,2:0:0:0:
85,80,10665,2,0,L|22:76,2,50,0|2|8,2:0|1:2|2:0,2:0:0:0:
121,173,11320,6,0,L|184:169,2,50,2|2|10,1:2|2:0|2:0,2:0:0:0:
71,183,11812,2,0,P|53:228|73:276,1,100,2|2,2:0|1:2,2:0:0:0:
107,321,12304,1,10,2:0:0:0:
107,321,12468,2,0,L|229:313,1,100,6|2,1:2|1:2,2:0:0:0:
297,269,13124,2,0,L|419:276,1,100,2|0,2:0|1:0,2:0:0:0:
446,278,13615,1,10,2:0:0:0:
489,187,13943,6,0,P|462:139|403:157,1,100,4|14,1:2|2:0,2:0:0:0:
382,167,14435,1,2,1:2:0:0:
382,167,14599,2,0,L|307:161,1,50,14|2,2:0|1:2,2:0:0:0:
243,210,15091,2,0,L|143:217,1,100,6|0,1:2|1:0,2:0:0:0:
93,223,15583,1,12,2:0:0:0:
56,130,15910,2,0,P|33:144|3:143,2,50,14|2|14,2:0|1:2|2:0,2:0:0:0:
95,98,16402,6,0,L|228:101,1,100,2|0,1:2|2:0,2:0:0:0:
247,90,16894,1,2,1:2:0:0:
247,90,17058,2,0,P|262:136|245:183,1,100,14|2,2:0|1:2,2:0:0:0:
165,243,17714,2,0,P|150:289|166:335,1,100,6|0,1:2|1:0,2:0:0:0:
214,351,18206,1,8,2:3:0:0:
316,340,18533,1,0,1:0:0:0:
316,340,18697,2,0,L|312:222,1,100,14|0,2:0|2:0,2:0:0:0:
331,193,19189,5,4,1:2:0:0:
401,121,19517,2,0,P|440:149|496:141,2,100,8|0|10,2:0|1:0|2:0,2:0:0:0:
349,34,20501,2,0,L|227:38,1,100,2|10,1:2|2:0,2:0:0:0:
213,72,20992,2,0,L|91:68,1,100,2|2,1:2|1:2,2:0:0:0:
67,46,21484,1,8,2:0:0:0:
14,131,21812,5,0,1:0:0:0:
102,176,22140,2,0,P|148:191|195:174,2,100,10|2|10,2:0|1:2|2:0,2:0:0:0:
14,131,23124,2,0,P|-1:177|16:224,1,100,2|10,1:2|2:0,2:0:0:0:
53,316,23779,2,0,L|109:315,1,50,2|0,1:2|1:0,2:0:0:0:
153,320,24107,1,10,2:0:0:0:
243,363,24435,6,0,P|258:316|241:269,1,100,4|10,1:2|2:0,2:0:0:0:
182,191,25091,2,0,L|186:133,1,50,2|2,1:2|1:2,2:0:0:0:
214,100,25419,2,0,L|210:42,1,50,10|2,2:0|2:0,2:0:0:0:
205,0,25747,5,2,1:2:0:0:
121,53,26074,2,0,P|49:64|25:45,2,100,10|2|10,2:0|2:0|2:0,2:0:0:0:
205,0,27058,2,0,L|334:3,1,100,2|12,1:2|2:0,2:0:0:0:
352,31,27550,1,2,2:0:0:0:
352,31,27714,2,0,L|481:28,1,100,2|12,1:2|2:0,2:0:0:0:
510,109,28369,6,0,L|511:173,1,50,4|0,1:2|1:0,2:0:0:0:
435,224,28861,1,4,1:2:0:0:
353,281,29189,2,0,P|300:298|244:272,1,100,4|8,1:2|2:3,2:0:0:0:
218,254,29681,6,0,P|165:237|109:263,1,100,4|10,1:2|2:0,2:0:0:0:
62,170,30337,2,0,L|65:109,2,50,2|6|10,1:2|2:0|2:0,2:0:0:0:
28,207,30828,1,6,2:0:0:0:
28,207,30992,2,0,L|23:306,1,100,2|10,1:2|2:0,2:0:0:0:
21,357,31484,1,6,2:0:0:0:
111,314,31812,1,10,2:0:0:0:
198,373,32140,1,8,2:0:0:0:
198,373,32304,6,0,P|245:376|276:329,1,100,0|10,1:0|2:0,2:0:0:0:
260,294,32796,1,6,2:0:0:0:
260,294,32960,2,0,L|264:232,1,50,2|6,1:2|2:0,2:0:0:0:
268,194,33288,1,10,2:0:0:0:
213,117,33615,1,2,1:2:0:0:
136,181,33943,2,0,P|91:204|28:177,2,100,10|2|10,2:0|1:2|2:0,2:0:0:0:
213,117,34927,6,0,P|258:94|321:121,1,100,4|10,1:2|2:0,2:0:0:0:
350,136,35419,1,6,2:0:0:0:
350,136,35583,2,0,P|395:159|458:132,1,100,2|10,1:2|2:0,2:0:0:0:
491,234,36238,2,0,P|464:259|457:275,1,50,2|6,1:2|2:0,2:0:0:0:
431,313,36566,2,0,P|415:332|394:345,1,50,10|6,2:0|2:0,2:0:0:0:
344,337,36894,1,6,1:2:0:0:
251,374,37222,1,8,2:0:0:0:
176,307,37550,6,0,L|182:168,1,100,6|0,1:2|2:0,2:0:0:0:
164,159,38042,1,0,1:0:0:0:
164,159,38206,2,0,P|99:188|59:173,1,100,10|2,2:0|1:2,2:0:0:0:
48,84,38861,2,0,P|113:55|153:70,1,100,2|2,1:2|1:2,2:0:0:0:
233,90,39517,1,10,2:0:0:0:
272,0,39845,1,10,2:0:0:0:
463,57,40501,5,6,1:2:0:0:
429,150,40828,2,0,L|490:147,2,50,2|0|8,1:2|1:0|2:0,2:0:0:0:
407,195,41320,2,0,P|387:240|401:287,1,100,2|0,1:2|1:0,2:0:0:0:
433,325,41812,1,8,2:0:0:0:
345,374,42140,1,8,2:3:0:0:
288,291,42468,2,0,L|227:288,1,50,10|10,2:3|2:3,2:0:0:0:
207,328,42796,6,0,B|158:344|158:344|112:326,1,100,6|10,1:2|2:0,2:0:0:0:
55,244,43451,2,0,L|58:193,1,50,2|0,1:2|1:0,2:0:0:0:
94,159,43779,2,0,L|91:108,1,50,10|0,2:0|2:0,2:0:0:0:
114,64,44107,2,0,P|162:79|207:61,1,100,2|8,1:2|2:0,2:0:0:0:
241,25,44599,1,2,1:2:0:0:
241,25,44763,1,2,2:0:0:0:
338,4,45091,1,8,2:0:0:0:
432,38,45419,6,0,L|429:157,1,100,12|14,2:0|2:0,2:0:0:0:
420,190,45910,1,2,1:2:0:0:
420,190,46074,2,0,P|372:201|325:177,1,100,12|12,2:0|2:0,2:0:0:0:
261,103,46730,2,0,P|227:139|224:191,1,100,12|14,2:0|2:0,2:0:0:0:
243,239,47222,1,2,1:2:0:0:
243,239,47386,1,12,2:0:0:0:
331,285,47714,1,14,2:0:0:0:
385,200,48042,6,0,B|380:132|380:132|381:121|381:121|377:45,2,150,14|14|12,2:0|2:0|2:0,2:0:0:0:
331,285,49353,2,0,P|291:258|234:262,1,100,14|0,2:0|1:0,2:0:0:0:
207,297,49845,1,14,2:0:0:0:
207,297,50009,2,0,P|163:318|107:306,1,100,2|8,1:2|2:0,2:0:0:0:
49,231,50665,5,4,1:2:0:0:
33,132,50992,1,0,2:0:0:0:
132,116,51320,1,4,1:2:0:0:
148,215,51648,1,2,2:0:0:0:
113,309,51976,6,0,P|161:317|218:291,1,110.000003356934,6|0,1:2|2:0,2:0:0:0:
326,303,52632,2,0,L|324:235,1,55.0000016784668,2|0,1:2|1:0,2:0:0:0:
358,204,52960,1,10,2:0:0:0:
352,94,53288,2,0,B|323:81|295:98|295:98|262:117|229:96,1,110.000003356934,2|10,1:2|2:0,2:0:0:0:
202,137,53779,2,0,L|200:210,1,55.0000016784668,2|0,1:2|2:0,2:0:0:0:
169,238,54107,2,0,L|100:239,1,55.0000016784668,2|8,1:2|2:0,2:0:0:0:
33,171,54599,6,0,P|17:118|54:55,1,110.000003356934,6|10,1:2|2:0,2:0:0:0:
117,19,55255,2,0,L|189:17,1,55.0000016784668,2|0,1:2|1:0,2:0:0:0:
209,58,55583,1,10,2:0:0:0:
129,133,55910,2,0,L|74:133,1,55.0000016784668,2|2,1:2|1:2,2:0:0:0:
33,171,56238,1,10,2:0:0:0:
33,171,56402,2,0,B|47:195|78:199|78:199|108:205|124:226,1,110.000003356934,2|0,1:2|1:0,2:0:0:0:
142,273,56894,1,8,2:0:0:0:
259,242,57222,6,0,L|334:242,1,55.0000016784668,6|2,1:2|2:0,2:0:0:0:
354,280,57550,1,14,2:0:0:0:
440,212,57878,2,0,L|440:140,1,55.0000016784668,12|2,2:0|1:2,2:0:0:0:
404,120,58206,1,12,2:0:0:0:
298,151,58533,2,0,L|209:151,1,55.0000016784668,6|2,1:2|2:0,2:0:0:0:
198,184,58861,1,14,2:0:0:0:
100,132,59189,2,0,L|100:60,1,55.0000016784668,12|0,2:0|1:2,2:0:0:0:
58,40,59517,1,12,0:2:0:0:
163,8,59845,6,0,L|220:8,1,55.0000016784668,6|0,1:2|1:0,2:0:0:0:
253,50,60173,1,10,2:0:0:0:
356,11,60501,2,0,L|422:12,1,55.0000016784668,2|0,1:2|1:0,2:0:0:0:
451,49,60828,1,10,2:0:0:0:
492,150,61156,2,0,L|489:217,1,55.0000016784668,14|0,2:0|1:0,2:0:0:0:
440,230,61484,2,0,L|368:231,1,55.0000016784668,12|2,2:0|1:2,2:0:0:0:
351,186,61812,2,0,L|281:185,1,55.0000016784668,14|0,2:0|1:0,2:0:0:0:
254,221,62140,1,12,2:0:0:0:
298,321,62468,6,0,P|355:332|431:308,1,110.000003356934,6|10,1:2|2:0,2:0:0:0:
470,232,63124,2,0,L|468:164,1,55.0000016784668,2|0,1:2|1:0,2:0:0:0:
495,128,63452,1,10,2:0:0:0:
424,44,63779,2,0,B|395:31|367:48|367:48|334:67|301:46,1,110.000003356934,2|10,1:2|2:0,2:0:0:0:
274,20,64271,2,0,L|202:19,1,55.0000016784668,2|0,1:2|2:0,2:0:0:0:
170,45,64599,2,0,L|171:106,1,55.0000016784668,2|8,1:2|2:0,2:0:0:0:
249,177,65091,6,0,P|308:195|375:164,1,110.000003356934,6|10,1:2|2:0,2:0:0:0:
454,223,65747,2,0,L|453:286,1,55.0000016784668,2|0,1:2|1:0,2:0:0:0:
417,320,66074,1,10,2:0:0:0:
321,266,66402,2,0,L|250:267,1,55.0000016784668,6|2,1:2|2:0,2:0:0:0:
225,237,66730,1,10,2:0:0:0:
225,237,66894,2,0,B|212:208|229:180|229:180|248:147|227:114,1,110.000003356934,2|2,1:2|1:2,2:0:0:0:
195,93,67386,1,10,2:0:0:0:
90,127,67714,6,0,P|68:192|92:246,1,110.000003356934,4|14,1:2|2:0,2:0:0:0:
149,314,68369,1,12,2:0:0:0:
225,237,68697,1,12,2:0:0:0:
299,317,69025,2,0,L|367:317,1,55.0000016784668,14|2,2:0|1:2,2:0:0:0:
402,344,69353,1,14,2:0:0:0:
402,344,69517,2,0,P|452:323|459:258,1,110.000003356934,2|0,1:2|1:0,2:0:0:0:
431,230,70009,1,12,2:0:0:0:
492,139,70337,5,6,1:2:0:0:
492,139,70501,1,2,1:2:0:0:
381,46,70992,1,6,1:2:0:0:
381,46,71156,1,2,1:2:0:0:
289,106,71484,2,0,B|215:164|206:75|131:122,1,165.000005035401,6|2,1:2|2:0,2:0:0:0:
45,184,72304,2,0,L|45:239,1,55.0000016784668,2|0,2:0|1:0,2:0:0:0:
17,281,72632,2,0,L|17:335,1,50,14|0,2:0|2:0,2:0:0:0:
48,370,72960,5,8,2:3:0:0:
109,290,73288,1,8,2:3:0:0:
208,290,73615,1,8,2:0:0:0:
267,370,73943,1,12,2:0:0:0:
333,295,74271,6,0,L|332:246,1,50,6|2,1:2|2:0,2:0:0:0:
379,222,74600,1,10,2:0:0:0:
379,222,74764,2,0,P|415:199|431:144,1,100,2|2,2:0|1:2,2:0:0:0:
396,52,75419,2,0,B|374:25|374:25|297:11,1,100,2|2,1:2|1:2,2:0:0:0:
218,49,76075,1,2,2:0:0:0:
218,49,76239,2,0,L|155:45,2,50,0|2|8,2:0|1:2|2:0,2:0:0:0:
240,146,76894,6,0,L|303:142,2,50,2|2|10,1:2|2:0|2:0,2:0:0:0:
196,171,77386,2,0,P|178:216|198:264,1,100,2|2,2:0|1:2,2:0:0:0:
232,304,77878,1,10,2:0:0:0:
232,304,78042,2,0,L|349:295,1,100,6|2,1:2|1:2,2:0:0:0:
350,249,78533,2,0,L|349:128,1,100,10|2,2:0|1:2,2:0:0:0:
422,80,79189,1,10,2:0:0:0:
505,134,79517,6,0,P|502:181|457:200,1,100,4|14,1:2|2:0,2:0:0:0:
437,247,80009,1,2,1:2:0:0:
437,247,80173,2,0,L|439:308,1,50,14|2,2:0|1:2,2:0:0:0:
350,344,80665,2,0,L|241:345,1,100,6|0,1:2|1:0,2:0:0:0:
215,308,81157,1,12,2:0:0:0:
129,358,81484,2,0,L|74:379,2,50,14|2|14,2:0|1:2|2:0,2:0:0:0:
115,309,81976,6,0,L|118:171,1,100,2|0,1:2|2:0,2:0:0:0:
73,197,82468,1,2,1:2:0:0:
73,197,82632,2,0,P|61:151|83:101,1,100,14|2,2:0|1:2,2:0:0:0:
147,29,83288,2,0,B|167:41|194:31|194:31|220:22|248:31,1,100,6|0,1:2|1:0,2:0:0:0:
290,50,83780,1,8,2:3:0:0:
228,129,84107,1,0,1:0:0:0:
228,129,84271,2,0,L|229:229,1,100,14|0,2:0|2:0,2:0:0:0:
268,267,84763,6,0,B|316:273|338:305|338:305|360:274|413:264,1,165.000005035401,14|14,2:0|2:0,2:0:0:0:
489,117,85747,6,0,P|407:82|331:134,1,165.000005035401,14|14,2:0|2:0,2:0:0:0:
232,235,86730,6,0,L|148:235,2,55.0000016784668,14|8|8,2:0|2:0|2:0,2:0:0:0:
268,267,87222,1,6,1:2:0:0:
187,333,87550,1,2,1:2:0:0:
187,333,87714,2,0,L|106:333,1,50,2|0,1:2|2:0,2:0:0:0:
97,302,88042,2,0,L|102:231,1,50,2|0,1:2|2:0,2:0:0:0:
73,216,88369,1,2,1:2:0:0:
73,216,88533,1,2,1:2:0:0:
191,73,89517,6,0,B|247:26|268:115|333:67,1,150,6|0,1:2|2:0,2:0:0:0:
