osu file format v14

[General]
AudioFilename: audio.mp3
AudioLeadIn: 0
PreviewTime: 51894
Countdown: 0
SampleSet: Soft
StackLeniency: 0.7
Mode: 3
LetterboxInBreaks: 0
EpilepsyWarning: 1
SpecialStyle: 0
WidescreenStoryboard: 1

[Editor]
Bookmarks: 62468
DistanceSpacing: 0.8
BeatDivisor: 4
GridSize: 32
TimelineZoom: 2.1

[Metadata]
Title:Kyu~mai * flower
TitleUnicode:きゅ~まい*flower
Artist:Pastel*Palettes
ArtistUnicode:Pastel*Palettes
Creator:Nabi-
Version:Flower
Source:バンドリ! ガールズバンドパーティ!
Tags:denyi Sun BanG Dream! Girls Band Party bandori garupa ガルパ pasupare パスパレ パステルパレット game size maruyama aya 丸山彩 maeshima ami 前島亜美 hikawa hina 氷川日菜 ozawa ari 小澤亜李 shirasagi chisato 白鷺千聖 uesaka sumire 上坂すみれ yamato maya 大和麻弥 nakagami ikumi 中上育実 wakamiya eve 若宮イヴ hata sawako 秦佐和子 anime video game japanese kyu mai j-pop jpop j pop kyumai kyu-mai BRMM-10199 BRMM-10198
BeatmapID:2560884
BeatmapSetID:1231905

[Difficulty]
HPDrainRate:8
CircleSize:4
OverallDifficulty:8
ApproachRate:5
SliderMultiplier:1.4
SliderTickRate:1

[Events]
//Background and Video events
0,0,"qwq.jpg",0,0
//Break Periods
//Storyboard Layer 0 (Background)
Sprite,Background,Centre,"qwq.jpg",320,240 F,0,0,,0
//Storyboard Layer 1 (Fail)
//Storyboard Layer 2 (Pass)
//Storyboard Layer 3 (Foreground)
//Storyboard Layer 4 (Overlay)
//Storyboard Sound Samples
Sample,73943,0,"LR4_ClapReverbDPS.wav",70

[TimingPoints]
829,327.868852459016,4,2,1,50,1,0
40009,-20,4,2,1,50,0,0
40050,-1000,4,2,1,50,0,0
40173,-333.333333333333,4,2,1,50,0,0
40255,-142.857142857143,4,2,1,50,0,0
40337,-100,4,2,1,50,0,0
40378,-90.9090909090909,4,2,1,50,0,0
40419,-83.3333333333333,4,2,1,50,0,0
40439,-76.9230769230769,4,2,1,50,0,0
40460,-71.4285714285714,4,2,1,50,0,0
40480,-66.6666666666667,4,2,1,50,0,0
40501,-100,4,2,1,50,0,0
51976,-100,4,2,1,50,0,1
67714,-100,4,2,1,50,0,0

[HitObjects]
192,192,665,5,0,0:0:0:0:
320,192,747,1,0,0:0:0:0:
64,192,829,128,2,992:0:0:0:0:
192,192,829,1,0,0:0:0:0:
448,192,829,1,0,0:0:0:0:
320,192,992,128,0,1156:0:0:0:0:
64,192,1156,128,0,1320:0:0:0:0:
192,192,1320,1,8,0:0:0:0:
320,192,1320,128,0,1484:0:0:0:0:
448,192,1320,1,0,0:0:0:0:
192,192,1484,1,2,0:0:0:0:
448,192,1484,128,0,1648:0:0:0:0:
64,192,1648,128,0,1812:0:0:0:0:
192,192,1812,1,8,0:0:0:0:
320,192,1812,128,0,1976:0:0:0:0:
448,192,1812,1,0,0:0:0:0:
64,192,1976,128,0,2140:0:0:0:0:
320,192,2140,1,2,0:0:0:0:
448,192,2140,128,0,2304:0:0:0:0:
192,192,2304,128,0,2468:0:0:0:0:
448,192,2468,128,0,2632:0:0:0:0:
64,192,2632,1,8,0:0:0:0:
192,192,2632,128,0,2796:0:0:0:0:
320,192,2632,1,0,0:0:0:0:
64,192,2796,128,2,2960:0:0:0:0:
320,192,2796,1,0,0:0:0:0:
448,192,2960,128,0,3124:0:0:0:0:
64,192,3124,1,8,0:0:0:0:
192,192,3124,128,0,3288:0:0:0:0:
320,192,3124,1,0,0:0:0:0:
448,192,3288,128,0,3451:0:0:0:0:
64,192,3451,128,2,3615:0:0:0:0:
192,192,3451,1,0,0:0:0:0:
320,192,3615,128,0,3779:0:0:0:0:
64,192,3779,128,0,3943:0:0:0:0:
192,192,3943,1,8,0:0:0:0:
320,192,3943,128,0,4107:0:0:0:0:
448,192,3943,1,0,0:0:0:0:
192,192,4107,1,2,0:0:0:0:
448,192,4107,128,0,4271:0:0:0:0:
64,192,4271,128,0,4435:0:0:0:0:
192,192,4435,1,8,0:0:0:0:
320,192,4435,128,0,4599:0:0:0:0:
448,192,4435,1,0,0:0:0:0:
64,192,4599,128,0,4763:0:0:0:0:
192,192,4763,128,2,4927:0:0:0:0:
448,192,4763,1,0,0:0:0:0:
320,192,4927,128,0,5091:0:0:0:0:
192,192,5091,128,0,5255:0:0:0:0:
64,192,5255,1,8,0:0:0:0:
320,192,5255,128,0,5419:0:0:0:0:
448,192,5255,1,0,0:0:0:0:
64,192,5419,128,2,5583:0:0:0:0:
448,192,5419,1,0,0:0:0:0:
192,192,5583,128,0,5747:0:0:0:0:
64,192,5747,1,8,0:0:0:0:
320,192,5747,128,0,5910:0:0:0:0:
448,192,5747,1,0,0:0:0:0:
448,192,5910,128,0,6074:0:0:0:0:
64,192,6074,1,0,0:0:0:40:LR_Kick_Med_hard.wav
192,192,6074,1,0,0:0:0:0:
320,192,6156,1,0,0:0:0:50:LR_Snare Drum .wav
192,192,6238,1,0,0:0:0:50:LR_Snare Drum .wav
64,192,6320,1,0,0:0:0:50:LR_Snare Drum .wav
320,192,6402,1,0,0:0:0:40:LR_Kick_Med_hard.wav
448,192,6402,1,0,0:0:0:0:
192,192,6484,1,0,0:0:0:70:LR_Snare Drum .wav
320,192,6566,1,0,0:0:0:70:LR_Snare Drum .wav
448,192,6648,1,0,0:0:0:70:LR_Snare Drum .wav
64,192,6730,1,0,0:0:0:40:LR_Kick_Med_hard.wav
192,192,6730,1,0,0:0:0:0:
320,192,6812,1,0,0:0:0:70:LR_Snare Drum 2.wav
192,192,6894,1,0,0:0:0:70:LR_Snare Drum 2.wav
64,192,6976,1,0,0:0:0:70:LR_Snare Drum 2.wav
448,192,7058,1,0,0:0:0:40:LR_Kick_Med_hard.wav
320,192,7113,1,0,0:0:0:0:
192,192,7167,1,0,0:0:0:0:
64,192,7222,1,0,0:0:0:70:LR_Snare Drum 3.wav
448,192,7277,1,0,0:0:0:0:
320,192,7331,1,0,0:0:0:0:
64,192,7386,128,4,8042:0:0:0:0:
192,192,7386,1,2,0:0:0:0:
192,192,8042,128,0,8124:0:0:0:70:clap_soft.wav
320,192,8042,128,0,8124:0:0:0:0:
448,192,8042,128,0,8124:0:0:0:0:
192,192,8206,128,0,8288:0:0:0:70:clap_soft.wav
320,192,8206,128,0,8288:0:0:0:70:shine.wav
448,192,8206,128,0,8288:0:0:0:0:
64,192,8369,1,0,0:0:0:0:
192,192,8424,1,0,0:0:0:0:
320,192,8479,1,0,0:0:0:0:
448,192,8533,1,0,0:0:0:0:
64,192,8588,1,0,0:0:0:0:
192,192,8643,1,0,0:0:0:0:
320,192,8697,1,2,0:0:0:0:
448,192,8697,128,4,8861:0:0:0:0:
192,192,8861,128,0,9025:0:0:0:0:
64,192,9025,1,8,0:0:0:0:
320,192,9025,128,0,9189:0:0:0:0:
448,192,9025,1,0,0:0:0:0:
192,192,9189,128,0,9517:0:0:0:0:
320,192,9353,1,2,0:0:0:0:
448,192,9353,1,0,0:0:0:0:
64,192,9517,1,2,0:0:0:0:
448,192,9517,128,0,9845:0:0:0:0:
64,192,9681,1,8,0:0:0:0:
192,192,9681,1,0,0:0:0:0:
320,192,9681,1,0,0:0:0:0:
192,192,9845,128,2,10173:0:0:0:0:
320,192,9845,1,0,0:0:0:0:
64,192,10173,128,2,10501:0:0:0:0:
448,192,10173,1,0,0:0:0:0:
192,192,10337,1,8,0:0:0:0:
320,192,10337,1,0,0:0:0:0:
448,192,10337,1,0,0:0:0:0:
320,192,10501,128,0,10828:0:0:0:0:
64,192,10665,1,2,0:0:0:0:
192,192,10665,1,0,0:0:0:0:
64,192,10828,128,0,10910:0:0:0:0:
192,192,10828,128,0,10910:0:0:0:0:
448,192,10828,128,0,11238:0:0:0:0:
64,192,10992,128,8,11238:0:0:0:0:
192,192,10992,128,0,11238:0:0:0:0:
320,192,10992,1,0,0:0:0:0:
64,192,11320,128,2,11484:0:0:0:0:
448,192,11320,1,0,0:0:0:0:
320,192,11484,128,0,11648:0:0:0:0:
64,192,11648,1,8,0:0:0:0:
192,192,11648,128,0,11812:0:0:0:0:
448,192,11648,1,0,0:0:0:0:
448,192,11812,128,0,12140:0:0:0:0:
64,192,11976,1,2,0:0:0:0:
192,192,11976,1,0,0:0:0:0:
64,192,12140,128,2,12304:0:0:0:0:
320,192,12140,1,0,0:0:0:0:
192,192,12304,128,8,12468:0:0:0:0:
448,192,12304,1,0,0:0:0:0:
64,192,12468,1,2,0:0:0:0:
320,192,12468,128,4,12796:0:0:0:0:
448,192,12468,1,0,0:0:0:0:
64,192,12796,1,2,0:0:0:0:
448,192,12796,128,0,12878:0:0:0:0:
64,192,12960,1,8,0:0:0:0:
320,192,12960,1,0,0:0:0:0:
448,192,12960,128,0,13124:0:0:0:0:
192,192,13124,128,0,13206:0:0:0:0:
192,192,13288,128,2,13533:0:0:0:0:
320,192,13288,1,0,0:0:0:0:
320,192,13451,1,2,0:0:0:0:
64,192,13451,128,0,13533:0:0:0:0:
448,192,13451,128,0,13533:0:0:0:0:
64,192,13615,128,8,13861:0:0:0:0:
192,192,13615,128,0,13861:0:0:0:0:
448,192,13615,128,0,13861:0:0:0:0:
192,192,13943,1,8,0:0:0:0:
320,192,13943,1,4,0:0:0:0:
448,192,13943,128,0,14271:0:0:0:0:
64,192,14271,128,8,14435:0:0:0:0:
192,192,14271,1,0,0:0:0:0:
320,192,14271,1,0,0:0:0:0:
192,192,14435,128,2,14599:0:0:0:0:
448,192,14435,1,0,0:0:0:0:
64,192,14599,1,8,0:0:0:0:
320,192,14599,128,0,14763:0:0:0:0:
448,192,14599,1,0,0:0:0:0:
64,192,14763,1,2,0:0:0:0:
448,192,14763,128,0,14927:0:0:0:0:
64,192,14927,1,8,0:0:0:0:
192,192,14927,1,0,0:0:0:0:
320,192,14927,1,0,0:0:0:0:
192,192,15091,128,2,15419:0:0:0:0:
320,192,15091,128,0,15419:0:0:0:0:
64,192,15419,1,2,0:0:0:0:
448,192,15419,1,0,0:0:0:0:
64,192,15583,1,8,0:0:0:0:
192,192,15583,1,0,0:0:0:0:
320,192,15583,1,0,0:0:0:0:
320,192,15747,1,2,0:0:0:0:
448,192,15747,1,0,0:0:0:0:
64,192,15910,1,8,0:0:0:0:
192,192,15910,1,0,0:0:0:0:
448,192,15910,1,0,0:0:0:0:
64,192,16074,1,2,0:0:0:0:
320,192,16074,1,0,0:0:0:0:
192,192,16238,1,8,0:0:0:0:
320,192,16238,1,0,0:0:0:0:
448,192,16238,1,0,0:0:0:0:
64,192,16402,1,2,0:0:0:0:
448,192,16402,1,0,0:0:0:0:
64,192,16566,128,8,16894:0:0:0:0:
192,192,16566,1,4,0:0:0:0:
320,192,16566,1,0,0:0:0:0:
320,192,16894,1,2,0:0:0:0:
448,192,16894,1,0,0:0:0:0:
64,192,17058,1,8,0:0:0:0:
192,192,17058,1,0,0:0:0:0:
448,192,17058,128,0,17386:0:0:0:0:
64,192,17386,128,2,17714:0:0:0:0:
320,192,17386,1,0,0:0:0:0:
192,192,17550,1,8,0:0:0:0:
448,192,17550,1,0,0:0:0:0:
192,192,17714,1,2,0:0:0:0:
320,192,17714,1,0,0:0:0:0:
448,192,17714,128,0,18533:0:0:0:0:
64,192,18042,1,2,0:0:0:0:
192,192,18042,1,0,0:0:0:0:
64,192,18206,1,8,0:0:0:0:
320,192,18206,1,0,0:0:0:0:
192,192,18288,1,8,0:0:0:0:
64,192,18369,1,0,0:0:0:60:Tom Sound 1.wav
320,192,18451,1,0,0:0:0:50:Tom Sound 2.wav
64,192,18533,1,2,0:0:0:0:
192,192,18533,1,0,0:0:0:40:Tom Sound 3.wav
192,192,18697,128,8,19189:0:0:0:0:
320,192,18697,128,2,19189:0:0:0:0:
448,192,18697,1,0,0:0:0:0:
64,192,19189,1,2,0:0:0:0:
448,192,19189,1,4,0:0:0:0:
448,192,19353,1,0,0:0:0:0:
64,192,19517,1,8,0:0:0:0:
192,192,19517,1,0,0:0:0:0:
320,192,19517,1,0,0:0:0:0:
320,192,19681,1,0,0:0:0:0:
64,192,19845,1,2,0:0:0:0:
192,192,19845,1,0,0:0:0:0:
192,192,20009,1,2,0:0:0:0:
448,192,20009,1,0,0:0:0:0:
64,192,20173,1,8,0:0:0:0:
320,192,20173,1,0,0:0:0:0:
448,192,20173,1,0,0:0:0:0:
192,192,20337,1,0,0:0:0:0:
192,192,20501,128,2,20828:0:0:0:0:
448,192,20501,1,0,0:0:0:0:
320,192,20665,1,0,0:0:0:0:
64,192,20828,1,8,0:0:0:0:
320,192,20828,1,0,0:0:0:0:
448,192,20828,1,0,0:0:0:0:
192,192,20992,1,2,0:0:0:0:
448,192,20992,128,0,21320:0:0:0:0:
320,192,21156,1,0,0:0:0:0:
64,192,21320,1,2,0:0:0:0:
320,192,21320,1,0,0:0:0:0:
64,192,21484,1,8,0:0:0:0:
192,192,21484,1,0,0:0:0:0:
448,192,21484,1,0,0:0:0:0:
320,192,21648,1,0,0:0:0:0:
192,192,21812,1,2,0:0:0:0:
448,192,21812,1,0,0:0:0:0:
64,192,21976,1,0,0:0:0:0:
64,192,22140,1,8,0:0:0:0:
320,192,22140,1,0,0:0:0:0:
448,192,22140,1,0,0:0:0:0:
320,192,22304,1,0,0:0:0:0:
64,192,22468,1,2,0:0:0:0:
192,192,22468,1,0,0:0:0:0:
64,192,22632,1,2,0:0:0:0:
448,192,22632,1,0,0:0:0:0:
192,192,22796,1,8,0:0:0:0:
320,192,22796,1,0,0:0:0:0:
448,192,22796,1,0,0:0:0:0:
192,192,22960,1,0,0:0:0:0:
320,192,23124,128,2,23451:0:0:0:0:
448,192,23124,1,0,0:0:0:0:
64,192,23288,1,0,0:0:0:0:
64,192,23451,1,8,0:0:0:0:
192,192,23451,128,0,23779:0:0:0:0:
448,192,23451,1,0,0:0:0:0:
320,192,23615,1,0,0:0:0:0:
64,192,23779,1,2,0:0:0:0:
448,192,23779,128,0,24107:0:0:0:0:
192,192,23943,1,2,0:0:0:0:
320,192,23943,1,0,0:0:0:0:
64,192,24107,128,8,24435:0:0:0:0:
192,192,24107,1,0,0:0:0:0:
320,192,24107,1,0,0:0:0:0:
192,192,24435,1,2,0:0:0:0:
320,192,24435,1,0,0:0:0:0:
448,192,24435,128,0,24599:0:0:0:0:
320,192,24599,128,0,24763:0:0:0:0:
64,192,24763,1,8,0:0:0:0:
192,192,24763,128,0,24927:0:0:0:0:
448,192,24763,1,0,0:0:0:0:
64,192,24927,128,0,25091:0:0:0:0:
320,192,25091,1,2,0:0:0:0:
448,192,25091,1,0,0:0:0:0:
64,192,25255,1,2,0:0:0:0:
320,192,25255,1,0,0:0:0:0:
64,192,25419,1,8,0:0:0:0:
192,192,25419,1,0,0:0:0:0:
448,192,25419,1,0,0:0:0:0:
320,192,25583,1,0,0:0:0:0:
64,192,25747,1,2,0:0:0:0:
192,192,25747,1,0,0:0:0:0:
448,192,25747,128,0,25910:0:0:0:0:
64,192,25910,128,0,26074:0:0:0:0:
192,192,26074,128,8,26238:0:0:0:0:
320,192,26074,1,0,0:0:0:0:
448,192,26074,1,0,0:0:0:0:
64,192,26238,1,2,0:0:0:0:
320,192,26238,128,0,26402:0:0:0:0:
448,192,26402,1,0,0:0:0:0:
64,192,26566,1,2,0:0:0:0:
192,192,26566,1,0,0:0:0:0:
64,192,26730,1,8,0:0:0:0:
320,192,26730,1,0,0:0:0:0:
448,192,26730,1,0,0:0:0:0:
64,192,26894,1,8,0:0:0:0:
448,192,26894,1,0,0:0:0:0:
192,192,26976,1,8,0:0:0:0:
320,192,26976,1,0,0:0:0:0:
64,192,27058,1,2,0:0:0:0:
448,192,27058,1,0,0:0:0:0:
320,192,27222,1,2,0:0:0:0:
448,192,27222,1,0,0:0:0:60:Tom Sound 1.wav
64,192,27386,128,4,27550:0:0:0:0:
192,192,27386,128,8,27550:0:0:0:0:
448,192,27386,1,0,0:0:0:0:
192,192,27714,1,2,0:0:0:0:
320,192,27714,1,0,0:0:0:0:
192,192,27878,1,2,0:0:0:0:
320,192,27878,1,0,0:0:0:50:Tom Sound 2.wav
64,192,28042,1,4,0:0:0:0:
320,192,28042,128,8,28206:0:0:0:0:
448,192,28042,128,0,28206:0:0:0:0:
64,192,28369,128,2,28451:0:0:0:0:
192,192,28369,128,0,28451:0:0:0:40:Tom Sound 3.wav
448,192,28369,1,0,0:0:0:0:
64,192,28533,128,2,28697:0:0:0:0:
192,192,28533,128,0,28697:0:0:0:40:Tom Sound 3.wav
448,192,28533,1,0,0:0:0:0:
64,192,28861,1,8,0:0:0:0:
320,192,28861,128,2,29025:0:0:0:0:
448,192,28861,128,0,29025:0:0:0:0:
64,192,29189,1,8,0:0:0:0:
320,192,29189,128,2,29353:0:0:0:0:
448,192,29189,128,0,29681:0:0:0:0:
192,192,29353,1,0,0:0:0:60:Tom Sound 1.wav
320,192,29435,1,0,0:0:0:50:Tom Sound 2.wav
64,192,29517,1,0,0:0:0:50:Tom Sound 2.wav
192,192,29599,1,0,0:0:0:40:Tom Sound 3.wav
64,192,29681,1,6,0:0:0:0:
320,192,29681,1,0,0:0:0:40:Tom Sound 3.wav
192,192,29845,1,0,0:0:0:0:
64,192,30009,1,8,0:0:0:0:
320,192,30009,1,0,0:0:0:0:
448,192,30009,1,0,0:0:0:0:
192,192,30173,1,0,0:0:0:0:
192,192,30337,1,2,0:0:0:0:
320,192,30337,1,0,0:0:0:0:
448,192,30501,1,0,0:0:0:0:
64,192,30665,1,8,0:0:0:0:
192,192,30665,1,0,0:0:0:0:
448,192,30665,1,0,0:0:0:0:
192,192,30828,1,0,0:0:0:0:
320,192,30992,1,2,0:0:0:0:
448,192,30992,128,0,31320:0:0:0:0:
64,192,31156,1,0,0:0:0:0:
64,192,31320,1,8,0:0:0:0:
192,192,31320,1,0,0:0:0:0:
320,192,31320,1,0,0:0:0:0:
192,192,31484,128,0,31812:0:0:0:0:
320,192,31648,1,2,0:0:0:0:
448,192,31648,1,0,0:0:0:0:
64,192,31812,1,8,0:0:0:0:
320,192,31812,128,0,31976:0:0:0:0:
448,192,31812,128,0,31976:0:0:0:0:
64,192,32140,1,8,0:0:0:0:
320,192,32140,128,0,32304:0:0:0:0:
448,192,32140,128,0,32304:0:0:0:0:
64,192,32304,1,2,0:0:0:0:
192,192,32304,1,0,0:0:0:0:
320,192,32468,1,0,0:0:0:0:
64,192,32632,1,8,0:0:0:0:
192,192,32632,1,0,0:0:0:0:
448,192,32632,1,0,0:0:0:0:
320,192,32796,1,0,0:0:0:0:
192,192,32960,1,2,0:0:0:0:
320,192,32960,1,0,0:0:0:0:
64,192,33124,1,0,0:0:0:0:
64,192,33288,1,8,0:0:0:0:
320,192,33288,1,0,0:0:0:0:
448,192,33288,1,0,0:0:0:0:
192,192,33451,1,0,0:0:0:0:
320,192,33615,1,2,0:0:0:0:
448,192,33615,128,0,33943:0:0:0:0:
64,192,33779,1,0,0:0:0:0:
64,192,33943,128,8,34271:0:0:0:0:
192,192,33943,1,0,0:0:0:0:
320,192,33943,1,0,0:0:0:0:
320,192,34107,1,0,0:0:0:0:
192,192,34271,1,2,0:0:0:0:
448,192,34271,1,0,0:0:0:0:
64,192,34435,1,8,0:0:0:0:
320,192,34435,1,0,0:0:0:0:
448,192,34435,1,0,0:0:0:0:
64,192,34599,1,8,0:0:0:0:
192,192,34599,1,0,0:0:0:0:
320,192,34681,1,8,0:0:0:0:
448,192,34681,1,0,0:0:0:0:
64,192,34763,1,8,0:0:0:0:
192,192,34763,1,0,0:0:0:0:
320,192,34845,1,8,0:0:0:0:
64,192,34927,1,2,0:0:0:0:
192,192,34927,1,4,0:0:0:0:
448,192,34927,1,0,0:0:0:0:
320,192,35091,128,0,35255:0:0:0:0:
64,192,35255,1,8,0:0:0:0:
192,192,35255,1,0,0:0:0:0:
448,192,35255,128,0,35419:0:0:0:0:
64,192,35419,128,0,35583:0:0:0:0:
192,192,35583,128,2,35747:0:0:0:0:
320,192,35583,1,0,0:0:0:0:
448,192,35747,128,0,35910:0:0:0:0:
64,192,35910,128,8,36074:0:0:0:0:
192,192,35910,1,0,0:0:0:0:
320,192,35910,1,0,0:0:0:0:
320,192,36074,128,0,36238:0:0:0:0:
192,192,36238,1,2,0:0:0:0:
448,192,36238,128,0,36402:0:0:0:0:
192,192,36402,128,0,36566:0:0:0:0:
64,192,36566,1,8,0:0:0:0:
320,192,36566,128,0,36730:0:0:0:0:
448,192,36566,1,0,0:0:0:0:
64,192,36730,128,0,36894:0:0:0:0:
192,192,36894,1,2,0:0:0:0:
320,192,36894,1,0,0:0:0:0:
448,192,36894,1,0,0:0:0:0:
64,192,37058,1,0,0:0:0:0:
448,192,37058,1,0,0:0:0:0:
320,192,37058,1,0,0:0:0:0:
64,192,37222,1,8,0:0:0:0:
192,192,37222,1,0,0:0:0:0:
448,192,37222,1,0,0:0:0:0:
320,192,37386,128,0,37550:0:0:0:0:
64,192,37550,128,2,37878:0:0:0:0:
192,192,37550,1,0,0:0:0:0:
448,192,37550,1,0,0:0:0:0:
448,192,37878,128,0,38206:0:0:0:0:
64,192,38042,1,2,0:0:0:0:
192,192,38042,1,0,0:0:0:0:
64,192,38206,1,8,0:0:0:0:
192,192,38206,128,0,38533:0:0:0:0:
320,192,38206,1,0,0:0:0:0:
320,192,38533,128,0,38697:0:0:0:0:
64,192,38697,1,8,0:0:0:0:
192,192,38697,1,0,0:0:0:0:
448,192,38697,1,0,0:0:0:0:
64,192,38861,128,2,39025:0:0:0:0:
320,192,38861,1,0,0:0:0:0:
192,192,39025,1,8,0:0:0:0:
320,192,39025,1,0,0:0:0:0:
448,192,39025,1,0,0:0:0:0:
64,192,39189,1,2,0:0:0:0:
192,192,39189,128,0,39353:0:0:0:0:
64,192,39517,1,2,0:0:0:0:
320,192,39517,1,0,0:0:0:0:
448,192,39517,128,0,39681:0:0:0:0:
64,192,39681,1,2,0:0:0:0:
192,192,39681,1,0,0:0:0:0:
320,192,39763,1,8,0:0:0:0:
448,192,39763,1,0,0:0:0:0:
64,192,39845,1,8,0:0:0:0:
192,192,39845,1,0,0:0:0:0:
192,192,40009,1,8,0:0:0:0:
320,192,40009,1,0,0:0:0:0:
64,192,40501,128,2,40828:0:0:0:0:
320,192,40501,1,4,0:0:0:0:
448,192,40501,1,0,0:0:0:70:shine.wav
192,192,40828,1,2,0:0:0:0:
320,192,40828,1,0,0:0:0:0:
192,192,40992,1,2,0:0:0:0:
320,192,40992,1,0,0:0:0:0:
64,192,41156,1,8,0:0:0:0:
192,192,41156,1,0,0:0:0:0:
448,192,41156,1,0,0:0:0:0:
64,192,41320,1,2,0:0:0:0:
320,192,41320,128,0,41812:0:0:0:0:
448,192,41320,1,0,0:0:0:0:
64,192,41648,1,2,0:0:0:0:
192,192,41648,1,0,0:0:0:0:
64,192,41812,1,8,0:0:0:0:
448,192,41812,1,0,0:0:0:0:
192,192,41894,1,0,0:0:0:0:
320,192,41976,1,8,0:0:0:0:
448,192,41976,1,0,0:0:0:0:
64,192,42058,1,8,0:0:0:0:
192,192,42058,1,0,0:0:0:0:
320,192,42140,1,2,0:0:0:0:
448,192,42140,1,0,0:0:0:50:Tom Sound 1.wav
64,192,42222,1,0,0:0:0:40:Tom Sound 3.wav
192,192,42304,1,0,0:0:0:40:Tom Sound 2.wav
320,192,42304,1,0,0:0:0:0:
448,192,42386,1,0,0:0:0:40:Tom Sound 2.wav
64,192,42468,1,0,0:0:0:40:Tom Sound 2.wav
192,192,42468,1,0,0:0:0:0:
320,192,42550,1,0,0:0:0:40:Tom Sound 2.wav
64,192,42632,1,0,0:0:0:40:Tom Sound 3.wav
448,192,42632,1,0,0:0:0:0:
192,192,42714,1,0,0:0:0:40:Tom Sound 2.wav
64,192,42796,128,4,43124:0:0:0:0:
320,192,42796,1,2,0:0:0:0:
448,192,42796,1,0,0:0:0:40:Tom Sound 3.wav
192,192,43124,1,8,0:0:0:0:
320,192,43124,1,0,0:0:0:0:
448,192,43124,128,0,43451:0:0:0:0:
64,192,43451,1,2,0:0:0:0:
192,192,43451,128,0,43779:0:0:0:0:
320,192,43615,1,2,0:0:0:0:
448,192,43615,1,0,0:0:0:0:
64,192,43779,1,8,0:0:0:0:
320,192,43779,128,0,44107:0:0:0:0:
448,192,43779,1,0,0:0:0:0:
192,192,44107,1,2,0:0:0:0:
448,192,44107,128,0,44435:0:0:0:0:
64,192,44271,1,2,0:0:0:0:
320,192,44271,1,0,0:0:0:0:
64,192,44435,1,8,0:0:0:0:
192,192,44435,1,0,0:0:0:0:
320,192,44435,1,0,0:0:0:0:
192,192,44599,1,2,0:0:0:0:
448,192,44599,128,0,44763:0:0:0:0:
64,192,44763,128,0,45091:0:0:0:0:
192,192,44927,128,2,45091:0:0:0:0:
320,192,44927,1,0,0:0:0:0:
320,192,45091,1,8,0:0:0:0:
448,192,45091,128,0,45419:0:0:0:0:
64,192,45255,1,2,0:0:0:0:
192,192,45255,1,0,0:0:0:0:
64,192,45419,1,8,0:0:0:0:
192,192,45419,1,4,0:0:0:0:
320,192,45419,1,0,0:0:0:0:
320,192,45583,128,0,45747:0:0:0:0:
64,192,45747,1,8,0:0:0:0:
192,192,45747,128,0,45910:0:0:0:0:
448,192,45747,1,0,0:0:0:0:
320,192,45910,1,2,0:0:0:0:
448,192,45910,128,0,46238:0:0:0:0:
64,192,46074,1,8,0:0:0:0:
192,192,46074,1,0,0:0:0:0:
320,192,46074,1,0,0:0:0:0:
64,192,46238,128,2,46402:0:0:0:0:
192,192,46238,1,0,0:0:0:0:
192,192,46402,1,8,0:0:0:0:
320,192,46402,128,0,46566:0:0:0:0:
448,192,46402,1,0,0:0:0:0:
64,192,46566,128,2,46894:0:0:0:0:
448,192,46566,1,0,0:0:0:0:
192,192,46730,1,8,0:0:0:0:
320,192,46730,1,4,0:0:0:0:
448,192,46730,1,0,0:0:0:0:
320,192,46894,128,0,47058:0:0:0:0:
64,192,47058,1,8,0:0:0:0:
192,192,47058,1,0,0:0:0:0:
448,192,47058,128,0,47222:0:0:0:0:
192,192,47222,128,2,47550:0:0:0:0:
320,192,47222,1,0,0:0:0:0:
64,192,47386,1,8,0:0:0:0:
320,192,47386,1,0,0:0:0:0:
448,192,47386,1,0,0:0:0:0:
64,192,47550,1,2,0:0:0:0:
448,192,47550,1,0,0:0:0:0:
64,192,47714,128,8,47878:0:0:0:0:
320,192,47714,1,0,0:0:0:0:
448,192,47714,128,0,47878:0:0:0:0:
64,192,48042,128,8,48369:0:0:0:0:
192,192,48042,1,4,0:0:0:0:
448,192,48042,1,0,0:0:0:0:
320,192,48206,1,2,0:0:0:0:
448,192,48206,1,0,0:0:0:0:
320,192,48369,1,2,0:0:0:0:
448,192,48369,1,0,0:0:0:0:
64,192,48533,1,8,0:0:0:0:
192,192,48533,1,0,0:0:0:0:
320,192,48533,1,0,0:0:0:0:
192,192,48697,1,2,0:0:0:0:
448,192,48697,1,0,0:0:0:0:
192,192,48861,1,2,0:0:0:0:
448,192,48861,1,0,0:0:0:0:
64,192,49025,1,8,0:0:0:0:
320,192,49025,1,4,0:0:0:0:
448,192,49025,1,0,0:0:0:0:
192,192,49189,1,2,0:0:0:0:
320,192,49189,1,0,0:0:0:0:
64,192,49353,1,8,0:0:0:0:
320,192,49353,1,0,0:0:0:0:
448,192,49353,128,0,49681:0:0:0:0:
64,192,49517,1,2,0:0:0:0:
192,192,49517,1,0,0:0:0:0:
64,192,49681,1,2,0:0:0:0:
192,192,49681,1,0,0:0:0:0:
192,192,49845,1,8,0:0:0:0:
320,192,49845,1,4,0:0:0:0:
448,192,49845,1,0,0:0:0:0:
64,192,50009,1,2,0:0:0:0:
320,192,50009,1,0,0:0:0:0:
64,192,50173,1,2,0:0:0:0:
320,192,50173,1,0,0:0:0:0:
64,192,50337,1,8,0:0:0:0:
192,192,50337,1,0,0:0:0:0:
320,192,50419,1,8,0:0:0:0:
448,192,50419,1,0,0:0:0:0:
64,192,50501,1,8,0:0:0:0:
192,192,50501,1,0,0:0:0:0:
448,192,50583,1,8,0:0:0:0:
64,192,50665,128,2,50747:0:0:0:0:
192,192,50665,128,8,50747:0:0:0:0:
320,192,50665,128,0,50747:0:0:0:0:
64,192,50828,128,2,50910:0:0:0:0:
192,192,50828,128,8,50910:0:0:0:0:
320,192,50828,128,0,50910:0:0:0:0:
448,192,50992,128,0,51074:0:0:0:0:
192,192,51320,128,2,51402:0:0:0:0:
320,192,51320,128,8,51402:0:0:0:0:
448,192,51320,128,0,51402:0:0:0:0:
192,192,51484,128,2,51566:0:0:0:0:
320,192,51484,128,8,51566:0:0:0:0:
448,192,51484,128,0,51566:0:0:0:0:
64,192,51648,1,0,0:0:0:0:
192,192,51703,1,0,0:0:0:0:
320,192,51757,1,0,0:0:0:0:
448,192,51812,1,0,0:0:0:0:
64,192,51867,1,0,0:0:0:0:
192,192,51921,1,0,0:0:0:0:
64,192,51976,1,2,0:0:0:0:
320,192,51976,1,4,0:0:0:0:
448,192,51976,128,0,52304:0:0:0:70:shine.wav
64,192,52304,1,8,0:0:0:0:
192,192,52304,128,0,52632:0:0:0:0:
320,192,52304,1,0,0:0:0:0:
64,192,52632,1,2,0:0:0:0:
448,192,52632,128,0,52960:0:0:0:0:
64,192,52796,128,2,53288:0:0:0:0:
320,192,52796,1,0,0:0:0:0:
192,192,52960,1,8,0:0:0:0:
320,192,52960,128,0,53124:0:0:0:0:
192,192,53124,128,0,53288:0:0:0:0:
320,192,53288,128,2,53615:0:0:0:0:
448,192,53288,1,0,0:0:0:0:
64,192,53451,1,0,0:0:0:0:
64,192,53615,1,8,0:0:0:0:
192,192,53615,1,0,0:0:0:0:
448,192,53615,1,0,0:0:0:0:
192,192,53779,128,2,54271:0:0:0:0:
448,192,53779,128,0,53943:0:0:0:0:
64,192,53943,1,0,0:0:0:0:
320,192,54107,1,2,0:0:0:0:
448,192,54107,128,0,54271:0:0:0:0:
64,192,54271,128,8,54435:0:0:0:0:
320,192,54271,1,0,0:0:0:0:
448,192,54435,128,0,54599:0:0:0:0:
192,192,54599,1,2,0:0:0:0:
320,192,54599,128,0,54927:0:0:0:0:
64,192,54927,128,8,55255:0:0:0:0:
192,192,54927,1,0,0:0:0:0:
448,192,54927,1,0,0:0:0:0:
320,192,55255,1,2,0:0:0:0:
448,192,55255,128,0,55419:0:0:0:0:
64,192,55419,1,2,0:0:0:0:
192,192,55419,128,0,55747:0:0:0:0:
64,192,55583,1,8,0:0:0:0:
320,192,55583,128,0,55910:0:0:0:0:
448,192,55583,1,0,0:0:0:0:
448,192,55747,128,0,55910:0:0:0:0:
64,192,55910,128,2,56074:0:0:0:0:
192,192,55910,1,0,0:0:0:0:
320,192,56074,128,2,56238:0:0:0:0:
448,192,56074,1,0,0:0:0:0:
64,192,56238,1,8,0:0:0:0:
192,192,56238,128,0,56402:0:0:0:0:
448,192,56238,1,0,0:0:0:0:
64,192,56402,128,2,56730:0:0:0:0:
320,192,56402,1,0,0:0:0:0:
192,192,56566,1,0,0:0:0:0:
320,192,56730,1,2,0:0:0:0:
448,192,56730,1,0,0:0:0:0:
64,192,56894,128,8,57222:0:0:0:0:
320,192,56894,1,0,0:0:0:0:
448,192,56894,128,0,57222:0:0:0:0:
192,192,57222,1,2,0:0:0:0:
320,192,57222,1,4,0:0:0:0:
192,192,57386,1,0,0:0:0:0:
64,192,57550,1,2,0:0:0:0:
448,192,57550,1,0,0:0:0:40:Tom Sound 3.wav
320,192,57714,1,0,0:0:0:60:Tom Sound 1.wav
448,192,57714,1,0,0:0:0:0:
64,192,57796,1,0,0:0:0:50:Tom Sound 2.wav
192,192,57796,1,0,0:0:0:0:
320,192,57878,1,0,0:0:0:40:Tom Sound 3.wav
448,192,57878,1,0,0:0:0:0:
192,192,58042,128,0,58124:0:0:0:0:
64,192,58042,128,2,58124:0:0:0:0:
64,192,58206,128,8,58533:0:0:0:0:
192,192,58206,128,0,58533:0:0:0:0:
448,192,58206,1,0,0:0:0:0:
320,192,58533,1,2,0:0:0:0:
448,192,58533,1,4,0:0:0:0:
320,192,58697,1,0,0:0:0:0:
64,192,58861,1,8,0:0:0:0:
448,192,58861,1,0,0:0:0:40:Tom Sound 3.wav
64,192,59025,1,0,0:0:0:60:Tom Sound 1.wav
192,192,59025,1,0,0:0:0:0:
320,192,59107,1,0,0:0:0:50:Tom Sound 2.wav
448,192,59107,1,0,0:0:0:0:
64,192,59189,1,0,0:0:0:40:Tom Sound 3.wav
192,192,59189,1,0,0:0:0:0:
320,192,59353,128,2,59435:0:0:0:0:
448,192,59353,128,0,59435:0:0:0:0:
64,192,59517,1,8,0:0:0:0:
320,192,59517,128,0,59845:0:0:0:0:
448,192,59517,128,0,59845:0:0:0:0:
192,192,59681,128,0,59845:0:0:0:0:
64,192,59845,128,2,60173:0:0:0:0:
192,192,60009,128,2,60173:0:0:0:0:
448,192,60009,1,0,0:0:0:0:
320,192,60173,128,8,60337:0:0:0:0:
448,192,60173,128,0,60337:0:0:0:0:
64,192,60337,128,0,60501:0:0:0:0:
192,192,60501,128,2,60992:0:0:0:0:
320,192,60501,128,0,60665:0:0:0:0:
64,192,60665,1,2,0:0:0:0:
448,192,60665,1,0,0:0:0:0:
64,192,60828,1,8,0:0:0:0:
320,192,60828,1,0,0:0:0:0:
448,192,60828,128,0,60992:0:0:0:0:
64,192,61156,1,8,0:0:0:0:
320,192,61156,128,0,61320:0:0:0:0:
448,192,61156,128,0,61320:0:0:0:0:
192,192,61320,1,2,0:0:0:0:
64,192,61484,128,8,61648:0:0:0:0:
192,192,61484,128,0,61648:0:0:0:0:
320,192,61484,1,0,0:0:0:0:
448,192,61648,1,2,0:0:0:0:
192,192,61812,1,8,0:0:0:0:
320,192,61812,128,0,61976:0:0:0:0:
448,192,61812,128,0,61976:0:0:0:0:
64,192,61976,1,2,0:0:0:0:
64,192,62140,128,8,62304:0:0:0:0:
192,192,62140,128,0,62304:0:0:0:0:
320,192,62140,1,0,0:0:0:0:
64,192,62468,1,2,0:0:0:0:
320,192,62468,1,4,0:0:0:0:
448,192,62468,128,0,62796:0:0:0:70:shine.wav
64,192,62796,1,8,0:0:0:0:
192,192,62796,128,0,63124:0:0:0:0:
320,192,62796,1,0,0:0:0:0:
64,192,63124,1,2,0:0:0:0:
448,192,63124,128,0,63451:0:0:0:0:
64,192,63288,128,2,63779:0:0:0:0:
320,192,63288,1,0,0:0:0:0:
192,192,63451,1,8,0:0:0:0:
320,192,63451,128,0,63615:0:0:0:0:
192,192,63615,128,0,63779:0:0:0:0:
320,192,63779,128,2,64107:0:0:0:0:
448,192,63779,1,0,0:0:0:0:
64,192,63943,1,2,0:0:0:0:
64,192,64107,1,8,0:0:0:0:
192,192,64107,1,0,0:0:0:0:
448,192,64107,1,0,0:0:0:0:
192,192,64271,128,2,64763:0:0:0:0:
448,192,64271,128,0,64435:0:0:0:0:
64,192,64435,1,0,0:0:0:0:
320,192,64599,1,2,0:0:0:0:
448,192,64599,128,0,64763:0:0:0:0:
64,192,64763,128,8,64927:0:0:0:0:
320,192,64763,1,0,0:0:0:0:
448,192,64927,128,0,65091:0:0:0:0:
192,192,65091,1,2,0:0:0:0:
320,192,65091,128,0,65419:0:0:0:0:
64,192,65419,128,8,65747:0:0:0:0:
192,192,65419,1,0,0:0:0:0:
448,192,65419,1,0,0:0:0:0:
320,192,65747,1,2,0:0:0:0:
448,192,65747,128,0,65910:0:0:0:0:
64,192,65910,1,2,0:0:0:0:
192,192,65910,128,0,66238:0:0:0:0:
64,192,66074,1,8,0:0:0:0:
320,192,66074,128,0,66402:0:0:0:0:
448,192,66074,1,0,0:0:0:0:
448,192,66238,128,0,66402:0:0:0:0:
64,192,66402,1,2,0:0:0:0:
192,192,66402,128,4,66566:0:0:0:0:
320,192,66566,128,0,66730:0:0:0:0:
64,192,66730,1,8,0:0:0:0:
192,192,66730,1,0,0:0:0:0:
448,192,66730,128,0,66894:0:0:0:0:
64,192,66894,128,2,67222:0:0:0:0:
320,192,66894,1,0,0:0:0:0:
320,192,67222,128,2,67386:0:0:0:0:
448,192,67222,1,0,0:0:0:0:
64,192,67386,1,8,0:0:0:0:
192,192,67386,1,0,0:0:0:0:
448,192,67386,128,0,67550:0:0:0:0:
64,192,67550,1,8,0:0:0:0:
192,192,67550,1,0,0:0:0:0:
320,192,67632,1,8,0:0:0:0:
64,192,67714,1,2,0:0:0:0:
192,192,67714,1,4,0:0:0:0:
448,192,67714,1,0,0:0:0:0:
448,192,67878,1,0,0:0:0:0:
64,192,68042,1,8,0:0:0:0:
192,192,68042,1,0,0:0:0:0:
320,192,68042,1,0,0:0:0:0:
448,192,68206,1,2,0:0:0:0:
320,192,68206,1,0,0:0:0:0:
192,192,68369,1,8,0:0:0:0:
64,192,68369,1,0,0:0:0:0:
448,192,68369,1,0,0:0:0:0:
64,192,68533,1,2,0:0:0:0:
320,192,68533,1,0,0:0:0:0:
320,192,68697,1,8,0:0:0:0:
192,192,68697,1,0,0:0:0:0:
448,192,68697,1,0,0:0:0:0:
192,192,68861,1,2,0:0:0:0:
64,192,68861,1,0,0:0:0:0:
448,192,69025,1,0,0:0:0:0:
64,192,69025,1,8,0:0:0:0:
192,192,69107,1,0,0:0:0:0:
320,192,69107,1,8,0:0:0:0:
448,192,69189,1,2,0:0:0:0:
64,192,69189,1,0,0:0:0:0:
320,192,69353,1,8,0:0:0:0:
448,192,69353,1,0,0:0:0:0:
192,192,69353,1,0,0:0:0:0:
64,192,69517,128,2,69845:0:0:0:0:
192,192,69517,1,4,0:0:0:0:
448,192,69517,1,0,0:0:0:0:
320,192,69845,1,2,0:0:0:0:
448,192,69845,1,0,0:0:0:0:
64,192,70009,1,8,0:0:0:0:
192,192,70009,1,0,0:0:0:0:
448,192,70009,1,0,0:0:0:0:
320,192,70173,128,0,70337:0:0:0:0:
64,192,70337,1,8,0:0:0:0:
192,192,70337,128,2,70501:0:0:0:0:
448,192,70337,1,0,0:0:0:0:
64,192,70501,1,8,0:0:0:0:
320,192,70501,1,2,0:0:0:0:
448,192,70501,128,0,70665:0:0:0:0:
64,192,70665,128,4,70747:0:0:0:0:
192,192,70665,128,0,70747:0:0:0:0:
320,192,70665,128,0,70747:0:0:0:0:
448,192,70828,128,0,70992:0:0:0:0:
64,192,70992,1,8,0:0:0:0:
192,192,70992,1,2,0:0:0:0:
320,192,70992,128,0,71156:0:0:0:0:
64,192,71156,128,8,71320:0:0:0:0:
192,192,71156,1,2,0:0:0:0:
448,192,71156,1,0,0:0:0:0:
192,192,71320,128,0,71402:0:0:0:0:
320,192,71320,128,0,71402:0:0:0:0:
448,192,71320,128,0,71402:0:0:0:0:
64,192,71484,128,2,72468:0:0:0:0:
320,192,71484,1,4,0:0:0:0:
448,192,71484,128,0,71812:0:0:0:0:
192,192,71812,128,0,71976:0:0:0:0:
320,192,71976,128,0,72140:0:0:0:0:
448,192,72140,128,0,72304:0:0:0:0:
192,192,72304,128,0,72468:0:0:0:0:
320,192,72468,1,2,0:0:0:0:
448,192,72468,1,0,0:0:0:0:
192,192,72550,1,2,0:0:0:0:
64,192,72632,1,8,0:0:0:0:
320,192,72632,128,0,72796:0:0:0:0:
448,192,72632,1,0,0:0:0:0:
192,192,72796,128,0,72960:0:0:0:0:
64,192,72960,1,2,0:0:0:0:
448,192,72960,1,0,0:0:0:60:Tom Sound 1.wav
192,192,73124,1,0,0:0:0:50:Tom Sound 2.wav
320,192,73124,1,0,0:0:0:0:
448,192,73206,1,0,0:0:0:50:Tom Sound 2.wav
64,192,73288,1,0,0:0:0:60:Tom Sound 1.wav
192,192,73288,1,0,0:0:0:0:
320,192,73369,1,0,0:0:0:50:Tom Sound 2.wav
64,192,73451,1,0,0:0:0:50:Tom Sound 2.wav
448,192,73451,1,0,0:0:0:0:
192,192,73533,1,0,0:0:0:40:Tom Sound 3.wav
320,192,73615,1,8,0:0:0:0:
448,192,73615,1,0,0:0:0:40:Tom Sound 3.wav
64,192,73697,1,8,0:0:0:0:
192,192,73697,1,0,0:0:0:0:
320,192,73779,1,2,0:0:0:0:
448,192,73779,1,0,0:0:0:0:
64,192,73861,1,2,0:0:0:0:
192,192,73861,1,0,0:0:0:0:
448,192,73943,1,4,0:0:0:0:
320,192,73998,1,0,0:0:0:0:
192,192,74053,1,0,0:0:0:0:
64,192,74107,1,0,0:0:0:0:
448,192,74162,1,0,0:0:0:0:
320,192,74216,1,0,0:0:0:0:
64,192,74271,128,6,74435:0:0:0:0:
192,192,74271,1,0,0:0:0:70:shine.wav
320,192,74435,128,0,74599:0:0:0:0:
64,192,74599,1,8,0:0:0:0:
192,192,74599,128,0,74763:0:0:0:0:
448,192,74599,1,0,0:0:0:0:
448,192,74763,128,0,75091:0:0:0:0:
64,192,74927,1,2,0:0:0:0:
192,192,74927,1,0,0:0:0:0:
64,192,75091,128,2,75419:0:0:0:0:
320,192,75091,1,0,0:0:0:0:
192,192,75255,1,8,0:0:0:0:
320,192,75255,1,0,0:0:0:0:
448,192,75255,1,0,0:0:0:0:
192,192,75419,1,2,0:0:0:0:
320,192,75419,128,0,75747:0:0:0:0:
64,192,75747,1,2,0:0:0:0:
448,192,75747,128,0,76074:0:0:0:0:
64,192,75910,1,8,0:0:0:0:
192,192,75910,1,0,0:0:0:0:
320,192,75910,1,0,0:0:0:0:
192,192,76074,128,0,76402:0:0:0:0:
320,192,76238,1,2,0:0:0:0:
448,192,76238,1,0,0:0:0:0:
64,192,76402,128,0,76812:0:0:0:0:
320,192,76402,128,0,76484:0:0:0:0:
448,192,76402,128,0,76484:0:0:0:0:
192,192,76566,1,8,0:0:0:0:
320,192,76566,128,0,76812:0:0:0:0:
448,192,76566,128,0,76812:0:0:0:0:
64,192,76894,1,2,0:0:0:0:
448,192,76894,128,0,77058:0:0:0:0:
192,192,77058,128,0,77222:0:0:0:0:
64,192,77222,1,8,0:0:0:0:
320,192,77222,128,0,77386:0:0:0:0:
448,192,77222,1,0,0:0:0:0:
64,192,77386,128,0,77714:0:0:0:0:
320,192,77550,1,2,0:0:0:0:
448,192,77550,1,0,0:0:0:0:
192,192,77714,1,2,0:0:0:0:
448,192,77714,128,0,77878:0:0:0:0:
64,192,77878,1,8,0:0:0:0:
320,192,77878,128,0,78042:0:0:0:0:
64,192,78042,1,2,0:0:0:0:
192,192,78042,128,0,78369:0:0:0:0:
448,192,78042,1,0,0:0:0:0:
64,192,78369,128,2,78451:0:0:0:0:
448,192,78369,1,0,0:0:0:0:
64,192,78533,128,8,78697:0:0:0:0:
192,192,78533,1,0,0:0:0:0:
448,192,78533,1,0,0:0:0:0:
320,192,78697,128,0,78779:0:0:0:0:
192,192,78861,1,2,0:0:0:0:
320,192,78861,128,0,79107:0:0:0:0:
64,192,79025,128,2,79107:0:0:0:0:
448,192,79025,128,0,79107:0:0:0:0:
192,192,79025,1,0,0:0:0:0:
64,192,79189,128,8,79435:0:0:0:0:
320,192,79189,128,0,79435:0:0:0:0:
448,192,79189,128,0,79435:0:0:0:0:
64,192,79517,128,8,79845:0:0:0:0:
192,192,79517,1,4,0:0:0:0:
320,192,79517,1,0,0:0:0:0:
192,192,79845,1,8,0:0:0:0:
320,192,79845,1,0,0:0:0:0:
448,192,79845,128,0,80009:0:0:0:0:
64,192,80009,1,2,0:0:0:0:
320,192,80009,128,0,80173:0:0:0:0:
64,192,80173,1,8,0:0:0:0:
192,192,80173,128,0,80337:0:0:0:0:
448,192,80173,1,0,0:0:0:0:
64,192,80337,128,2,80501:0:0:0:0:
448,192,80337,1,0,0:0:0:0:
192,192,80501,1,8,0:0:0:0:
320,192,80501,1,0,0:0:0:0:
448,192,80501,1,0,0:0:0:0:
192,192,80665,128,2,80992:0:0:0:0:
320,192,80665,128,0,80992:0:0:0:0:
64,192,80992,1,2,0:0:0:0:
448,192,80992,1,0,0:0:0:0:
64,192,81156,1,8,0:0:0:0:
192,192,81156,1,0,0:0:0:0:
320,192,81156,1,0,0:0:0:0:
320,192,81320,1,2,0:0:0:0:
448,192,81320,1,0,0:0:0:0:
64,192,81484,1,8,0:0:0:0:
192,192,81484,1,0,0:0:0:0:
448,192,81484,128,0,81648:0:0:0:0:
64,192,81648,128,2,81812:0:0:0:0:
320,192,81648,1,0,0:0:0:0:
192,192,81812,1,8,0:0:0:0:
320,192,81812,128,0,81976:0:0:0:0:
448,192,81812,1,0,0:0:0:0:
64,192,81976,1,2,0:0:0:0:
192,192,81976,128,0,82468:0:0:0:0:
64,192,82140,128,8,82468:0:0:0:0:
320,192,82140,1,4,0:0:0:0:
448,192,82140,1,0,0:0:0:0:
320,192,82468,1,2,0:0:0:0:
448,192,82468,1,0,0:0:0:0:
64,192,82632,128,8,82960:0:0:0:0:
320,192,82632,1,0,0:0:0:0:
448,192,82632,128,0,82960:0:0:0:0:
192,192,82960,1,2,0:0:0:0:
320,192,82960,1,0,0:0:0:0:
64,192,83124,1,8,0:0:0:0:
192,192,83124,1,0,0:0:0:0:
448,192,83124,1,0,0:0:0:0:
64,192,83288,1,2,0:0:0:0:
320,192,83288,128,4,83615:0:0:0:0:
448,192,83288,128,0,83615:0:0:0:0:
64,192,83615,1,2,0:0:0:0:
192,192,83615,1,0,0:0:0:0:
64,192,83779,1,8,0:0:0:0:
448,192,83779,1,0,0:0:0:0:
192,192,83861,1,8,0:0:0:0:
320,192,83861,1,0,0:0:0:0:
448,192,83943,1,0,0:0:0:60:Tom Sound 1.wav
192,192,84025,1,0,0:0:0:50:Tom Sound 2.wav
64,192,84107,1,2,0:0:0:0:
320,192,84107,1,0,0:0:0:40:Tom Sound 3.wav
64,192,84271,128,2,84763:0:0:0:0:
192,192,84271,128,0,84763:0:0:0:0:
320,192,84271,1,0,0:0:0:0:
448,192,84271,1,0,0:0:0:0:
320,192,84763,1,4,0:0:0:0:
448,192,84763,1,8,0:0:0:0:
64,192,84927,1,2,0:0:0:0:
320,192,84927,1,0,0:0:0:0:
64,192,85091,1,2,0:0:0:0:
320,192,85091,1,0,0:0:0:0:
64,192,85255,1,4,0:0:0:0:
192,192,85255,1,8,0:0:0:0:
448,192,85255,1,0,0:0:0:0:
192,192,85419,1,2,0:0:0:0:
320,192,85419,1,0,0:0:0:0:
192,192,85583,1,2,0:0:0:0:
320,192,85583,1,0,0:0:0:0:
64,192,85747,1,4,0:0:0:0:
192,192,85747,1,8,0:0:0:0:
448,192,85747,1,0,0:0:0:0:
320,192,85910,1,2,0:0:0:0:
448,192,85910,1,0,0:0:0:0:
320,192,86074,1,2,0:0:0:0:
448,192,86074,1,0,0:0:0:0:
64,192,86238,1,4,0:0:0:0:
192,192,86238,1,8,0:0:0:0:
320,192,86238,1,0,0:0:0:0:
192,192,86402,1,2,0:0:0:0:
448,192,86402,1,0,0:0:0:0:
192,192,86566,1,2,0:0:0:0:
448,192,86566,1,0,0:0:0:0:
64,192,86730,1,4,0:0:0:0:
320,192,86730,1,8,0:0:0:0:
448,192,86730,1,0,0:0:0:0:
192,192,86812,1,8,0:0:0:0:
64,192,86894,1,8,0:0:0:0:
448,192,86894,1,0,0:0:0:0:
320,192,86976,1,8,0:0:0:0:
64,192,87058,1,8,0:0:0:0:
192,192,87058,1,0,0:0:0:0:
320,192,87140,1,8,0:0:0:0:
64,192,87222,128,4,87550:0:0:0:0:
192,192,87222,1,2,0:0:0:0:
448,192,87222,1,0,0:0:0:0:
320,192,87550,1,2,0:0:0:0:
448,192,87550,1,0,0:0:0:0:
64,192,87714,1,2,0:0:0:0:
320,192,87714,128,0,87878:0:0:0:0:
448,192,87714,128,0,87878:0:0:0:0:
64,192,88042,128,2,88206:0:0:0:0:
192,192,88042,128,0,88206:0:0:0:0:
448,192,88042,1,0,0:0:0:0:
320,192,88206,1,0,0:0:0:0:
192,192,88288,1,0,0:0:0:0:
64,192,88369,1,2,0:0:0:0:
448,192,88369,1,0,0:0:0:0:
64,192,88533,128,2,88697:0:0:0:0:
320,192,88533,128,0,88697:0:0:0:0:
448,192,88533,128,0,88697:0:0:0:0:
192,192,88861,128,0,89025:0:0:0:0:
320,192,89025,128,0,89189:0:0:0:0:
448,192,89189,128,0,89353:0:0:0:0:
64,192,89353,1,0,0:0:0:0:
64,192,89517,128,4,90009:0:0:0:0:
192,192,89517,128,2,90009:0:0:0:0:
320,192,89517,128,0,90009:0:0:0:0:
448,192,89517,128,0,90009:0:0:0:0:
