osu file format v14

[General]
AudioFilename: audio.mp3
AudioLeadIn: 0
PreviewTime: 66339
Countdown: 0
SampleSet: Soft
StackLeniency: 0.4
Mode: 0
LetterboxInBreaks: 0
EpilepsyWarning: 1
WidescreenStoryboard: 1

[Editor]
DistanceSpacing: 1.2
BeatDivisor: 6
GridSize: 4
TimelineZoom: 1

[Metadata]
Title:Karakuri Pierrot
TitleUnicode:からくりピエロ
Artist:Pastel*Palettes
ArtistUnicode:Pastel*Palettes
Creator:STCapricorn
Version:Normal
Source:バンドリ! ガールズバンドパーティ!
Tags:BanG Dream! Girls Band Party! bandori cover Short ver. ショートサイズver. game size 初音ミク Hatsune Miku VOCALOID collab 2 40mP 40meterP Maruyama Aya 丸山彩 Hikawa Hina 氷川日菜 Shirasagi Chisato 白鷺千聖 Wakamiya Eve 若宮イヴ Yamato Maya 大和麻弥 Maeshima Ami 前島亜美 Ozawa Ari 小澤亜李 Uesaka Sumire 上坂すみれ Nakagami Ikumi 中上育実 Hata Sawako 秦佐和子 Video Game Anime Japanese
BeatmapID:2155090
BeatmapSetID:1030551

[Difficulty]
HPDrainRate:5
CircleSize:3
OverallDifficulty:2
ApproachRate:4
SliderMultiplier:0.999999999999999
SliderTickRate:1

[Events]
//Background and Video events
Video,-38,"karakuri.mp4"
0,0,"karakuri.jpg",0,0
//Break Periods
//Storyboard Layer 0 (Background)
//Storyboard Layer 1 (Fail)
//Storyboard Layer 2 (Pass)
//Storyboard Layer 3 (Foreground)
//Storyboard Layer 4 (Overlay)
//Storyboard Sound Samples

[TimingPoints]
555,588.235294117647,4,2,1,100,1,0
66437,-100,4,2,1,100,0,1
85260,-100,4,2,1,100,0,0

[HitObjects]
81,100,7613,6,0,L|192:94,1,99.9999999999999
251,191,8790,2,0,L|201:193,1,50
150,225,9378,2,0,L|100:227,1,50
52,263,9966,6,0,P|105:298|118:335,1,99.9999999999999
202,382,11045,2,0,P|222:341|295:326,1,116.666666666667
346,332,12025,1,0,0:0:0:0:
346,332,12319,2,0,P|330:299|319:224,1,99.9999999999999
349,141,13398,2,0,P|305:148|242:113,1,116.666666666667
138,56,14672,6,0,P|112:107|106:157,1,99.9999999999999
194,195,15751,2,0,P|201:232|166:302,1,116.666666666667
111,322,16731,1,0,0:0:0:0:
111,322,17025,2,0,P|90:292|65:229,2,99.9999999999999
196,383,18790,1,0,0:0:0:0:
238,270,19378,6,0,P|277:271|327:313,1,99.9999999999999
392,379,20456,2,0,P|404:335|457:283,1,116.666666666667
490,171,21731,2,0,P|455:185|388:183,1,99.9999999999999
303,140,22809,2,0,P|350:113|375:50,1,116.666666666667
268,2,24084,6,0,P|205:-6|169:-1,1,99.9999999999999
90,60,25162,2,0,P|123:112|128:171,1,116.666666666667
76,273,26437,2,0,P|110:270|173:314,1,99.9999999999999
258,376,27613,2,0,P|300:364|321:361,1,50
340,313,28202,2,0,P|382:325|403:328,1,50
441,298,28790,5,0,0:0:0:0:
482,185,29378,2,0,L|479:93,1,83.3333333333333
503,46,30162,1,0,0:0:0:0:
462,1,30456,2,0,P|419:0|367:54,1,116.666666666667
355,168,31731,1,0,0:0:0:0:
274,108,32221,2,0,P|268:75|259:53,1,50
205,41,32809,2,0,P|180:67|98:74,1,116.666666666667
75,193,34084,6,0,P|93:229|106:282,1,83.3333333333333
101,330,34868,1,0,0:0:0:0:
150,363,35162,2,0,P|195:344|225:346,1,66.6666666666666
272,346,35849,2,0,P|306:358|375:341,1,99.9999999999999
465,276,37025,2,0,P|460:238|458:214,1,50
410,191,37613,2,0,P|414:153|417:129,1,50
458,99,38202,5,0,0:0:0:0:
371,15,38790,2,0,P|352:58|322:83,1,83.3333333333333
267,64,39574,1,0,0:0:0:0:
215,94,39868,2,0,P|199:77|100:71,1,116.666666666667
51,169,41143,1,0,0:0:0:0:
95,258,41633,2,0,P|98:295|97:318,2,50
189,155,42907,5,0,0:0:0:0:
227,268,43496,2,0,P|263:251|317:255,1,83.3333333333333
342,298,44280,1,0,0:0:0:0:
396,273,44574,2,0,P|416:241|442:223,1,66.6666666666666
481,181,45260,2,0,P|470:159|491:89,1,99.9999999999999
383,34,46437,2,0,P|359:37|328:53,1,50
304,98,47025,2,0,P|280:95|249:79,1,50
198,68,47613,6,0,P|170:86|113:105,1,83.3333333333333
44,88,48496,1,0,0:0:0:0:
314,343,49672,5,0,0:0:0:0:
340,289,49966,2,0,P|334:246|340:203,1,83.3333333333333
309,132,50849,1,0,0:0:0:0:
441,37,52025,5,0,0:0:0:0:
415,91,52319,2,0,P|412:129|409:146,1,50
419,179,52809,1,0,0:0:0:0:
443,234,53104,1,0,0:0:0:0:
422,290,53398,2,0,P|404:280|354:275,1,66.6666666666666
315,316,54084,2,0,P|281:314|259:305,1,50
224,265,54672,5,0,0:0:0:0:
145,174,55260,1,0,0:0:0:0:
236,95,55849,1,0,0:0:0:0:
315,186,56437,1,0,0:0:0:0:
406,107,57025,6,0,P|420:67|389:27,1,83.3333333333333
322,52,57907,2,0,P|291:73|189:37,1,150
132,47,59084,1,0,0:0:0:0:
101,98,59378,2,0,P|111:127|114:194,1,83.3333333333333
96,256,60260,2,0,P|137:237|191:269,1,99.9999999999999
206,314,61143,1,0,0:0:0:0:
206,314,61731,6,0,P|245:302|266:300,1,50
313,308,62319,1,0,0:0:0:0:
370,289,62613,1,0,0:0:0:0:
422,317,62907,2,0,P|448:288|458:271,1,50
446,219,63496,2,0,P|441:179|441:157,1,50
487,131,64084,2,0,P|463:117|432:97,1,50
407,58,64672,2,0,P|379:60|342:62,1,50
299,46,65260,2,0,P|278:64|249:87,1,50
205,100,65849,1,0,0:0:0:0:
