osu file format v14

[General]
AudioFilename: audio.mp3
AudioLeadIn: 0
PreviewTime: 60746
Countdown: 0
SampleSet: Soft
StackLeniency: 0.4
Mode: 2
LetterboxInBreaks: 0
WidescreenStoryboard: 1

[Editor]
DistanceSpacing: 1
BeatDivisor: 4
GridSize: 32
TimelineZoom: 1.5

[Metadata]
Title:Harumodoki
TitleUnicode:Harumodoki
Artist:Pastel*Palettes
ArtistUnicode:Pastel*Palettes
Creator:Imai Lisa
Version:Platter
Source:バンドリ!ガールズバンドパーティ!
Tags:-Mikan Mikan Hareimu Sc4v4ng3r -Hex- Daletto BanG Dream! Girls Band Party! Garupa Bandori! ガルパ!cover PasuPare パスパレ Paspale パステルパレット ぱすてるぱれっと 丸山彩 Maruyama Aya 大和麻弥 Yamato Maya 若宮イヴ Wakamiya Eve 白鷺千聖 Shirasagi Chisato 氷川日菜 Hikawa Hina 前島亜美 Maeshima Ami 中上育美 Nakagami Ikumi 秦佐和子 Hata Sawako 上坂すみれ Uesaka Sumire 小澤亜李 Ozawa Ari
BeatmapID:2068720
BeatmapSetID:983042

[Difficulty]
HPDrainRate:5
CircleSize:3.5
OverallDifficulty:8
ApproachRate:8
SliderMultiplier:1.75
SliderTickRate:2

[Events]
//Background and Video events
0,0,"bg.png",0,0
//Break Periods
//Storyboard Layer 0 (Background)
//Storyboard Layer 1 (Fail)
//Storyboard Layer 2 (Pass)
//Storyboard Layer 3 (Foreground)
//Storyboard Layer 4 (Overlay)
//Storyboard Sound Samples

[TimingPoints]
2815,344.827586206897,4,2,1,60,1,0
2815,-111.111111111111,4,2,1,60,0,0
8332,-100,4,2,1,70,0,0
8418,-100,4,2,1,5,0,0
8504,-100,4,2,1,70,0,0
9539,-100,4,2,1,80,0,1
9797,-100,4,2,1,5,0,1
9883,-100,4,2,1,70,0,1
12125,-100,4,2,1,70,0,0
12297,-100,4,2,1,80,0,1
12556,-100,4,2,1,5,0,1
12642,-100,4,2,1,70,0,1
14883,-100,4,2,1,70,0,0
15056,-100,4,2,1,80,0,1
15315,-100,4,2,1,5,0,1
15401,-100,4,2,1,70,0,1
17728,-100,4,2,1,5,0,1
17815,-100,4,2,1,70,0,0
18159,-100,4,2,1,50,0,0
19711,-100,4,2,1,60,0,0
20056,-100,4,2,1,75,0,0
20573,-100,4,2,1,60,0,0
30918,-100,4,2,1,65,0,0
31521,-100,4,2,1,5,0,0
31608,-100,4,2,1,70,0,0
42815,-111.111111111111,4,2,1,70,0,0
43159,-111.111111111111,4,2,1,60,0,0
53849,-100,4,2,1,70,0,0
56608,-100,4,2,1,75,0,0
59366,-100,4,2,1,85,0,0
60573,-100,4,2,1,90,0,0
61608,-100,4,2,1,70,0,0
62039,-100,4,2,1,5,0,0
62125,-100,4,2,1,70,0,1
62211,-100,4,2,1,60,0,1
62470,-100,4,2,1,70,0,1
62556,-100,4,2,1,60,0,1
62815,-100,4,2,1,70,0,1
62901,-100,4,2,1,60,0,1
63159,-100,4,2,1,70,0,1
63246,-100,4,2,1,60,0,1
63504,-100,4,2,1,70,0,1
63590,-100,4,2,1,60,0,1
63849,-100,4,2,1,70,0,1
63935,-100,4,2,1,60,0,1
64194,-100,4,2,1,70,0,1
64280,-100,4,2,1,60,0,1
64539,-100,4,2,1,70,0,1
64625,-100,4,2,1,60,0,1
64883,-100,4,2,1,70,0,1
64970,-100,4,2,1,60,0,1
65228,-100,4,2,1,70,0,1
65315,-100,4,2,1,60,0,1
65573,-100,4,2,1,70,0,1
65659,-100,4,2,1,60,0,1
65918,-100,4,2,1,70,0,1
66004,-100,4,2,1,60,0,1
66263,-100,4,2,1,70,0,1
66349,-100,4,2,1,60,0,1
66608,-100,4,2,1,70,0,1
66694,-100,4,2,1,60,0,1
66952,-100,4,2,1,70,0,1
67039,-100,4,2,1,60,0,1
67297,-100,4,2,1,70,0,1
67383,-100,4,2,1,60,0,1
67642,-100,4,2,1,70,0,1
67728,-100,4,2,1,60,0,1
67987,-100,4,2,1,70,0,1
68073,-100,4,2,1,60,0,1
68332,-100,4,2,1,70,0,1
68418,-100,4,2,1,60,0,1
68677,-100,4,2,1,70,0,1
68763,-100,4,2,1,60,0,1
69021,-100,4,2,1,70,0,1
69108,-100,4,2,1,60,0,1
69366,-100,4,2,1,70,0,1
69452,-100,4,2,1,60,0,1
69711,-100,4,2,1,70,0,1
69797,-100,4,2,1,60,0,1
70056,-100,4,2,1,70,0,1
70142,-100,4,2,1,60,0,1
70401,-100,4,2,1,70,0,1
70487,-100,4,2,1,60,0,1
70746,-100,4,2,1,70,0,1
70832,-100,4,2,1,60,0,1
71090,-100,4,2,1,70,0,1
71177,-100,4,2,1,60,0,1
71435,-100,4,2,1,70,0,1
73159,-100,4,2,1,80,0,1
78677,-100,4,2,1,90,0,1
81435,-100,4,2,1,90,0,1
84194,-100,4,2,1,75,0,0
92470,-100,4,2,1,85,0,0
93677,-100,4,2,1,90,0,0
93763,-100,4,2,1,60,0,0
99366,-100,4,2,1,20,0,0
100056,-100,4,2,1,10,0,0
100746,-100,4,2,1,5,0,0

[Colours]
Combo1 : 227,200,125
Combo2 : 241,158,206
Combo3 : 228,71,146

[HitObjects]
258,54,2815,6,0,L|97:52,1,157.499995193482,2|2,0:0|0:0,0:0:0:0:
261,218,3504,2,0,L|422:223,1,157.499995193482,2|2,0:0|0:0,0:0:0:0:
171,332,4194,6,0,L|341:338,2,157.499995193482,2|2|2,0:0|0:0|0:0,0:0:0:0:
408,222,5228,2,0,L|236:217,1,157.499995193482,2|2,0:0|0:0,0:0:0:0:
431,222,5918,5,2,0:0:0:0:
179,343,6263,2,0,L|7:343,1,157.499995193482,2|2,0:0|0:0,0:0:0:0:
342,22,6952,6,0,P|447:79|289:377,1,551.249983177186,2|0,0:0|0:0,0:0:0:0:
144,324,8332,5,4,3:0:0:0:
260,272,8504,1,0,0:0:0:0:
262,228,8590,1,0,0:0:0:0:
264,184,8676,1,2,0:0:0:0:
370,129,8849,1,2,0:0:0:0:
168,39,9021,5,8,0:2:0:0:
129,57,9107,1,8,0:2:0:0:
114,97,9193,1,8,0:3:0:0:
131,136,9279,1,8,3:3:0:0:
170,153,9365,1,0,3:3:0:0:
428,353,9539,6,0,L|433:173,1,175,6|2,3:2|3:2,0:0:0:0:
145,350,10056,5,10,3:2:0:0:
143,306,10142,1,0,3:2:0:0:
142,262,10228,1,2,3:2:0:0:
250,173,10401,5,10,3:2:0:0:
293,172,10487,1,0,3:2:0:0:
337,171,10573,1,2,3:2:0:0:
126,60,10746,1,10,3:2:0:0:
83,59,10832,1,0,3:2:0:0:
39,58,10918,1,2,3:2:0:0:
303,42,11090,5,10,3:2:0:0:
307,72,11263,1,2,3:2:0:0:
155,152,11434,1,10,3:2:0:0:
151,182,11608,1,2,3:2:0:0:
350,314,11780,5,10,3:2:0:0:
250,316,11952,1,10,3:2:0:0:
350,314,12125,1,10,3:2:0:0:
49,33,12297,6,0,L|41:217,1,175,6|2,3:2|3:2,0:0:0:0:
311,45,12815,2,0,L|372:44,2,43.75,10|0|2,3:2|3:2|3:2,0:0:0:0:
203,142,13159,5,10,3:2:0:0:
232,173,13245,1,0,3:2:0:0:
271,192,13331,1,2,3:2:0:0:
449,284,13504,1,10,3:2:0:0:
420,315,13590,1,0,3:2:0:0:
381,334,13676,1,2,3:2:0:0:
138,344,13849,5,10,3:2:0:0:
136,300,13935,1,0,3:2:0:0:
134,256,14021,1,2,3:2:0:0:
306,254,14194,1,10,3:2:0:0:
216,256,14366,1,2,3:2:0:0:
396,110,14539,5,10,3:2:0:0:
489,107,14711,1,10,3:2:0:0:
396,110,14883,1,10,3:2:0:0:
145,48,15056,6,0,L|138:231,1,175,6|2,3:2|3:2,0:0:0:0:
388,346,15573,6,0,L|448:346,2,43.75,10|0|2,3:2|3:2|3:2,0:0:0:0:
212,318,15918,1,10,3:2:0:0:
189,281,16004,1,0,3:2:0:0:
199,239,16090,1,2,3:2:0:0:
234,216,16176,1,0,3:2:0:0:
277,194,16263,1,10,3:2:0:0:
299,157,16349,1,0,3:2:0:0:
289,115,16435,1,2,3:2:0:0:
254,92,16521,1,0,3:2:0:0:
207,83,16608,6,0,L|157:83,2,43.75,10|0|2,3:2|3:2|3:2,0:0:0:0:
377,86,16952,2,0,L|442:86,2,43.75,10|0|2,3:2|3:2|3:2,0:0:0:0:
92,153,17297,1,10,3:2:0:0:
54,174,17383,1,0,3:2:0:0:
40,214,17469,1,10,3:2:0:0:
57,253,17555,1,0,3:2:0:0:
96,271,17641,1,10,3:2:0:0:
390,271,17815,5,4,0:0:0:0:
288,315,18159,1,0,0:0:0:0:
288,304,18332,1,2,0:0:0:0:
439,217,18677,2,0,L|446:30,1,175,2|2,0:0|0:0,0:0:0:0:
255,43,19366,5,2,0:0:0:0:
161,114,19539,2,0,L|148:155,4,43.75,0|0|2|0|8,0:0|0:0|0:0|0:0|0:3,0:0:0:0:
398,256,20056,6,0,L|504:253,1,87.5,8|8,0:0|0:0,0:0:0:0:
80,342,20573,6,0,L|74:162,1,175,4|2,3:2|3:2,0:0:0:0:
193,108,21090,2,0,L|287:103,1,87.5,10|2,0:1|0:0,0:0:0:0:
90,35,21435,2,0,L|1:39,2,87.5,2|0|0,3:2|3:0|0:0,0:0:0:0:
330,333,21952,6,0,P|369:273|300:202,1,175,8|2,0:0|3:1,0:0:0:0:
196,122,22470,1,8,0:0:0:0:
284,122,22642,1,0,0:0:0:0:
130,36,22815,5,2,3:1:0:0:
43,36,22987,1,2,3:1:0:0:
452,334,23332,6,0,P|438:317|311:226,1,175,12|2,3:2|3:2,0:0:0:0:
204,146,23849,2,0,L|292:145,1,87.5,10|2,0:1|0:0,0:0:0:0:
477,36,24194,2,0,L|387:38,2,87.5,2|0|0,3:2|3:0|0:0,0:0:0:0:
191,338,24711,6,0,L|184:152,1,175,8|2,0:0|3:1,0:0:0:0:
311,115,25228,1,8,0:0:0:0:
220,78,25401,1,2,0:0:0:0:
377,332,25573,5,2,3:1:0:0:
467,307,25746,1,2,3:1:0:0:
25,348,26090,6,0,P|53:301|149:208,1,175,12|2,3:2|3:2,0:0:0:0:
230,165,26608,2,0,L|332:141,1,87.5,10|2,0:1|0:0,0:0:0:0:
504,49,26952,2,0,L|413:38,2,87.5,2|0|0,3:2|3:0|0:0,0:0:0:0:
233,334,27470,6,0,L|227:150,1,175,8|2,0:0|3:1,0:0:0:0:
340,82,27987,2,0,L|236:83,1,87.5,8|0,0:0|0:0,0:0:0:0:
56,327,28332,5,2,3:1:0:0:
54,303,28504,1,2,3:1:0:0:
463,330,28849,1,12,0:0:0:0:
60,328,30918,2,0,L|12:330,1,43.75,4|4,3:3|3:3,0:0:0:0:
60,328,31090,5,8,0:0:0:0:
195,325,31263,1,8,0:0:0:0:
390,314,31608,6,0,L|394:128,1,175,4|2,3:2|3:2,0:0:0:0:
214,38,32125,2,0,L|307:40,1,87.5,10|2,0:1|0:0,0:0:0:0:
490,139,32470,2,0,P|470:171|338:243,1,175,2|10,3:1|0:1,0:0:0:0:
261,251,32987,1,2,0:0:0:0:
71,323,33159,6,0,L|66:144,1,175,2|10,3:1|0:1,0:0:0:0:
189,50,33677,2,0,L|86:53,1,87.5,0|8,0:0|3:0,0:0:0:0:
14,56,34021,2,0,L|109:52,1,87.5,8|8,0:0|3:0,0:0:0:0:
336,336,34366,6,0,L|342:151,1,175,12|2,0:0|0:0,0:0:0:0:
209,91,34883,2,0,L|304:86,1,87.5,10|2,0:1|0:0,0:0:0:0:
486,73,35228,2,0,L|393:79,2,87.5,2|2|10,3:1|0:0|0:1,0:0:0:0:
225,332,35746,6,0,P|182:303|235:204,1,175,8|2,3:3|0:0,0:0:0:0:
331,58,36263,2,0,L|333:148,1,87.5,10|12,0:1|0:0,0:0:0:0:
144,47,36608,2,0,L|42:48,2,87.5,8|8|8,3:0|3:0|0:0,0:0:0:0:
415,44,37125,5,4,3:2:0:0:
288,323,37470,1,2,3:2:0:0:
193,321,37642,1,10,0:1:0:0:
156,299,37728,1,0,0:0:0:0:
141,258,37814,1,2,0:0:0:0:
156,218,37900,1,2,0:0:0:0:
193,197,37987,6,0,L|290:195,2,87.5,2|2|10,3:1|3:2|0:1,0:0:0:0:
54,34,38504,2,0,L|43:215,1,175,8|2,0:3|0:0,0:0:0:0:
141,275,39021,5,10,0:1:0:0:
405,331,39366,2,0,L|507:333,2,87.5,0|8|0,3:0|0:0|3:0,0:0:0:0:
166,200,39883,6,0,P|118:161|187:81,1,175,12|2,0:0|0:0,0:0:0:0:
286,69,40401,1,10,0:1:0:0:
31,34,40746,1,2,3:1:0:0:
25,121,40918,1,8,0:0:0:0:
20,208,41090,1,8,0:3:0:0:
288,338,41263,6,0,L|479:344,1,175,10|0,0:1|3:0,0:0:0:0:
466,248,41780,1,10,0:1:0:0:
289,46,41952,1,8,0:0:0:0:
286,89,42038,1,8,0:0:0:0:
284,133,42124,5,4,3:0:0:0:
393,44,42297,2,0,L|500:46,2,87.5,4|4|4,3:0|3:0|3:0,0:0:0:0:
122,41,42815,6,0,P|81:75|135:158,1,157.499995193482,4|2,3:2|0:3,0:0:0:0:
201,170,43332,1,0,3:0:0:0:
372,318,43504,6,0,L|212:316,2,157.499995193482,10|2|2,0:0|3:0|0:0,0:0:0:0:
451,325,44366,1,8,0:0:0:0:
189,204,44711,1,0,3:0:0:0:
110,29,44883,6,0,L|103:197,1,157.499995193482,10|2,0:0|0:3,0:0:0:0:
183,215,45401,1,0,3:0:0:0:
441,345,45573,6,0,P|403:294|326:227,1,157.499995193482,2|2,3:2|0:3,0:0:0:0:
232,75,46090,2,0,L|229:245,1,157.499995193482,0|0,3:0|0:0,0:0:0:0:
347,130,46608,2,0,L|439:130,1,78.7499975967408,2|0,3:0|3:0,0:0:0:0:
186,347,46952,5,2,0:0:0:0:
127,296,47124,1,8,0:0:0:0:
115,220,47296,1,2,0:3:0:0:
154,154,47469,1,0,3:0:0:0:
227,128,47642,2,0,L|390:121,1,157.499995193482,10|0,0:0|0:0,0:0:0:0:
100,36,48332,6,0,L|94:197,1,157.499995193482,6|2,3:2|0:3,0:0:0:0:
176,239,48849,1,0,3:0:0:0:
356,347,49021,2,0,L|361:171,1,157.499995193482,10|2,0:0|3:0,0:0:0:0:
280,137,49539,1,0,3:0:0:0:
458,45,49711,6,0,L|294:38,2,157.499995193482,2|2|10,3:2|0:3|0:0,0:0:0:0:
264,206,50746,2,0,L|170:202,1,78.7499975967408,2|0,0:0|3:0,0:0:0:0:
423,338,51090,6,0,P|459:312|416:224,1,157.499995193482,2|2,3:2|0:3,0:0:0:0:
323,122,51608,2,0,L|243:120,2,78.7499975967408,0|10|2,3:0|0:0|0:0,0:0:0:0:
147,24,52125,5,2,3:0:0:0:
85,71,52297,1,0,3:0:0:0:
58,143,52469,1,2,0:0:0:0:
75,219,52642,1,8,0:0:0:0:
129,274,52814,5,2,0:3:0:0:
205,291,52987,1,0,3:0:0:0:
27,343,53159,1,8,0:0:0:0:
25,303,53245,1,8,0:0:0:0:
23,264,53331,1,8,0:0:0:0:
23,264,53504,1,12,0:0:0:0:
458,337,53849,5,4,3:2:0:0:
306,267,54194,2,0,L|297:87,1,175,10|2,0:1|3:1,0:0:0:0:
388,52,54711,2,0,L|494:46,1,87.5,0|10,3:0|0:1,0:0:0:0:
227,321,55056,6,0,L|48:339,1,175,0|0,3:0|3:0,0:0:0:0:
168,241,55573,2,0,L|263:234,2,87.5,10|0|2,0:1|0:0|3:1,0:0:0:0:
449,50,56263,2,0,L|356:53,1,87.5,10|0,0:1|0:0,0:0:0:0:
118,337,56608,6,0,L|112:153,1,175,12|2,0:0|3:1,0:0:0:0:
19,95,57125,1,12,0:0:0:0:
260,85,57297,2,0,L|438:81,1,175,8|8,3:0|0:0,0:0:0:0:
151,313,57987,6,0,L|58:314,2,87.5,2|12|4,3:1|0:0|3:0,0:0:0:0:
336,320,58677,1,12,0:0:0:0:
428,293,58849,1,8,0:0:0:0:
462,266,58935,1,8,3:0:0:0:
475,225,59021,1,10,0:0:0:0:
462,184,59107,1,8,0:0:0:0:
427,159,59193,1,2,3:2:0:0:
191,34,59366,5,12,0:0:0:0:
121,84,59538,1,2,3:2:0:0:
97,166,59710,1,2,3:1:0:0:
128,246,59883,1,10,0:0:0:0:
202,290,60056,5,0,3:0:0:0:
245,289,60142,1,0,3:0:0:0:
289,288,60228,1,6,3:2:0:0:
333,288,60314,1,2,3:2:0:0:
289,288,60401,1,2,3:2:0:0:
34,42,60573,5,8,3:2:0:0:
423,41,61608,1,0,3:0:0:0:
425,84,61694,1,0,3:0:0:0:
427,128,61780,5,12,0:0:0:0:
117,60,62125,6,0,P|144:102|281:163,1,175,14|10,3:2|3:2,0:0:0:0:
350,182,62642,1,0,3:2:0:0:
185,345,62815,1,10,3:2:0:0:
183,296,62901,1,0,3:2:0:0:
182,248,62987,1,0,3:2:0:0:
58,178,63159,2,0,L|53:85,1,87.5,10|0,3:2|3:2,0:0:0:0:
294,97,63504,6,0,L|490:94,1,175,10|10,3:2|3:2,0:0:0:0:
380,175,64021,1,0,3:2:0:0:
217,237,64194,6,0,L|213:333,1,87.5,10|0,3:2|3:2,0:0:0:0:
324,348,64539,2,0,L|433:350,1,87.5,10|0,3:2|3:2,0:0:0:0:
171,76,64883,6,0,L|71:76,1,87.5,10|0,3:2|3:2,0:0:0:0:
248,174,65228,1,10,3:2:0:0:
249,222,65314,1,0,3:2:0:0:
251,270,65400,1,0,3:2:0:0:
86,350,65573,5,10,3:2:0:0:
48,328,65659,1,0,3:2:0:0:
23,293,65745,1,0,3:2:0:0:
18,250,65831,1,0,3:2:0:0:
33,209,65917,1,10,3:2:0:0:
64,179,66004,1,0,3:2:0:0:
106,167,66090,1,0,3:2:0:0:
392,73,66263,6,0,L|486:73,2,87.5,10|2|10,3:2|3:2|3:2,0:0:0:0:
270,70,66780,1,2,3:2:0:0:
234,94,66866,1,0,3:2:0:0:
222,135,66952,1,10,3:2:0:0:
239,175,67038,1,0,3:2:0:0:
276,195,67124,1,2,3:2:0:0:
442,338,67297,2,0,L|445:238,1,87.5,10|2,3:2|3:2,0:0:0:0:
188,340,67642,6,0,L|185:241,1,87.5,14|0,3:2|3:2,0:0:0:0:
284,185,67987,1,10,3:2:0:0:
320,162,68073,1,0,3:2:0:0:
333,122,68159,1,2,3:2:0:0:
315,83,68245,1,0,3:2:0:0:
276,66,68331,1,8,3:2:0:0:
112,57,68504,2,0,L|215:55,2,87.5,2|8|2,3:2|3:2|3:2,0:0:0:0:
358,330,69021,6,0,L|458:329,1,87.5,10|0,3:2|3:2,0:0:0:0:
278,238,69366,1,10,3:2:0:0:
273,190,69452,1,0,3:2:0:0:
269,142,69538,1,0,3:2:0:0:
435,37,69711,5,10,3:2:0:0:
470,61,69797,1,0,3:2:0:0:
493,98,69883,1,0,3:2:0:0:
498,141,69969,1,0,3:2:0:0:
486,183,70055,1,10,3:2:0:0:
457,216,70142,1,0,3:2:0:0:
418,234,70228,1,0,3:2:0:0:
121,334,70401,6,0,L|111:145,1,175,14|10,3:2|3:2,0:0:0:0:
393,70,71090,2,0,L|487:67,2,87.5,10|0|10,3:2|3:2|3:2,0:0:0:0:
134,46,71608,6,0,L|128:137,1,87.5,6|8,3:2|3:2,3:3:0:0:
239,227,71952,2,0,L|337:231,1,87.5,2|8,3:2|0:0,0:0:0:0:
72,332,72297,6,0,P|31:294|97:201,1,175,14|10,0:0|0:0,0:0:0:0:
196,104,72815,1,8,0:0:0:0:
104,103,72987,1,4,3:3:0:0:
379,23,73159,6,0,L|384:205,1,175,4|10,3:2|0:1,0:0:0:0:
473,279,73677,1,2,0:0:0:0:
353,288,73849,2,0,L|262:292,1,87.5,2|2,0:1|3:2,0:0:0:0:
394,148,74194,2,0,L|491:144,1,87.5,10|0,0:1|0:0,0:0:0:0:
220,38,74539,5,2,3:1:0:0:
184,63,74625,1,0,0:0:0:0:
157,97,74711,1,2,0:0:0:0:
143,138,74797,1,0,0:0:0:0:
141,182,74883,1,10,0:1:0:0:
153,224,74970,1,0,0:0:0:0:
176,260,75056,1,2,0:0:0:0:
210,288,75142,1,0,0:0:0:0:
251,304,75228,6,0,L|341:311,1,87.5,2|2,0:1|3:2,0:0:0:0:
175,171,75573,2,0,L|70:176,1,87.5,10|2,0:1|0:0,0:0:0:0:
327,43,75918,5,2,3:1:0:0:
225,97,76263,2,0,L|221:195,1,87.5,10|0,0:1|0:0,0:0:0:0:
410,330,76608,5,2,0:1:0:0:
449,253,76780,1,2,3:2:0:0:
428,170,76952,1,10,0:1:0:0:
358,121,77125,1,2,0:0:0:0:
115,56,77297,6,0,L|26:54,2,87.5,2|2|10,3:1|0:0|0:1,0:0:0:0:
235,164,77815,1,2,0:0:0:0:
281,163,77901,1,0,0:0:0:0:
235,164,77987,5,2,3:1:0:0:
142,172,78159,1,2,3:2:0:0:
49,245,78332,2,0,L|44:150,1,87.5,10|8,0:1|0:0,0:0:0:0:
306,341,78677,6,0,L|402:338,1,87.5,14|2,0:1|3:2,0:0:0:0:
505,258,79021,2,0,L|415:258,1,87.5,10|2,0:1|3:2,0:0:0:0:
146,210,79366,6,0,L|141:118,1,87.5,10|0,0:1|3:0,0:0:0:0:
306,57,79711,2,0,L|215:62,1,87.5,10|2,0:1|3:2,0:0:0:0:
55,294,80056,2,0,L|161:291,1,87.5,14|2,0:1|3:2,0:0:0:0:
415,348,80401,6,0,L|417:254,1,87.5,10|0,0:1|3:2,0:0:0:0:
252,137,80746,2,0,L|159:136,1,87.5,10|8,0:1|0:0,0:0:0:0:
326,36,81090,2,0,L|424:38,1,87.5,8|0,0:3|0:0,0:0:0:0:
144,318,81435,6,0,P|103:276|166:190,1,175,6|10,3:1|0:1,0:0:0:0:
250,176,81952,1,2,3:2:0:0:
413,37,82125,5,8,0:0:0:0:
415,80,82211,1,0,0:0:0:0:
417,124,82297,1,8,3:3:0:0:
328,182,82470,1,4,3:3:0:0:
72,351,82642,6,0,L|65:173,1,175,10|0,0:1|3:0,0:0:0:0:
225,87,83159,2,0,L|401:80,2,175,14|8|10,0:1|0:0|0:1,0:0:0:0:
133,93,84021,1,2,3:2:0:0:
307,338,84194,5,4,3:2:0:0:
348,264,84366,1,2,0:0:0:0:
319,184,84538,1,0,3:0:0:0:
239,156,84711,1,10,0:0:0:0:
166,199,84883,1,8,3:0:0:0:
152,283,85056,1,2,3:2:0:0:
207,347,85228,1,0,3:0:0:0:
445,33,85401,6,0,L|455:208,1,175,12|0,0:0|3:0,0:0:0:0:
364,244,85918,1,12,0:0:0:0:
246,333,86090,1,0,0:0:0:0:
214,303,86176,1,4,3:3:0:0:
197,263,86262,5,8,3:3:0:0:
197,219,86348,1,0,0:0:0:0:
214,180,86434,1,0,3:0:0:0:
246,150,86521,1,0,0:0:0:0:
287,136,86607,1,2,3:2:0:0:
379,117,86780,1,2,3:2:0:0:
130,56,86952,6,0,L|29:59,1,87.5,4|2,3:2|0:0,0:0:0:0:
146,113,87297,2,0,L|248:109,1,87.5,0|10,3:2|0:0,0:0:0:0:
475,339,87642,2,0,L|478:240,1,87.5,0|2,3:2|3:2,0:0:0:0:
383,193,87987,1,0,3:0:0:0:
98,332,88159,6,0,L|90:155,1,175,12|2,0:0|3:2,0:0:0:0:
211,103,88677,2,0,L|317:98,1,87.5,12|2,0:0|3:2,0:0:0:0:
107,27,89021,5,8,3:0:0:0:
70,50,89107,1,0,0:0:0:0:
57,90,89193,1,8,3:2:0:0:
72,130,89279,1,0,3:3:0:0:
110,151,89365,1,0,3:3:0:0:
391,347,89539,6,0,P|436:306|379:218,1,175,4|2,3:2|0:1,0:0:0:0:
281,202,90056,2,0,L|275:108,1,87.5,10|0,0:0|0:0,0:0:0:0:
166,207,90401,6,0,L|160:113,1,87.5,2|2,3:2|0:1,0:0:0:0:
283,54,90746,2,0,L|376:51,1,87.5,10|2,0:0|0:1,0:0:0:0:
126,326,91090,6,0,P|86:294|146:192,1,175,2|10,3:2|0:0,0:0:0:0:
218,175,91608,1,2,0:1:0:0:
326,69,91780,6,0,L|330:168,1,87.5,2|2,3:2|3:1,0:0:0:0:
445,203,92125,2,0,L|449:302,1,87.5,10|2,0:0|0:1,0:0:0:0:
185,329,92470,6,0,L|90:334,1,87.5,2|2,3:2|0:1,0:0:0:0:
259,232,92815,2,0,L|361:228,1,87.5,10|2,0:0|0:1,0:0:0:0:
109,57,93159,6,0,L|12:60,2,87.5,2|2|10,3:2|3:1|0:0,0:0:0:0:
405,48,93677,5,6,3:2:0:0:
256,192,93849,12,0,100746,0:0:0:0:
