osu file format v14

[General]
AudioFilename: audio.mp3
AudioLeadIn: 0
PreviewTime: 60746
Countdown: 0
SampleSet: Soft
StackLeniency: 0.4
Mode: 2
LetterboxInBreaks: 0
WidescreenStoryboard: 1

[Editor]
DistanceSpacing: 1
BeatDivisor: 4
GridSize: 32
TimelineZoom: 1.5

[Metadata]
Title:Harumodoki
TitleUnicode:Harumodoki
Artist:Pastel*Palettes
ArtistUnicode:Pastel*Palettes
Creator:Imai Lisa
Version:Overdose
Source:バンドリ!ガールズバンドパーティ!
Tags:-Mikan Mikan Hareimu Sc4v4ng3r -Hex- Daletto BanG Dream! Girls Band Party! Garupa Bandori! ガルパ!cover PasuPare パスパレ Paspale パステルパレット ぱすてるぱれっと 丸山彩 Maruyama Aya 大和麻弥 Yamato Maya 若宮イヴ Wakamiya Eve 白鷺千聖 Shirasagi Chisato 氷川日菜 Hikawa Hina 前島亜美 Maeshima Ami 中上育美 Nakagami Ikumi 秦佐和子 Hata Sawako 上坂すみれ Uesaka Sumire 小澤亜李 Ozawa Ari
BeatmapID:2057198
BeatmapSetID:983042

[Difficulty]
HPDrainRate:7
CircleSize:4.3
OverallDifficulty:9.5
ApproachRate:9.5
SliderMultiplier:1.92
SliderTickRate:2

[Events]
//Background and Video events
0,0,"bg.png",0,0
//Break Periods
//Storyboard Layer 0 (Background)
//Storyboard Layer 1 (Fail)
//Storyboard Layer 2 (Pass)
//Storyboard Layer 3 (Foreground)
//Storyboard Layer 4 (Overlay)
//Storyboard Sound Samples

[TimingPoints]
2815,344.827586206897,4,2,1,60,1,0
2815,-111.111111111111,4,2,1,60,0,0
8332,-100,4,2,1,70,0,0
8418,-100,4,2,1,5,0,0
8504,-100,4,2,1,70,0,0
9539,-100,4,2,1,80,0,1
9797,-100,4,2,1,5,0,1
9883,-100,4,2,1,70,0,1
12125,-100,4,2,1,70,0,0
12297,-100,4,2,1,80,0,1
12556,-100,4,2,1,5,0,1
12642,-100,4,2,1,70,0,1
14883,-100,4,2,1,70,0,0
15056,-100,4,2,1,80,0,1
15315,-100,4,2,1,5,0,1
15401,-100,4,2,1,70,0,1
17728,-100,4,2,1,5,0,1
17815,-100,4,2,1,70,0,0
18159,-100,4,2,1,50,0,0
19711,-100,4,2,1,60,0,0
20056,-100,4,2,1,75,0,0
20573,-100,4,2,1,60,0,0
26349,-100,4,2,1,5,0,0
26435,-100,4,2,1,60,0,0
30918,-100,4,2,1,65,0,0
31521,-100,4,2,1,5,0,0
31608,-100,4,2,1,70,0,0
33763,-100,4,2,1,5,0,0
33849,-100,4,2,1,70,0,0
42815,-111.111111111111,4,2,1,70,0,0
43159,-111.111111111111,4,2,1,60,0,0
53849,-100,4,2,1,70,0,0
56608,-100,4,2,1,75,0,0
59366,-100,4,2,1,85,0,0
60573,-100,4,2,1,90,0,0
61608,-100,4,2,1,70,0,0
62039,-100,4,2,1,5,0,0
62125,-100,4,2,1,70,0,1
62211,-100,4,2,1,60,0,1
62470,-90.9090909090909,4,2,1,70,0,1
62556,-90.9090909090909,4,2,1,60,0,1
62815,-90.9090909090909,4,2,1,70,0,1
62901,-90.9090909090909,4,2,1,60,0,1
63159,-90.9090909090909,4,2,1,70,0,1
63246,-90.9090909090909,4,2,1,60,0,1
63504,-90.9090909090909,4,2,1,70,0,1
63590,-90.9090909090909,4,2,1,60,0,1
63849,-90.9090909090909,4,2,1,70,0,1
63935,-90.9090909090909,4,2,1,60,0,1
64194,-90.9090909090909,4,2,1,70,0,1
64280,-90.9090909090909,4,2,1,60,0,1
64539,-90.9090909090909,4,2,1,70,0,1
64625,-90.9090909090909,4,2,1,60,0,1
64883,-90.9090909090909,4,2,1,70,0,1
64970,-90.9090909090909,4,2,1,60,0,1
65228,-90.9090909090909,4,2,1,70,0,1
65315,-90.9090909090909,4,2,1,60,0,1
65573,-90.9090909090909,4,2,1,70,0,1
65659,-90.9090909090909,4,2,1,60,0,1
65918,-90.9090909090909,4,2,1,70,0,1
66004,-90.9090909090909,4,2,1,60,0,1
66263,-90.9090909090909,4,2,1,70,0,1
66349,-90.9090909090909,4,2,1,60,0,1
66608,-90.9090909090909,4,2,1,70,0,1
66694,-90.9090909090909,4,2,1,60,0,1
66952,-90.9090909090909,4,2,1,70,0,1
67039,-90.9090909090909,4,2,1,60,0,1
67297,-90.9090909090909,4,2,1,70,0,1
67383,-90.9090909090909,4,2,1,60,0,1
67642,-90.9090909090909,4,2,1,70,0,1
67728,-90.9090909090909,4,2,1,60,0,1
67987,-90.9090909090909,4,2,1,70,0,1
68073,-90.9090909090909,4,2,1,60,0,1
68332,-90.9090909090909,4,2,1,70,0,1
68418,-90.9090909090909,4,2,1,60,0,1
68677,-90.9090909090909,4,2,1,70,0,1
68763,-90.9090909090909,4,2,1,60,0,1
69021,-90.9090909090909,4,2,1,70,0,1
69108,-90.9090909090909,4,2,1,60,0,1
69366,-90.9090909090909,4,2,1,70,0,1
69452,-90.9090909090909,4,2,1,60,0,1
69711,-90.9090909090909,4,2,1,70,0,1
69797,-90.9090909090909,4,2,1,60,0,1
70056,-90.9090909090909,4,2,1,70,0,1
70142,-90.9090909090909,4,2,1,60,0,1
70401,-90.9090909090909,4,2,1,70,0,1
70487,-90.9090909090909,4,2,1,60,0,1
70746,-90.9090909090909,4,2,1,70,0,1
70832,-90.9090909090909,4,2,1,60,0,1
71090,-90.9090909090909,4,2,1,70,0,1
71177,-90.9090909090909,4,2,1,60,0,1
71435,-90.9090909090909,4,2,1,70,0,1
73073,-90.9090909090909,4,2,1,85,0,0
73159,-90.9090909090909,4,2,1,80,0,1
76521,-90.9090909090909,4,2,1,5,0,1
76608,-90.9090909090909,4,2,1,80,0,1
78677,-83.3333333333333,4,2,1,90,0,1
81090,-90.9090909090909,4,2,1,90,0,1
81349,-90.9090909090909,4,2,1,5,0,1
81435,-90.9090909090909,4,2,1,90,0,1
84194,-90.9090909090909,4,2,1,75,0,0
86177,-90.9090909090909,4,2,1,5,0,0
86263,-90.9090909090909,4,2,1,75,0,0
92470,-90.9090909090909,4,2,1,85,0,0
93677,-90.9090909090909,4,2,1,90,0,0
93763,-90.9090909090909,4,2,1,60,0,0
99366,-100,4,2,1,20,0,0
100056,-100,4,2,1,10,0,0
100746,-100,4,2,1,5,0,0

[Colours]
Combo1 : 227,200,125
Combo2 : 241,158,206
Combo3 : 228,71,146

[HitObjects]
91,28,2815,6,0,L|81:208,1,172.799994726563,2|2,0:0|0:0,0:0:0:0:
316,316,3504,2,0,L|490:322,1,172.799994726563,2|2,0:0|0:0,0:0:0:0:
190,71,4194,6,0,L|18:64,1,172.799994726563,2|2,0:0|0:0,0:0:0:0:
230,211,4883,1,2,0:0:0:0:
467,340,5228,6,0,L|474:157,1,172.799994726563,2|2,0:0|0:0,0:0:0:0:
219,50,5918,2,0,L|120:47,1,86.3999973632813,2|0,0:0|0:0,0:0:0:0:
286,186,6263,2,0,L|479:193,1,172.799994726563,2|2,0:0|0:0,0:0:0:0:
202,303,6952,6,0,P|156:267|249:311,1,604.799981542969,2|0,0:0|0:0,0:0:0:0:
127,34,8332,2,0,L|190:31,1,48,4|0,3:0|0:0,0:0:0:0:
432,34,8504,1,0,0:0:0:0:
470,61,8590,1,0,0:0:0:0:
488,105,8676,1,2,0:0:0:0:
480,152,8762,1,2,0:0:0:0:
448,187,8848,1,2,0:0:0:0:
402,200,8935,1,2,0:0:0:0:
215,330,9021,6,0,L|270:327,1,48,8|8,0:2|0:2,0:0:0:0:
187,273,9194,2,0,L|134:276,1,48,8|8,0:3|3:3,0:0:0:0:
339,264,9366,2,0,L|406:262,1,48,0|0,3:3|3:3,0:0:0:0:
74,126,9539,6,0,L|232:121,1,144,6|0,3:2|0:0,0:0:0:0:
25,127,9883,1,2,3:2:0:0:
282,31,10056,6,0,L|288:94,1,48,10|0,3:2|3:2,3:3:0:0:
201,131,10228,2,0,L|205:178,1,48,2|0,3:2|3:2,3:3:0:0:
405,367,10401,5,10,3:2:0:0:
436,330,10487,1,0,3:2:0:0:
447,284,10573,1,2,3:2:0:0:
437,238,10659,1,0,3:2:0:0:
407,201,10745,1,2,3:2:0:0:
364,181,10832,1,0,3:2:0:0:
275,122,10918,2,0,L|329:121,1,48,2|0,3:2|3:2,0:0:0:0:
105,336,11090,6,0,L|49:338,1,48,10|0,3:2|3:2,3:3:0:0:
135,279,11263,2,0,L|204:276,1,48,2|0,3:2|3:2,3:3:0:0:
262,270,11435,2,0,L|205:273,1,48,10|0,3:2|3:2,3:3:0:0:
295,267,11608,2,0,L|353:264,1,48,2|0,3:2|3:2,3:3:0:0:
114,128,11780,6,0,L|172:125,1,48,10|0,3:2|3:2,3:3:0:0:
78,131,11952,2,0,L|27:134,1,48,10|0,3:2|3:2,3:3:0:0:
280,113,12125,2,0,L|346:109,1,48,10|0,3:2|0:0,0:0:0:0:
44,48,12297,6,0,L|191:43,1,144,6|0,3:2|0:0,0:0:0:0:
419,33,12642,1,2,3:2:0:0:
84,347,12815,5,10,3:2:0:0:
55,309,12901,1,0,3:2:0:0:
62,263,12987,1,2,3:2:0:0:
100,236,13073,1,2,3:2:0:0:
301,328,13159,6,0,L|305:274,1,48,10|0,3:2|3:2,3:3:0:0:
211,235,13332,2,0,L|156:230,1,48,2|0,3:2|3:2,3:3:0:0:
262,157,13504,2,0,L|325:161,1,48,10|0,3:2|3:2,0:0:0:0:
494,173,13677,2,0,L|437:171,1,48,2|0,3:2|3:2,0:0:0:0:
208,30,13849,5,10,3:2:0:0:
169,56,13935,1,0,3:2:0:0:
150,99,14021,1,2,3:2:0:0:
157,146,14107,1,0,3:2:0:0:
188,182,14193,1,2,3:2:0:0:
233,197,14280,1,0,3:2:0:0:
418,261,14366,2,0,L|350:259,1,48,2|0,3:2|3:2,3:3:0:0:
115,344,14539,6,0,L|112:282,1,48,10|0,3:2|3:2,0:0:0:0:
300,108,14711,2,0,L|244:111,1,48,10|0,3:2|3:2,0:0:0:0:
33,52,14883,2,0,L|90:49,1,48,10|0,3:2|0:0,0:0:0:0:
381,35,15056,6,0,L|229:38,1,144,6|0,3:2|0:0,0:0:0:0:
485,34,15401,1,2,3:2:0:0:
202,340,15573,6,0,L|197:270,1,48,10|0,3:2|3:2,0:0:0:0:
289,211,15746,2,0,L|349:206,1,48,2|0,3:2|3:2,0:0:0:0:
115,28,15918,1,10,3:2:0:0:
78,58,16004,1,0,3:2:0:0:
61,102,16090,1,2,3:2:0:0:
68,149,16176,1,0,3:2:0:0:
97,186,16262,1,2,3:2:0:0:
141,204,16349,1,0,3:2:0:0:
295,218,16435,2,0,L|242:215,1,48,2|0,3:2|3:2,3:3:0:0:
34,326,16608,6,0,L|86:324,1,48,10|0,3:2|3:2,0:0:0:0:
330,89,16780,2,0,L|334:31,1,48,2|0,3:2|3:2,0:0:0:0:
253,124,16952,2,0,L|191:121,1,48,10|0,3:2|3:2,0:0:0:0:
359,310,17125,2,0,L|425:317,1,48,2|0,3:2|3:2,0:0:0:0:
92,220,17297,6,0,L|148:220,1,48,10|0,3:2|3:2,0:0:0:0:
307,218,17470,2,0,L|248:218,1,48,10|0,3:2|3:2,0:0:0:0:
423,219,17642,2,0,L|487:219,1,48,10|0,3:2|3:2,3:3:0:0:
69,52,17815,5,4,0:0:0:0:
295,330,18159,1,0,0:0:0:0:
298,318,18332,1,2,0:0:0:0:
40,248,18677,2,0,L|34:48,1,192,2|2,0:0|0:0,0:0:0:0:
345,32,19366,5,2,0:0:0:0:
224,136,19539,2,0,L|220:84,1,48,0|0,0:0|0:0,0:0:0:0:
318,219,19711,2,0,L|376:215,1,48,2|0,0:0|0:0,0:0:0:0:
221,332,19883,2,0,L|161:338,1,48,8|8,0:3|0:3,0:0:0:0:
489,312,20056,5,8,0:0:0:0:
251,53,20228,2,0,L|359:52,1,96,8|0,0:0|0:0,0:0:0:0:
37,58,20573,5,4,3:2:0:0:
301,44,20918,1,2,3:2:0:0:
157,137,21090,6,0,L|261:133,1,96,10|2,0:1|0:0,0:0:0:0:
200,205,21349,1,0,0:0:0:0:
408,201,21435,2,0,L|303:207,2,96,2|0|0,3:2|3:0|0:0,0:0:0:0:
458,196,21866,1,0,3:0:0:0:
206,337,21952,6,0,L|108:343,1,96,8|2,0:0|0:0,0:0:0:0:
233,260,22297,1,2,3:1:0:0:
72,180,22470,2,0,L|63:82,1,96,8|0,0:0|0:0,0:0:0:0:
349,146,22815,5,2,3:1:0:0:
21,338,22987,2,0,L|123:331,1,96,2|0,3:1|0:0,0:0:0:0:
493,59,23332,6,0,L|295:68,1,192,12|2,3:2|3:2,0:0:0:0:
405,146,23849,1,10,0:1:0:0:
175,327,24021,1,2,0:0:0:0:
172,279,24107,1,2,0:0:0:0:
169,231,24193,1,2,3:2:0:0:
400,236,24366,2,0,L|511:228,1,96,0|0,3:0|0:0,0:0:0:0:
180,29,24711,6,0,P|133:69|197:162,1,192,8|2,0:0|3:1,0:0:0:0:
339,246,25228,2,0,L|344:355,1,96,8|2,0:0|0:0,0:0:0:0:
105,338,25573,5,2,3:1:0:0:
400,95,25746,2,0,L|506:92,1,96,2|0,3:1|0:0,0:0:0:0:
199,97,26090,6,0,L|1:101,1,192,12|2,3:2|3:2,0:0:0:0:
106,193,26608,1,10,0:1:0:0:
348,340,26780,2,0,L|403:342,2,48,2|2|2,0:0|0:0|3:2,0:0:0:0:
199,333,27125,1,0,3:0:0:0:
160,305,27211,1,0,0:0:0:0:
150,259,27297,1,0,0:0:0:0:
172,218,27383,1,0,3:0:0:0:
216,202,27470,6,0,L|321:201,1,96,8|2,0:0|0:0,0:0:0:0:
46,43,27815,1,2,3:1:0:0:
320,21,27987,2,0,L|327:132,1,96,8|0,0:0|0:0,0:0:0:0:
328,160,28246,1,2,0:0:0:0:
103,139,28332,5,2,3:1:0:0:
371,267,28504,2,0,L|484:273,1,96,2|0,3:1|0:0,0:0:0:0:
42,340,28849,5,12,0:0:0:0:
40,319,28878,1,0,0:0:0:0:
265,38,30918,2,0,L|269:98,1,48,4|4,3:3|3:3,0:0:0:0:
115,142,31090,5,8,0:0:0:0:
359,342,31263,2,0,L|509:351,1,144,8|0,0:0|0:0,0:0:0:0:
184,306,31608,6,0,P|136:244|208:163,1,192,4|2,3:2|3:2,0:0:0:0:
458,52,32125,2,0,L|361:57,1,96,10|2,0:1|0:0,0:0:0:0:
127,76,32470,1,2,3:1:0:0:
386,314,32642,2,0,L|389:208,1,96,2|10,0:0|0:1,0:0:0:0:
104,337,32987,6,0,L|0:343,1,96,2|2,0:0|3:1,0:0:0:0:
253,222,33332,2,0,L|355:219,1,96,2|10,0:0|0:1,0:0:0:0:
88,48,33677,6,0,L|33:49,1,48,0|0,0:0|0:0,0:0:0:0:
195,144,33849,1,8,3:0:0:0:
316,143,34021,2,0,L|383:141,1,48,8|8,0:0|0:0,0:0:0:0:
192,288,34194,1,8,3:0:0:0:
492,46,34366,6,0,L|296:52,1,192,12|2,0:0|0:0,0:0:0:0:
157,185,34883,2,0,L|149:82,1,96,10|2,0:1|0:0,0:0:0:0:
382,82,35228,1,2,3:1:0:0:
118,288,35401,2,0,L|13:296,1,96,2|10,0:0|0:1,0:0:0:0:
310,144,35746,6,0,L|520:134,1,192,8|2,3:3|0:0,0:0:0:0:
251,340,36263,1,10,0:1:0:0:
139,203,36435,2,0,L|195:198,1,48,12|0,0:0|0:0,0:0:0:0:
404,36,36608,2,0,L|298:44,1,96,8|8,3:0|3:0,0:0:0:0:
41,63,36952,1,8,0:0:0:0:
427,341,37125,6,0,L|431:132,1,192,4|2,3:2|3:2,0:0:0:0:
198,28,37642,1,10,0:1:0:0:
165,61,37728,1,0,0:0:0:0:
160,108,37814,1,2,0:0:0:0:
186,147,37900,1,2,0:0:0:0:
231,162,37987,6,0,L|335:169,1,96,2|2,3:1|3:2,0:0:0:0:
78,308,38332,1,10,0:1:0:0:
368,286,38504,2,0,L|262:293,1,96,8|0,0:3|0:0,0:0:0:0:
34,210,38849,2,0,L|92:205,1,48,2|0,0:0|0:0,0:0:0:0:
264,65,39021,2,0,L|111:76,1,144,10|0,0:1|0:0,0:0:0:0:
304,171,39366,6,0,L|194:182,1,96,0|8,3:0|0:0,0:0:0:0:
452,154,39711,1,0,3:0:0:0:
56,36,39883,6,0,L|51:235,1,192,12|2,0:0|0:0,0:0:0:0:
327,342,40401,2,0,L|428:336,1,96,10|2,0:1|0:0,0:0:0:0:
187,216,40746,6,0,L|83:222,1,96,2|8,3:1|0:0,0:0:0:0:
351,202,41090,1,8,0:3:0:0:
25,64,41263,6,0,L|233:56,1,192,10|0,0:1|3:0,0:0:0:0:
115,144,41780,1,10,0:1:0:0:
346,48,41952,2,0,L|290:50,1,48,8|8,0:0|0:0,0:0:0:0:
376,110,42125,6,0,L|482:107,1,96,4|4,3:0|3:0,0:0:0:0:
231,299,42470,1,4,3:0:0:0:
103,305,42642,1,4,3:0:0:0:
466,345,42815,6,0,L|471:151,1,172.799994726563,4|2,3:2|0:3,0:0:0:0:
476,62,43332,1,0,3:0:0:0:
228,43,43504,2,0,L|135:40,1,86.3999973632813,10|0,0:0|0:0,0:0:0:0:
296,151,43849,2,0,L|389:153,1,86.3999973632813,2|0,3:0|3:0,0:0:0:0:
97,320,44194,6,0,L|282:325,1,172.799994726563,2|2,0:0|0:3,0:0:0:0:
364,326,44711,1,0,3:0:0:0:
190,189,44883,2,0,L|98:186,1,86.3999973632813,10|0,0:0|0:0,0:0:0:0:
397,47,45228,2,0,L|495:47,1,86.3999973632813,2|0,0:3|3:0,0:0:0:0:
190,335,45573,6,0,L|12:336,1,172.799994726563,2|2,3:2|0:3,0:0:0:0:
105,250,46090,1,0,3:0:0:0:
345,29,46263,2,0,L|352:205,1,172.799994726563,10|2,0:0|3:0,0:0:0:0:
441,281,46780,1,0,3:0:0:0:
193,355,46952,5,2,0:0:0:0:
126,301,47124,1,8,0:0:0:0:
96,221,47296,1,2,0:3:0:0:
111,136,47469,1,0,3:0:0:0:
165,71,47641,1,10,0:0:0:0:
246,42,47814,1,4,3:2:0:0:
494,219,47987,1,0,0:0:0:0:
413,190,48160,1,4,3:0:0:0:
68,31,48332,6,0,L|56:209,1,172.799994726563,6|2,3:2|0:3,0:0:0:0:
51,295,48849,1,0,3:0:0:0:
343,358,49021,6,0,P|291:316|183:267,1,172.799994726563,10|2,0:0|3:0,0:0:0:0:
108,247,49539,1,0,3:0:0:0:
341,93,49711,2,0,L|252:95,1,86.3999973632813,2|8,3:2|0:0,0:0:0:0:
490,91,50056,1,2,0:3:0:0:
202,242,50228,6,0,L|305:241,1,86.3999973632813,0|10,3:0|0:0,0:0:0:0:
149,166,50573,2,0,L|55:168,1,86.3999973632813,0|2,0:0|0:0,0:0:0:0:
356,161,50918,1,0,3:0:0:0:
27,83,51090,6,0,L|213:80,1,172.799994726563,2|2,3:2|0:3,0:0:0:0:
108,164,51608,1,0,3:0:0:0:
358,343,51780,2,0,L|450:341,1,86.3999973632813,10|2,0:0|0:0,0:0:0:0:
156,31,52125,6,0,L|149:122,1,86.3999973632813,2|0,3:0|3:0,0:0:0:0:
306,213,52470,2,0,L|397:219,1,86.3999973632813,2|8,0:0|0:0,0:0:0:0:
112,337,52815,2,0,L|22:342,1,86.3999973632813,2|0,0:3|3:0,0:0:0:0:
291,333,53159,5,8,0:0:0:0:
326,310,53245,1,8,0:0:0:0:
336,269,53331,1,8,0:0:0:0:
315,232,53417,1,8,0:0:0:0:
275,220,53504,2,0,L|137:210,1,129.599996044922,12|0,0:0|0:0,0:0:0:0:
389,50,53849,6,0,L|496:52,1,96,4|0,3:2|0:0,0:0:0:0:
189,41,54194,2,0,L|181:146,1,96,10|0,0:1|0:0,0:0:0:0:
420,328,54539,1,2,3:1:0:0:
111,221,54711,2,0,L|11:218,1,96,0|10,3:0|0:1,0:0:0:0:
395,32,55056,6,0,L|402:235,1,192,0|0,3:0|3:0,0:0:0:0:
164,36,55573,2,0,L|53:38,1,96,10|0,0:1|0:0,0:0:0:0:
395,345,55918,2,0,L|288:347,1,96,2|0,3:1|3:0,0:0:0:0:
26,187,56263,2,0,L|179:184,1,144,10|2,0:1|3:2,0:0:0:0:
489,178,56608,6,0,L|334:182,1,144,12|0,0:0|0:0,0:0:0:0:
412,121,56952,1,2,3:1:0:0:
157,127,57125,1,12,0:0:0:0:
460,348,57297,2,0,L|462:249,1,96,8|2,3:0|3:1,0:0:0:0:
165,215,57642,6,0,L|21:216,1,144,8|0,0:0|0:0,0:0:0:0:
91,146,57987,1,2,3:1:0:0:
356,147,58159,1,12,0:0:0:0:
48,20,58332,2,0,L|41:115,1,96,4|2,3:0|3:1,0:0:0:0:
325,349,58677,5,12,0:0:0:0:
195,311,58849,2,0,L|191:250,1,48,8|8,0:0|3:0,0:0:0:0:
277,193,59021,2,0,L|339:188,1,48,10|8,0:0|0:0,0:0:0:0:
103,77,59194,2,0,L|46:81,1,48,2|2,3:2|3:2,0:0:0:0:
327,64,59366,6,0,L|431:56,1,96,12|2,0:0|3:2,0:0:0:0:
150,178,59711,1,2,3:1:0:0:
429,341,59883,1,10,0:0:0:0:
465,311,59969,1,0,3:0:0:0:
481,266,60055,1,0,3:0:0:0:
471,220,60141,1,0,3:0:0:0:
438,186,60227,1,6,3:2:0:0:
392,174,60314,1,2,3:2:0:0:
232,176,60401,2,0,L|284:173,1,48,2|2,3:2|3:2,0:0:0:0:
54,192,60573,5,8,3:2:0:0:
389,349,61608,2,0,L|390:292,1,48,0|0,3:0|3:0,0:0:0:0:
186,126,61780,2,0,L|22:129,1,144,12|0,0:0|0:0,0:0:0:0:
311,30,62125,5,14,3:2:0:0:
352,60,62211,1,0,3:2:0:0:
372,109,62297,1,0,3:2:0:0:
363,160,62383,1,0,3:2:0:0:
328,199,62469,1,10,3:2:0:0:
277,213,62556,1,0,3:2:0:0:
114,159,62642,2,0,L|188:155,1,52.8000016113282,0|0,3:2|3:2,0:0:0:0:
352,348,62815,6,0,L|294:351,1,52.8000016113282,10|0,3:2|3:2,0:0:0:0:
372,345,62987,2,0,L|441:341,1,52.8000016113282,0|0,3:2|3:2,0:0:0:0:
254,125,63159,2,0,L|198:127,1,52.8000016113282,10|0,3:2|3:2,0:0:0:0:
354,116,63332,2,0,L|296:120,1,52.8000016113282,0|0,3:2|3:2,0:0:0:0:
79,60,63504,5,10,3:2:0:0:
235,226,63590,2,0,L|298:223,2,52.8000016113282,0|0|0,3:2|3:2|3:2,0:0:0:0:
160,228,63849,2,0,L|99:230,1,52.8000016113282,10|0,3:2|3:2,0:0:0:0:
181,160,64021,2,0,L|259:157,1,52.8000016113282,0|0,3:2|3:2,0:0:0:0:
470,322,64194,5,10,3:2:0:0:
313,155,64280,2,0,L|250:158,2,52.8000016113282,0|0|0,3:2|3:2|3:2,0:0:0:0:
156,82,64539,2,0,L|217:79,1,52.8000016113282,10|0,3:2|3:2,0:0:0:0:
377,69,64711,2,0,L|319:72,1,52.8000016113282,0|0,3:2|3:2,0:0:0:0:
87,86,64883,5,10,3:2:0:0:
251,285,64970,2,0,L|320:285,2,52.8000016113282,0|0|0,3:2|3:2|3:2,0:0:0:0:
408,200,65228,2,0,L|350:200,1,52.8000016113282,10|0,3:2|3:2,0:0:0:0:
287,199,65401,2,0,L|219:198,1,52.8000016113282,0|0,3:2|3:2,0:0:0:0:
475,201,65573,5,10,3:2:0:0:
311,82,65659,2,0,L|236:82,2,52.8000016113282,0|0|0,3:2|3:2|3:2,0:0:0:0:
164,85,65918,2,0,L|227:84,1,52.8000016113282,10|0,3:2|3:2,0:0:0:0:
139,86,66090,2,0,L|75:86,1,52.8000016113282,0|0,3:2|3:2,0:0:0:0:
308,299,66263,5,10,3:2:0:0:
130,181,66349,2,0,L|55:181,2,52.8000016113282,0|2|0,3:2|3:2|3:2,3:3:0:0:
324,27,66608,5,10,3:2:0:0:
366,57,66694,1,0,3:2:0:0:
385,105,66780,1,2,3:2:0:0:
376,157,66866,1,0,3:2:0:0:
342,196,66952,1,2,3:2:0:0:
292,211,67039,1,0,3:2:0:0:
354,275,67125,2,0,L|419:278,1,52.8000016113282,2|0,3:2|3:2,3:3:0:0:
208,325,67297,6,0,L|276:327,1,52.8000016113282,10|0,3:2|3:2,3:3:0:0:
455,336,67470,2,0,L|397:332,1,52.8000016113282,2|0,3:2|3:2,0:0:0:0:
196,98,67642,5,14,3:2:0:0:
358,98,67728,2,0,L|426:97,2,52.8000016113282,0|0|0,3:2|3:2|3:2,0:0:0:0:
299,99,67987,2,0,L|232:98,1,52.8000016113282,10|0,3:2|3:2,0:0:0:0:
458,209,68159,5,2,3:2:0:0:
288,205,68245,2,0,L|220:204,2,52.8000016113282,0|8|0,3:2|3:2|3:2,0:0:0:0:
357,205,68504,2,0,L|293:205,1,52.8000016113282,2|0,3:2|3:2,0:0:0:0:
153,105,68677,2,0,L|213:106,1,52.8000016113282,8|0,3:2|3:2,0:0:0:0:
347,107,68849,2,0,L|290:106,1,52.8000016113282,2|0,3:2|3:2,0:0:0:0:
74,40,69022,5,10,3:2:0:0:
219,38,69108,1,0,3:2:0:0:
266,63,69194,1,0,3:2:0:0:
306,96,69280,1,0,3:2:0:0:
156,138,69366,5,10,3:2:0:0:
306,96,69452,1,0,3:2:0:0:
329,143,69539,1,0,3:2:0:0:
342,194,69625,1,0,3:2:0:0:
182,154,69711,5,10,3:2:0:0:
342,194,69798,1,0,3:2:0:0:
325,243,69884,1,0,3:2:0:0:
298,289,69970,1,0,3:2:0:0:
152,171,70056,5,10,3:2:0:0:
298,289,70143,1,0,3:2:0:0:
249,309,70229,1,0,3:2:0:0:
197,320,70315,1,0,3:2:0:0:
362,344,70401,5,14,3:2:0:0:
213,255,70487,1,0,3:2:0:0:
260,231,70573,1,0,3:2:0:0:
311,217,70659,1,0,3:2:0:0:
464,197,70746,5,10,3:2:0:0:
311,217,70832,1,0,3:2:0:0:
308,164,70918,1,0,3:2:0:0:
305,111,71004,1,0,3:2:0:0:
469,46,71090,2,0,L|404:46,1,52.8000016113282,10|0,3:2|3:2,0:0:0:0:
169,51,71263,2,0,L|229:50,1,52.8000016113282,0|0,3:2|3:2,0:0:0:0:
469,239,71435,5,10,3:2:0:0:
170,333,71608,2,0,L|46:339,1,105.600003222656,6|8,3:2|3:2,3:3:0:0:
201,261,71952,1,2,3:2:0:0:
465,252,72125,1,8,0:0:0:0:
76,37,72297,6,0,L|66:253,1,211.200006445313,14|10,0:0|0:0,0:0:0:0:
64,297,72728,1,8,0:0:0:0:
275,256,72815,2,0,L|219:254,1,52.8000016113282,8|8,0:0|0:0,0:0:0:0:
32,54,72987,2,0,L|91:53,1,52.8000016113282,4|4,3:3|3:3,0:0:0:0:
373,39,73159,6,0,L|378:154,1,105.600003222656,4|2,3:2|0:0,0:0:0:0:
129,344,73504,2,0,L|17:350,1,105.600003222656,10|2,0:1|0:0,0:0:0:0:
273,98,73849,2,0,L|163:99,1,105.600003222656,2|2,0:1|3:2,0:0:0:0:
404,93,74194,2,0,L|510:90,1,105.600003222656,10|0,0:1|0:0,0:0:0:0:
188,339,74539,5,2,3:1:0:0:
146,306,74625,1,0,0:0:0:0:
127,258,74711,1,2,0:0:0:0:
133,206,74797,1,0,0:0:0:0:
165,165,74883,1,10,0:1:0:0:
213,144,74970,1,0,0:0:0:0:
361,73,75056,2,0,L|302:75,1,52.8000016113282,2|0,0:0|0:0,0:0:0:0:
34,68,75228,6,0,L|151:65,1,105.600003222656,2|2,0:1|3:2,0:0:0:0:
432,61,75573,1,10,0:1:0:0:
172,276,75746,2,0,L|169:214,1,52.8000016113282,2|2,0:0|0:0,0:0:0:0:
385,157,75918,6,0,L|504:153,1,105.600003222656,2|2,3:1|0:0,0:0:0:0:
240,54,76263,2,0,L|79:55,1,158.400004833985,10|0,0:1|0:0,0:0:0:0:
371,180,76608,2,0,L|257:184,1,105.600003222656,2|2,0:1|3:2,0:0:0:0:
13,188,76952,2,0,L|135:185,1,105.600003222656,10|2,0:1|0:0,0:0:0:0:
462,186,77297,5,2,3:1:0:0:
207,22,77470,2,0,L|202:134,1,105.600003222656,2|10,0:0|0:1,0:0:0:0:
447,230,77815,2,0,L|386:228,1,52.8000016113282,2|0,0:0|0:0,0:0:0:0:
171,333,77987,6,0,L|291:334,1,105.600003222656,2|2,3:1|3:2,0:0:0:0:
45,230,78332,1,10,0:1:0:0:
327,170,78504,2,0,L|396:172,1,52.8000016113282,8|8,0:0|0:0,0:0:0:0:
205,45,78677,5,14,0:1:0:0:
75,46,78849,2,0,L|14:46,1,57.5999982421876,2|0,3:2|0:0,0:0:0:0:
175,127,79021,5,10,0:1:0:0:
47,187,79194,2,0,L|116:186,1,57.5999982421876,2|0,3:2|0:0,0:0:0:0:
260,189,79366,5,10,0:1:0:0:
136,279,79539,2,0,L|203:277,1,57.5999982421876,0|0,3:0|0:0,0:0:0:0:
353,277,79711,5,10,0:1:0:0:
233,346,79883,2,0,L|307:345,1,57.5999982421876,2|0,3:2|0:0,0:0:0:0:
477,346,80056,5,14,0:1:0:0:
347,346,80228,2,0,L|435:348,1,57.5999982421876,2|0,3:2|0:0,0:0:0:0:
226,255,80401,5,10,0:1:0:0:
343,174,80573,2,0,L|267:172,1,57.5999982421876,0|0,3:2|0:0,0:0:0:0:
111,251,80746,5,10,0:1:0:0:
228,170,80918,2,0,L|152:168,1,57.5999982421876,0|0,3:2|0:0,0:0:0:0:
24,163,81090,6,0,B|69:135|94:117|169:85,1,158.400004833985,8|4,0:3|0:3,0:0:0:0:
416,28,81435,6,0,L|421:142,1,105.600003222656,6|0,3:1|0:0,0:0:0:0:
180,309,81780,1,10,0:1:0:0:
411,338,81952,1,2,3:2:0:0:
290,276,82125,2,0,L|286:220,1,52.8000016113282,8|0,0:0|0:0,0:0:0:0:
376,165,82297,2,0,L|436:163,1,52.8000016113282,8|0,3:3|0:0,0:0:0:0:
218,119,82470,2,0,L|154:120,1,52.8000016113282,4|0,3:3|0:0,0:0:0:0:
478,44,82642,6,0,L|256:46,1,211.200006445313,10|0,0:1|3:0,0:0:0:0:
26,213,83159,2,0,L|140:210,1,105.600003222656,14|2,0:1|0:0,0:0:0:0:
382,347,83504,1,8,0:0:0:0:
236,288,83677,2,0,L|232:229,1,52.8000016113282,0|0,3:1|3:1,0:0:0:0:
308,198,83849,2,0,L|256:201,1,52.8000016113282,10|2,0:1|3:2,0:0:0:0:
399,126,84021,2,0,L|327:130,1,52.8000016113282,2|2,3:2|3:2,0:0:0:0:
10,150,84194,5,4,3:2:0:0:
134,150,84366,1,2,0:0:0:0:
260,154,84539,1,0,3:0:0:0:
134,150,84711,1,10,0:0:0:0:
260,154,84883,1,8,3:0:0:0:
386,156,85056,1,2,3:2:0:0:
512,160,85228,1,0,3:0:0:0:
236,342,85401,6,0,L|20:344,1,211.200006445313,12|0,0:0|3:0,0:0:0:0:
322,225,85918,1,12,0:0:0:0:
193,168,86090,2,0,L|263:168,1,52.8000016113282,0|4,0:0|3:3,0:0:0:0:
401,167,86263,5,8,3:3:0:0:
128,43,86435,1,0,3:0:0:0:
87,76,86521,1,0,0:0:0:0:
68,124,86607,1,2,3:2:0:0:
73,176,86693,1,2,3:2:0:0:
103,219,86779,1,2,3:2:0:0:
150,242,86866,1,2,3:2:0:0:
409,143,86952,5,4,3:2:0:0:
162,143,87125,2,0,L|279:144,1,105.600003222656,2|0,0:0|3:2,0:0:0:0:
29,40,87470,1,10,0:0:0:0:
384,345,87642,1,0,3:2:0:0:
250,338,87815,1,2,3:2:0:0:
384,345,87987,1,0,3:0:0:0:
28,117,88159,6,0,L|253:119,1,211.200006445313,12|2,0:0|3:2,0:0:0:0:
498,62,88677,2,0,L|380:59,1,105.600003222656,12|2,0:0|3:2,0:0:0:0:
113,44,89021,5,8,3:0:0:0:
234,179,89194,2,0,L|169:180,1,52.8000016113282,8|0,3:2|3:3,0:0:0:0:
24,289,89366,2,0,L|103:289,1,52.8000016113282,0|0,3:3|3:3,0:0:0:0:
369,290,89539,6,0,L|153:286,1,211.200006445313,4|2,3:2|0:1,0:0:0:0:
393,176,90056,2,0,L|507:181,1,105.600003222656,10|0,0:0|0:0,0:0:0:0:
213,26,90401,2,0,L|208:138,1,105.600003222656,2|2,3:2|0:1,0:0:0:0:
331,209,90746,1,10,0:0:0:0:
78,337,90918,2,0,L|8:341,1,52.8000016113282,2|2,0:1|0:0,0:0:0:0:
237,325,91090,6,0,L|351:321,1,105.600003222656,2|0,3:2|0:0,0:0:0:0:
186,234,91435,2,0,L|77:239,1,105.600003222656,10|2,0:0|0:1,0:0:0:0:
335,87,91780,2,0,L|228:89,1,105.600003222656,2|2,3:2|3:1,0:0:0:0:
371,90,92125,2,0,L|482:90,1,105.600003222656,10|2,0:0|0:1,0:0:0:0:
220,345,92470,6,0,L|213:236,1,105.600003222656,2|2,3:2|0:1,0:0:0:0:
462,173,92815,1,10,0:0:0:0:
139,109,92987,2,0,L|18:114,1,105.600003222656,2|2,0:1|3:2,0:0:0:0:
331,106,93332,1,2,3:1:0:0:
464,111,93504,1,10,0:0:0:0:
31,345,93677,5,6,3:2:0:0:
256,192,93849,12,0,100746,0:0:0:0:
