osu file format v14

[General]
AudioFilename: audio.mp3
AudioLeadIn: 0
PreviewTime: 84067
Countdown: 0
SampleSet: Soft
StackLeniency: 0.2
Mode: 0
LetterboxInBreaks: 0
EpilepsyWarning: 1
WidescreenStoryboard: 1

[Editor]
Bookmarks: 16953,22438,44381,55353,66324,77296,85524,101981,107467,118438,129410,134724
DistanceSpacing: 2.8
BeatDivisor: 4
GridSize: 16
TimelineZoom: 3.399999

[Metadata]
Title:Harumodoki (Asterisk DnB Remix) [Rakakun- Edit]
TitleUnicode:春擬き (Asterisk DnB Remix) [Rakakun- Edit]
Artist:Pastel*Palettes
ArtistUnicode:Pastel*Palettes
Creator:-Mikan
Version:Frakturehawkens' Extra
Source:バンドリ!ガールズバンドパーティ!
Tags:Tommy Phelps Syadow- Daeng Simatta Shinitagari Kanon Matsubara Xenon- Xen Xehn Dored Frakturehawkens Shizuku- Kowari BanG Dream! Girls Band Party! Garupa Bandori! ガルパ! PasuPare パスパレ Paspale パステルパレット ぱすてるぱれっと 丸山彩 Maruyama Aya 大和麻弥 Yamato Maya 若宮イヴ Wakamiya Eve 白鷺千聖 Shirasagi Chisato 氷川日菜 Hikawa Hina 前島亜美 Maeshima Ami 中上育美 Nakagami Ikumi 秦佐和子 Hata Sawako 上坂すみれ Uesaka Sumire 小澤亜李 Ozawa Ari yanaginagi cover opening op anime japanese drum 'n' bass and video game size やなぎなぎ やはり俺の青春ラブコメはまちがっている。続 Yahari Ore no Seishun Love Comedy wa Machigatteiru Zoku My Teen Romantic SNAFU 2 oregairu haru modoki
BeatmapID:2198452
BeatmapSetID:1034608

[Difficulty]
HPDrainRate:5
CircleSize:4
OverallDifficulty:9
ApproachRate:9.4
SliderMultiplier:2.1
SliderTickRate:1

[Events]
//Background and Video events
0,0,"555ed8ccd28b6f64dbb7470885d201e06224e56b_s2_n2.jpg",0,0
//Break Periods
//Storyboard Layer 0 (Background)
//Storyboard Layer 1 (Fail)
//Storyboard Layer 2 (Pass)
//Storyboard Layer 3 (Foreground)
Sprite,Foreground,Centre,"sb\circle3.png",64,282 C,0,85524,,255,202,202 F,4,85524,86381,0.2,0 S,4,85524,86381,0.1,0.4 P,0,85524,86381,A
Sprite,Foreground,Centre,"sb\circle3.png",323,139 C,0,85867,,255,202,202 F,4,85867,86809,0.2,0 S,4,85867,86809,0.1,0.4 P,0,85867,86809,A
Sprite,Foreground,Centre,"sb\circle3.png",563,260 C,0,86296,,255,202,202 F,4,86296,87067,0.2,0 S,4,86296,87067,0.1,0.4 P,0,86296,87067,A
Sprite,Foreground,Centre,"sb\circle3.png",465,176 C,0,86553,,255,202,202 F,4,86553,87238,0.2,0 S,4,86553,87238,0.1,0.4 P,0,86553,87238,A
Sprite,Foreground,Centre,"sb\circle3.png",481,260 C,0,86724,,255,202,202 F,4,86724,87409,0.2,0 S,4,86724,87409,0.1,0.4 P,0,86724,87409,A
Sprite,Foreground,Centre,"sb\circle3.png",311,435 C,0,86896,,255,202,202 F,4,86896,87753,0.2,0 S,4,86896,87753,0.1,0.4 P,0,86896,87753,A
Sprite,Foreground,Centre,"sb\circle3.png",77,383 C,0,87238,,255,202,202 F,4,87238,88009,0.2,0 S,4,87238,88009,0.1,0.4 P,0,87238,88009,A
Sprite,Foreground,Centre,"sb\circle3.png",310,143 C,0,87581,,255,202,202 F,4,87581,88266,0.2,0 S,4,87581,88266,0.1,0.4 P,0,87581,88266,A
Sprite,Foreground,Centre,"sb\circle3.png",227,60 C,0,87753,,255,202,202 F,4,87753,88353,0.2,0 S,4,87753,88353,0.1,0.4 P,0,87753,88353,A
Sprite,Foreground,Centre,"sb\circle3.png",465,176 C,0,87924,,255,202,202 F,4,87924,88824,0.2,0 S,4,87924,88824,0.1,0.4 P,0,87924,88824,A
Sprite,Foreground,Centre,"sb\circle3.png",101,147 C,0,88267,,255,202,202 F,4,88267,89038,0.2,0 S,4,88267,89038,0.1,0.4 P,0,88267,89038,A
Sprite,Foreground,Centre,"sb\circle3.png",228,287 C,0,88524,,255,202,202 F,4,88524,89124,0.2,0 S,4,88524,89124,0.1,0.4 P,0,88524,89124,A
Sprite,Foreground,Centre,"sb\circle3.png",228,287 C,0,88610,,255,202,202 F,4,88610,89381,0.2,0 S,4,88610,89381,0.1,0.4 P,0,88610,89381,A
Sprite,Foreground,Centre,"sb\circle3.png",101,147 C,0,88953,,255,202,202 F,4,88953,89638,0.2,0 S,4,88953,89638,0.1,0.4 P,0,88953,89638,A
Sprite,Foreground,Centre,"sb\circle3.png",217,119 C,0,89124,,255,202,202 F,4,89124,89809,0.2,0 S,4,89124,89809,0.1,0.4 P,0,89124,89809,A
Sprite,Foreground,Centre,"sb\circle3.png",186,385 C,0,89296,,255,202,202 F,4,89296,90067,0.2,0 S,4,89296,90067,0.1,0.4 P,0,89296,90067,A
Sprite,Foreground,Centre,"sb\circle3.png",260,290 C,0,89638,,255,202,202 F,4,89638,90409,0.2,0 S,4,89638,90409,0.1,0.4 P,0,89638,90409,A
Sprite,Foreground,Centre,"sb\circle3.png",224,146 C,0,89896,,255,202,202 F,4,89896,90496,0.2,0 S,4,89896,90496,0.1,0.4 P,0,89896,90496,A
Sprite,Foreground,Centre,"sb\circle3.png",224,146 C,0,89981,,255,202,202 F,4,89981,90666,0.2,0 S,4,89981,90666,0.1,0.4 P,0,89981,90666,A
Sprite,Foreground,Centre,"sb\circle3.png",448,178 C,0,90153,,255,202,202 F,4,90153,90924,0.2,0 S,4,90153,90924,0.1,0.4 P,0,90153,90924,A
Sprite,Foreground,Centre,"sb\circle3.png",394,113 C,0,90410,,255,202,202 F,4,90410,91095,0.2,0 S,4,90410,91095,0.1,0.4 P,0,90410,91095,A
Sprite,Foreground,Centre,"sb\circle3.png",531,183 C,0,90581,,255,202,202 F,4,90581,91181,0.2,0 S,4,90581,91181,0.1,0.4 P,0,90581,91181,A
Sprite,Foreground,Centre,"sb\circle3.png",531,183 C,0,90667,,255,202,202 F,4,90667,91352,0.2,0 S,4,90667,91352,0.1,0.4 P,0,90667,91352,A
Sprite,Foreground,Centre,"sb\circle3.png",502,60 C,0,90838,,255,202,202 F,4,90838,91523,0.2,0 S,4,90838,91523,0.1,0.4 P,0,90838,91523,A
Sprite,Foreground,Centre,"sb\circle3.png",313,111 C,0,91010,,255,202,202 F,4,91010,91781,0.2,0 S,4,91010,91781,0.1,0.4 P,0,91010,91781,A
Sprite,Foreground,Centre,"sb\circle3.png",483,428 C,0,91267,,255,202,202 F,4,91267,91867,0.2,0 S,4,91267,91867,0.1,0.4 P,0,91267,91867,A
Sprite,Foreground,Centre,"sb\circle3.png",474,437 C,0,91353,,255,202,202 F,4,91353,92038,0.2,0 S,4,91353,92038,0.1,0.4 P,0,91353,92038,A
Sprite,Foreground,Centre,"sb\circle3.png",335,320 C,0,91524,,255,202,202 F,4,91524,92209,0.2,0 S,4,91524,92209,0.1,0.4 P,0,91524,92209,A
Sprite,Foreground,Centre,"sb\circle3.png",522,304 C,0,91696,,255,202,202 F,4,91696,92296,0.2,0 S,4,91696,92296,0.1,0.4 P,0,91696,92296,A
Sprite,Foreground,Centre,"sb\circle3.png",522,304 C,0,91781,,255,202,202 F,4,91781,92381,0.2,0 S,4,91781,92381,0.1,0.4 P,0,91781,92381,A
Sprite,Foreground,Centre,"sb\circle3.png",522,304 C,0,91867,,255,202,202 F,4,91867,92467,0.2,0 S,4,91867,92467,0.1,0.4 P,0,91867,92467,A
Sprite,Foreground,Centre,"sb\circle3.png",281,440 C,0,92038,,255,202,202 F,4,92038,92723,0.2,0 S,4,92038,92723,0.1,0.4 P,0,92038,92723,A
Sprite,Foreground,Centre,"sb\circle3.png",200,250 C,0,92210,,255,202,202 F,4,92210,92895,0.2,0 S,4,92210,92895,0.1,0.4 P,0,92210,92895,A
Sprite,Foreground,Centre,"sb\circle3.png",349,68 C,0,92381,,255,202,202 F,4,92381,93323,0.2,0 S,4,92381,93323,0.1,0.4 P,0,92381,93323,A
Sprite,Foreground,Centre,"sb\circle3.png",237,183 C,0,92896,,255,202,202 F,4,92896,93581,0.2,0 S,4,92896,93581,0.1,0.4 P,0,92896,93581,A
Sprite,Foreground,Centre,"sb\circle3.png",152,420 C,0,93067,,255,202,202 F,4,93067,93838,0.2,0 S,4,93067,93838,0.1,0.4 P,0,93067,93838,A
Sprite,Foreground,Centre,"sb\circle3.png",406,168 C,0,93410,,255,202,202 F,4,93410,94181,0.2,0 S,4,93410,94181,0.1,0.4 P,0,93410,94181,A
Sprite,Foreground,Centre,"sb\circle3.png",568,335 C,0,93753,,255,202,202 F,4,93753,94610,0.2,0 S,4,93753,94610,0.1,0.4 P,0,93753,94610,A
Sprite,Foreground,Centre,"sb\circle3.png",334,381 C,0,94096,,255,202,202 F,4,94096,94867,0.2,0 S,4,94096,94867,0.1,0.4 P,0,94096,94867,A
Sprite,Foreground,Centre,"sb\circle3.png",387,232 C,0,94353,,255,202,202 F,4,94353,94953,0.2,0 S,4,94353,94953,0.1,0.4 P,0,94353,94953,A
Sprite,Foreground,Centre,"sb\circle3.png",387,232 C,0,94438,,255,202,202 F,4,94438,95123,0.2,0 S,4,94438,95123,0.1,0.4 P,0,94438,95123,A
Sprite,Foreground,Centre,"sb\circle3.png",417,387 C,0,94610,,255,202,202 F,4,94610,95210,0.2,0 S,4,94610,95210,0.1,0.4 P,0,94610,95210,A
Sprite,Foreground,Centre,"sb\circle3.png",99,440 C,0,94781,,255,202,202 F,4,94781,95509,0.2,0 S,4,94781,95509,0.1,0.4 P,0,94781,95509,A
Sprite,Foreground,Centre,"sb\circle3.png",73,308 C,0,94953,,255,202,202 F,4,94953,95724,0.2,0 S,4,94953,95724,0.1,0.4 P,0,94953,95724,A
Sprite,Foreground,Centre,"sb\circle3.png",159,287 C,0,95296,,255,202,202 F,4,95296,96067,0.2,0 S,4,95296,96067,0.1,0.4 P,0,95296,96067,A
Sprite,Foreground,Centre,"sb\circle3.png",89,428 C,0,95638,,255,202,202 F,4,95638,96323,0.2,0 S,4,95638,96323,0.1,0.4 P,0,95638,96323,A
Sprite,Foreground,Centre,"sb\circle3.png",98,439 C,0,95810,,255,202,202 F,4,95810,96410,0.2,0 S,4,95810,96410,0.1,0.4 P,0,95810,96410,A
Sprite,Foreground,Centre,"sb\circle3.png",114,425 C,0,95896,,255,202,202 F,4,95896,96496,0.2,0 S,4,95896,96496,0.1,0.4 P,0,95896,96496,A
Sprite,Foreground,Centre,"sb\circle3.png",139,404 C,0,95981,,255,202,202 F,4,95981,96581,0.2,0 S,4,95981,96581,0.1,0.4 P,0,95981,96581,A
Sprite,Foreground,Centre,"sb\circle3.png",173,379 C,0,96067,,255,202,202 F,4,96067,96667,0.2,0 S,4,96067,96667,0.1,0.4 P,0,96067,96667,A
Sprite,Foreground,Centre,"sb\circle3.png",217,348 C,0,96153,,255,202,202 F,4,96153,96753,0.2,0 S,4,96153,96753,0.1,0.4 P,0,96153,96753,A
Sprite,Foreground,Centre,"sb\circle3.png",272,315 C,0,96238,,255,202,202 F,4,96238,96838,0.2,0 S,4,96238,96838,0.1,0.4 P,0,96238,96838,A
Sprite,Foreground,Centre,"sb\circle3.png",338,280 C,0,96324,,255,202,202 F,4,96324,96924,0.2,0 S,4,96324,96924,0.1,0.4 P,0,96324,96924,A
Sprite,Foreground,Centre,"sb\circle3.png",417,246 C,0,96410,,255,202,202 F,4,96410,97010,0.2,0 S,4,96410,97010,0.1,0.4 P,0,96410,97010,A
Sprite,Foreground,Centre,"sb\circle3.png",508,215 C,0,96496,,255,202,202 F,4,96496,97353,0.2,0 S,4,96496,97353,0.1,0.4 P,0,96496,97353,A
Sprite,Foreground,Centre,"sb\circle3.png",522,318 C,0,96838,,255,202,202 F,4,96838,97609,0.2,0 S,4,96838,97609,0.1,0.4 P,0,96838,97609,A
Sprite,Foreground,Centre,"sb\circle3.png",195,251 C,0,97181,,255,202,202 F,4,97181,97781,0.2,0 S,4,97181,97781,0.1,0.4 P,0,97181,97781,A
Sprite,Foreground,Centre,"sb\circle3.png",189,244 C,0,97266,,255,202,202 F,4,97266,97866,0.2,0 S,4,97266,97866,0.1,0.4 P,0,97266,97866,A
Sprite,Foreground,Centre,"sb\circle3.png",180,244 C,0,97352,,255,202,202 F,4,97352,98037,0.2,0 S,4,97352,98037,0.1,0.4 P,0,97352,98037,A
Sprite,Foreground,Centre,"sb\circle3.png",85,330 C,0,97524,,255,202,202 F,4,97524,98295,0.2,0 S,4,97524,98295,0.1,0.4 P,0,97524,98295,A
Sprite,Foreground,Centre,"sb\circle3.png",426,279 C,0,97867,,255,202,202 F,4,97867,98724,0.2,0 S,4,97867,98724,0.1,0.4 P,0,97867,98724,A
Sprite,Foreground,Centre,"sb\circle3.png",485,141 C,0,98210,,255,202,202 F,4,98210,98981,0.2,0 S,4,98210,98981,0.1,0.4 P,0,98210,98981,A
Sprite,Foreground,Centre,"sb\circle3.png",390,267 C,0,98553,,255,202,202 F,4,98553,99238,0.2,0 S,4,98553,99238,0.1,0.4 P,0,98553,99238,A
Sprite,Foreground,Centre,"sb\circle3.png",430,199 C,0,98724,,255,202,202 F,4,98724,99324,0.2,0 S,4,98724,99324,0.1,0.4 P,0,98724,99324,A
Sprite,Foreground,Centre,"sb\circle3.png",134,57 C,0,98896,,255,202,202 F,4,98896,99796,0.2,0 S,4,98896,99796,0.1,0.4 P,0,98896,99796,A
Sprite,Foreground,Centre,"sb\circle3.png",425,278 C,0,99238,,255,202,202 F,4,99238,100009,0.2,0 S,4,99238,100009,0.1,0.4 P,0,99238,100009,A
Sprite,Foreground,Centre,"sb\circle3.png",536,56 C,0,99496,,255,202,202 F,4,99496,100096,0.2,0 S,4,99496,100096,0.1,0.4 P,0,99496,100096,A
Sprite,Foreground,Centre,"sb\circle3.png",536,56 C,0,99581,,255,202,202 F,4,99581,100266,0.2,0 S,4,99581,100266,0.1,0.4 P,0,99581,100266,A
Sprite,Foreground,Centre,"sb\circle3.png",423,147 C,0,99753,,255,202,202 F,4,99753,100438,0.2,0 S,4,99753,100438,0.1,0.4 P,0,99753,100438,A
Sprite,Foreground,Centre,"sb\circle3.png",420,364 C,0,99924,,255,202,202 F,4,99924,100524,0.2,0 S,4,99924,100524,0.1,0.4 P,0,99924,100524,A
Sprite,Foreground,Centre,"sb\circle3.png",423,359 C,0,100010,,255,202,202 F,4,100010,100781,0.2,0 S,4,100010,100781,0.1,0.4 P,0,100010,100781,A
Sprite,Foreground,Centre,"sb\circle3.png",192,231 C,0,100267,,255,202,202 F,4,100267,101038,0.2,0 S,4,100267,101038,0.1,0.4 P,0,100267,101038,A
Sprite,Foreground,Centre,"sb\circle3.png",364,266 C,0,100610,,255,202,202 F,4,100610,101381,0.2,0 S,4,100610,101381,0.1,0.4 P,0,100610,101381,A
Sprite,Foreground,Centre,"sb\circle3.png",328,410 C,0,100867,,255,202,202 F,4,100867,101467,0.2,0 S,4,100867,101467,0.1,0.4 P,0,100867,101467,A
Sprite,Foreground,Centre,"sb\circle3.png",328,410 C,0,100953,,255,202,202 F,4,100953,101638,0.2,0 S,4,100953,101638,0.1,0.4 P,0,100953,101638,A
Sprite,Foreground,Centre,"sb\circle3.png",364,266 C,0,101124,,255,202,202 F,4,101124,101895,0.2,0 S,4,101124,101895,0.1,0.4 P,0,101124,101895,A
Sprite,Foreground,Centre,"sb\circle3.png",256,242 C,0,101381,,255,202,202 F,4,101381,102066,0.2,0 S,4,101381,102066,0.1,0.4 P,0,101381,102066,A
Sprite,Foreground,Centre,"sb\circle3.png",445,337 C,0,101553,,255,202,202 F,4,101553,102153,0.2,0 S,4,101553,102153,0.1,0.4 P,0,101553,102153,A
Sprite,Foreground,Centre,"sb\circle3.png",445,337 C,0,101638,,255,202,202 F,4,101638,102323,0.2,0 S,4,101638,102323,0.1,0.4 P,0,101638,102323,A
Sprite,Foreground,Centre,"sb\circle3.png",298,392 C,0,101810,,255,202,202 F,4,101810,102495,0.2,0 S,4,101810,102495,0.1,0.4 P,0,101810,102495,A
Sprite,Foreground,Centre,"sb\circle3.png",363,124 C,0,101981,,255,202,202 F,4,101981,102752,0.2,0 S,4,101981,102752,0.1,0.4 P,0,101981,102752,A
Sprite,Foreground,Centre,"sb\circle3.png",459,322 C,0,102324,,255,202,202 F,4,102324,103095,0.2,0 S,4,102324,103095,0.1,0.4 P,0,102324,103095,A
Sprite,Foreground,Centre,"sb\circle3.png",265,217 C,0,102667,,255,202,202 F,4,102667,103438,0.2,0 S,4,102667,103438,0.1,0.4 P,0,102667,103438,A
Sprite,Foreground,Centre,"sb\circle3.png",482,188 C,0,103010,,255,202,202 F,4,103010,103781,0.2,0 S,4,103010,103781,0.1,0.4 P,0,103010,103781,A
Sprite,Foreground,Centre,"sb\circle3.png",293,426 C,0,103353,,255,202,202 F,4,103353,104124,0.2,0 S,4,103353,104124,0.1,0.4 P,0,103353,104124,A
Sprite,Foreground,Centre,"sb\circle3.png",454,197 C,0,103610,,255,202,202 F,4,103610,104210,0.2,0 S,4,103610,104210,0.1,0.4 P,0,103610,104210,A
Sprite,Foreground,Centre,"sb\circle3.png",454,197 C,0,103696,,255,202,202 F,4,103696,104296,0.2,0 S,4,103696,104296,0.1,0.4 P,0,103696,104296,A
Sprite,Foreground,Centre,"sb\circle3.png",292,225 C,0,103867,,255,202,202 F,4,103867,104467,0.2,0 S,4,103867,104467,0.1,0.4 P,0,103867,104467,A
Sprite,Foreground,Centre,"sb\circle3.png",267,396 C,0,104038,,255,202,202 F,4,104038,104809,0.2,0 S,4,104038,104809,0.1,0.4 P,0,104038,104809,A
Sprite,Foreground,Centre,"sb\circle3.png",159,339 C,0,104381,,255,202,202 F,4,104381,105152,0.2,0 S,4,104381,105152,0.1,0.4 P,0,104381,105152,A
Sprite,Foreground,Centre,"sb\circle3.png",576,255 C,0,104724,,255,202,202 F,4,104724,105409,0.2,0 S,4,104724,105409,0.1,0.4 P,0,104724,105409,A
Sprite,Foreground,Centre,"sb\circle3.png",497,219 C,0,104896,,255,202,202 F,4,104896,105581,0.2,0 S,4,104896,105581,0.1,0.4 P,0,104896,105581,A
Sprite,Foreground,Centre,"sb\circle3.png",427,148 C,0,105067,,255,202,202 F,4,105067,105752,0.2,0 S,4,105067,105752,0.1,0.4 P,0,105067,105752,A
Sprite,Foreground,Centre,"sb\circle3.png",387,56 C,0,105238,,255,202,202 F,4,105238,105923,0.2,0 S,4,105238,105923,0.1,0.4 P,0,105238,105923,A
Sprite,Foreground,Centre,"sb\circle3.png",124,173 C,0,105410,,255,202,202 F,4,105410,106095,0.2,0 S,4,105410,106095,0.1,0.4 P,0,105410,106095,A
Sprite,Foreground,Centre,"sb\circle3.png",241,93 C,0,105581,,255,202,202 F,4,105581,106266,0.2,0 S,4,105581,106266,0.1,0.4 P,0,105581,106266,A
Sprite,Foreground,Centre,"sb\circle3.png",195,260 C,0,105753,,255,202,202 F,4,105753,106438,0.2,0 S,4,105753,106438,0.1,0.4 P,0,105753,106438,A
Sprite,Foreground,Centre,"sb\circle3.png",135,59 C,0,105924,,255,202,202 F,4,105924,106609,0.2,0 S,4,105924,106609,0.1,0.4 P,0,105924,106609,A
Sprite,Foreground,Centre,"sb\circle3.png",226,336 C,0,106096,,255,202,202 F,4,106096,106696,0.2,0 S,4,106096,106696,0.1,0.4 P,0,106096,106696,A
Sprite,Foreground,Centre,"sb\circle3.png",238,340 C,0,106181,,255,202,202 F,4,106181,106781,0.2,0 S,4,106181,106781,0.1,0.4 P,0,106181,106781,A
Sprite,Foreground,Centre,"sb\circle3.png",246,350 C,0,106267,,255,202,202 F,4,106267,106867,0.2,0 S,4,106267,106867,0.1,0.4 P,0,106267,106867,A
Sprite,Foreground,Centre,"sb\circle3.png",248,363 C,0,106353,,255,202,202 F,4,106353,106953,0.2,0 S,4,106353,106953,0.1,0.4 P,0,106353,106953,A
Sprite,Foreground,Centre,"sb\circle3.png",220,429 C,0,106438,,255,202,202 F,4,106438,107038,0.2,0 S,4,106438,107038,0.1,0.4 P,0,106438,107038,A
Sprite,Foreground,Centre,"sb\circle3.png",216,403 C,0,106523,,255,202,202 F,4,106523,107123,0.2,0 S,4,106523,107123,0.1,0.4 P,0,106523,107123,A
Sprite,Foreground,Centre,"sb\circle3.png",226,379 C,0,106609,,255,202,202 F,4,106609,107209,0.2,0 S,4,106609,107209,0.1,0.4 P,0,106609,107209,A
Sprite,Foreground,Centre,"sb\circle3.png",248,363 C,0,106695,,255,202,202 F,4,106695,107295,0.2,0 S,4,106695,107295,0.1,0.4 P,0,106695,107295,A
Sprite,Foreground,Centre,"sb\circle3.png",337,387 C,0,106781,,255,202,202 F,4,106781,107552,0.2,0 S,4,106781,107552,0.1,0.4 P,0,106781,107552,A
Sprite,Foreground,Centre,"sb\circle3.png",532,81 C,0,107038,,255,202,202 F,4,107038,107638,0.2,0 S,4,107038,107638,0.1,0.4 P,0,107038,107638,A
Sprite,Foreground,Centre,"sb\circle3.png",532,81 C,0,107124,,255,202,202 F,4,107124,107895,0.2,0 S,4,107124,107895,0.1,0.4 P,0,107124,107895,A
Sprite,Foreground,Centre,"sb\circle3.png",532,81 C,0,107381,,255,202,202 F,4,107381,107981,0.2,0 S,4,107381,107981,0.1,0.4 P,0,107381,107981,A
//Storyboard Layer 4 (Overlay)
//Storyboard Sound Samples

[TimingPoints]
496,342.857142857143,4,2,21,50,1,0
496,-83.3333333333333,4,2,21,50,0,0
1010,-166.666666666667,4,2,21,50,0,0
1867,-83.3333333333333,4,2,21,50,0,0
2381,-166.666666666667,4,2,21,50,0,0
3238,-83.3333333333333,4,2,21,50,0,0
3753,-166.666666666667,4,2,21,50,0,0
4610,-83.3333333333333,4,2,21,50,0,0
5124,-166.666666666667,4,2,21,50,0,0
5981,-83.3333333333333,4,2,21,50,0,0
6496,-166.666666666667,4,2,21,50,0,0
7353,-83.3333333333333,4,2,21,50,0,0
7867,-166.666666666667,4,2,21,50,0,0
8724,-83.3333333333333,4,2,21,50,0,0
9238,-166.666666666667,4,2,21,50,0,0
10096,-83.3333333333333,4,2,21,50,0,0
10610,-166.666666666667,4,2,21,50,0,0
11467,-83.3333333333333,4,2,21,50,0,0
11981,-166.666666666667,4,2,21,50,0,0
12838,-83.3333333333333,4,2,21,50,0,0
13352,-166.666666666667,4,2,21,50,0,0
14210,-83.3333333333333,4,2,21,50,0,0
14724,-166.666666666667,4,2,21,50,0,0
15581,-83.3333333333333,4,2,21,50,0,0
16095,-166.666666666667,4,2,21,50,0,0
16953,-83.3333333333333,4,2,4,60,0,0
16974,-83.3333333333333,4,2,21,60,0,0
17296,-83.3333333333333,4,2,5,60,0,0
17317,-83.3333333333333,4,2,21,60,0,0
17638,-83.3333333333333,4,2,6,60,0,0
17660,-83.3333333333333,4,2,21,60,0,0
17981,-83.3333333333333,4,2,7,60,0,0
18003,-83.3333333333333,4,2,21,60,0,0
18324,-83.3333333333333,4,2,2,60,0,0
18346,-83.3333333333333,4,2,21,60,0,0
18667,-83.3333333333333,4,2,4,60,0,0
18688,-83.3333333333333,4,2,21,60,0,0
19010,-83.3333333333333,4,2,3,60,0,0
19031,-83.3333333333333,4,2,21,60,0,0
19353,-83.3333333333333,4,2,2,60,0,0
19374,-83.3333333333333,4,2,21,60,0,0
19696,-399.999999999997,4,2,21,60,0,0
19867,-285.714285714284,4,2,21,60,0,0
20038,-222.222222222221,4,2,2,60,0,0
20060,-222.222222222221,4,2,21,60,0,0
20210,-181.818181818181,4,2,21,60,0,0
20381,-153.846153846153,4,2,8,60,0,0
20403,-153.846153846153,4,2,21,60,0,0
20553,-133.333333333333,4,2,21,60,0,0
20724,-117.647058823529,4,2,9,60,0,0
20746,-117.647058823529,4,2,21,60,0,0
20896,-105.263157894737,4,2,21,60,0,0
22438,-76.9230769230769,4,2,21,70,0,0
23467,-62.5,4,2,21,70,0,0
23810,-111.111111111111,4,2,21,70,0,0
24838,-62.5,4,2,21,70,0,0
25181,-111.111111111111,4,2,21,70,0,0
25867,-76.9230769230769,4,2,21,70,0,0
26553,-111.111111111111,4,2,21,70,0,0
27924,-76.9230769230769,4,2,21,70,0,0
28438,-111.111111111111,4,2,21,70,0,0
29296,-76.9230769230769,4,2,21,70,0,0
29981,-111.111111111111,4,2,21,70,0,0
30667,-62.5,4,2,21,70,0,0
31010,-76.9230769230769,4,2,21,70,0,0
31867,-111.111111111111,4,2,21,70,0,0
32553,-200,4,2,21,70,0,0
33410,-76.9230769230769,4,2,21,70,0,0
34438,-62.5,4,2,21,70,0,0
34781,-111.111111111111,4,2,21,70,0,0
35810,-62.5,4,2,21,70,0,0
36153,-111.111111111111,4,2,21,70,0,0
36838,-76.9230769230769,4,2,21,70,0,0
37524,-111.111111111111,4,2,21,70,0,0
38896,-100,4,2,21,70,0,1
39667,-333.333333333333,4,2,21,70,0,1
40267,-100,4,2,21,70,0,1
40953,-133.333333333333,4,2,21,70,0,1
41638,-285.714285714284,4,2,21,70,0,1
42324,-100,4,2,21,70,0,1
43010,-76.9230769230769,4,2,21,70,0,1
44381,-100,4,2,21,40,0,0
49181,-76.9230769230769,4,2,21,40,0,0
49867,-100,4,2,21,40,0,0
52438,-1000,4,2,21,40,0,0
53467,-1000,4,2,21,30,0,0
54496,-100,4,2,21,60,0,0
55353,-100,4,2,21,50,0,0
60838,-100,4,2,21,50,0,0
63410,-1000,4,2,21,50,0,0
63924,-142.857142857143,4,2,21,50,0,0
64096,-111.111111111111,4,2,21,50,0,0
64267,-90.909090909091,4,2,21,50,0,0
64438,-76.9230769230769,4,2,21,50,0,0
64610,-66.6666666666667,4,2,21,50,0,0
64781,-66.6666666666667,4,2,21,60,0,0
65381,-66.6666666666667,4,2,21,5,0,0
65467,-133.333333333333,4,2,21,50,0,0
66324,-50,4,2,21,70,0,1
67010,-76.9230769230769,4,2,21,70,0,1
67353,-58.8235294117647,4,2,21,70,0,1
67696,-181.818181818181,4,2,21,70,0,1
67867,-50,4,2,21,70,0,1
68381,-133.333333333333,4,2,21,70,0,1
68553,-43.4782608695652,4,2,21,70,0,1
68896,-100,4,2,21,70,0,1
68981,-100,4,2,21,5,0,1
69067,-1000,4,2,21,70,0,1
69410,-50,4,2,21,70,0,1
69924,-71.4285714285714,4,2,21,70,0,1
70096,-250,4,2,21,70,0,1
70610,-66.6666666666667,4,2,21,70,0,1
72496,-76.9230769230769,4,2,21,70,0,1
72838,-58.8235294117647,4,2,21,70,0,1
73181,-181.818181818181,4,2,21,70,0,1
73353,-50,4,2,21,70,0,1
73867,-133.333333333333,4,2,21,70,0,1
74038,-43.4782608695652,4,2,21,70,0,1
74553,-181.818181818181,4,2,21,70,0,1
75238,-40,4,2,21,70,0,1
75924,-666.666666666658,4,2,21,70,0,1
76953,-100,4,2,21,70,0,1
77296,-100,4,2,21,70,0,0
80038,-71.4285714285714,4,2,21,70,0,0
81753,-62.5,4,2,21,70,0,0
82096,-55.5555555555556,4,2,21,70,0,0
82438,-50,4,2,21,70,0,0
82781,-125,4,2,21,70,0,0
84153,-100,4,2,21,70,0,0
85353,-142.857142857143,4,2,21,70,0,0
85524,-66.6666666666667,4,2,4,80,0,1
85546,-66.6666666666667,4,2,21,80,0,1
85867,-133.333333333333,4,2,5,80,0,1
85888,-133.333333333333,4,2,21,80,0,1
86210,-133.333333333333,4,2,6,80,0,1
86231,-133.333333333333,4,2,21,80,0,1
86296,-90.9090909090909,4,2,21,80,0,1
86553,-90.9090909090909,4,2,7,80,0,1
86574,-90.9090909090909,4,2,21,80,0,1
86896,-66.6666666666667,4,2,2,80,0,1
86917,-66.6666666666667,4,2,21,80,0,1
87238,-125,4,2,4,80,0,1
87260,-125,4,2,21,80,0,1
87581,-125,4,2,3,80,0,1
87603,-125,4,2,21,80,0,1
87753,-83.3333333333333,4,2,21,80,0,1
87924,-50,4,2,2,80,0,1
87946,-50,4,2,21,80,0,1
88267,-90.9090909090909,4,2,21,80,0,1
88610,-90.9090909090909,4,2,10,80,0,1
88631,-90.9090909090909,4,2,21,80,0,1
88953,-133.333333333333,4,2,5,80,0,1
88974,-133.333333333333,4,2,21,80,0,1
89296,-90.9090909090909,4,2,4,80,0,1
89317,-90.9090909090909,4,2,21,80,0,1
89638,-181.818181818181,4,2,21,80,0,1
90153,-66.6666666666667,4,2,21,80,0,1
90410,-133.333333333333,4,2,21,80,0,1
90667,-133.333333333333,4,2,4,80,0,1
90688,-133.333333333333,4,2,21,80,0,1
90838,-133.333333333333,4,2,5,80,0,1
90860,-133.333333333333,4,2,21,80,0,1
91010,-66.6666666666667,4,2,6,80,0,1
91031,-66.6666666666667,4,2,21,80,0,1
91353,-66.6666666666667,4,2,7,80,0,1
91374,-66.6666666666667,4,2,21,80,0,1
91524,-90.9090909090909,4,2,6,80,0,1
91546,-90.9090909090909,4,2,21,80,0,1
91867,-90.9090909090909,4,2,7,80,0,1
91888,-90.9090909090909,4,2,21,80,0,1
92038,-83.3333333333333,4,2,21,80,0,1
92210,-66.6666666666667,4,2,2,80,0,1
92231,-66.6666666666667,4,2,21,80,0,1
92381,-58.8235294117647,4,2,21,80,0,1
92724,-58.8235294117647,4,2,7,80,0,1
92746,-58.8235294117647,4,2,21,80,0,1
92896,-133.333333333333,4,2,21,80,0,1
93067,-90.9090909090909,4,2,6,80,0,1
93088,-90.9090909090909,4,2,21,80,0,1
93410,-90.9090909090909,4,2,7,80,0,1
93431,-90.9090909090909,4,2,21,80,0,1
93753,-66.6666666666667,4,2,2,80,0,1
93774,-66.6666666666667,4,2,21,80,0,1
94096,-66.6666666666667,4,2,4,80,0,1
94117,-66.6666666666667,4,2,21,80,0,1
94438,-66.6666666666667,4,2,3,80,0,1
94460,-66.6666666666667,4,2,21,80,0,1
94781,-58.8235294117647,4,2,2,80,0,1
94803,-58.8235294117647,4,2,21,80,0,1
94953,-333.333333333333,4,2,21,80,0,1
95810,-100,4,2,21,80,0,1
96496,-58.8235294117647,4,2,4,80,0,1
96517,-58.8235294117647,4,2,21,80,0,1
96838,-100,4,2,5,80,0,1
96860,-100,4,2,21,80,0,1
97181,-100,4,2,6,80,0,1
97203,-100,4,2,21,80,0,1
97524,-66.6666666666667,4,2,7,80,0,1
97546,-66.6666666666667,4,2,21,80,0,1
97867,-66.6666666666667,4,2,2,80,0,1
97888,-66.6666666666667,4,2,21,80,0,1
98210,-133.333333333333,4,2,4,80,0,1
98231,-133.333333333333,4,2,21,80,0,1
98553,-133.333333333333,4,2,3,80,0,1
98574,-133.333333333333,4,2,21,80,0,1
98896,-50,4,2,2,80,0,1
98917,-50,4,2,21,80,0,1
99238,-90.9090909090909,4,2,21,80,0,1
99581,-66.6666666666667,4,2,2,80,0,1
99603,-66.6666666666667,4,2,21,80,0,1
99753,-133.333333333333,4,2,21,80,0,1
99924,-66.6666666666667,4,2,8,80,0,1
99946,-66.6666666666667,4,2,21,80,0,1
100267,-50,4,2,9,80,0,1
100288,-50,4,2,21,80,0,1
100610,-181.818181818181,4,2,21,80,0,1
101124,-66.6666666666667,4,2,21,80,0,1
101381,-133.333333333333,4,2,21,80,0,1
101981,-66.6666666666667,4,2,2,80,0,1
102003,-66.6666666666667,4,2,21,80,0,1
102153,-66.6666666666667,4,2,7,80,0,1
102174,-66.6666666666667,4,2,21,80,0,1
102324,-66.6666666666667,4,2,6,80,0,1
102346,-66.6666666666667,4,2,21,80,0,1
102496,-66.6666666666667,4,2,7,80,0,1
102517,-66.6666666666667,4,2,21,80,0,1
102667,-66.6666666666667,4,2,2,80,0,1
102688,-66.6666666666667,4,2,21,80,0,1
103010,-66.6666666666667,4,2,2,80,0,1
103031,-66.6666666666667,4,2,21,80,0,1
103181,-66.6666666666667,4,2,7,80,0,1
103203,-66.6666666666667,4,2,21,80,0,1
103353,-50,4,2,6,80,0,1
103374,-50,4,2,21,80,0,1
103524,-50,4,2,7,80,0,1
103546,-50,4,2,21,80,0,1
103696,-50,4,2,2,80,0,1
103717,-50,4,2,21,80,0,1
104038,-133.333333333333,4,2,21,80,0,1
104724,-200,4,2,7,80,0,1
104746,-200,4,2,21,80,0,1
104896,-142.857142857143,4,2,21,80,0,1
105067,-111.111111111111,4,2,6,80,0,1
105088,-111.111111111111,4,2,21,80,0,1
105238,-90.9090909090908,4,2,7,80,0,1
105260,-90.9090909090908,4,2,21,80,0,1
105410,-76.9230769230769,4,2,21,80,0,1
105581,-76.9230769230769,4,2,6,80,0,1
105603,-76.9230769230769,4,2,21,80,0,1
105924,-76.9230769230769,4,2,2,80,0,1
105946,-76.9230769230769,4,2,21,80,0,1
106438,-76.9230769230769,4,2,9,80,0,1
106460,-76.9230769230769,4,2,21,80,0,1
106781,-76.9230769230769,4,2,8,80,0,1
106803,-76.9230769230769,4,2,21,80,0,1
107124,-285.714285714284,4,2,9,80,0,1
107146,-285.714285714284,4,2,21,80,0,1
107467,-76.9230769230769,4,2,21,70,0,0
108496,-62.5,4,2,21,70,0,0
108838,-111.111111111111,4,2,21,70,0,0
109867,-62.5,4,2,21,70,0,0
110210,-111.111111111111,4,2,21,70,0,0
110896,-76.9230769230769,4,2,21,70,0,0
111581,-111.111111111111,4,2,21,70,0,0
112953,-76.9230769230769,4,2,21,70,0,0
113467,-111.111111111111,4,2,21,70,0,0
114324,-76.9230769230769,4,2,21,70,0,0
115010,-111.111111111111,4,2,21,70,0,0
115696,-62.5,4,2,21,70,0,0
116038,-76.9230769230769,4,2,21,70,0,0
116896,-111.111111111111,4,2,21,70,0,0
117581,-200,4,2,21,70,0,0
118438,-58.8235294117647,4,2,4,80,0,1
118460,-58.8235294117647,4,2,21,80,0,1
118781,-100,4,2,5,80,0,1
118803,-100,4,2,21,80,0,1
119124,-100,4,2,6,80,0,1
119146,-100,4,2,21,80,0,1
119467,-66.6666666666667,4,2,7,80,0,1
119488,-66.6666666666667,4,2,21,80,0,1
119810,-66.6666666666667,4,2,2,80,0,1
119831,-66.6666666666667,4,2,21,80,0,1
120153,-133.333333333333,4,2,4,80,0,1
120174,-133.333333333333,4,2,21,80,0,1
120496,-133.333333333333,4,2,3,80,0,1
120517,-133.333333333333,4,2,21,80,0,1
120838,-50,4,2,2,80,0,1
120860,-50,4,2,21,80,0,1
121181,-90.9090909090909,4,2,21,80,0,1
121524,-90.9090909090909,4,2,10,80,0,1
121546,-90.9090909090909,4,2,21,80,0,1
121867,-133.333333333333,4,2,5,80,0,1
121888,-133.333333333333,4,2,21,80,0,1
122210,-90.9090909090909,4,2,4,80,0,1
122231,-90.9090909090909,4,2,21,80,0,1
122553,-181.818181818181,4,2,21,70,0,1
123067,-66.6666666666667,4,2,21,70,0,1
123324,-133.333333333333,4,2,21,70,0,1
123924,-100,4,2,21,75,0,1
124696,-333.333333333333,4,2,21,75,0,1
125296,-100,4,2,21,75,0,1
125981,-133.333333333333,4,2,21,75,0,1
126667,-285.714285714284,4,2,21,80,0,1
127353,-100,4,2,21,80,0,1
128038,-76.9230769230769,4,2,21,80,0,1
129410,-76.9230769230769,4,2,21,50,0,0
134553,-50,4,2,21,50,0,0

[Colours]
Combo1 : 157,255,255
Combo2 : 196,196,225
Combo3 : 255,174,215
Combo4 : 255,255,147
Combo5 : 108,255,182

[HitObjects]
0,124,496,6,0,P|61:134|111:71,1,125.999996154785,6|0,3:2|0:0,0:0:0:0:
141,17,753,1,2,0:0:0:0:
141,17,838,1,8,0:0:0:0:
90,210,1010,6,0,P|75:242|67:241,1,31.4999990386963,2|0,0:0|0:0,0:0:0:0:
148,325,1267,6,0,P|127:296|132:289,1,31.4999990386963,2|0,0:0|3:0,0:0:0:0:
19,317,1524,6,0,P|54:313|57:321,1,31.4999990386963,8|0,0:0|0:0,0:0:0:0:
148,325,1696,1,2,0:0:0:0:
327,187,1867,6,0,P|291:263|294:325,1,125.999996154785,2|0,3:2|0:0,0:0:0:0:
325,383,2124,1,2,0:0:0:0:
325,383,2210,1,8,0:0:0:0:
202,219,2381,6,0,P|200:235|210:246,1,31.4999990386963,2|0,0:0|0:0,0:0:0:0:
231,112,2638,6,0,P|219:122|219:138,1,31.4999990386963,2|0,0:0|3:0,0:0:0:0:
327,57,2896,6,0,P|311:55|300:65,1,31.4999990386963,8|0,0:0|0:0,0:0:0:0:
202,219,3067,1,2,0:0:0:0:
462,279,3238,6,0,B|430:315|386:290|397:287|336:243|284:310,1,188.999994232178,2|2,3:2|0:0,0:0:0:0:
289,303,3581,1,8,0:0:0:0:
136,268,3753,5,2,0:0:0:0:
138,277,3838,1,0,0:0:0:0:
210,323,4010,5,2,0:0:0:0:
201,320,4095,1,0,3:0:0:0:
125,359,4268,5,8,0:0:0:0:
125,359,4438,1,2,0:0:0:0:
70,98,4610,6,0,B|117:37|211:129|150:238,1,188.999994232178,2|2,3:2|0:0,0:0:0:0:
167,193,4953,1,8,0:0:0:0:
198,35,5124,6,0,L|243:46,1,31.4999990386963,2|0,0:0|0:0,0:0:0:0:
310,24,5381,6,0,L|322:68,1,31.4999990386963,2|0,0:0|3:0,0:0:0:0:
375,115,5638,6,0,L|342:148,1,31.4999990386963,8|0,0:0|0:0,0:0:0:0:
198,35,5810,1,2,0:0:0:0:
134,273,5981,6,0,P|43:255|-42:251,1,125.999996154785,2|0,3:2|0:0,0:0:0:0:
0,169,6238,1,2,0:0:0:0:
0,169,6324,1,8,0:0:0:0:
216,269,6496,6,0,P|223:294|204:318,1,31.4999990386963,2|0,0:0|0:0,0:0:0:0:
312,289,6753,6,0,P|311:304|303:318,1,31.4999990386963,2|0,0:0|3:0,0:0:0:0:
385,354,7010,6,0,P|376:366|362:373,1,31.4999990386963,8|0,0:0|0:0,0:0:0:0:
221,298,7181,1,2,0:0:0:0:
236,89,7353,6,0,P|223:151|216:214,1,125.999996154785,2|0,3:2|0:0,0:0:0:0:
221,298,7610,1,2,0:0:0:0:
221,298,7696,1,8,0:0:0:0:
242,121,7867,6,0,L|235:79,1,31.4999990386963,2|0,0:0|0:0,0:0:0:0:
323,110,8124,6,0,L|316:68,1,31.4999990386963,2|0,0:0|3:0,0:0:0:0:
404,99,8381,6,0,L|397:57,1,31.4999990386963,8|0,0:0|0:0,0:0:0:0:
236,89,8553,1,2,0:0:0:0:
290,295,8724,6,0,P|302:201|322:109,1,188.999994232178,2|2,3:2|0:0,0:0:0:0:
322,109,9067,1,8,0:0:0:0:
218,220,9238,5,2,0:0:0:0:
211,227,9324,1,0,0:0:0:0:
290,295,9496,5,2,0:0:0:0:
287,285,9582,1,0,3:0:0:0:
189,319,9752,5,8,0:0:0:0:
189,319,9924,1,2,0:0:0:0:
439,329,10096,6,0,B|406:356|406:356|307:336|307:336|289:294,1,188.999994232178,2|2,3:2|0:0,0:0:0:0:
289,294,10438,1,8,0:0:0:0:
508,138,10610,6,0,P|507:125|501:137,1,31.4999990386963,2|0,0:0|0:0,0:0:0:0:
429,183,10867,6,0,P|421:173|422:186,1,31.4999990386963,2|0,0:0|3:0,0:0:0:0:
381,262,11124,6,0,P|370:257|377:268,1,31.4999990386963,8|0,0:0|0:0,0:0:0:0:
394,94,11296,1,2,0:0:0:0:
144,145,11467,6,0,P|89:206|21:197,1,125.999996154785,6|0,3:2|0:0,0:0:0:0:
16,136,11724,1,2,0:0:0:0:
16,136,11810,1,8,0:0:0:0:
49,208,11981,6,0,P|61:227|56:257,1,31.4999990386963,2|0,0:0|0:0,0:0:0:0:
15,303,12153,1,0,0:0:0:0:
15,303,12238,1,2,0:0:0:0:
15,303,12324,1,0,3:0:0:0:
144,145,12496,5,8,0:0:0:0:
144,145,12667,1,2,0:0:0:0:
235,339,12838,6,0,P|243:273|254:214,1,125.999996154785,0|0,3:0|0:0,0:0:0:0:
335,231,13096,1,2,0:0:0:0:
335,231,13181,1,8,0:0:0:0:
221,312,13353,6,0,P|228:333|245:342,2,31.4999990386963,2|0|0,0:0|0:0|0:0,0:0:0:0:
142,283,13610,1,2,0:0:0:0:
142,283,13696,1,0,3:0:0:0:
281,103,13867,5,8,0:0:0:0:
281,103,14038,1,2,0:0:0:0:
0,119,14210,6,0,B|46:131|73:100|38:57|118:5|185:53,1,188.999994232178,6|2,3:2|0:0,0:0:0:0:
152,38,14553,1,8,0:0:0:0:
103,163,14724,6,0,L|95:214,2,31.4999990386963,2|0|0,0:0|0:0|0:0,0:0:0:0:
86,275,14981,1,2,0:0:0:0:
86,275,15067,1,0,3:0:0:0:
180,131,15238,6,0,P|201:131|182:134,1,62.9999980773926,8|2,0:0|0:0,0:0:0:0:
401,13,15581,6,0,B|432:13|411:-35|350:-10|336:67|377:128,1,188.999994232178,2|2,3:2|0:0,0:0:0:0:
376,127,15924,1,8,0:0:0:0:
479,63,16096,5,2,0:0:0:0:
479,63,16181,1,0,0:0:0:0:
439,193,16353,5,2,0:0:0:0:
439,193,16438,1,0,3:0:0:0:
399,323,16611,5,8,0:0:0:0:
399,323,16696,1,0,0:0:0:0:
399,323,16781,1,2,0:0:0:0:
0,328,16953,6,0,P|65:265|155:284,1,188.999994232178,6|2,3:2|0:0,0:0:0:0:
103,384,17296,2,0,P|85:346|107:382,1,125.999996154785,2|2,3:2|0:0,0:0:0:0:
185,154,17638,6,0,P|273:132|342:193,1,188.999994232178,2|0,3:2|0:0,0:0:0:0:
247,254,17981,2,0,P|250:212|251:254,1,125.999996154785,2|2,3:2|0:0,0:0:0:0:
0,327,18324,6,0,P|88:345|154:283,1,188.999994232178,6|2,3:2|0:0,0:0:0:0:
71,124,18667,2,0,P|70:187|61:250,1,125.999996154785,2|2,3:2|0:0,0:0:0:0:
356,104,19010,6,0,P|343:39|390:-2,1,125.999996154785,2|0,3:2|0:0,0:0:0:0:
464,248,19353,2,0,P|373:252|319:179,1,188.999994232178,2|0,3:2|0:0,0:0:0:0:
319,179,19696,6,0,P|325:188|336:185,1,13.125,6|0,3:2|0:0,0:0:0:0:
356,104,19867,2,0,P|361:114|375:109,1,18.3749994392395,0|2,3:0|0:0,0:0:0:0:
416,48,20038,2,0,P|421:63|440:68,1,23.6249992790222,2|0,3:2|0:0,0:0:0:0:
494,13,20210,2,0,P|497:29|507:46,1,28.8750008811951,0|0,3:0|0:0,0:0:0:0:
406,47,20381,6,0,P|412:70|429:76,1,34.1249984378815,6|2,3:2|0:0,0:0:0:0:
332,114,20553,2,0,P|350:135|387:122,1,39.3750015020371,0|0,3:0|0:0,0:0:0:0:
267,223,20724,2,0,P|294:237|334:230,1,44.6250008511543,2|0,3:2|0:0,0:0:0:0:
244,369,20896,2,0,P|275:373|312:362,1,49.8749986681939,0|0,3:0|0:0,0:0:0:0:
373,313,21067,5,6,3:2:0:0:
368,312,21153,1,0,3:0:0:0:
363,311,21238,1,0,3:0:0:0:
358,310,21324,1,0,3:0:0:0:
335,331,21410,6,0,L|346:263,3,49.8749986681939,0|0|0|0,3:0|3:0|3:0|3:0,0:0:0:0:
358,310,21753,5,0,3:0:0:0:
363,311,21839,1,0,3:0:0:0:
368,312,21924,1,0,3:0:0:0:
373,313,22010,1,0,3:0:0:0:
377,314,22096,5,8,0:0:0:0:
150,272,22267,1,8,0:0:0:0:
150,272,22353,1,8,0:0:0:0:
150,272,22438,6,0,P|126:156|74:64,1,204.749990627289,6|2,3:2|0:0,0:0:0:0:
85,80,22781,1,8,0:0:0:0:
251,231,22953,1,2,0:0:0:0:
251,231,23038,2,0,P|234:274|228:318,1,68.2499968757631
150,272,23210,2,0,B|170:300|170:300|206:305,1,68.2499968757631,2|0,0:0|3:0,0:0:0:0:
396,315,23467,6,0,L|218:294,1,168,8|2,0:0|0:0,0:0:0:0:
49,276,23810,6,0,B|40:303|64:317|64:317|78:292|56:273,1,94.499997116089,2|0,3:2|0:0,0:0:0:0:
64,120,24067,1,2,0:0:0:0:
64,120,24153,2,0,P|25:171|40:214,1,94.499997116089,8|2,0:0|0:0,0:0:0:0:
231,218,24495,5,2,0:0:0:0:
221,204,24581,1,2,0:0:0:0:
202,206,24667,1,0,3:0:0:0:
182,0,24838,2,0,B|173:51|223:71|227:40|271:89|253:134,1,168,10|2,0:0|0:0,0:0:0:0:
180,371,25181,6,0,P|175:324|160:279,1,94.499997116089,2|0,3:2|0:0,0:0:0:0:
226,212,25438,1,2,0:0:0:0:
226,212,25524,2,0,P|179:185|186:121,1,94.499997116089,10|2,0:0|0:0,0:0:0:0:
436,254,25867,6,0,P|404:242|370:235,2,68.2499968757631,2|2|0,0:0|0:0|3:0,0:0:0:0:
253,133,26209,1,8,0:0:0:0:
447,98,26381,2,0,P|436:130|428:163,1,68.2499968757631,2|0,0:0|0:0,0:0:0:0:
396,272,26553,6,0,B|408:331|382:315|370:360|370:360|360:303|390:264,1,188.999994232178,2|8,3:2|0:0,0:0:0:0:
491,27,27067,2,0,P|447:14|402:30,1,94.499997116089,2|0,0:0|0:0,0:0:0:0:
402,29,27324,2,0,P|398:62|377:48,1,47.2499985580445,2|0,0:0|3:0,0:0:0:0:
172,148,27581,1,8,0:0:0:0:
153,66,27752,1,2,0:0:0:0:
153,66,27838,1,0,0:0:0:0:
153,66,27924,6,0,B|234:54|234:54|248:78|278:82,1,136.499993751526,2|0,3:2|0:0,0:0:0:0:
302,5,28181,1,2,0:0:0:0:
302,5,28267,2,0,P|313:-17|297:1,1,68.2499968757631,8|0,0:0|0:0,0:0:0:0:
491,27,28438,6,0,P|458:88|472:114,1,94.499997116089,2|0,0:0|0:0,0:0:0:0:
268,326,28781,1,2,3:2:0:0:
268,325,28952,2,0,P|271:348|257:366,1,47.2499985580445,8|0,0:0|0:0,0:0:0:0:
292,246,29124,2,0,P|290:222|304:204,1,47.2499985580445,2|0,0:0|0:0,0:0:0:0:
93,327,29296,6,0,B|126:250|209:227|241:249|214:298|155:265,1,204.749990627289,2|2,3:2|0:0,0:0:0:0:
49,214,29638,2,0,P|100:272|87:335,1,136.499993751526,8|2,0:0|0:0,0:0:0:0:
350,307,29981,6,0,P|368:321|392:320,1,47.2499985580445,2|2,0:0|0:0,0:0:0:0:
454,266,30152,1,0,3:0:0:0:
277,383,30324,2,0,P|270:337|269:290,1,94.499997116089,10|2,0:0|0:0,0:0:0:0:
512,36,30667,6,0,B|498:129|400:146|400:146|375:127|389:74|426:117|409:144,1,252,2|2,3:2|0:0,0:0:0:0:
308,102,31010,2,0,P|317:70|341:46,1,68.2499968757631,10|0,0:0|0:0,0:0:0:0:
357,35,31181,1,2,0:0:0:0:
22,128,31352,6,0,B|106:141|106:141|117:91,1,136.499993751526,2|0,0:0|3:0,0:0:0:0:
116,91,31695,1,10,0:0:0:0:
41,32,31867,2,0,B|36:40|36:40|49:51|49:51|53:36|53:36|46:32,1,47.2499985580445,2|0,0:0|0:0,0:0:0:0:
163,328,32038,6,0,B|189:292|202:200|152:154|94:250|178:239,1,188.999994232178,2|8,3:2|0:0,0:0:0:0:
9,307,32553,2,0,P|13:320|18:344,1,26.25,2|0,0:0|0:0,0:0:0:0:
88,295,32724,5,2,0:0:0:0:
98,291,32810,1,2,0:0:0:0:
114,287,32895,1,2,3:2:0:0:
134,282,32981,1,2,0:0:0:0:
160,277,33067,1,10,0:0:0:0:
193,273,33152,1,2,0:0:0:0:
230,271,33238,1,2,0:0:0:0:
273,271,33324,1,2,0:0:0:0:
320,275,33410,6,0,P|436:320|514:352,1,204.749990627289,6|2,3:2|0:0,0:0:0:0:
510,350,33753,1,8,0:0:0:0:
481,176,33925,1,2,0:0:0:0:
481,176,34010,2,0,P|462:204|452:237,1,68.2499968757631
438,102,34181,2,0,P|453:132|476:157,1,68.2499968757631,2|2,0:0|3:2,0:3:0:0:
232,187,34439,6,0,B|308:131|322:232|387:177,1,168,8|2,0:0|0:0,0:0:0:0:
148,89,34782,6,0,B|126:81|137:50|137:50|170:66|155:89,1,94.499997116089,0|2,3:0|0:0,0:0:0:0:
46,81,35039,1,2,0:0:0:0:
46,81,35125,2,0,P|92:91|138:103,1,94.499997116089,8|2,0:0|0:0,0:0:0:0:
396,165,35467,5,2,0:0:0:0:
386,151,35553,1,2,0:0:0:0:
380,167,35639,1,0,3:0:0:0:
431,384,35810,2,0,B|440:333|390:313|386:344|342:295|360:250,1,168,10|2,0:0|0:0,0:0:0:0:
21,314,36153,6,0,P|16:267|1:222,1,94.499997116089,6|0,3:2|0:0,0:0:0:0:
160,205,36410,1,2,0:0:0:0:
160,205,36496,2,0,P|114:196|71:177,1,94.499997116089,8|2,0:0|0:0,0:0:0:0:
91,358,36839,6,0,P|61:342|27:335,2,68.2499968757631,2|2|0,0:0|0:0|3:0,0:0:0:0:
71,177,37181,1,10,0:0:0:0:
91,358,37353,2,0,P|81:325|74:291,1,68.2499968757631,2|0,0:0|0:0,0:0:0:0:
157,277,37525,6,0,B|217:254|245:303|245:303|205:268|161:286,1,188.999994232178,2|8,3:2|0:0,0:0:0:0:
282,0,38038,2,0,P|263:76|266:115,1,94.499997116089,2|0,0:0|0:0,0:0:0:0:
263,91,38296,2,0,P|286:95|301:64,1,47.2499985580445,2|2,0:0|3:2,0:0:0:0:
263,384,38553,1,8,0:0:0:0:
186,368,38724,1,2,0:0:0:0:
186,368,38810,1,0,0:0:0:0:
186,368,38896,6,0,P|164:320|167:268,1,105,6|0,3:2|0:0,0:0:0:0:
267,353,39153,1,2,0:0:0:0:
267,353,39238,2,0,P|270:301|248:253,1,105,0|2,3:0|0:0,0:0:0:0:
467,183,39581,5,0,3:0:0:0:
467,183,39667,2,0,L|498:186,1,31.4999990386963,2|0,0:0|0:0,0:0:0:0:
512,268,39925,5,0,3:0:0:0:
426,44,40096,1,2,0:0:0:0:
367,101,40268,6,0,P|314:102|264:118,1,105,6|0,3:2|0:0,0:0:0:0:
353,9,40525,1,2,0:0:0:0:
353,9,40611,2,0,P|302:24|250:26,1,105,0|2,3:0|0:0,0:0:0:0:
408,239,40953,6,0,P|408:258|416:277,2,39.3750015020371,2|2|0,3:2|0:0|0:0,0:0:0:0:
480,381,41296,2,0,P|457:357|450:317,2,39.3750015020371,2|0|2,3:2|0:0|0:0,0:0:0:0:
232,207,41639,6,0,P|241:207|250:211,1,18.3749994392395,6|0,3:2|0:0,0:0:0:0:
333,205,41810,1,0,3:0:0:0:
333,205,41982,6,0,P|340:201|351:200,1,18.3749994392395,2|0,3:2|0:0,0:0:0:0:
423,158,42153,1,0,3:0:0:0:
423,158,42325,6,0,P|447:142|460:116,1,52.5,6|2,3:2|0:0,0:0:0:0:
232,207,42496,1,0,3:0:0:0:
496,48,42668,6,0,P|509:22|508:-6,1,52.5,2|0,3:2|0:0,0:0:0:0:
333,205,42839,1,2,3:2:0:0:
438,377,43010,5,6,3:2:0:0:
444,365,43096,1,0,3:0:0:0:
450,352,43182,1,2,3:2:0:0:
458,340,43268,1,0,3:0:0:0:
470,346,43353,5,0,3:0:0:0:
462,358,43439,1,0,3:0:0:0:
456,371,43525,1,0,3:0:0:0:
450,384,43611,1,0,3:0:0:0:
421,368,43696,5,0,3:0:0:0:
427,355,43782,1,0,3:0:0:0:
433,342,43868,1,0,3:0:0:0:
441,330,43954,1,0,3:0:0:0:
469,322,44039,5,8,0:0:0:0:
178,327,44210,1,8,0:0:0:0:
178,327,44296,1,8,0:0:0:0:
178,327,44381,6,0,P|129:316|58:307,1,105,6|2,3:2|0:0,0:0:0:0:
0,152,44724,2,0,B|-10:147|-19:100|95:134|51:229,1,157.5,10|0,0:0|0:0,0:0:0:0:
51,228,45067,1,2,0:0:0:0:
6,50,45238,1,2,3:2:0:0:
230,70,45410,6,0,P|245:50|266:63,1,52.5,8|0,0:0|0:0,0:0:0:0:
263,146,45581,2,0,P|256:82|274:11,1,105,2|0,0:0|3:0,0:0:0:0:
311,214,45924,1,2,0:0:0:0:
336,4,46096,2,0,P|394:29|447:81,1,105,8|0,0:0|3:0,3:0:0:0:
426,55,46353,1,0,0:0:0:0:
426,55,46438,5,0,0:0:0:0:
262,42,46610,1,0,3:0:0:0:
336,4,46781,1,8,0:0:0:0:
263,146,46953,6,0,P|248:215|237:274,1,105,2|0,0:0|3:0,0:0:0:0:
156,178,47296,1,2,0:0:0:0:
381,274,47467,2,0,B|392:195|309:215|356:236,1,105,10|2,0:0|0:0,0:0:0:0:
264,205,47724,1,2,0:0:0:0:
264,205,47810,1,2,0:0:0:0:
463,188,47981,1,2,3:2:0:0:
238,107,48153,6,0,P|234:80|206:64,1,52.5,8|0,0:0|0:0,0:0:0:0:
158,126,48324,2,0,P|80:106|72:66,1,105,2|0,0:0|3:0,0:0:0:0:
360,230,48667,1,2,0:0:0:0:
316,289,48838,1,10,0:0:0:0:
299,359,49010,2,0,B|284:384|284:384|290:354,1,52.5,2|0,0:0|0:0,0:0:0:0:
304,166,49181,6,0,P|261:114|214:65,2,136.499993751526,2|2|10,0:0|3:2|0:0,0:0:0:0:
154,8,49696,1,2,0:0:0:0:
154,8,49781,1,2,0:0:0:0:
154,8,49867,5,0,3:0:0:0:
213,64,50038,1,2,0:0:0:0:
88,232,50210,2,0,P|140:245|187:163,1,157.5,10|0,0:0|0:0,0:0:0:0:
188,167,50553,1,0,0:0:0:0:
1,141,50724,1,2,3:2:0:0:
26,368,50896,6,0,P|27:342|8:325,1,52.5,8|0,0:0|0:0,0:0:0:0:
8,242,51067,2,0,P|95:247|150:256,1,105,2|0,0:0|3:0,0:0:0:0:
220,87,51410,1,2,0:0:0:0:
156,318,51581,2,0,P|193:283|192:232,1,105,8|0,0:0|0:0,0:0:0:0:
202,12,51924,1,0,0:0:0:0:
202,12,52010,1,0,0:0:0:0:
202,12,52096,1,0,3:0:0:0:
220,87,52267,1,8,0:0:0:0:
353,217,52438,6,0,B|346:194|400:167|442:205|432:230,1,115.5,2|0,3:2|0:0,0:0:0:0:
362,363,54496,5,0,3:0:0:0:
368,327,54581,1,0,3:0:0:0:
380,292,54667,1,8,0:0:0:0:
353,217,54838,1,0,3:0:0:0:
227,304,55010,5,10,0:0:0:0:
505,204,55181,1,0,3:0:0:0:
280,13,55353,6,0,P|264:111|239:116,1,105,6|2,3:2|0:0,0:0:0:0:
64,107,55696,2,0,P|132:68|209:53,1,157.5,10|0,0:0|0:0,0:0:0:0:
209,53,56039,1,2,0:0:0:0:
435,104,56210,1,2,3:2:0:0:
390,345,56382,6,0,P|392:369|417:369,1,52.5,8|0,0:0|0:0,0:0:0:0:
456,295,56553,2,0,P|417:346|398:417,1,105,2|0,0:0|3:0,0:0:0:0:
463,183,56896,1,2,0:0:0:0:
258,226,57068,2,0,P|312:228|341:182,1,105,8|0,0:0|0:0,3:0:0:0:
340,190,57325,1,0,0:0:0:0:
340,190,57410,5,0,0:0:0:0:
456,295,57582,1,0,3:0:0:0:
374,306,57753,1,8,0:0:0:0:
463,183,57925,6,0,P|472:127|489:55,1,105,2|0,0:0|3:0,0:0:0:0:
388,0,58268,1,2,0:0:0:0:
143,77,58439,2,0,B|152:88|156:108|156:108|190:111|235:129,1,105,10|2,0:0|0:0,0:0:0:0:
306,157,58696,1,2,0:0:0:0:
306,157,58782,1,2,0:0:0:0:
187,5,58953,1,2,3:2:0:0:
76,226,59125,6,0,P|61:216|77:223,1,52.5,8|0,0:0|0:0,0:0:0:0:
146,271,59296,2,0,P|107:260|43:248,1,105,2|0,0:0|3:0,0:0:0:0:
82,5,59639,1,2,0:0:0:0:
38,64,59810,1,8,0:0:0:0:
21,134,59982,2,0,B|6:159|6:159|12:129,1,52.5,2|0,0:0|0:0,0:0:0:0:
88,343,60153,6,0,P|59:281|38:239,2,105,0|0|8,0:0|3:0|0:0,0:0:0:0:
354,262,60668,1,2,0:0:0:0:
354,262,60753,1,2,0:0:0:0:
354,262,60839,5,6,3:2:0:0:
272,235,61010,1,2,0:0:0:0:
335,180,61181,5,2,3:2:0:0:
290,316,61352,1,2,0:0:0:0:
335,180,61524,5,2,3:2:0:0:
437,281,61696,1,2,0:0:0:0:
512,251,61867,1,0,3:0:0:0:
335,180,62038,6,0,L|353:124,1,52.5,2|0,0:0|0:0,0:0:0:0:
149,132,62210,5,0,3:0:0:0:
193,201,62381,1,2,0:0:0:0:
361,100,62553,5,2,3:2:0:0:
335,180,62724,1,2,0:0:0:0:
512,251,62896,5,0,3:0:0:0:
437,281,63067,1,2,0:0:0:0:
149,132,63238,1,0,3:0:0:0:
149,132,63410,6,0,L|145:110,1,21,6|2,3:2|3:2,0:0:0:0:
0,26,63924,6,0,P|-3:13|2:25,1,36.749998878479,2|0,3:2|0:0,0:0:0:0:
86,28,64096,6,0,P|97:16|87:29,1,47.2499985580445,0|0,3:0|0:0,0:0:0:0:
174,74,64267,6,0,P|194:71|175:76,1,57.7500017623902,2|0,3:2|0:0,0:0:0:0:
230,187,64438,6,0,P|251:195|229:189,1,68.2499968757631,2|0,3:2|0:0,0:0:0:0:
192,336,64610,6,0,P|208:356|190:338,1,78.7500030040742,0|0,3:0|0:0,0:0:0:0:
511,158,64781,6,0,P|290:136|191:334,1,472.500018024445,6|0,3:2|0:0,0:0:0:0:
191,335,65467,6,0,B|222:279|141:257|231:161,2,157.500006008148,2|0|0,0:0|0:0|0:0,0:0:0:0:
431,331,66324,6,0,B|537:-17|537:-17|359:113|359:113|350:110|350:110|442:238,1,735,6|0,3:2|0:0,0:0:0:0:
508,383,67010,6,0,B|532:351|532:351|506:361,1,68.2499968757631,10|0,0:0|0:0,0:0:0:0:
340,329,67181,2,0,B|334:289|334:289|352:311,1,68.2499968757631,2|0,0:0|0:0,0:0:0:0:
491,338,67353,2,0,B|473:374|473:374|377:388|377:388|349:357,1,178.500003404617,2|2,0:0|0:0,0:0:0:0:
349,111,67696,6,0,B|354:106|354:106|361:111|361:111|356:118|356:118|347:115,1,28.8750008811951,2|0,3:2|0:0,0:0:0:0:
468,160,67867,2,0,B|410:172|410:172|410:162|410:162|326:18|326:18|363:154,1,315,0|0,3:0|0:0,0:0:0:0:
372,245,68210,2,0,B|349:275|349:275|264:260,1,105,2|0,3:2|0:0,0:0:0:0:
93,221,68381,6,0,B|82:241|82:241|100:223,1,39.3750015020371,8|0,0:0|0:0,0:0:0:0:
199,384,68553,6,0,P|177:329|160:269,1,120.750002303124,2|0,0:0|0:0,0:0:0:0:
271,343,68724,2,0,P|259:283|255:223,1,120.750002303124,2|0,0:0|0:0,0:0:0:0:
277,108,68896,2,0,P|301:48|316:30,1,52.5
301,57,69067,6,0,L|313:55,1,10.5,2|0,3:2|0:0,0:0:0:0:
43,104,69410,6,0,B|34:104|34:104|-13:23|-13:23|101:137|101:137|81:235|81:235|136:248,1,420,2|8,3:2|0:0,0:0:0:0:
373,44,69924,2,0,L|256:65,1,73.4999977569581,2|0,0:0|0:0,0:0:0:0:
218,72,70096,6,0,P|211:67|210:56,1,10.5,2|0,3:2|0:0,0:0:0:0:
218,20,70181,6,0,P|220:11|230:7,1,10.5,2|0,3:2|0:0,0:0:0:0:
268,4,70267,6,0,P|276:3|283:12,1,10.5,2|0,3:2|0:0,0:0:0:0:
298,46,70353,6,0,P|300:54|295:63,1,10.5,2|0,3:2|0:0,0:0:0:0:
268,89,70438,6,0,P|261:94|250:91,1,10.5,8|0,0:0|0:0,0:0:0:0:
319,239,70610,6,0,P|327:201|343:152,1,78.7500030040742,2|0,3:2|0:0,0:0:0:0:
317,156,70781,5,2,0:0:0:0:
323,157,70867,1,2,0:0:0:0:
328,158,70953,1,2,3:2:0:0:
333,160,71038,1,2,0:0:0:0:
338,162,71124,6,0,P|374:149|425:139,2,78.7500030040742,10|0|2,0:0|0:0|0:0,0:0:0:0:
460,202,71467,5,2,0:0:0:0:
301,57,71638,1,2,0:0:0:0:
155,217,71810,6,0,B|164:272|164:272|155:269|155:269|157:251,1,78.7500030040742,2|0,3:2|0:0,0:0:0:0:
270,349,71981,2,0,B|217:329|217:329|224:323|224:323|239:333,1,78.7500030040742,2|0,0:0|0:0,0:0:0:0:
98,382,72153,2,0,B|141:346|141:346|143:356|143:356|126:363,1,78.7500030040742,2|0,0:0|0:0,0:0:0:0:
238,247,72324,1,2,0:0:0:0:
220,71,72496,6,0,B|214:51|214:51|249:-45,1,68.2499968757631,10|0,0:0|0:0,0:0:0:0:
313,0,72667,2,0,B|326:-9|326:-9|350:-7|350:-7|331:8|331:8|314:5,1,68.2499968757631,2|0,0:0|0:0,0:0:0:0:
393,62,72838,2,0,B|359:98|359:98|228:84|359:94|227:79,1,178.500003404617,2|2,0:0|0:0,0:0:0:0:
30,55,73181,6,0,B|21:42|21:42|33:51,1,28.8750008811951,2|0,3:2|0:0,0:0:0:0:
110,158,73353,2,0,B|121:140|121:140|132:215|132:215|1:130|1:130|30:44,1,315,0|0,3:0|0:0,0:0:0:0:
202,153,73696,2,0,B|207:186|207:186|337:207,1,105,2|0,3:2|0:0,0:0:0:0:
481,247,73867,6,0,B|460:243|460:243|447:255,1,39.3750015020371,8|0,0:0|0:0,0:0:0:0:
13,330,74038,6,0,B|364:267|13:332|365:271|365:271|357:263|357:263|360:193|424:168,1,483.000009212494,2|2,0:0|0:0,0:0:0:0:
415,171,74553,6,0,L|411:143,1,28.8750008811951,2|0,3:2|0:0,0:0:0:0:
390,28,74896,6,0,L|386:0,1,28.8750008811951,2|0,3:2|0:0,0:0:0:0:
402,340,75238,6,0,B|468:378|468:378|370:342|370:342|391:237|391:237|413:237|413:237|442:124|442:124|320:140,1,525,8|2,0:0|0:0,0:0:0:0:
345,136,75753,1,0,0:0:0:0:
479,289,75924,6,0,L|489:287,1,7.87499975967408,0|0,3:2|0:0,0:0:0:0:
486,287,76267,6,0,L|479:289,1,7.87499975967408,2|0,3:2|0:0,0:0:0:0:
479,289,76610,6,0,L|489:287,1,7.87499975967408,2|0,3:2|0:0,0:0:0:0:
456,79,76953,6,0,P|445:63|460:75,1,52.5,2|0,0:3|0:0,0:0:0:0:
383,5,77124,2,0,P|368:-7|385:0,1,52.5,0|0,0:3|0:0,0:0:0:0:
0,199,77296,5,14,0:0:0:0:
174,118,77467,1,2,0:0:0:0:
155,198,77638,5,10,0:0:0:0:
245,230,77809,1,2,0:0:0:0:
136,278,77981,5,10,0:0:0:0:
156,321,78153,1,2,0:0:0:0:
117,358,78324,5,10,0:0:0:0:
117,358,78496,5,2,0:0:0:0:
193,38,78667,5,10,0:0:0:0:
340,161,78838,1,2,0:0:0:0:
332,66,79010,5,10,0:0:0:0:
340,161,79181,1,2,0:0:0:0:
363,30,79353,5,10,0:0:0:0:
332,66,79524,1,2,0:0:0:0:
411,27,79696,5,10,0:0:0:0:
411,27,79867,1,2,0:0:0:0:
396,293,80038,6,0,P|245:213|171:196,1,220.499993270874,14|0,0:0|0:0,0:0:0:0:
105,2,80381,5,10,0:0:0:0:
197,200,80553,1,0,3:0:0:0:
112,17,80724,5,10,0:0:0:0:
189,184,80896,1,2,3:2:0:0:
119,33,81067,5,10,0:0:0:0:
182,168,81239,1,0,3:0:0:0:
137,379,81410,6,0,P|115:348|65:306,1,73.4999977569581,14|0,0:0|0:0,0:0:0:0:
64,244,81581,2,0,B|69:235|61:226|31:231|11:256|18:267|29:266,1,73.4999977569581,2|0,3:2|0:0,0:0:0:0:
205,329,81753,6,0,P|195:289|178:251,1,84,10|0,0:0|0:0,0:0:0:0:
182,168,81924,2,0,B|190:161|186:148|153:140|120:158|124:172|135:176,1,84,0|0,3:0|0:0,0:0:0:0:
286,309,82096,6,0,P|292:261|290:212,1,94.499997116089,14|0,0:0|0:0,0:0:0:0:
438,275,82267,1,2,3:2:0:0:
441,282,82353,1,2,3:2:0:0:
368,319,82438,6,0,P|395:271|413:220,1,105,10|0,0:0|0:0,0:0:0:0:
481,175,82610,2,0,B|494:177|501:161|478:125|433:113|424:128|431:142,1,105,0|0,3:0|0:0,0:0:0:0:
64,244,82781,6,0,P|61:253|67:247,1,21,2|0,3:2|0:0,0:0:0:0:
182,168,83124,6,0,P|175:175|183:171,1,21,2|0,3:2|0:0,0:0:0:0:
331,138,83467,6,0,P|322:142|331:142,1,21,2|0,3:2|0:0,0:0:0:0:
481,175,83810,6,0,P|471:175|479:178,1,21,2|0,3:2|0:0,0:0:0:0:
326,0,84153,6,0,P|340:71|353:174,1,157.5,4|0,3:2|0:0,0:0:0:0:
365,236,84496,5,0,3:0:0:0:
294,244,84610,5,0,3:0:0:0:
224,263,84724,5,0,3:0:0:0:
162,296,84838,5,0,3:0:0:0:
159,300,84924,1,0,3:0:0:0:
157,305,85010,1,0,3:0:0:0:
157,310,85096,1,0,3:0:0:0:
159,314,85181,1,8,0:0:0:0:
23,228,85353,6,0,P|22:213|11:207,1,18.3749994392395,8|0,0:0|0:0,0:0:0:0:
12,200,85438,2,0,P|0:208|0:220,1,18.3749994392395,8|0,0:0|0:0,0:0:0:0:
0,226,85524,6,0,P|101:191|259:157,1,236.250009012223,6|2,3:2|0:0,0:0:0:0:
259,83,85867,2,0,B|259:61|278:50|278:50|283:71|266:84,2,78.7500030040742,10|2|2,0:0|0:0|0:0,0:0:0:0:
499,204,86296,6,0,P|488:170|479:131,2,57.7500017623902,2|0|0,0:0|3:0|0:0,0:0:0:0:
401,120,86553,2,0,P|420:98|440:78,1,57.7500017623902,10|0,0:0|0:0,0:0:0:0:
417,204,86724,2,0,P|389:196|361:191,1,57.7500017623902,2|0,0:0|0:0,0:0:0:0:
247,379,86896,6,0,P|155:306|-11:238,1,236.250009012223,2|2,3:2|0:0,0:0:0:0:
13,327,87238,2,0,P|52:317|65:279,1,84,10|2,0:0|0:0,0:0:0:0:
246,87,87581,2,0,P|235:58|241:15,1,42,2|2,0:0|0:0,0:0:0:0:
163,4,87753,1,0,3:0:0:0:
401,120,87924,6,0,B|158:95|158:95|151:101|151:101|30:90,1,367.5,10|0,0:0|0:0,0:0:0:0:
37,91,88267,6,0,B|37:125|66:129|68:119|105:137|101:184,1,115.50000352478,2|0,3:2|0:0,0:0:0:0:
164,231,88524,1,2,0:0:0:0:
164,231,88610,2,0,B|134:248|145:275|155:271|158:312|115:332,1,115.50000352478,10|2,0:0|0:0,0:0:0:0:
37,91,88953,6,0,P|44:111|72:116,1,39.3750015020371,2|2,0:0|0:0,0:0:0:0:
153,63,89124,2,0,P|154:82|141:97,1,39.3750015020371,0|0,3:0|0:0,0:0:0:0:
122,329,89296,2,0,P|82:301|13:276,1,115.50000352478,10|2,0:0|0:0,0:0:0:0:
196,234,89638,6,0,P|188:205|179:170,1,57.7500017623902,0|0,3:0|0:0,0:0:0:0:
160,90,89896,1,2,0:0:0:0:
160,90,89981,2,0,P|152:61|148:41,1,28.8750008811951,8|0,0:0|0:0,0:0:0:0:
384,122,90153,6,0,P|317:196|248:168,1,157.500006008148,2|0,0:0|0:0,0:0:0:0:
330,57,90410,2,0,P|355:48|378:30,1,39.3750015020371,2|0,0:0|3:0,0:0:0:0:
467,127,90581,1,0,0:0:0:0:
467,127,90667,2,0,P|462:100|466:71,1,39.3750015020371,10|0,0:0|0:0,0:0:0:0:
438,4,90838,2,0,P|450:-6|441:8,1,39.3750015020371,2|0,0:0|0:0,0:0:0:0:
249,55,91010,6,0,B|245:103|280:131|283:118|320:144|309:195,1,157.500006008148,2|0,3:2|0:0,0:0:0:0:
419,372,91267,1,2,0:0:0:0:
410,381,91353,2,0,L|394:294,1,78.7500030040742,10|0,0:0|0:0,0:0:0:0:
271,264,91524,2,0,P|246:250|234:224,1,57.7500017623902,2|0,0:0|0:0,0:0:0:0:
458,248,91696,5,0,0:0:0:0:
458,248,91781,1,2,0:0:0:0:
458,248,91867,1,2,3:2:0:0:
217,384,92038,6,0,P|211:353|212:322,1,62.9999980773926,8|0,0:0|0:0,0:0:0:0:
136,194,92210,6,0,P|162:164|174:127,1,78.7500030040742,2|0,0:0|0:0,0:0:0:0:
285,12,92381,6,0,B|356:146|32:145|65:236,1,357.000006809235,0|10,3:2|0:0,0:0:0:0:
173,127,92896,2,0,L|234:137,1,39.3750015020371,2|0,0:0|0:0,0:0:0:0:
88,364,93067,6,0,P|77:307|59:253,1,115.50000352478,2|0,0:0|3:0,0:0:0:0:
342,112,93410,2,0,P|316:60|285:11,1,115.50000352478,10|2,0:0|0:0,0:0:0:0:
504,279,93753,6,0,B|514:162|414:128|343:182|397:237|475:187,1,236.250009012223,2|2,3:2|0:0,0:0:0:0:
270,325,94096,2,0,P|344:299|422:286,1,157.500006008148,10|2,0:0|0:0,0:0:0:0:
323,176,94353,1,0,0:0:0:0:
323,176,94438,2,0,P|315:138|341:111,1,78.7500030040742,2|2,0:0|0:0,0:0:0:0:
353,331,94610,1,0,3:0:0:0:
35,384,94781,6,0,P|22:312|0:212,1,133.875002553463,10|0,0:0|0:0,0:0:0:0:
9,252,94953,6,0,P|9:240|14:251,1,31.4999990386963,2|0,0:0|3:0,0:0:0:0:
95,231,95296,2,0,P|94:218|99:229,1,31.4999990386963,2|8,0:0|0:0,0:0:0:0:
25,372,95638,6,0,P|29:381|45:383,1,15.7499995193482,2|0,0:0|0:0,0:0:0:0:
34,383,95810,5,2,0:0:0:0:
50,369,95896,5,2,0:0:0:0:
75,348,95981,5,2,3:2:0:0:
109,323,96067,5,2,0:0:0:0:
153,292,96153,5,10,0:0:0:0:
208,259,96238,5,2,0:0:0:0:
274,224,96324,5,2,0:0:0:0:
353,190,96410,5,2,0:0:0:0:
444,159,96496,6,0,B|459:123|435:102|414:128|374:42|374:42|360:117|437:140,1,267.750005106926,6|2,3:2|0:0,0:0:0:0:
458,262,96838,2,0,P|384:226|333:226,1,105,10|2,0:0|0:0,0:0:0:0:
131,195,97181,5,2,0:0:0:0:
125,188,97266,1,2,0:0:0:0:
116,188,97352,2,0,P|93:199|89:224,1,52.5,0|0,3:0|0:0,0:0:0:0:
21,274,97524,2,0,B|65:302|74:355|74:355|92:328|123:326,1,157.500006008148,10|2,0:0|0:0,0:0:0:0:
362,223,97867,6,0,B|326:173|372:107|371:149|451:79|380:13,1,236.250009012223,2|2,3:2|0:0,0:0:0:0:
421,85,98210,2,0,P|450:59|489:57,1,78.7500030040742,10|2,0:0|0:0,0:0:0:0:
326,211,98553,2,0,P|342:223|362:223,1,39.3750015020371,2|2,0:0|0:0,0:0:0:0:
366,143,98724,1,0,3:0:0:0:
70,1,98896,6,0,P|274:144|394:255,1,367.5,10|0,0:0|0:0,0:0:0:0:
361,222,99238,6,0,P|306:224|284:174,1,115.50000352478,6|0,3:2|0:0,0:0:0:0:
472,0,99496,1,2,0:0:0:0:
472,0,99581,6,0,P|455:40|448:83,1,78.7500030040742,10|0,0:0|0:0,0:0:0:0:
359,91,99753,2,0,L|321:98,1,39.3750015020371,2|0,0:0|0:0,0:0:0:0:
356,308,99924,1,2,0:0:0:0:
359,303,100010,6,0,P|381:227|412:155,1,157.500006008148,2|0,0:0|0:0,0:0:0:0:
128,175,100267,2,0,B|72:155|48:111|48:111|63:158|36:216,1,210,10|2,0:0|0:0,0:0:0:0:
300,210,100610,6,0,P|292:239|283:274,1,57.7500017623902,0|0,3:0|0:0,0:0:0:0:
264,354,100867,1,2,0:0:0:0:
264,354,100953,2,0,P|293:362|313:366,1,28.8750008811951,8|0,0:0|0:0,0:0:0:0:
300,210,101124,6,0,B|356:176|253:106|299:68,1,157.500006008148,2|0,0:0|0:0,0:0:0:0:
192,186,101381,2,0,P|211:180|228:171,1,39.3750015020371,2|0,0:0|3:0,0:0:0:0:
381,281,101553,1,0,0:0:0:0:
381,281,101638,2,0,P|376:254|380:225,1,39.3750015020371,8|0,0:0|0:0,0:0:0:0:
234,336,101810,2,0,L|263:280,1,39.3750015020371,2|2,0:0|0:0,0:0:0:0:
299,68,101981,6,0,B|320:62|262:19|262:19|292:66|300:98,1,157.500006008148,6|2,3:2|0:0,0:0:0:0:
395,266,102324,2,0,B|381:283|453:283|453:283|401:263|376:242,1,157.500006008148,2|2,3:2|0:0,0:0:0:0:
201,161,102667,2,0,B|201:139|142:181|142:181|196:167|229:169,1,157.500006008148,2|0,3:2|0:0,0:0:0:0:
418,132,103010,2,0,B|430:150|453:81|453:81|417:124|389:142,1,157.500006008148,2|2,3:2|0:0,0:0:0:0:
229,370,103353,6,0,P|274:266|316:179,1,210,6|2,3:2|0:0,0:0:0:0:
390,141,103610,1,2,0:0:0:0:
390,141,103696,1,2,3:2:0:0:
228,169,103867,1,2,0:0:0:0:
203,340,104038,6,0,P|226:364|232:404,2,39.3750015020371,2|2|0,3:2|0:0|0:0,0:0:0:0:
95,283,104381,2,0,P|126:292|152:323,2,39.3750015020371,2|0|2,3:2|0:0|0:0,0:0:0:0:
512,199,104724,6,0,P|518:190|510:197,1,26.25,6|0,3:2|0:0,0:0:0:0:
433,163,104896,6,0,P|440:151|430:160,1,36.749998878479,0|0,3:0|0:0,0:0:0:0:
363,92,105067,6,0,P|374:85|364:89,1,47.2499985580445,2|0,3:2|0:0,0:0:0:0:
323,0,105238,6,0,P|323:21|318:2,1,57.7500017623902,2|0,3:2|0:0,0:0:0:0:
60,117,105410,6,0,P|31:98|0:85,1,68.2499968757631,6|0,3:2|0:0,0:0:0:0:
177,37,105581,2,0,P|156:63|140:94,1,68.2499968757631,2|0,3:2|0:0,0:0:0:0:
131,204,105753,6,0,B|115:178|117:157|132:173|136:201,1,68.2499968757631,0|0,3:0|0:0,0:0:0:0:
71,3,105924,2,0,B|86:28|85:50|70:34|66:6,1,68.2499968757631,2|0,3:2|0:0,0:0:0:0:
162,280,106096,5,6,3:2:0:0:
174,284,106181,1,0,3:0:0:0:
182,294,106267,1,0,3:0:0:0:
184,307,106353,1,0,3:0:0:0:
156,373,106438,5,2,3:2:0:0:
152,347,106523,1,0,3:0:0:0:
162,323,106609,1,0,3:0:0:0:
184,307,106695,1,0,3:0:0:0:
273,331,106781,6,0,P|266:296|257:238,2,68.2499968757631,2|0|0,3:2|3:0|3:0,0:0:0:0:
464,365,107038,1,0,3:0:0:0:
464,365,107124,6,0,P|476:352|480:333,1,36.749998878479,10|8,0:0|0:0,0:0:0:0:
487,136,107381,1,8,0:0:0:0:
487,136,107467,6,0,B|454:135|428:161|428:161|352:147|341:64,1,204.749990627289,6|2,3:2|0:0,0:0:0:0:
341,66,107810,1,8,0:0:0:0:
478,285,107981,1,2,0:0:0:0:
478,285,108067,2,0,P|484:251|491:218,1,68.2499968757631
464,365,108238,2,0,P|469:331|476:297,1,68.2499968757631,2|0,0:0|3:0,0:0:0:0:
228,305,108496,6,0,L|395:281,1,168,8|2,0:0|0:0,0:0:0:0:
161,355,108838,6,0,P|139:377|156:353,1,94.499997116089,2|0,3:2|0:0,0:0:0:0:
130,251,109096,1,2,0:0:0:0:
130,251,109181,2,0,P|79:290|36:275,1,94.499997116089,8|2,0:0|0:0,0:0:0:0:
10,31,109524,5,2,0:0:0:0:
20,44,109610,1,2,0:0:0:0:
6,44,109696,1,0,3:0:0:0:
234,142,109867,2,0,B|183:151|163:101|194:97|145:53|100:71,1,168,10|2,0:0|0:0,0:0:0:0:
312,381,110210,6,0,P|317:334|332:289,1,94.499997116089,2|0,3:2|0:0,0:0:0:0:
266,222,110467,1,2,0:0:0:0:
266,222,110553,2,0,P|313:195|306:131,1,94.499997116089,10|2,0:0|0:0,0:0:0:0:
230,380,110896,6,0,P|262:368|296:361,2,68.2499968757631,2|2|0,0:0|0:0|3:0,0:0:0:0:
320,159,111238,1,8,0:0:0:0:
100,71,111410,2,0,P|111:103|119:136,1,68.2499968757631,2|0,0:0|0:0,0:0:0:0:
66,198,111581,6,0,B|58:238|98:245|92:286|92:286|98:245|140:253|147:214,1,188.999994232178,2|8,3:2|0:0,0:0:0:0:
6,52,112096,2,0,P|50:39|95:55,1,94.499997116089,2|0,0:0|0:0,0:0:0:0:
95,55,112353,2,0,P|90:36|107:44,1,47.2499985580445,2|0,0:0|3:0,0:0:0:0:
73,367,112610,1,8,0:0:0:0:
92,285,112781,1,0,0:0:0:0:
92,285,112867,1,0,0:0:0:0:
92,285,112953,6,0,P|162:306|265:320,1,136.499993751526,2|0,3:2|0:0,0:0:0:0:
316,260,113210,1,2,0:0:0:0:
316,260,113296,2,0,B|299:250|292:235|292:235|298:250|293:268,1,68.2499968757631,8|0,0:0|0:0,0:0:0:0:
418,379,113467,6,0,P|427:357|496:305,1,94.499997116089,2|0,0:0|0:0,0:0:0:0:
220,134,113810,1,2,3:2:0:0:
220,133,113981,2,0,P|217:156|231:174,1,47.2499985580445,8|0,0:0|0:0,0:0:0:0:
312,153,114153,2,0,P|314:129|300:111,1,47.2499985580445,2|0,0:0|0:0,0:0:0:0:
511,177,114324,6,0,B|478:100|395:77|363:99|390:148|449:115,1,204.749990627289,2|2,3:2|0:0,0:0:0:0:
481,8,114667,2,0,P|430:66|443:129,1,136.499993751526,8|2,0:0|0:0,0:0:0:0:
151,344,115010,6,0,P|133:358|109:357,1,47.2499985580445,2|2,0:0|0:0,0:0:0:0:
47,303,115181,1,0,3:0:0:0:
190,174,115353,2,0,P|189:221|168:263,1,94.499997116089,10|2,0:0|0:0,0:0:0:0:
0,36,115696,6,0,B|14:129|112:146|112:146|128:104|178:92,1,252,2|2,3:2|0:0,0:0:0:0:
255,93,116038,2,0,P|248:60|246:8,1,68.2499968757631,10|0,0:0|0:0,0:0:0:0:
245,8,116210,1,2,0:0:0:0:
383,235,116381,6,0,B|353:298|353:298|256:280,1,136.499993751526,2|0,0:0|3:0,0:0:0:0:
302,160,116724,1,10,0:0:0:0:
217,372,116896,2,0,P|208:350|217:328,1,47.2499985580445,2|0,0:0|0:0,0:0:0:0:
168,263,117067,6,0,B|176:249|156:206|96:198|96:198|147:221|127:244|159:255,1,188.999994232178,2|8,3:2|0:0,0:0:0:0:
480,383,117581,2,0,P|488:375|483:385,1,26.25,2|0,0:0|0:0,0:0:0:0:
486,384,117753,5,2,0:0:0:0:
470,369,117839,5,2,0:0:0:0:
446,346,117924,5,2,3:2:0:0:
418,315,118010,5,2,0:0:0:0:
383,275,118096,5,10,0:0:0:0:
344,223,118181,5,2,0:0:0:0:
302,161,118267,5,2,0:0:0:0:
260,86,118353,5,2,0:0:0:0:
220,0,118438,6,0,B|301:9|348:48|376:94|376:94|414:104|443:66,1,267.750005106926,6|2,3:2|0:0,0:0:0:0:
396,190,118781,2,0,P|390:241|359:283,1,105,10|2,0:0|0:0,0:0:0:0:
153,176,119124,5,2,0:0:0:0:
160,170,119209,1,2,0:0:0:0:
148,169,119295,2,0,P|139:139|115:120,1,52.5,2|0,3:2|0:0,0:0:0:0:
23,93,119467,2,0,B|16:81|-1:69|-1:69|29:80|56:81|56:81|35:113|45:144,1,157.500006008148,10|2,0:0|0:0,0:0:0:0:
206,326,119810,6,0,B|256:290|322:336|280:335|350:415|416:344,1,236.250009012223,2|2,3:2|0:0,0:0:0:0:
386,267,120153,2,0,P|379:231|371:170,1,78.7500030040742,10|2,0:0|0:0,0:0:0:0:
125,358,120496,2,0,P|138:360|124:361,1,39.3750015020371,2|2,0:0|0:0,0:0:0:0:
145,275,120667,1,0,3:0:0:0:
44,143,120839,6,0,B|354:94|354:94|361:79|361:79|412:71,1,367.5,10|0,0:0|0:0,0:0:0:0:
396,73,121181,6,0,B|457:62|457:62|446:-5,1,115.50000352478,6|0,3:2|0:0,0:0:0:0:
479,195,121438,1,2,0:0:0:0:
479,195,121524,2,0,B|469:143|469:143|408:154,1,115.50000352478,10|2,0:0|0:0,0:0:0:0:
155,216,121867,6,0,P|170:215|155:219,1,39.3750015020371,2|2,0:0|0:0,0:0:0:0:
116,291,122038,2,0,P|124:270|135:249,1,39.3750015020371,0|0,3:0|0:0,0:0:0:0:
32,99,122210,2,0,P|106:150|138:112,1,115.50000352478,10|2,0:0|0:0,0:0:0:0:
252,37,122553,6,0,P|281:45|316:54,1,57.7500017623902,2|2,3:2|0:0,0:0:0:0:
396,73,122810,1,2,0:0:0:0:
396,73,122896,2,0,P|405:90|391:76,1,28.8750008811951,8|0,0:0|0:0,0:0:0:0:
415,275,123067,6,0,P|351:238|367:166,1,157.500006008148,2|0,0:0|0:0,0:0:0:0:
484,230,123324,2,0,B|497:222|505:231|505:231|495:239|484:235,1,39.3750015020371,2|2,0:0|3:2,0:0:0:0:
392,354,123496,1,0,0:0:0:0:
392,354,123581,2,0,B|392:369|404:371|404:371|406:358|396:351,1,39.3750015020371,8|0,0:0|0:0,0:0:0:0:
484,325,123753,2,0,P|492:336|483:328,1,39.3750015020371,2|0,0:0|0:0,0:0:0:0:
136,384,123924,6,0,P|135:331|119:281,1,105,6|0,3:2|0:0,0:0:0:0:
228,370,124181,1,2,0:0:0:0:
228,370,124267,2,0,P|212:320|211:268,1,105,0|2,3:0|0:0,0:0:0:0:
128,0,124610,5,0,3:0:0:0:
128,0,124696,2,0,L|131:31,1,31.4999990386963,2|0,0:0|0:0,0:0:0:0:
57,68,124953,5,0,3:0:0:0:
333,128,125124,1,2,0:0:0:0:
340,348,125296,6,0,P|287:349|237:365,1,105,6|0,3:2|0:0,0:0:0:0:
326,256,125553,1,2,0:0:0:0:
326,256,125639,2,0,P|275:271|223:273,1,105,0|2,3:0|0:0,0:0:0:0:
309,15,125981,6,0,P|319:32|335:44,2,39.3750015020371,2|2|0,3:2|0:0|0:0,0:0:0:0:
443,102,126324,2,0,P|412:93|386:62,2,39.3750015020371,2|0|2,3:2|0:0|0:0,0:0:0:0:
208,378,126667,6,0,P|208:369|212:360,1,18.3749994392395,6|0,3:2|0:0,0:0:0:0:
130,349,126838,1,0,3:0:0:0:
206,277,127010,6,0,P|202:270|201:259,1,18.3749994392395,2|0,3:2|0:0,0:0:0:0:
52,320,127181,1,0,3:0:0:0:
159,187,127353,6,0,P|143:163|117:150,1,52.5,6|2,3:2|0:0,0:0:0:0:
260,62,127524,1,0,3:0:0:0:
49,114,127696,6,0,P|23:101|-5:102,1,52.5,2|0,3:2|0:0,0:0:0:0:
338,91,127867,1,2,3:2:0:0:
419,124,128038,5,6,3:2:0:0:
409,133,128124,1,2,3:2:0:0:
400,144,128210,1,0,3:0:0:0:
391,155,128296,1,0,3:2:0:0:
401,164,128381,5,0,3:0:0:0:
410,153,128467,1,0,3:0:0:0:
419,142,128553,1,0,3:0:0:0:
429,133,128639,1,0,3:0:0:0:
483,72,128724,5,0,3:0:0:0:
473,39,128810,1,0,3:0:0:0:
442,24,128896,1,0,3:0:0:0:
409,33,128981,1,0,3:0:0:0:
444,54,129067,5,8,0:0:0:0:
105,124,129238,1,8,0:0:0:0:
105,124,129324,1,8,0:0:0:0:
105,124,129410,5,6,3:2:0:0:
479,200,129667,5,2,0:0:0:0:
479,200,129753,1,8,0:0:0:0:
452,371,129924,6,0,B|427:357|441:320|472:347|459:369,1,68.2499968757631,2|0,0:0|0:0,0:0:0:0:
451,382,130096,2,0,B|404:356|430:284|490:336|465:379,1,136.499993751526,0|0,0:0|3:0,0:0:0:0:
416,253,130438,5,8,0:0:0:0:
416,253,130610,1,2,0:0:0:0:
453,356,130781,5,0,3:0:0:0:
79,280,131038,5,2,0:0:0:0:
79,280,131124,1,8,0:0:0:0:
106,109,131295,6,0,B|130:122|110:133|110:133|85:132|98:110,1,68.2499968757631,2|0,0:0|0:0,0:0:0:0:
106,99,131467,2,0,B|153:125|113:146|113:146|64:145|91:101,1,136.499993751526,0|0,0:0|3:0,0:0:0:0:
82,21,131809,5,8,0:0:0:0:
82,21,131981,1,2,0:0:0:0:
103,120,132153,5,0,3:0:0:0:
468,188,132410,5,2,0:0:0:0:
468,188,132496,1,8,0:0:0:0:
411,33,132667,6,0,L|333:54,1,68.2499968757631,2|0,0:0|0:0,0:0:0:0:
315,75,132838,2,0,B|336:69|336:69|334:41|334:41|417:19,1,136.499993751526,0|0,0:0|3:0,0:0:0:0:
235,97,133181,5,8,0:0:0:0:
235,97,133353,1,2,0:0:0:0:
255,16,133524,5,0,3:0:0:0:
161,373,133781,5,2,0:0:0:0:
161,373,133867,1,8,0:0:0:0:
68,140,134038,6,0,B|66:131|66:131|89:120|89:120|104:141|104:141|98:148,1,68.2499968757631,2|0,0:0|0:0,0:0:0:0:
51,144,134210,2,0,B|47:126|47:126|94:105|94:105|124:147|124:147|112:160,1,136.499993751526,0|0,0:0|3:0,0:0:0:0:
10,379,134553,6,0,B|22:380|22:380|36:305|36:305|28:297|28:297|42:221|42:221|88:232,1,210,8|0,0:0|3:2,0:0:0:0:
