osu file format v14

[General]
AudioFilename: audio.mp3
AudioLeadIn: 0
PreviewTime: 38316
Countdown: 0
SampleSet: None
StackLeniency: 0.4
Mode: 0
LetterboxInBreaks: 0
WidescreenStoryboard: 0

[Editor]
Bookmarks: 729,11892,24450,38403,49566,63520,74682,85845,97357,99799
DistanceSpacing: 0.5
BeatDivisor: 4
GridSize: 8
TimelineZoom: 2.799999

[Metadata]
Title:Hanamaru Pippi wa Yoiko Dake
TitleUnicode:はなまるぴっぴはよいこだけ
Artist:Pastel*Palettes
ArtistUnicode:Pastel*Palettes
Creator:lit120
Version:X
Source:バンドリ!ガールズバンドパーティ!
Tags:丸山彩 Maruyama Aya 前島亜美 Maeshima Ami 大和麻弥 Yamato Maya 育実中上 Nakagami Ikumi 若宮イヴ Wakamiya Eve 秦佐和子 Hata Sawako 白鷺千聖 Shirasagi Chisato 上坂すみれ Uesaka Sumire 氷川日菜 Hikawa Hina 小澤亜李 Ozawa Ari パスパレ Paspale パステルパレット ぱすてるぱれっと Anime Game Girls Band Party ガルパ! Garupa Bandori osomatsu san osomatsusan opening おそ松さん -Hakurei-
BeatmapID:1688731
BeatmapSetID:804452

[Difficulty]
HPDrainRate:6
CircleSize:4.5
OverallDifficulty:9
ApproachRate:9.3
SliderMultiplier:1.8
SliderTickRate:1

[Events]
//Background and Video events
0,0,"bg.jpg",0,0
//Break Periods
//Storyboard Layer 0 (Background)
//Storyboard Layer 1 (Fail)
//Storyboard Layer 2 (Pass)
//Storyboard Layer 3 (Foreground)
//Storyboard Sound Samples

[TimingPoints]
-666,348.837209302326,4,2,0,60,1,0
38316,-100,4,2,0,5,0,0
38403,-100,4,2,0,60,0,0
41194,-86.9565217391304,4,2,0,60,0,1
49566,-100,4,2,0,60,0,0
66310,-86.9565217391304,4,2,0,60,0,1
85845,-100,4,2,0,60,0,0

[Colours]
Combo1 : 255,206,80
Combo2 : 221,9,161
Combo3 : 141,164,224
Combo4 : 250,116,163

[HitObjects]
207,74,729,6,0,P|187:113|189:157,1,90
309,256,1078,1,0,0:0:0:0:
344,104,1252,2,0,P|300:105|263:129,1,90
386,237,1601,2,0,P|362:200|323:180,1,90
155,309,1950,6,0,P|199:307|236:283,1,90
263,130,2299,1,0,0:0:0:0:
295,332,2473,1,0,0:0:0:0:
176,232,2647,1,0,0:0:0:0:
344,104,2822,5,0,0:0:0:0:
295,332,2996,1,0,0:0:0:0:
189,157,3171,1,0,0:0:0:0:
386,237,3345,1,0,0:0:0:0:
116,181,3520,6,0,P|116:137|139:99,1,90
238,12,3868,1,0,0:0:0:0:
250,218,4043,2,0,P|211:196|190:158,1,90
348,119,4392,2,0,P|309:142|265:141,1,90
56,120,4740,6,0,P|94:98|139:99,1,90
225,289,5089,2,0,P|186:267|164:228,1,90
287,59,5438,2,0,P|287:103|264:141,1,90
87,176,5787,1,0,0:0:0:0:
351,242,5961,2,0,L|448:238,1,90
287,59,6310,6,0,P|264:97|264:141,1,90
351,242,6659,1,0,0:0:0:0:
178,142,6834,2,0,P|221:133|265:142,1,90
251,326,7182,2,0,P|207:335|163:326,1,90
34,151,7531,6,0,P|63:184|78:227,1,90
34,350,7880,1,0,0:0:0:0:
207,203,8054,1,0,0:0:0:0:
2,270,8229,1,0,0:0:0:0:
251,326,8403,5,0,0:0:0:0:
109,107,8578,1,0,0:0:0:0:
34,350,8752,1,0,0:0:0:0:
264,253,8927,2,0,P|308:245|356:253,1,90
160,25,9275,5,0,0:0:0:0:
183,323,9450,1,0,0:0:0:0:
339,67,9624,1,0,0:0:0:0:
64,183,9799,1,0,0:0:0:0:
353,252,9973,2,0,P|336:210|308:175,1,90
34,253,10322,6,0,P|78:260|123:253,1,90
339,67,10671,1,0,0:0:0:0:
339,67,10758,1,0,0:0:0:0:
339,67,10845,1,0,0:0:0:0:
238,318,11020,1,0,0:0:0:0:
238,318,11107,1,0,0:0:0:0:
238,318,11194,1,0,0:0:0:0:
70,105,11368,1,0,0:0:0:0:
108,96,11456,1,0,0:0:0:0:
146,101,11543,1,0,0:0:0:0:
181,119,11630,1,0,0:0:0:0:
207,148,11717,2,0,L|209:222,1,45
147,343,11892,5,0,0:0:0:0:
165,45,12066,1,0,0:0:0:0:
165,45,13287,5,0,0:0:0:0:
415,209,13461,1,0,0:0:0:0:
415,209,14682,5,0,0:0:0:0:
70,189,14857,1,0,0:0:0:0:
69,188,16078,6,0,P|142:141|228:158,1,180
264,371,16601,1,0,0:0:0:0:
181,343,16775,2,0,P|164:301|164:257,1,90
293,59,17124,1,0,0:0:0:0:
400,271,17299,1,0,0:0:0:0:
143,141,17473,5,0,0:0:0:0:
348,167,17647,1,0,0:0:0:0:
95,209,17822,1,0,0:0:0:0:
321,245,17996,1,0,0:0:0:0:
191,73,18171,5,0,0:0:0:0:
295,324,18345,1,0,0:0:0:0:
293,59,18520,1,0,0:0:0:0:
164,257,18694,1,0,0:0:0:0:
426,193,18868,5,0,0:0:0:0:
178,165,19043,1,0,0:0:0:0:
412,285,19217,1,0,0:0:0:0:
164,257,19392,1,0,0:0:0:0:
316,55,19566,5,0,0:0:0:0:
278,360,19740,2,0,L|288:271,1,90
316,55,20089,1,0,0:0:0:0:
412,285,20264,5,0,0:0:0:0:
164,257,20439,1,0,0:0:0:0:
316,55,20613,1,0,0:0:0:0:
288,271,20787,1,0,0:0:0:0:
192,41,20961,5,0,0:0:0:0:
440,69,21134,1,0,0:0:0:0:
178,149,21310,1,0,0:0:0:0:
145,139,21397,1,0,0:0:0:0:
118,120,21485,1,0,0:0:0:0:
97,93,21572,1,0,0:0:0:0:
85,62,21659,6,0,L|79:252,1,180
245,286,22182,2,0,L|251:106,1,180
172,336,22706,2,0,P|206:365|250:374,1,90
345,108,23054,5,0,0:0:0:0:
430,328,23229,1,0,0:0:0:0:
392,27,23403,5,0,0:0:0:0:
364,261,23578,1,0,0:0:0:0:
485,27,23752,5,0,0:0:0:0:
298,189,23927,1,0,0:0:0:0:
298,189,24014,1,0,0:0:0:0:
298,189,24101,1,0,0:0:0:0:
392,27,24275,1,0,0:0:0:0:
430,328,24450,5,0,0:0:0:0:
298,189,24624,2,0,L|303:99,1,90
425,238,24973,2,0,L|419:148,1,90
319,323,25322,1,0,0:0:0:0:
171,140,25496,2,0,L|176:229,1,90
307,31,25845,5,0,0:0:0:0:
425,238,26020,1,0,0:0:0:0:
171,140,26194,1,0,0:0:0:0:
414,58,26368,1,0,0:0:0:0:
414,58,26456,1,0,0:0:0:0:
414,58,26543,1,0,0:0:0:0:
256,266,26717,2,0,P|243:223|252:180,1,90
307,31,27066,1,0,0:0:0:0:
348,300,27240,6,0,P|323:337|285:361,1,90
171,140,27589,1,0,0:0:0:0:
412,240,27764,1,0,0:0:0:0:
177,230,27938,1,0,0:0:0:0:
327,130,28113,1,0,0:0:0:0:
285,361,28287,1,0,0:0:0:0:
412,240,28461,1,0,0:0:0:0:
137,311,28636,5,0,0:0:0:0:
409,364,28810,1,0,0:0:0:0:
166,203,28985,5,0,0:0:0:0:
375,301,29159,1,0,0:0:0:0:
223,108,29334,5,0,0:0:0:0:
412,240,29508,1,0,0:0:0:0:
302,30,29682,5,0,0:0:0:0:
483,243,29857,1,0,0:0:0:0:
223,108,30031,5,0,0:0:0:0:
409,60,30206,2,0,P|385:106|349:133,1,90
166,203,30554,1,0,0:0:0:0:
302,30,30729,1,0,0:0:0:0:
383,234,30903,1,0,0:0:0:0:
183,77,31078,2,0,P|226:91|261:119,1,90
268,355,31427,5,0,0:0:0:0:
147,240,31601,1,0,0:0:0:0:
383,234,31775,1,0,0:0:0:0:
150,358,31950,1,0,0:0:0:0:
150,358,32037,1,0,0:0:0:0:
150,358,32124,1,0,0:0:0:0:
261,120,32299,2,0,L|264:237,1,90
268,355,32647,1,0,0:0:0:0:
142,122,32822,6,0,P|150:78|172:39,1,90
261,120,33171,2,0,P|305:113|349:122,1,90
300,231,33520,2,0,P|319:271|324:315,1,90
206,302,33868,2,0,P|173:333|133:351,1,90
109,235,34217,5,0,0:0:0:0:
206,302,34392,1,0,0:0:0:0:
300,231,34566,1,0,0:0:0:0:
261,120,34740,1,0,0:0:0:0:
142,122,34915,5,0,0:0:0:0:
206,302,35089,1,0,0:0:0:0:
261,120,35264,1,0,0:0:0:0:
108,234,35438,1,0,0:0:0:0:
300,231,35613,1,0,0:0:0:0:
28,148,35787,5,0,0:0:0:0:
314,347,35961,1,0,0:0:0:0:
314,347,36136,1,0,0:0:0:0:
200,20,36310,5,0,0:0:0:0:
100,353,36485,1,0,0:0:0:0:
100,353,36659,1,0,0:0:0:0:
375,142,36834,5,0,0:0:0:0:
28,148,37008,1,0,0:0:0:0:
314,347,37182,1,0,0:0:0:0:
314,347,37357,1,0,0:0:0:0:
200,20,37531,6,0,B|248:87|203:157|203:157|156:226|204:294|204:294|207:263|229:237|256:222|292:225,1,405
281,303,38403,5,0,0:0:0:0:
79,149,38578,1,0,0:0:0:0:
180,226,38752,1,0,0:0:0:0:
180,226,38927,1,0,0:0:0:0:
2,251,39101,5,0,0:0:0:0:
358,202,39275,1,0,0:0:0:0:
180,226,39450,1,0,0:0:0:0:
180,226,39625,1,0,0:0:0:0:
290,369,39799,5,0,0:0:0:0:
70,83,39973,1,0,0:0:0:0:
70,83,40322,6,0,P|61:153|76:193,1,90
290,369,40671,1,0,0:0:0:0:
290,369,40758,1,0,0:0:0:0:
290,369,40845,1,0,0:0:0:0:
349,76,41020,1,0,0:0:0:0:
349,76,41107,1,0,0:0:0:0:
349,76,41194,5,0,0:0:0:0:
240,266,41368,1,0,0:0:0:0:
261,27,41543,1,0,0:0:0:0:
354,274,41717,1,0,0:0:0:0:
435,25,41892,5,0,0:0:0:0:
262,126,42066,1,0,0:0:0:0:
436,226,42240,1,0,0:0:0:0:
349,76,42415,1,0,0:0:0:0:
290,369,42589,5,0,0:0:0:0:
262,126,42764,1,0,0:0:0:0:
377,319,42938,1,0,0:0:0:0:
349,76,43113,1,0,0:0:0:0:
204,319,43287,5,0,0:0:0:0:
464,269,43461,1,0,0:0:0:0:
175,176,43636,2,0,P|110:172|56:192,1,103.500001974106
349,76,43985,5,0,0:0:0:0:
291,269,44159,1,0,0:0:0:0:
212,39,44334,1,0,0:0:0:0:
375,189,44508,1,0,0:0:0:0:
163,255,44682,5,0,0:0:0:0:
280,57,44857,1,0,0:0:0:0:
355,304,45031,1,0,0:0:0:0:
289,22,45206,1,0,0:0:0:0:
229,307,45380,5,0,0:0:0:0:
416,194,45554,2,0,P|366:179|315:184,1,103.500001974106
129,297,45903,2,0,P|166:261|187:214,1,103.500001974106
100,14,46252,2,0,L|97:118,1,103.500001974106
129,297,46601,1,0,0:0:0:0:
226,87,46775,5,0,0:0:0:0:
58,243,46950,1,0,0:0:0:0:
278,310,47124,1,0,0:0:0:0:
97,118,47299,1,0,0:0:0:0:
97,118,47386,1,0,0:0:0:0:
97,118,47473,5,0,0:0:0:0:
315,184,47647,1,0,0:0:0:0:
149,341,47822,1,0,0:0:0:0:
226,87,47996,1,0,0:0:0:0:
226,87,48084,1,0,0:0:0:0:
226,87,48171,5,0,0:0:0:0:
278,310,48345,1,0,0:0:0:0:
97,118,48520,5,0,0:0:0:0:
359,265,48694,1,0,0:0:0:0:
20,372,48868,5,0,0:0:0:0:
315,184,49043,1,0,0:0:0:0:
5,23,49217,5,0,0:0:0:0:
193,318,49392,1,0,0:0:0:0:
193,318,49479,1,0,0:0:0:0:
193,318,49566,5,0,0:0:0:0:
137,145,49740,1,0,0:0:0:0:
65,323,49915,1,0,0:0:0:0:
60,196,50089,1,0,0:0:0:0:
251,203,50264,5,0,0:0:0:0:
0,262,50438,1,0,0:0:0:0:
223,117,50613,1,0,0:0:0:0:
65,323,50787,1,0,0:0:0:0:
38,77,50961,5,0,0:0:0:0:
183,301,51136,1,0,0:0:0:0:
223,117,51310,1,0,0:0:0:0:
0,262,51485,1,0,0:0:0:0:
266,286,51659,5,0,0:0:0:0:
145,140,51834,2,0,L|141:229,1,90
135,371,52182,1,0,0:0:0:0:
293,189,52357,5,0,0:0:0:0:
61,271,52531,1,0,0:0:0:0:
365,261,52706,1,0,0:0:0:0:
141,230,52880,1,0,0:0:0:0:
392,165,53054,6,0,P|430:187|456:223,1,90
264,279,53403,1,0,0:0:0:0:
313,85,53578,1,0,0:0:0:0:
331,357,53752,6,0,P|291:377|246:380,1,90
61,271,54101,1,0,0:0:0:0:
106,172,54275,2,0,P|163:240|152:327,1,180
0,182,54799,1,0,0:0:0:0:
58,379,54973,1,0,0:0:0:0:
46,85,55147,5,0,0:0:0:0:
152,327,55322,2,0,P|166:284|162:239,1,90
153,76,55671,1,0,0:0:0:0:
61,271,55845,5,0,0:0:0:0:
239,152,56020,1,0,0:0:0:0:
58,379,56194,1,0,0:0:0:0:
76,162,56368,1,0,0:0:0:0:
222,370,56543,5,0,0:0:0:0:
61,271,56717,1,0,0:0:0:0:
326,229,56892,1,0,0:0:0:0:
153,327,57066,1,0,0:0:0:0:
405,326,57240,5,0,0:0:0:0:
278,109,57415,2,0,P|241:133|211:167,1,90
153,327,57764,1,0,0:0:0:0:
195,79,57938,5,0,0:0:0:0:
229,255,58113,1,0,0:0:0:0:
262,21,58287,1,0,0:0:0:0:
145,225,58461,1,0,0:0:0:0:
363,139,58636,2,0,P|407:147|446:168,1,90
195,79,58985,5,0,0:0:0:0:
311,283,59159,2,0,P|309:238|295:196,1,90
128,137,59508,1,0,0:0:0:0:
244,341,59682,1,0,0:0:0:0:
195,80,59857,1,0,0:0:0:0:
77,282,60031,2,0,P|116:302|160:311,1,90
363,139,60380,5,0,0:0:0:0:
245,341,60554,2,0,P|230:298|228:253,1,90
262,21,60903,1,0,0:0:0:0:
379,226,61078,1,0,0:0:0:0:
128,137,61252,1,0,0:0:0:0:
430,80,61427,5,0,0:0:0:0:
245,341,61601,1,0,0:0:0:0:
262,21,61775,1,0,0:0:0:0:
462,255,61950,1,0,0:0:0:0:
145,225,62124,5,0,0:0:0:0:
363,139,62299,1,0,0:0:0:0:
128,137,62473,5,0,0:0:0:0:
379,226,62647,1,0,0:0:0:0:
60,195,62822,5,0,0:0:0:0:
446,168,62996,1,0,0:0:0:0:
43,107,63171,5,0,0:0:0:0:
462,255,63345,1,0,0:0:0:0:
145,225,63520,5,0,0:0:0:0:
367,159,63694,1,0,0:0:0:0:
256,192,63868,1,0,0:0:0:0:
256,192,64043,1,0,0:0:0:0:
112,114,64217,5,0,0:0:0:0:
400,270,64392,1,0,0:0:0:0:
256,192,64566,1,0,0:0:0:0:
256,192,64741,1,0,0:0:0:0:
33,199,64915,5,0,0:0:0:0:
479,185,65089,1,0,0:0:0:0:
479,185,65438,6,0,P|440:161|396:153,1,90
33,199,65787,1,0,0:0:0:0:
33,199,65874,1,0,0:0:0:0:
33,199,65961,2,0,L|35:263,1,45
141,84,66136,2,0,L|143:20,1,45
256,192,66310,6,0,L|260:320,1,103.500001974106
141,84,66659,1,0,0:0:0:0:
105,237,66834,1,0,0:0:0:0:
291,38,67008,6,0,P|342:31|391:46,1,103.500001974106
256,192,67357,1,0,0:0:0:0:
217,61,67531,1,0,0:0:0:0:
387,153,67706,5,0,0:0:0:0:
171,146,67880,1,0,0:0:0:0:
391,46,68054,1,0,0:0:0:0:
367,287,68229,1,0,0:0:0:0:
291,38,68403,5,0,0:0:0:0:
198,314,68578,1,0,0:0:0:0:
486,154,68752,2,0,P|437:141|386:153,1,103.500001974106
290,349,69101,5,0,0:0:0:0:
484,253,69275,1,0,0:0:0:0:
194,154,69450,1,0,0:0:0:0:
388,58,69624,1,0,0:0:0:0:
290,349,69799,5,0,0:0:0:0:
386,152,69973,1,0,0:0:0:0:
93,252,70147,1,0,0:0:0:0:
189,55,70322,1,0,0:0:0:0:
379,270,70496,5,0,0:0:0:0:
308,63,70671,1,0,0:0:0:0:
171,341,70845,1,0,0:0:0:0:
100,134,71020,2,0,L|241:204,1,103.500001974106
379,270,71368,2,0,L|286:224,1,103.500001974106
100,134,71717,1,0,0:0:0:0:
349,116,71892,5,0,0:0:0:0:
240,341,72066,1,0,0:0:0:0:
186,76,72240,1,0,0:0:0:0:
106,237,72415,1,0,0:0:0:0:
106,237,72502,1,0,0:0:0:0:
106,237,72589,5,0,0:0:0:0:
379,270,72764,1,0,0:0:0:0:
100,134,72938,1,0,0:0:0:0:
349,116,73113,1,0,0:0:0:0:
349,116,73200,1,0,0:0:0:0:
349,116,73287,5,0,0:0:0:0:
310,306,73461,1,0,0:0:0:0:
283,74,73636,5,0,0:0:0:0:
376,348,73810,1,0,0:0:0:0:
352,37,73985,5,0,0:0:0:0:
241,343,74159,1,0,0:0:0:0:
217,32,74334,5,0,0:0:0:0:
376,348,74508,1,0,0:0:0:0:
376,348,74595,1,0,0:0:0:0:
375,348,74682,6,0,P|387:298|366:251,1,103.500001974106
136,348,75031,2,0,P|124:298|145:251,1,103.500001974106
256,42,75380,2,0,L|256:145,1,103.500001974106
256,365,75729,1,0,0:0:0:0:
391,130,75903,1,0,0:0:0:0:
121,130,76078,5,0,0:0:0:0:
366,251,76252,2,0,P|418:250|465:229,1,103.500001974106
256,145,76601,1,0,0:0:0:0:
286,368,76775,1,0,0:0:0:0:
391,130,76950,1,0,0:0:0:0:
391,130,77037,1,0,0:0:0:0:
391,130,77124,1,0,0:0:0:0:
435,325,77299,1,0,0:0:0:0:
319,98,77473,6,0,P|277:69|226:71,1,103.500001974106
56,234,77822,1,0,0:0:0:0:
256,145,77996,1,0,0:0:0:0:
27,161,78171,5,0,0:0:0:0:
156,351,78345,1,0,0:0:0:0:
136,87,78520,1,0,0:0:0:0:
265,276,78695,1,0,0:0:0:0:
37,293,78869,5,0,0:0:0:0:
256,145,79043,1,0,0:0:0:0:
156,351,79217,1,0,0:0:0:0:
136,87,79392,1,0,0:0:0:0:
265,276,79566,5,0,0:0:0:0:
27,161,79740,1,0,0:0:0:0:
247,368,79915,2,0,P|298:364|343:328,1,103.500001974106
356,33,80264,6,0,L|364:160,1,103.500001974106
156,351,80613,2,0,L|148:224,1,103.500001974106
339,332,80961,1,0,0:0:0:0:
269,90,81136,1,0,0:0:0:0:
247,368,81310,1,0,0:0:0:0:
362,136,81485,1,0,0:0:0:0:
506,351,81659,5,0,0:0:0:0:
249,238,81834,2,0,P|198:232|149:247,1,103.500001974106
339,333,82182,2,0,P|368:290|380:240,1,103.500001974106
272,41,82531,2,0,P|243:83|231:133,1,103.500001974106
380,240,82880,1,0,0:0:0:0:
133,149,83054,5,0,0:0:0:0:
363,136,83229,1,0,0:0:0:0:
261,342,83403,1,0,0:0:0:0:
272,41,83578,1,0,0:0:0:0:
272,41,83665,1,0,0:0:0:0:
272,41,83752,5,0,0:0:0:0:
149,247,83927,1,0,0:0:0:0:
423,179,84101,1,0,0:0:0:0:
133,149,84275,1,0,0:0:0:0:
133,149,84363,1,0,0:0:0:0:
133,149,84450,5,0,0:0:0:0:
380,240,84624,1,0,0:0:0:0:
56,212,84799,5,0,0:0:0:0:
423,179,84973,1,0,0:0:0:0:
40,113,85147,5,0,0:0:0:0:
337,301,85322,1,0,0:0:0:0:
117,50,85496,5,0,0:0:0:0:
294,362,85671,1,0,0:0:0:0:
294,362,85758,1,0,0:0:0:0:
294,362,85845,6,0,P|342:375|383:360,1,90
464,253,86194,1,0,0:0:0:0:
286,160,86368,2,0,P|250:195|243:238,1,90
464,253,86717,2,0,P|455:209|423:179,1,90
200,159,87066,6,0,P|243:172|286:160,1,90
370,50,87415,1,0,0:0:0:0:
337,301,87589,1,0,0:0:0:0:
273,63,87764,1,0,0:0:0:0:
273,63,87851,1,0,0:0:0:0:
273,63,87938,5,0,0:0:0:0:
464,253,88113,1,0,0:0:0:0:
201,159,88287,1,0,0:0:0:0:
467,37,88461,1,0,0:0:0:0:
271,256,88636,6,0,P|230:274|185:277,1,90
105,87,88985,1,0,0:0:0:0:
25,307,89159,2,0,P|30:263|50:223,1,90
166,132,89508,1,0,0:0:0:0:
207,363,89682,1,0,0:0:0:0:
105,86,89857,6,0,P|147:59|195:61,1,90
357,234,90206,1,0,0:0:0:0:
105,87,90380,1,0,0:0:0:0:
438,205,90554,6,0,P|441:249|423:290,1,90
157,287,90903,1,0,0:0:0:0:
157,287,90990,1,0,0:0:0:0:
157,287,91078,1,0,0:0:0:0:
305,34,91252,1,0,0:0:0:0:
305,34,91339,1,0,0:0:0:0:
305,34,91427,5,0,0:0:0:0:
357,234,91601,1,0,0:0:0:0:
185,58,91775,5,0,0:0:0:0:
373,150,91950,1,0,0:0:0:0:
107,172,92124,5,0,0:0:0:0:
388,65,92299,1,0,0:0:0:0:
157,287,92473,5,0,0:0:0:0:
305,34,92647,1,0,0:0:0:0:
343,320,92822,5,0,0:0:0:0:
185,58,92996,1,0,0:0:0:0:
423,289,93171,5,0,0:0:0:0:
107,172,93345,1,0,0:0:0:0:
438,204,93520,5,0,0:0:0:0:
74,254,93694,1,0,0:0:0:0:
408,374,93868,5,0,0:0:0:0:
107,172,94043,1,0,0:0:0:0:
107,172,94392,5,0,0:0:0:0:
397,250,94566,1,0,0:0:0:0:
209,16,94740,1,0,0:0:0:0:
224,317,94915,1,0,0:0:0:0:
388,65,95089,2,0,P|350:74|305:105,1,90
93,303,95438,6,0,P|131:294|176:263,1,90
209,16,95787,1,0,0:0:0:0:
397,250,95961,1,0,0:0:0:0:
107,172,96136,1,0,0:0:0:0:
107,172,96223,1,0,0:0:0:0:
107,172,96310,1,0,0:0:0:0:
388,65,96485,1,0,0:0:0:0:
388,65,96572,1,0,0:0:0:0:
388,65,96659,1,0,0:0:0:0:
224,317,96834,1,0,0:0:0:0:
224,317,96921,1,0,0:0:0:0:
224,317,97008,1,0,0:0:0:0:
209,16,97182,1,0,0:0:0:0:
209,16,97270,1,0,0:0:0:0:
209,16,97357,5,0,0:0:0:0:
256,192,97444,12,0,99799,0:0:0:0:
