osu file format v14

[General]
AudioFilename: audio.mp3
AudioLeadIn: 0
PreviewTime: 62576
Countdown: 0
SampleSet: Soft
StackLeniency: 0.7
Mode: 3
LetterboxInBreaks: 0
SpecialStyle: 0
WidescreenStoryboard: 1

[Editor]
DistanceSpacing: 0.1
BeatDivisor: 6
GridSize: 8
TimelineZoom: 2.2

[Metadata]
Title:Gyu DAYS
TitleUnicode:ぎゅっDAYS♪
Artist:Pastel*Palettes
ArtistUnicode:Pastel*Palettes
Creator:Nabi-
Version:Hard
Source:バンドリ! ガールズバンドパーティ!
Tags:FAMoss GyuuDays BanG Dream! Girls Band Party! PasuPare パスパレ Paspale パステルパレット ぱすてるぱれっと Game size ガルパ!Garupa Bandori! 丸山彩 Maruyama Aya 大和麻弥 Yamato Maya 若宮イヴ Wakamiya Eve 白鷺千聖 Shirasagi Chisato 氷川日菜 Hikawa Hina 前島亜美 Maeshima Ami 中上育美 Nakagami Ikumi 秦佐和子 Hata Sawako 上坂すみれ Uesaka Sumire 小澤亜李 Ozawa Ari japanese video game J-pop jpop DAYS of Embrace
BeatmapID:2528799
BeatmapSetID:1215108

[Difficulty]
HPDrainRate:7.5
CircleSize:4
OverallDifficulty:7.5
ApproachRate:5
SliderMultiplier:1.4
SliderTickRate:1

[Events]
//Background and Video events
0,0,"bg_2.jpg",0,0
//Break Periods
//Storyboard Layer 0 (Background)
//Storyboard Layer 1 (Fail)
//Storyboard Layer 2 (Pass)
//Storyboard Layer 3 (Foreground)
//Storyboard Layer 4 (Overlay)
//Storyboard Sound Samples

[TimingPoints]
1385,352.941176470588,4,2,1,50,1,0
63502,-100,4,2,1,50,0,1
80443,-100,4,2,1,50,0,0

[HitObjects]
64,192,2267,5,0,0:0:0:70:LR_Tom Hit.wav
448,192,2267,1,0,0:0:0:0:
192,192,2443,1,0,0:0:0:70:LR_Tom Hit_D.wav
320,192,2443,1,0,0:0:0:0:
64,192,2796,1,2,0:0:0:0:
192,192,2796,1,4,0:0:0:0:
448,192,2796,1,0,0:0:0:0:
320,192,3149,1,8,0:0:0:0:
448,192,3149,1,0,0:0:0:0:
320,192,3326,1,8,0:0:0:0:
448,192,3326,1,0,0:0:0:0:
64,192,3502,1,2,0:0:0:0:
192,192,3502,1,0,0:0:0:0:
320,192,3679,1,0,0:0:0:0:
64,192,3855,1,8,0:0:0:0:
448,192,3855,1,0,0:0:0:0:
192,192,4032,128,2,4208:0:0:0:0:
320,192,4032,1,0,0:0:0:0:
448,192,4208,1,0,0:0:0:0:
192,192,4384,128,2,4561:0:0:0:0:
320,192,4384,1,0,0:0:0:0:
64,192,4561,1,8,0:0:0:0:
448,192,4561,1,0,0:0:0:0:
64,192,4737,1,0,0:0:0:0:
320,192,4737,1,0,0:0:0:0:
192,192,4914,1,2,0:0:0:0:
448,192,4914,1,0,0:0:0:0:
320,192,5090,1,0,0:0:0:70:LR_Tom Hit_D.wav
448,192,5090,1,0,0:0:0:0:
64,192,5267,1,8,0:0:0:0:
192,192,5267,1,0,0:0:0:0:
320,192,5443,1,0,0:0:0:70:LR_Tom Hit.wav
64,192,5620,1,2,0:0:0:0:
448,192,5620,1,0,0:0:0:0:
64,192,5973,1,8,0:0:0:0:
192,192,5973,1,0,0:0:0:0:
64,192,6149,1,8,0:0:0:0:
192,192,6149,1,0,0:0:0:0:
320,192,6326,1,2,0:0:0:0:
448,192,6326,1,0,0:0:0:0:
192,192,6502,1,0,0:0:0:0:
64,192,6679,1,8,0:0:0:0:
448,192,6679,1,0,0:0:0:0:
192,192,6855,128,2,7032:0:0:0:0:
320,192,6855,128,0,7032:0:0:0:0:
192,192,7208,1,2,0:0:0:0:
448,192,7208,128,0,7384:0:0:0:0:
64,192,7384,1,8,0:0:0:0:
320,192,7384,128,0,7561:0:0:0:0:
192,192,7561,128,8,7737:0:0:0:0:
448,192,7561,1,0,0:0:0:0:
64,192,7737,128,8,7914:0:0:0:0:
320,192,7737,1,0,0:0:0:0:
192,192,7914,1,8,0:0:0:0:
448,192,7914,128,0,8090:0:0:0:0:
64,192,8090,1,8,0:0:0:0:
320,192,8090,128,0,8267:0:0:0:0:
192,192,8267,128,8,8443:0:0:0:0:
448,192,8267,1,0,0:0:0:0:
64,192,8443,128,2,8796:0:0:0:0:
320,192,8443,1,4,0:0:0:0:
448,192,8443,1,0,0:0:0:0:
192,192,8796,1,8,0:0:0:0:
448,192,8796,1,0,0:0:0:0:
320,192,8973,1,8,0:0:0:0:
448,192,8973,1,0,0:0:0:0:
64,192,9149,128,0,9326:0:0:0:70:LR_Tom Hit.wav
192,192,9326,128,2,9502:0:0:0:0:
448,192,9326,1,0,0:0:0:0:
64,192,9502,1,8,0:0:0:0:
320,192,9502,128,0,9679:0:0:0:0:
192,192,9679,1,2,0:0:0:0:
448,192,9679,128,0,10032:0:0:0:0:
320,192,9855,1,0,0:0:0:0:
192,192,10032,1,2,0:0:0:0:
64,192,10032,1,0,0:0:0:0:
320,192,10120,1,0,0:0:0:0:
64,192,10208,128,8,10561:0:0:0:0:
448,192,10208,1,0,0:0:0:0:
192,192,10384,1,8,0:0:0:0:
448,192,10384,1,0,0:0:0:0:
192,192,10561,1,2,0:0:0:0:
320,192,10561,128,0,10914:0:0:0:0:
64,192,10737,1,2,0:0:0:0:
448,192,10737,1,0,0:0:0:0:
64,192,10914,1,8,0:0:0:0:
192,192,10914,128,0,11267:0:0:0:0:
64,192,11267,1,2,0:0:0:0:
448,192,11267,128,0,11620:0:0:0:0:
64,192,11620,1,8,0:0:0:0:
320,192,11620,1,0,0:0:0:0:
192,192,11796,128,8,11973:0:0:0:0:
320,192,11796,1,0,0:0:0:0:
448,192,11973,128,0,12149:0:0:0:0:
64,192,12149,128,2,12326:0:0:0:0:
320,192,12149,1,0,0:0:0:0:
192,192,12326,1,8,0:0:0:0:
448,192,12326,1,0,0:0:0:0:
192,192,12502,128,2,12855:0:0:0:0:
320,192,12502,1,0,0:0:0:0:
64,192,12679,1,0,0:0:0:0:
320,192,12855,1,2,0:0:0:0:
448,192,12855,128,0,13032:0:0:0:0:
64,192,13032,1,8,0:0:0:0:
192,192,13032,1,0,0:0:0:0:
64,192,13208,128,8,13561:0:0:0:0:
448,192,13208,1,0,0:0:0:0:
192,192,13384,1,2,0:0:0:0:
320,192,13384,1,0,0:0:0:0:
320,192,13561,1,2,0:0:0:0:
448,192,13561,1,0,0:0:0:0:
64,192,13737,1,8,0:0:0:0:
192,192,13737,1,0,0:0:0:0:
448,192,13826,1,8,0:0:0:0:
192,192,13914,1,0,0:0:0:70:LR_Tom Hit.wav
320,192,13914,1,0,0:0:0:0:
64,192,14090,128,4,14443:0:0:0:0:
320,192,14090,1,2,0:0:0:0:
448,192,14090,1,0,0:0:0:0:
192,192,14267,1,0,0:0:0:0:
320,192,14443,1,8,0:0:0:0:
448,192,14443,1,0,0:0:0:0:
64,192,14620,1,8,0:0:0:0:
448,192,14620,128,0,14973:0:0:0:0:
320,192,14796,1,0,0:0:0:0:
64,192,14973,1,2,0:0:0:0:
192,192,14973,1,0,0:0:0:0:
64,192,15149,1,8,0:0:0:0:
448,192,15149,1,0,0:0:0:0:
320,192,15326,1,0,0:0:0:70:LR_Tom Hit_D.wav
64,192,15502,1,2,0:0:0:0:
448,192,15502,128,0,15855:0:0:0:0:
320,192,15679,1,0,0:0:0:0:
64,192,15855,1,8,0:0:0:0:
192,192,15855,1,0,0:0:0:0:
64,192,16032,128,8,16384:0:0:0:0:
448,192,16032,1,0,0:0:0:0:
192,192,16208,1,0,0:0:0:0:
320,192,16384,128,2,16561:0:0:0:0:
448,192,16384,1,0,0:0:0:0:
64,192,16561,1,8,0:0:0:0:
192,192,16561,128,0,16737:0:0:0:0:
320,192,16737,128,0,16914:0:0:0:70:LR_Tom Hit.wav
64,192,16914,1,2,0:0:0:0:
192,192,16914,1,4,0:0:0:0:
448,192,16914,1,0,0:0:0:0:
448,192,17090,128,0,17267:0:0:0:0:
64,192,17267,128,8,17443:0:0:0:0:
320,192,17267,1,0,0:0:0:0:
192,192,17443,128,8,17796:0:0:0:0:
320,192,17443,1,0,0:0:0:0:
64,192,17620,1,0,0:0:0:0:
320,192,17796,1,2,0:0:0:0:
448,192,17796,1,0,0:0:0:0:
64,192,17973,1,0,0:0:0:70:LR_Tom Hit.wav
448,192,17973,1,0,0:0:0:0:
320,192,18149,1,0,0:0:0:70:LR_Tom Hit_D.wav
192,192,18237,1,0,0:0:0:70:LR_Tom Hit_D.wav
64,192,18326,1,2,0:0:0:0:
320,192,18326,1,4,0:0:0:0:
448,192,18326,128,0,18502:0:0:0:0:
64,192,18502,1,8,0:0:0:0:
320,192,18502,128,0,18679:0:0:0:0:
192,192,18679,128,0,18855:0:0:0:70:LR_Tom Hit_D.wav
448,192,18679,1,0,0:0:0:0:
64,192,18855,128,8,19032:0:0:0:0:
448,192,18855,128,0,19032:0:0:0:0:
64,192,19208,1,2,0:0:0:0:
448,192,19208,1,0,0:0:0:0:
192,192,19384,1,8,0:0:0:0:
320,192,19384,1,0,0:0:0:0:
448,192,19473,1,8,0:0:0:0:
64,192,19561,1,8,0:0:0:0:
192,192,19561,1,0,0:0:0:0:
64,192,19737,128,2,19914:0:0:0:0:
320,192,19737,1,4,0:0:0:0:
448,192,19737,1,0,0:0:0:0:
192,192,19914,128,0,20090:0:0:0:0:
320,192,20090,1,8,0:0:0:0:
448,192,20090,1,0,0:0:0:0:
64,192,20267,1,8,0:0:0:0:
448,192,20267,128,0,20443:0:0:0:0:
192,192,20443,1,0,0:0:0:0:
320,192,20620,1,2,0:0:0:0:
448,192,20620,1,0,0:0:0:0:
64,192,20796,1,8,0:0:0:0:
448,192,20796,1,0,0:0:0:0:
192,192,20973,1,0,0:0:0:0:
64,192,21149,1,2,0:0:0:0:
448,192,21149,128,0,21326:0:0:0:0:
320,192,21326,128,0,21502:0:0:0:0:
64,192,21502,1,8,0:0:0:0:
192,192,21502,1,0,0:0:0:0:
64,192,21679,128,8,21855:0:0:0:0:
448,192,21679,1,0,0:0:0:0:
448,192,21855,1,0,0:0:0:0:
64,192,22032,1,2,0:0:0:0:
192,192,22032,1,0,0:0:0:0:
64,192,22208,1,8,0:0:0:0:
320,192,22208,1,0,0:0:0:0:
448,192,22384,1,0,0:0:0:0:
64,192,22561,128,2,22737:0:0:0:0:
448,192,22561,1,0,0:0:0:0:
192,192,22737,128,0,22914:0:0:0:0:
320,192,22914,1,8,0:0:0:0:
448,192,22914,1,0,0:0:0:0:
64,192,23090,1,8,0:0:0:0:
448,192,23090,128,0,23267:0:0:0:0:
192,192,23267,1,0,0:0:0:0:
320,192,23443,1,2,0:0:0:0:
448,192,23443,1,0,0:0:0:0:
64,192,23620,1,8,0:0:0:0:
448,192,23620,1,0,0:0:0:0:
320,192,23796,1,0,0:0:0:0:
64,192,23973,128,2,24326:0:0:0:0:
320,192,23973,1,0,0:0:0:0:
192,192,24149,1,0,0:0:0:0:
320,192,24326,1,8,0:0:0:0:
448,192,24326,128,0,24679:0:0:0:0:
64,192,24502,1,8,0:0:0:0:
192,192,24502,1,0,0:0:0:0:
192,192,24679,128,0,25032:0:0:0:0:
320,192,24855,1,2,0:0:0:0:
448,192,24855,1,0,0:0:0:0:
64,192,25032,1,8,0:0:0:0:
320,192,25032,128,0,25384:0:0:0:0:
64,192,25384,128,2,25561:0:0:0:0:
192,192,25384,1,4,0:0:0:0:
448,192,25384,1,0,0:0:0:0:
192,192,25561,128,0,25737:0:0:0:0:
320,192,25737,1,8,0:0:0:0:
448,192,25737,1,0,0:0:0:0:
64,192,25914,1,8,0:0:0:0:
448,192,25914,128,0,26090:0:0:0:0:
192,192,26090,1,0,0:0:0:0:
320,192,26267,1,2,0:0:0:0:
448,192,26267,1,0,0:0:0:0:
64,192,26443,1,8,0:0:0:0:
448,192,26443,1,0,0:0:0:0:
192,192,26620,1,0,0:0:0:0:
64,192,26796,1,2,0:0:0:0:
448,192,26796,128,0,26973:0:0:0:0:
320,192,26973,128,0,27149:0:0:0:0:
64,192,27149,1,8,0:0:0:0:
192,192,27149,1,0,0:0:0:0:
64,192,27326,128,8,27502:0:0:0:0:
448,192,27326,1,0,0:0:0:0:
448,192,27502,1,0,0:0:0:0:
64,192,27679,1,2,0:0:0:0:
192,192,27679,1,0,0:0:0:0:
64,192,27855,1,8,0:0:0:0:
448,192,27855,1,0,0:0:0:0:
320,192,28032,1,0,0:0:0:0:
64,192,28208,128,2,28384:0:0:0:0:
320,192,28208,1,0,0:0:0:0:
192,192,28384,128,0,28561:0:0:0:0:
320,192,28561,1,8,0:0:0:0:
448,192,28561,1,0,0:0:0:0:
64,192,28737,1,8,0:0:0:0:
448,192,28737,128,0,28914:0:0:0:0:
192,192,28914,1,0,0:0:0:0:
320,192,29090,1,2,0:0:0:0:
448,192,29090,1,0,0:0:0:0:
64,192,29267,1,8,0:0:0:0:
448,192,29267,1,0,0:0:0:0:
192,192,29443,1,0,0:0:0:0:
64,192,29620,1,2,0:0:0:0:
448,192,29620,128,0,29796:0:0:0:0:
320,192,29796,128,0,29973:0:0:0:0:
64,192,29973,1,8,0:0:0:0:
192,192,29973,1,0,0:0:0:0:
64,192,30149,1,0,0:0:0:0:
192,192,30237,1,8,0:0:0:0:
320,192,30326,1,2,0:0:0:0:
448,192,30326,1,0,0:0:0:0:
192,192,30502,1,0,0:0:0:70:LR_Tom Hit.wav
320,192,30502,1,0,0:0:0:0:
64,192,30679,128,0,31032:0:0:0:70:LR_Tom Hit_D.wav
448,192,30679,1,0,0:0:0:0:
192,192,31032,1,2,0:0:0:0:
320,192,31032,1,4,0:0:0:0:
448,192,31032,128,0,31384:0:0:0:0:
64,192,31384,1,2,0:0:0:0:
192,192,31384,1,0,0:0:0:0:
64,192,31561,1,8,0:0:0:0:
320,192,31561,1,0,0:0:0:0:
448,192,31561,1,0,0:0:0:0:
192,192,31737,1,2,0:0:0:0:
448,192,31737,1,0,0:0:0:0:
320,192,31914,1,0,0:0:0:70:LR_Snare Drum.wav
64,192,32090,1,2,0:0:0:0:
320,192,32090,1,0,0:0:0:0:
192,192,32267,1,0,0:0:0:70:LR_Snare Drum.wav
64,192,32443,128,2,32796:0:0:0:0:
448,192,32443,1,0,0:0:0:0:
320,192,32620,1,0,0:0:0:0:
192,192,32796,1,2,0:0:0:0:
448,192,32796,1,0,0:0:0:0:
64,192,32973,1,8,0:0:0:0:
320,192,32973,128,0,33502:0:0:0:0:
448,192,32973,1,0,0:0:0:0:
64,192,33149,1,2,0:0:0:0:
192,192,33149,1,0,0:0:0:0:
192,192,33326,128,0,33502:0:0:0:70:LR_Snare Drum.wav
64,192,33502,1,2,0:0:0:0:
448,192,33502,128,0,33855:0:0:0:0:
320,192,33679,128,0,33855:0:0:0:70:LR_Snare Drum.wav
64,192,33855,128,2,34208:0:0:0:0:
192,192,33855,1,0,0:0:0:0:
320,192,34208,1,2,0:0:0:0:
448,192,34208,1,0,0:0:0:0:
64,192,34384,1,8,0:0:0:0:
192,192,34384,1,0,0:0:0:0:
448,192,34384,1,0,0:0:0:0:
64,192,34561,1,2,0:0:0:0:
320,192,34561,1,0,0:0:0:0:
192,192,34737,1,0,0:0:0:70:LR_Snare Drum.wav
320,192,34826,1,0,0:0:0:0:
64,192,34914,1,2,0:0:0:0:
448,192,34914,1,0,0:0:0:0:
192,192,35090,1,0,0:0:0:70:LR_Snare Drum.wav
320,192,35267,1,2,0:0:0:0:
448,192,35267,128,0,35620:0:0:0:0:
192,192,35443,1,0,0:0:0:0:
64,192,35620,1,2,0:0:0:0:
192,192,35620,128,0,35973:0:0:0:0:
320,192,35796,1,8,0:0:0:0:
448,192,35796,1,0,0:0:0:0:
64,192,35973,1,2,0:0:0:0:
320,192,35973,128,0,36326:0:0:0:0:
192,192,36149,1,0,0:0:0:70:LR_Tom Hit.wav
64,192,36326,1,2,0:0:0:0:
448,192,36326,1,0,0:0:0:0:
320,192,36502,1,8,0:0:0:0:
448,192,36590,1,8,0:0:0:0:
64,192,36679,1,4,0:0:0:0:
192,192,36679,128,2,37032:0:0:0:0:
320,192,36679,1,0,0:0:0:0:
320,192,37032,1,2,0:0:0:0:
448,192,37032,1,0,0:0:0:0:
64,192,37208,128,8,37561:0:0:0:0:
448,192,37208,1,0,0:0:0:0:
192,192,37384,1,2,0:0:0:0:
320,192,37384,1,0,0:0:0:0:
448,192,37561,1,0,0:0:0:0:
64,192,37737,1,2,0:0:0:0:
320,192,37737,128,0,38090:0:0:0:0:
448,192,37914,1,0,0:0:0:70:LR_Tom Hit.wav
64,192,38090,1,2,0:0:0:0:
192,192,38090,1,0,0:0:0:0:
64,192,38267,1,0,0:0:0:70:LR_Tom Hit_D.wav
192,192,38355,1,0,0:0:0:0:
320,192,38443,1,2,0:0:0:0:
448,192,38443,1,0,0:0:0:0:
192,192,38620,1,8,0:0:0:0:
320,192,38620,1,0,0:0:0:0:
64,192,38796,128,2,39149:0:0:0:0:
192,192,38796,1,4,0:0:0:0:
448,192,38796,1,0,0:0:0:0:
192,192,39149,1,2,0:0:0:0:
448,192,39149,128,0,39502:0:0:0:0:
64,192,39502,1,4,0:0:0:0:
192,192,39502,128,2,39855:0:0:0:0:
320,192,39502,1,0,0:0:0:0:
64,192,39855,1,2,0:0:0:0:
448,192,39855,1,0,0:0:0:0:
64,192,40032,1,8,0:0:0:0:
192,192,40120,1,0,0:0:0:0:
320,192,40208,1,2,0:0:0:0:
448,192,40208,128,0,40561:0:0:0:0:
64,192,40561,1,2,0:0:0:0:
320,192,40561,1,0,0:0:0:0:
192,192,40737,1,0,0:0:0:70:LR_Tom Hit_D.wav
64,192,40914,128,2,41090:0:0:0:0:
448,192,40914,128,0,41090:0:0:0:0:
64,192,41267,128,2,42326:0:0:0:0:
320,192,41267,1,4,0:0:0:0:
448,192,41267,1,0,0:0:0:0:
192,192,41443,1,0,0:0:0:0:
448,192,41532,1,8,0:0:0:0:
320,192,41620,1,2,0:0:0:0:
192,192,41796,1,8,0:0:0:0:
448,192,41796,1,0,0:0:0:0:
192,192,41973,128,0,42326:0:0:0:70:LR_Tom Hit.wav
320,192,42326,1,2,0:0:0:0:
448,192,42326,128,4,42502:0:0:0:0:
64,192,42679,1,8,0:0:0:0:
448,192,42679,128,0,42855:0:0:0:0:
64,192,42855,1,8,0:0:0:0:
192,192,42855,1,0,0:0:0:0:
320,192,43032,128,2,43208:0:0:0:0:
448,192,43032,1,0,0:0:0:0:
192,192,43208,128,0,43384:0:0:0:0:
64,192,43384,1,8,0:0:0:0:
448,192,43384,1,2,0:0:0:0:
320,192,43561,128,0,43737:0:0:0:0:
64,192,43737,1,2,0:0:0:0:
192,192,43737,1,0,0:0:0:0:
320,192,43914,128,0,44090:0:0:0:0:
64,192,44090,1,8,0:0:0:0:
448,192,44090,1,0,0:0:0:0:
64,192,44267,128,8,44443:0:0:0:0:
448,192,44267,1,0,0:0:0:0:
192,192,44443,1,2,0:0:0:0:
320,192,44620,1,0,0:0:0:70:LR_Tom Hit.wav
64,192,44796,1,8,0:0:0:0:
448,192,44796,1,2,0:0:0:0:
192,192,44973,1,0,0:0:0:70:LR_Tom Hit_D.wav
64,192,45149,128,4,45326:0:0:0:0:
320,192,45149,1,2,0:0:0:0:
448,192,45149,1,0,0:0:0:0:
64,192,45502,128,8,45679:0:0:0:0:
448,192,45502,1,0,0:0:0:0:
320,192,45679,1,8,0:0:0:0:
448,192,45679,1,0,0:0:0:0:
64,192,45855,1,2,0:0:0:0:
192,192,45855,128,0,46032:0:0:0:0:
320,192,46032,128,0,46208:0:0:0:0:
64,192,46208,1,2,0:0:0:0:
448,192,46208,1,8,0:0:0:0:
192,192,46384,128,0,46561:0:0:0:0:
320,192,46561,1,2,0:0:0:0:
448,192,46561,1,0,0:0:0:0:
192,192,46737,128,0,46914:0:0:0:0:
64,192,46914,1,8,0:0:0:0:
448,192,46914,1,0,0:0:0:0:
64,192,47090,1,8,0:0:0:0:
448,192,47090,128,0,47267:0:0:0:0:
320,192,47267,1,2,0:0:0:0:
192,192,47443,1,0,0:0:0:70:LR_Tom Hit.wav
64,192,47620,1,2,0:0:0:0:
448,192,47620,1,0,0:0:0:0:
320,192,47796,1,0,0:0:0:70:LR_Tom Hit_D.wav
64,192,47973,128,2,48326:0:0:0:0:
192,192,47973,1,4,0:0:0:0:
448,192,47973,1,0,0:0:0:0:
448,192,48326,1,0,0:0:0:70:LR_Tom Hit_D.wav
192,192,48502,1,2,0:0:0:0:
320,192,48502,1,0,0:0:0:0:
64,192,48679,1,0,0:0:0:70:LR_Tom Hit_D.wav
320,192,48855,1,2,0:0:0:0:
448,192,48855,1,0,0:0:0:0:
64,192,49032,1,2,0:0:0:0:
192,192,49032,1,0,0:0:0:0:
320,192,49208,1,0,0:0:0:70:LR_Tom Hit_D.wav
64,192,49384,1,2,0:0:0:0:
448,192,49384,1,0,0:0:0:0:
192,192,49561,128,0,49737:0:0:0:0:
64,192,49737,1,0,0:0:0:70:LR_Tom Hit_D.wav
320,192,49737,128,0,49914:0:0:0:0:
64,192,49914,1,0,0:0:0:70:LR_Tom Hit_D.wav
448,192,49914,128,0,50267:0:0:0:0:
320,192,50090,1,2,0:0:0:0:
64,192,50267,128,2,50443:0:0:0:0:
192,192,50443,128,2,50620:0:0:0:0:
448,192,50443,1,0,0:0:0:0:
320,192,50620,128,0,50796:0:0:0:70:LR_Tom Hit_D.wav
64,192,50796,1,2,0:0:0:0:
448,192,50796,128,0,51149:0:0:0:0:
64,192,51149,1,0,0:0:0:70:LR_Tom Hit_D.wav
192,192,51326,1,2,0:0:0:0:
320,192,51326,1,0,0:0:0:0:
448,192,51502,1,0,0:0:0:70:LR_Tom Hit_D.wav
64,192,51679,1,2,0:0:0:0:
192,192,51679,1,0,0:0:0:0:
320,192,51855,1,2,0:0:0:0:
448,192,51855,1,0,0:0:0:0:
192,192,52032,1,0,0:0:0:70:LR_Tom Hit_D.wav
64,192,52208,1,2,0:0:0:0:
448,192,52208,1,0,0:0:0:0:
320,192,52384,1,0,0:0:0:0:
192,192,52561,128,0,52737:0:0:0:70:LR_Tom Hit_D.wav
64,192,52737,1,0,0:0:0:70:LR_Tom Hit_D.wav
448,192,52737,128,0,52914:0:0:0:0:
320,192,52914,1,2,0:0:0:0:
64,192,53090,1,2,0:0:0:0:
192,192,53090,128,0,53267:0:0:0:0:
320,192,53267,128,2,53443:0:0:0:0:
448,192,53267,1,0,0:0:0:0:
64,192,53443,1,8,0:0:0:0:
192,192,53532,1,8,0:0:0:0:
320,192,53620,1,4,0:0:0:0:
448,192,53620,128,2,53973:0:0:0:0:
64,192,53973,1,2,0:0:0:0:
192,192,53973,1,0,0:0:0:0:
64,192,54149,1,8,0:0:0:0:
448,192,54149,1,0,0:0:0:0:
192,192,54326,1,0,0:0:0:0:
320,192,54502,1,2,0:0:0:0:
448,192,54502,1,0,0:0:0:0:
64,192,54679,1,8,0:0:0:0:
448,192,54679,1,0,0:0:0:0:
192,192,54855,1,0,0:0:0:0:
320,192,54943,1,8,0:0:0:0:
448,192,54943,1,0,0:0:0:0:
64,192,55032,1,2,0:0:0:0:
192,192,55032,1,0,0:0:0:0:
64,192,55208,1,8,0:0:0:0:
448,192,55208,1,0,0:0:0:0:
320,192,55384,1,0,0:0:0:70:LR_Tom Hit_D.wav
192,192,55561,1,8,0:0:0:0:
320,192,55561,1,0,0:0:0:0:
64,192,55737,1,0,0:0:0:0:
320,192,55914,1,2,0:0:0:0:
448,192,55914,1,0,0:0:0:0:
64,192,56090,1,2,0:0:0:0:
448,192,56090,1,8,0:0:0:0:
192,192,56179,1,8,0:0:0:0:
320,192,56267,1,8,0:0:0:0:
192,192,56355,1,8,0:0:0:0:
64,192,56443,1,2,0:0:0:0:
320,192,56443,1,4,0:0:0:0:
448,192,56443,1,0,0:0:0:0:
64,192,56796,1,8,0:0:0:0:
448,192,56796,128,2,57149:0:0:0:0:
320,192,56973,1,0,0:0:0:70:LR_Tom Hit_D.wav
64,192,57149,1,2,0:0:0:0:
192,192,57149,128,0,57502:0:0:0:0:
320,192,57326,1,0,0:0:0:70:LR_Snare Drum.wav
448,192,57326,1,0,0:0:0:0:
64,192,57502,128,2,57855:0:0:0:0:
448,192,57502,1,8,0:0:0:0:
320,192,57679,1,0,0:0:0:70:LR_Snare Drum.wav
192,192,57855,1,4,0:0:0:0:
320,192,57855,1,2,0:0:0:0:
448,192,57855,128,0,58208:0:0:0:0:
64,192,58208,1,2,0:0:0:0:
320,192,58208,128,8,58561:0:0:0:0:
448,192,58384,1,0,0:0:0:70:LR_Tom Hit.wav
64,192,58561,1,2,0:0:0:0:
192,192,58561,128,0,58914:0:0:0:0:
320,192,58737,1,0,0:0:0:70:LR_Snare Drum.wav
448,192,58737,1,0,0:0:0:0:
64,192,58914,1,8,0:0:0:0:
448,192,58914,128,2,59267:0:0:0:0:
320,192,59090,1,0,0:0:0:70:LR_Snare Drum.wav
64,192,59267,128,4,59620:0:0:0:0:
192,192,59267,1,2,0:0:0:0:
320,192,59267,1,8,0:0:0:0:
192,192,59620,1,2,0:0:0:0:
448,192,59620,1,8,0:0:0:0:
448,192,59796,1,8,0:0:0:0:
320,192,59884,1,0,0:0:0:0:
64,192,59973,1,8,0:0:0:0:
192,192,59973,1,0,0:0:0:0:
64,192,60149,1,2,0:0:0:0:
448,192,60149,1,0,0:0:0:0:
320,192,60326,1,0,0:0:0:70:LR_Tom Hit.wav
64,192,60502,1,2,0:0:0:0:
192,192,60502,1,0,0:0:0:0:
448,192,60502,1,0,0:0:0:0:
192,192,60855,1,8,0:0:0:0:
320,192,60855,1,0,0:0:0:0:
64,192,61032,1,8,0:0:0:0:
448,192,61032,1,0,0:0:0:0:
192,192,61208,1,8,0:0:0:0:
320,192,61296,1,0,0:0:0:70:LR_Snare Drum.wav
64,192,61384,1,8,0:0:0:0:
448,192,61384,1,0,0:0:0:0:
192,192,61473,1,8,0:0:0:0:
320,192,61561,1,0,0:0:0:70:LR_Tom Hit_D.wav
192,192,61649,1,0,0:0:0:70:LR_Tom Hit_D.wav
64,192,61737,1,0,0:0:0:70:LR_Tom Hit.wav
448,192,61737,1,0,0:0:0:0:
320,192,61826,1,0,0:0:0:70:LR_Tom Hit.wav
192,192,61914,1,0,0:0:0:70:LR_Tom Hit.wav
320,192,62002,1,0,0:0:0:70:LR_Tom Hit.wav
64,192,62090,1,2,0:0:0:0:
192,192,62090,1,4,0:0:0:0:
448,192,62090,1,0,0:0:0:0:
64,192,62267,1,2,0:0:0:0:
192,192,62267,1,4,0:0:0:0:
448,192,62267,1,0,0:0:0:0:
64,192,62443,1,2,0:0:0:0:
192,192,62443,1,4,0:0:0:0:
448,192,62443,1,0,0:0:0:0:
192,192,62620,128,0,63149:0:0:0:0:
320,192,62620,128,0,63149:0:0:0:0:
64,192,63149,1,0,0:0:0:0:
448,192,63149,1,0,0:0:0:0:
64,192,63502,128,2,63679:0:0:0:0:
320,192,63502,1,4,0:0:0:0:
448,192,63502,128,0,63679:0:0:0:0:
64,192,63855,128,8,64208:0:0:0:0:
192,192,63855,1,0,0:0:0:0:
448,192,63855,128,0,64208:0:0:0:0:
320,192,64032,1,0,0:0:0:70:LR_Snare Drum.wav
192,192,64208,1,2,0:0:0:0:
320,192,64208,1,0,0:0:0:0:
64,192,64384,128,0,64561:0:0:0:70:LR_Snare Drum.wav
448,192,64384,128,0,64561:0:0:0:0:
192,192,64561,1,8,0:0:0:0:
320,192,64561,1,0,0:0:0:0:
64,192,64737,128,0,65090:0:0:0:70:LR_Snare Drum.wav
448,192,64737,128,0,65090:0:0:0:0:
320,192,64914,1,2,0:0:0:0:
192,192,65090,1,0,0:0:0:0:
64,192,65267,1,8,0:0:0:0:
448,192,65267,1,0,0:0:0:0:
192,192,65443,128,0,65620:0:0:0:70:LR_Snare Drum.wav
320,192,65443,128,0,65796:0:0:0:0:
448,192,65620,128,2,65796:0:0:0:0:
64,192,65796,128,0,66149:0:0:0:70:LR_Snare Drum.wav
192,192,65973,128,8,66149:0:0:0:0:
448,192,65973,1,0,0:0:0:0:
320,192,66149,1,0,0:0:0:70:LR_Snare Drum.wav
64,192,66326,128,2,66502:0:0:0:0:
192,192,66326,1,0,0:0:0:0:
448,192,66326,128,0,66502:0:0:0:0:
64,192,66679,128,8,67032:0:0:0:0:
320,192,66679,1,0,0:0:0:0:
448,192,66679,128,0,67032:0:0:0:0:
192,192,66855,1,0,0:0:0:70:LR_Snare Drum.wav
192,192,67032,1,2,0:0:0:0:
320,192,67032,1,0,0:0:0:0:
64,192,67208,128,0,67384:0:0:0:70:LR_Snare Drum.wav
448,192,67208,128,0,67384:0:0:0:0:
192,192,67384,1,8,0:0:0:0:
320,192,67384,1,0,0:0:0:0:
64,192,67561,128,0,67914:0:0:0:70:LR_Snare Drum.wav
448,192,67561,128,0,67914:0:0:0:0:
192,192,67737,1,2,0:0:0:0:
320,192,67914,1,0,0:0:0:0:
64,192,68090,1,8,0:0:0:0:
448,192,68090,1,0,0:0:0:0:
192,192,68267,128,0,68620:0:0:0:70:LR_Snare Drum.wav
320,192,68267,128,0,68443:0:0:0:0:
64,192,68443,128,2,68620:0:0:0:0:
448,192,68620,128,0,68973:0:0:0:70:LR_Snare Drum.wav
64,192,68796,1,8,0:0:0:0:
320,192,68796,128,0,68973:0:0:0:0:
192,192,68973,1,0,0:0:0:70:LR_Snare Drum.wav
64,192,69149,128,4,69502:0:0:0:0:
192,192,69149,1,2,0:0:0:0:
448,192,69149,1,0,0:0:0:0:
320,192,69502,1,8,0:0:0:0:
448,192,69502,1,0,0:0:0:0:
64,192,69679,1,8,0:0:0:0:
192,192,69679,1,0,0:0:0:0:
448,192,69679,1,0,0:0:0:0:
320,192,69855,1,0,0:0:0:0:
64,192,70032,1,2,0:0:0:0:
320,192,70032,1,0,0:0:0:0:
64,192,70208,1,8,0:0:0:0:
192,192,70208,1,0,0:0:0:0:
448,192,70208,1,0,0:0:0:0:
320,192,70384,1,0,0:0:0:0:
64,192,70561,1,2,0:0:0:0:
448,192,70561,128,0,70914:0:0:0:0:
64,192,70914,1,8,0:0:0:0:
192,192,70914,1,0,0:0:0:0:
64,192,71090,1,8,0:0:0:0:
320,192,71090,1,0,0:0:0:0:
448,192,71090,1,0,0:0:0:0:
192,192,71267,1,0,0:0:0:0:
192,192,71443,1,2,0:0:0:0:
448,192,71443,1,0,0:0:0:0:
64,192,71620,1,8,0:0:0:0:
320,192,71620,1,0,0:0:0:0:
448,192,71620,1,0,0:0:0:0:
192,192,71796,1,0,0:0:0:0:
64,192,71973,128,2,72326:0:0:0:0:
448,192,71973,1,0,0:0:0:0:
320,192,72326,1,8,0:0:0:0:
448,192,72326,1,0,0:0:0:0:
64,192,72502,1,8,0:0:0:0:
192,192,72502,1,0,0:0:0:0:
448,192,72502,1,0,0:0:0:0:
320,192,72679,1,0,0:0:0:0:
64,192,72855,1,2,0:0:0:0:
192,192,72855,1,0,0:0:0:0:
64,192,73032,1,8,0:0:0:0:
320,192,73032,1,0,0:0:0:0:
448,192,73032,1,0,0:0:0:0:
192,192,73208,1,0,0:0:0:70:LR_Snare Drum.wav
320,192,73296,1,0,0:0:0:0:
64,192,73384,1,2,0:0:0:0:
448,192,73384,1,0,0:0:0:0:
192,192,73561,1,8,0:0:0:0:
448,192,73561,1,0,0:0:0:0:
64,192,73737,1,8,0:0:0:0:
192,192,73737,1,0,0:0:0:0:
320,192,73914,1,2,0:0:0:0:
448,192,73914,1,0,0:0:0:0:
64,192,74090,1,8,0:0:0:0:
448,192,74090,1,0,0:0:0:0:
192,192,74179,1,8,0:0:0:0:
320,192,74267,1,8,0:0:0:0:
192,192,74355,1,8,0:0:0:0:
64,192,74443,1,8,0:0:0:0:
448,192,74443,1,0,0:0:0:0:
320,192,74532,1,8,0:0:0:0:
192,192,74620,1,8,0:0:0:0:
320,192,74708,1,8,0:0:0:0:
64,192,74796,128,4,74973:0:0:0:0:
192,192,74796,1,2,0:0:0:0:
448,192,74796,128,0,74973:0:0:0:0:
64,192,75149,128,8,75502:0:0:0:0:
320,192,75149,1,0,0:0:0:0:
448,192,75149,128,0,75502:0:0:0:0:
192,192,75326,1,0,0:0:0:70:LR_Snare Drum.wav
192,192,75502,1,2,0:0:0:0:
320,192,75502,1,0,0:0:0:0:
64,192,75679,128,0,75855:0:0:0:70:LR_Snare Drum.wav
448,192,75679,128,0,75855:0:0:0:0:
192,192,75855,1,8,0:0:0:0:
320,192,75855,1,0,0:0:0:0:
64,192,76032,128,0,76384:0:0:0:70:LR_Snare Drum.wav
448,192,76032,128,0,76384:0:0:0:0:
192,192,76208,1,2,0:0:0:0:
320,192,76384,1,0,0:0:0:0:
64,192,76561,1,8,0:0:0:0:
448,192,76561,1,0,0:0:0:0:
192,192,76737,128,0,77090:0:0:0:70:LR_Snare Drum.wav
320,192,76737,128,0,76914:0:0:0:0:
64,192,76914,128,2,77090:0:0:0:0:
448,192,77090,128,0,77443:0:0:0:70:LR_Snare Drum.wav
192,192,77267,1,8,0:0:0:0:
320,192,77267,128,0,77443:0:0:0:0:
64,192,77443,1,0,0:0:0:70:LR_Snare Drum.wav
64,192,77620,128,2,77796:0:0:0:0:
320,192,77620,1,0,0:0:0:0:
448,192,77620,128,0,77796:0:0:0:0:
64,192,77973,128,8,78326:0:0:0:0:
192,192,77973,1,0,0:0:0:0:
448,192,77973,128,0,78326:0:0:0:0:
320,192,78149,1,0,0:0:0:70:LR_Snare Drum.wav
192,192,78326,1,2,0:0:0:0:
320,192,78326,1,0,0:0:0:0:
64,192,78502,128,0,78679:0:0:0:70:LR_Snare Drum.wav
192,192,78502,128,0,78679:0:0:0:0:
320,192,78679,1,8,0:0:0:0:
448,192,78679,1,0,0:0:0:0:
320,192,78855,128,0,79208:0:0:0:70:LR_Snare Drum.wav
448,192,78855,128,0,79208:0:0:0:0:
192,192,79032,1,2,0:0:0:0:
64,192,79208,1,0,0:0:0:0:
64,192,79384,128,8,79561:0:0:0:0:
192,192,79384,128,0,79561:0:0:0:0:
448,192,79384,1,0,0:0:0:0:
320,192,79561,1,0,0:0:0:70:LR_Snare Drum.wav
64,192,79737,128,2,79914:0:0:0:0:
320,192,79737,1,0,0:0:0:0:
448,192,79737,128,0,79914:0:0:0:0:
192,192,79914,1,0,0:0:0:70:LR_Tom Hit.wav
64,192,80090,1,8,0:0:0:0:
448,192,80090,1,0,0:0:0:0:
320,192,80179,1,0,0:0:0:70:LR_Tom Hit.wav
192,192,80267,1,0,0:0:0:70:LR_Tom Hit_D.wav
64,192,80443,1,2,0:0:0:0:
192,192,80443,1,4,0:0:0:0:
448,192,80443,1,0,0:0:0:0:
320,192,80620,1,0,0:0:0:70:LR_Snare Drum.wav
192,192,80708,1,0,0:0:0:70:LR_Snare Drum.wav
320,192,80796,1,2,0:0:0:0:
448,192,80796,1,0,0:0:0:0:
64,192,80884,1,0,0:0:0:70:LR_Snare Drum.wav
192,192,80973,1,0,0:0:0:70:LR_Snare Drum.wav
320,192,81061,1,0,0:0:0:70:LR_Snare Drum.wav
64,192,81149,1,2,0:0:0:0:
448,192,81149,1,0,0:0:0:0:
320,192,81237,1,0,0:0:0:70:LR_Snare Drum.wav
192,192,81326,1,0,0:0:0:70:LR_Snare Drum.wav
64,192,81414,1,0,0:0:0:70:LR_Snare Drum.wav
320,192,81502,1,2,0:0:0:0:
448,192,81502,1,0,0:0:0:0:
192,192,81590,1,0,0:0:0:70:LR_Snare Drum.wav
320,192,81679,1,0,0:0:0:70:LR_Snare Drum.wav
448,192,81767,1,0,0:0:0:70:LR_Snare Drum.wav
64,192,81855,1,2,0:0:0:0:
192,192,81855,1,0,0:0:0:0:
320,192,81943,1,0,0:0:0:70:LR_Snare Drum.wav
192,192,82032,1,0,0:0:0:70:LR_Snare Drum.wav
64,192,82120,1,0,0:0:0:70:LR_Snare Drum.wav
320,192,82208,1,2,0:0:0:0:
448,192,82208,1,0,0:0:0:0:
192,192,82296,1,0,0:0:0:70:LR_Snare Drum.wav
320,192,82384,1,0,0:0:0:70:LR_Tom Hit_D.wav
448,192,82473,1,0,0:0:0:70:LR_Tom Hit_D.wav
64,192,82561,128,2,82914:0:0:0:0:
192,192,82561,1,4,0:0:0:0:
320,192,82561,1,0,0:0:0:0:
192,192,82914,128,4,83267:0:0:0:0:
320,192,82914,1,2,0:0:0:0:
448,192,82914,1,0,0:0:0:0:
64,192,83267,1,8,0:0:0:0:
320,192,83267,1,4,0:0:0:0:
448,192,83267,1,0,0:0:0:0:
320,192,83443,1,2,0:0:0:0:
320,192,83620,1,2,0:0:0:0:
64,192,83796,1,4,0:0:0:0:
192,192,83796,1,8,0:0:0:0:
448,192,83796,1,0,0:0:0:0:
192,192,83973,1,2,0:0:0:0:
192,192,84149,1,8,0:0:0:0:
320,192,84237,1,8,0:0:0:0:
64,192,84326,1,8,0:0:0:0:
448,192,84326,1,0,0:0:0:0:
64,192,84502,1,4,0:0:0:0:
192,192,84502,1,2,0:0:0:0:
448,192,84502,1,0,0:0:0:0:
64,192,84855,1,8,0:0:0:0:
320,192,84855,1,4,0:0:0:0:
448,192,84855,1,0,0:0:0:0:
64,192,85032,1,8,0:0:0:0:
320,192,85032,1,4,0:0:0:0:
448,192,85032,1,0,0:0:0:0:
192,192,85208,128,0,85561:0:0:0:0:
320,192,85561,1,0,0:0:0:0:
64,192,85737,1,2,0:0:0:0:
448,192,85737,1,0,0:0:0:0:
64,192,86090,128,2,86267:0:0:0:0:
192,192,86090,128,4,86267:0:0:0:0:
448,192,86090,1,0,0:0:0:0:
64,192,86443,1,8,0:0:0:0:
320,192,86443,128,0,86620:0:0:0:0:
448,192,86443,128,0,86620:0:0:0:0:
192,192,86620,1,0,0:0:0:0:
192,192,86796,1,2,0:0:0:0:
320,192,86796,1,0,0:0:0:0:
64,192,86973,128,8,87149:0:0:0:0:
448,192,86973,128,0,87149:0:0:0:0:
320,192,86973,1,0,0:0:0:0:
64,192,87326,128,2,87502:0:0:0:0:
320,192,87326,128,4,87679:0:0:0:0:
448,192,87326,128,0,88914:0:0:0:0:
192,192,87679,1,8,0:0:0:0:
64,192,87855,1,8,0:0:0:0:
320,192,87855,1,0,0:0:0:0:
192,192,88032,1,0,0:0:0:0:
64,192,88208,1,2,0:0:0:0:
192,192,88208,1,0,0:0:0:0:
64,192,88384,1,8,0:0:0:0:
192,192,88473,1,8,0:0:0:0:
320,192,88561,1,8,0:0:0:0:
64,192,88649,1,0,0:0:0:70:LR_Tom Hit_D.wav
192,192,88737,1,0,0:0:0:70:LR_Tom Hit_D.wav
192,192,88914,128,8,89090:0:0:0:0:
320,192,88914,128,4,89090:0:0:0:0:
64,192,88914,1,0,0:0:0:0:
64,192,89267,128,8,89443:0:0:0:0:
320,192,89267,1,0,0:0:0:0:
192,192,89443,1,2,0:0:0:0:
448,192,89443,1,0,0:0:0:0:
192,192,89620,128,8,89796:0:0:0:0:
320,192,89620,1,0,0:0:0:0:
64,192,89796,1,2,0:0:0:0:
448,192,89796,1,0,0:0:0:0:
192,192,89973,1,8,0:0:0:0:
448,192,89973,128,0,90149:0:0:0:0:
64,192,90149,1,2,0:0:0:0:
320,192,90149,1,0,0:0:0:0:
192,192,90326,128,8,90502:0:0:0:0:
320,192,90326,128,0,90502:0:0:0:0:
192,192,90679,1,8,0:0:0:0:
448,192,90679,128,0,90855:0:0:0:0:
64,192,90855,1,2,0:0:0:0:
320,192,90855,1,0,0:0:0:0:
192,192,91032,1,8,0:0:0:0:
320,192,91032,128,0,91208:0:0:0:0:
64,192,91208,1,2,0:0:0:0:
448,192,91208,1,0,0:0:0:0:
64,192,91384,128,8,91561:0:0:0:0:
320,192,91384,1,0,0:0:0:0:
192,192,91561,1,2,0:0:0:0:
448,192,91561,1,0,0:0:0:0:
192,192,91737,128,8,91914:0:0:0:0:
320,192,91737,128,0,91914:0:0:0:0:
64,192,92090,128,8,92267:0:0:0:0:
320,192,92090,1,0,0:0:0:0:
192,192,92267,1,2,0:0:0:0:
448,192,92267,1,0,0:0:0:0:
192,192,92443,128,8,92620:0:0:0:0:
320,192,92443,1,0,0:0:0:0:
64,192,92620,1,2,0:0:0:0:
448,192,92620,1,0,0:0:0:0:
192,192,92796,1,8,0:0:0:0:
448,192,92796,128,0,92973:0:0:0:0:
64,192,92973,1,2,0:0:0:0:
320,192,92973,1,0,0:0:0:0:
192,192,93149,1,8,0:0:0:0:
320,192,93149,128,0,93502:0:0:0:0:
64,192,93502,1,8,0:0:0:0:
448,192,93502,1,0,0:0:0:0:
192,192,93679,128,2,94032:0:0:0:0:
320,192,93679,1,0,0:0:0:0:
64,192,93855,1,8,0:0:0:0:
448,192,93855,1,0,0:0:0:0:
320,192,94032,1,8,0:0:0:0:
448,192,94032,1,0,0:0:0:0:
64,192,94208,1,8,0:0:0:0:
448,192,94208,1,0,0:0:0:0:
192,192,94384,1,2,0:0:0:0:
320,192,94384,1,0,0:0:0:0:
64,192,94561,128,4,94737:0:0:0:0:
192,192,94561,1,8,0:0:0:0:
448,192,94561,128,0,94737:0:0:0:0:
192,192,94914,128,8,95090:0:0:0:0:
448,192,94914,1,0,0:0:0:0:
64,192,95090,1,2,0:0:0:0:
320,192,95090,1,0,0:0:0:0:
192,192,95267,1,8,0:0:0:0:
320,192,95267,128,0,95443:0:0:0:0:
64,192,95443,1,2,0:0:0:0:
448,192,95443,1,0,0:0:0:0:
64,192,95620,128,8,95796:0:0:0:0:
320,192,95620,1,0,0:0:0:0:
192,192,95796,1,2,0:0:0:0:
448,192,95796,1,0,0:0:0:0:
192,192,95973,128,8,96149:0:0:0:0:
320,192,95973,128,0,96149:0:0:0:0:
64,192,96326,1,8,0:0:0:0:
320,192,96326,128,0,96502:0:0:0:0:
192,192,96502,1,2,0:0:0:0:
448,192,96502,1,0,0:0:0:0:
192,192,96679,128,8,96855:0:0:0:0:
320,192,96679,1,0,0:0:0:0:
64,192,96855,1,2,0:0:0:0:
448,192,96855,1,0,0:0:0:0:
192,192,97032,1,8,0:0:0:0:
448,192,97032,128,0,97208:0:0:0:0:
64,192,97208,1,2,0:0:0:0:
320,192,97208,1,0,0:0:0:0:
192,192,97384,128,8,97561:0:0:0:0:
320,192,97384,128,0,97561:0:0:0:0:
192,192,97737,128,8,97914:0:0:0:0:
448,192,97737,1,0,0:0:0:0:
64,192,97914,1,2,0:0:0:0:
320,192,97914,1,0,0:0:0:0:
192,192,98090,1,8,0:0:0:0:
320,192,98090,128,0,98267:0:0:0:0:
64,192,98267,1,2,0:0:0:0:
448,192,98267,1,0,0:0:0:0:
64,192,98443,128,8,98620:0:0:0:0:
320,192,98443,1,0,0:0:0:0:
192,192,98620,1,2,0:0:0:0:
448,192,98620,1,0,0:0:0:0:
64,192,98796,1,8,0:0:0:0:
448,192,98796,128,0,99149:0:0:0:0:
192,192,98973,1,2,0:0:0:0:
320,192,98973,1,0,0:0:0:0:
192,192,99149,128,0,99326:0:0:0:70:LR_Tom Hit_D.wav
64,192,99326,128,2,99679:0:0:0:0:
320,192,99326,1,4,0:0:0:0:
448,192,99326,1,0,0:0:0:0:
192,192,99679,1,2,0:0:0:0:
448,192,99679,1,0,0:0:0:0:
64,192,99855,1,8,0:0:0:0:
448,192,99855,128,0,100032:0:0:0:0:
192,192,100032,1,0,0:0:0:70:LR_Tom Hit_D.wav
320,192,100120,1,0,0:0:0:70:LR_Tom Hit_D.wav
64,192,100208,128,2,100561:0:0:0:0:
192,192,100208,1,4,0:0:0:0:
448,192,100208,1,0,0:0:0:0:
192,192,100561,128,2,100737:0:0:0:0:
448,192,100561,1,0,0:0:0:0:
320,192,100737,1,0,0:0:0:0:
448,192,100737,1,0,0:0:0:0:
64,192,100914,1,2,0:0:0:0:
192,192,100914,1,0,0:0:0:0:
320,192,101090,128,0,101267:0:0:0:0:
64,192,101267,1,2,0:0:0:0:
448,192,101267,1,0,0:0:0:0:
192,192,101443,128,0,101620:0:0:0:0:
64,192,101620,1,2,0:0:0:0:
320,192,101620,1,0,0:0:0:0:
448,192,101796,128,0,101973:0:0:0:0:
64,192,101973,1,2,0:0:0:0:
320,192,101973,1,0,0:0:0:0:
64,192,102149,128,0,102326:0:0:0:0:
192,192,102149,1,0,0:0:0:0:
320,192,102326,1,2,0:0:0:0:
448,192,102326,1,0,0:0:0:0:
448,192,102502,128,0,102679:0:0:0:70:LR_Tom Hit_D.wav
64,192,102679,1,8,0:0:0:0:
320,192,102679,1,0,0:0:0:0:
192,192,102855,1,8,0:0:0:0:
320,192,102943,1,8,0:0:0:0:
64,192,103032,128,2,103561:0:0:0:0:
192,192,103032,1,4,0:0:0:0:
448,192,103032,128,0,103208:0:0:0:0:
320,192,103208,128,8,103384:0:0:0:0:
192,192,103384,128,2,103561:0:0:0:0:
320,192,103561,128,8,103914:0:0:0:0:
448,192,103561,128,0,104090:0:0:0:0:
64,192,103914,128,2,104090:0:0:0:0:
192,192,104090,1,8,0:0:0:0:
320,192,104090,1,0,0:0:0:0:
64,192,104267,128,2,104973:0:0:0:0:
192,192,104267,1,4,0:0:0:0:
448,192,104267,128,0,104973:0:0:0:0:
192,192,104973,1,4,0:0:0:0:
320,192,104973,1,2,0:0:0:0:
