osu file format v14

[General]
AudioFilename: audio.mp3
AudioLeadIn: 0
PreviewTime: 48673
Countdown: 0
SampleSet: Soft
StackLeniency: 0.7
Mode: 2
LetterboxInBreaks: 0
WidescreenStoryboard: 0

[Editor]
DistanceSpacing: 1.1
BeatDivisor: 4
GridSize: 8
TimelineZoom: 1

[Metadata]
Title:Fuwa Fuwa Jikan (game size ver.)
TitleUnicode:ふわふわ時間 (game size ver.)
Artist:Pastel*Palettes
ArtistUnicode:Pastel*Palettes
Creator:Sc4v4ng3r
Version:Salad
Source:バンドリ! ガールズバンドパーティ!
Tags:けいおん!! k-on!! bandori girls band party time garupa Xetopia Hareimu
BeatmapID:1836123
BeatmapSetID:877904

[Difficulty]
HPDrainRate:5
CircleSize:3
OverallDifficulty:7
ApproachRate:7
SliderMultiplier:1.4
SliderTickRate:1

[Events]
//Background and Video events
0,0,"bg.png",0,0
//Break Periods
//Storyboard Layer 0 (Background)
//Storyboard Layer 1 (Fail)
//Storyboard Layer 2 (Pass)
//Storyboard Layer 3 (Foreground)
//Storyboard Sound Samples

[TimingPoints]
1424,333.333333333333,4,2,2,60,1,0
6090,-100,4,2,1,50,0,0
6423,-100,4,2,2,58,0,0
6757,-100,4,2,1,75,0,0
17423,-100,4,2,1,65,0,0
28090,-100,4,2,1,58,0,0
36090,-100,4,2,1,65,0,0
49423,-100,4,2,1,80,0,1
59590,-100,4,2,1,70,0,1
59923,-100,4,2,1,70,0,0
60090,-100,4,2,1,80,0,1
67757,-100,4,2,2,72,0,1
67923,-100,4,2,2,72,0,0
68090,-100,4,2,1,75,0,1
78757,-100,4,2,1,75,0,0

[Colours]
Combo1 : 243,192,37
Combo2 : 164,32,240
Combo3 : 37,185,239
Combo4 : 23,209,116
Combo5 : 226,45,124

[HitObjects]
160,112,757,6,0,L|152:200,1,70,0|0,0:0|0:0,0:0:0:0:
248,192,1090,2,0,L|254:261,1,70,0|0,0:0|0:0,0:0:0:0:
136,288,1424,6,0,L|64:288,2,70,8|0|8,0:0|0:0|0:0,0:0:0:0:
216,288,1923,1,0,0:0:0:0:
296,296,2090,2,0,L|144:288,1,140,8|8,0:0|0:0,0:0:0:0:
320,232,2757,6,0,B|390:231|390:231|316:229,1,140,8|8,0:0|0:0,0:0:0:0:
160,232,3423,2,0,B|89:232|89:232|162:232,1,140,8|8,0:0|0:0,0:0:0:0:
352,200,4090,6,0,L|352:112,1,70,8|0,0:0|0:0,0:0:0:0:
256,160,4423,2,0,L|256:232,1,70,8|0,0:0|0:0,0:0:0:0:
360,208,4757,2,0,L|192:208,1,140,8|8,0:0|0:0,0:0:0:0:
416,176,5423,6,0,B|487:177|487:177|414:176,1,140,8|8,0:0|0:0,0:0:0:0:
232,176,6090,2,0,L|224:104,1,70,2|2,0:0|0:0,0:0:0:0:
336,96,6423,2,0,L|416:104,1,70,2|0,0:0|0:0,0:0:0:0:
224,184,6757,6,0,L|136:184,2,70,12|2|8,0:0|0:0|0:0,0:0:0:0:
312,184,7257,1,2,0:0:0:0:
224,184,7423,2,0,L|80:208,1,140,8|8,0:0|0:0,0:0:0:0:
280,240,8090,6,0,L|352:240,1,70,8|2,0:0|0:0,0:0:0:0:
440,224,8423,2,0,L|370:224,1,70,8|2,0:0|0:0,0:0:0:0:
280,224,8757,2,0,L|288:80,1,140,8|8,0:0|0:0,0:0:0:0:
112,168,9423,6,0,L|32:168,2,70,8|2|8,0:0|0:0|0:0,0:0:0:0:
192,168,9923,1,2,0:0:0:0:
112,168,10090,2,0,P|86:244|128:312,1,140,8|8,0:0|0:0,0:0:0:0:
272,304,10757,6,0,L|176:312,1,70,8|0,0:0|0:0,0:0:0:0:
280,304,11090,2,0,L|352:304,1,70,8|2,0:0|0:0,0:0:0:0:
440,304,11423,2,0,L|360:272,2,70,8|8|0,0:0|0:0|0:0,0:0:0:0:
152,192,12090,6,0,L|80:192,2,70,12|2|8,0:0|0:0|0:0,0:0:0:0:
240,192,12590,1,2,0:0:0:0:
328,192,12757,2,0,L|488:192,1,140,8|8,0:0|0:0,0:0:0:0:
280,240,13423,6,0,L|272:88,1,140,8|8,0:0|0:0,0:0:0:0:
352,96,13923,1,2,0:0:0:0:
432,96,14090,2,0,L|504:72,1,70,8|2,0:0|0:0,0:0:0:0:
400,64,14423,1,8,0:0:0:0:
200,72,14757,6,0,L|120:72,1,70,8|2,0:0|0:0,0:0:0:0:
184,128,15090,2,0,L|96:128,1,70,8|2,0:0|0:0,0:0:0:0:
40,128,15423,2,0,L|56:288,1,140,8|8,0:0|0:0,0:0:0:0:
216,256,16090,6,0,L|56:256,1,140,8|8,0:0|0:0,0:0:0:0:
152,256,16590,1,2,0:0:0:0:
232,256,16757,2,0,L|224:160,1,70,8|8,0:0|0:0,0:0:0:0:
152,184,17090,1,0,0:0:0:0:
424,168,17423,5,6,0:0:0:0:
488,208,17590,2,0,L|480:304,1,70,0|8,0:0|0:0,0:0:0:0:
344,200,18090,2,0,L|248:200,2,70,2|2|8,0:0|0:0|0:0,0:0:0:0:
424,200,18590,1,0,0:0:0:0:
320,216,18757,6,0,L|248:216,1,70,2|0,0:0|0:0,0:0:0:0:
176,216,19090,1,8,0:0:0:0:
344,224,19423,2,0,L|352:64,1,140,2|8,0:0|0:0,0:0:0:0:
168,88,20090,6,0,L|80:88,1,70,2|0,0:0|0:0,0:0:0:0:
24,112,20423,2,0,L|104:112,1,70,8|0,0:0|0:0,0:0:0:0:
168,112,20757,2,0,L|248:112,2,70,2|2|8,0:0|0:0|0:0,0:0:0:0:
336,152,21423,6,0,L|424:152,1,70,2|0,0:0|0:0,0:0:0:0:
328,152,21757,2,0,L|168:152,1,140,8|2,0:0|0:0,0:0:0:0:
112,152,22257,2,0,L|200:152,1,70,2|8,0:0|0:0,0:0:0:0:
464,160,22757,5,6,0:0:0:0:
464,240,22923,1,0,0:0:0:0:
384,240,23090,2,0,L|296:240,1,70,8|0,0:0|0:0,0:0:0:0:
216,224,23423,2,0,L|144:224,2,70,2|2|8,0:0|0:0|0:0,0:0:0:0:
416,168,24090,6,0,L|488:168,2,70,2|0|8,0:0|0:0|0:0,0:0:0:0:
336,168,24590,1,0,0:0:0:0:
256,168,24757,2,0,L|176:168,2,70,2|2|8,0:0|0:0|0:0,0:0:0:0:
432,192,25423,6,0,P|432:256|344:280,1,140,2|8,0:0|0:0,0:0:0:0:
216,296,26090,1,2,0:0:0:0:
368,288,26423,2,0,L|448:288,1,70,8|0,0:0|0:0,0:0:0:0:
360,280,26757,6,0,L|280:280,1,70,2|0,0:0|0:0,0:0:0:0:
112,208,27090,2,0,B|39:208|39:208|112:208,1,140,12|2,0:0|0:0,0:0:0:0:
184,208,27590,1,8,0:0:0:0:
96,224,27757,1,2,0:0:0:0:
376,232,28090,6,0,P|408:200|416:96,1,140,4|0,0:0|0:0,0:0:0:0:
328,112,28590,2,0,L|336:32,1,70,2|2,0:0|0:0,0:0:0:0:
488,40,29090,1,8,0:0:0:0:
336,64,29423,6,0,L|328:224,1,140,2|0,0:0|0:0,0:0:0:0:
248,200,29923,2,0,L|256:288,1,70,2|2,0:0|0:0,0:0:0:0:
408,280,30423,1,8,0:0:0:0:
232,296,30757,6,0,B|160:296|160:296|234:297,1,140,2|0,0:0|0:0,0:0:0:0:
304,296,31257,2,0,L|296:216,1,70,2|2,0:0|0:0,0:0:0:0:
144,208,31757,1,8,0:0:0:0:
312,208,32090,6,0,P|352:192|304:128,1,140,2|0,0:0|0:0,0:0:0:0:
240,128,32590,2,0,L|328:128,1,70,2|0,0:0|0:0,0:0:0:0:
464,128,33090,1,8,0:0:0:0:
384,128,33257,1,8,0:0:0:0:
208,136,33423,6,0,L|64:136,1,140,4|0,0:0|0:0,0:0:0:0:
136,168,33923,2,0,L|216:168,2,70,2|0|0,0:0|0:0|0:0,0:0:0:0:
56,168,34423,1,8,0:0:0:0:
224,232,34757,6,0,L|368:232,1,140,2|0,0:0|0:0,0:0:0:0:
288,224,35257,1,2,0:0:0:0:
208,224,35423,2,0,L|184:64,1,140,2|8,0:0|0:0,0:0:0:0:
472,96,36090,6,0,P|480:136|456:240,1,140,6|8,0:0|0:0,0:0:0:0:
384,232,36590,1,0,0:0:0:0:
304,232,36757,2,0,L|400:232,1,70,2|2,0:0|0:0,0:0:0:0:
448,232,37090,1,8,0:0:0:0:
288,192,37423,5,2,0:0:0:0:
360,168,37590,1,0,0:0:0:0:
288,192,37757,1,8,0:0:0:0:
200,216,37923,2,0,L|48:216,1,140,8|8,0:0|0:0,0:0:0:0:
144,240,38423,2,0,L|240:240,1,70,8|8,0:0|0:0,0:0:0:0:
408,224,38757,6,0,P|432:176|408:88,1,140,6|8,0:0|0:0,0:0:0:0:
264,80,39423,2,0,L|336:80,1,70,2|2,0:0|0:0,0:0:0:0:
408,80,39757,1,8,0:0:0:0:
232,80,40090,2,0,P|211:145|237:209,1,140,2|8,0:0|0:0,0:0:0:0:
381,65,40756,2,0,L|309:65,1,70,0|2,0:0|0:0,0:0:0:0:
237,65,41090,1,8,0:0:0:0:
48,72,41423,6,0,L|40:232,1,140,2|8,0:0|0:0,0:0:0:0:
192,208,42090,2,0,L|184:120,1,70,2|2,0:0|0:0,0:0:0:0:
112,136,42423,1,8,0:0:0:0:
296,128,42757,6,0,L|456:128,1,140,2|8,0:0|0:0,0:0:0:0:
280,144,43423,2,0,L|208:144,1,70,2|2,0:0|0:0,0:0:0:0:
112,152,43757,1,12,0:0:0:0:
384,208,44090,6,0,P|424:160|384:96,1,140,6|8,0:0|0:0,0:0:0:0:
304,96,44590,2,0,L|456:88,1,140,0|2,0:0|0:0,0:0:0:0:
368,88,45090,1,8,0:0:0:0:
192,104,45423,6,0,L|32:96,1,140,2|8,0:0|0:0,0:0:0:0:
120,136,45923,2,0,L|272:144,1,140,0|2,0:0|0:0,0:0:0:0:
336,144,46423,2,0,L|344:232,1,70,8|0,0:0|0:0,0:0:0:0:
240,256,46757,6,0,B|170:256|170:256|246:257,1,140,8|2,0:0|0:0,0:0:0:0:
336,272,47257,2,0,B|406:274|406:274|327:275,1,140,8|2,0:0|0:0,0:0:0:0:
232,312,47757,2,0,L|144:312,1,70,8|0,0:0|0:0,0:0:0:0:
88,312,48090,5,2,0:0:0:0:
168,312,48257,1,8,0:0:0:0:
248,256,48423,2,0,L|304:192,1,70,8|2,0:0|0:0,0:0:0:0:
208,184,48757,1,4,0:0:0:0:
40,184,49090,1,4,0:0:0:0:
336,120,49423,6,0,L|488:128,1,140,6|8,0:0|0:0,0:0:0:0:
376,320,49923,2,0,L|224:312,1,140,0|2,0:0|0:0,0:0:0:0:
144,304,50423,1,8,0:0:0:0:
336,256,50757,6,0,L|504:248,1,140,2|8,0:0|0:0,0:0:0:0:
384,232,51257,2,0,L|216:224,1,140,0|2,0:0|0:0,0:0:0:0:
168,224,51757,2,0,L|176:136,1,70,8|0,0:0|0:0,0:0:0:0:
264,112,52090,6,0,L|272:280,1,140,2|8,0:0|0:0,0:0:0:0:
176,256,52590,2,0,L|336:256,1,140,0|2,0:0|0:0,0:0:0:0:
408,256,53090,1,8,0:0:0:0:
224,216,53423,6,0,L|64:216,2,140,2|8|2,0:0|0:0|0:0,0:0:0:0:
304,216,54257,2,0,L|384:216,1,70,2|8,0:0|0:0,0:0:0:0:
88,200,54757,6,0,P|48:224|88:296,1,140,6|8,0:0|0:0,0:0:0:0:
272,280,55423,2,0,L|128:272,1,140,2|8,0:0|0:0,0:0:0:0:
328,232,56090,6,0,L|472:224,2,140,2|8|2,0:0|0:0|0:0,0:0:0:0:
160,232,57090,1,8,0:0:0:0:
320,208,57423,6,0,P|344:168|320:72,1,140,2|8,0:0|0:0,0:0:0:0:
144,80,58090,2,0,L|72:80,2,70,2|2|8,0:0|0:0|0:0,0:0:0:0:
328,96,58757,5,2,0:0:0:0:
136,136,59090,2,0,L|288:144,1,140,12|2,0:0|0:0,0:0:0:0:
368,160,59590,2,0,L|448:160,2,70,8|8|8,0:0|0:0|0:0,0:0:0:0:
184,184,60090,6,0,L|16:184,1,140,6|8,0:0|0:0,0:0:0:0:
136,184,60590,2,0,L|280:184,1,140,0|2,0:0|0:0,0:0:0:0:
368,184,61090,1,8,0:0:0:0:
184,184,61423,6,0,L|32:184,1,140,2|8,0:0|0:0,0:0:0:0:
136,120,61923,2,0,P|160:176|128:256,1,140,0|2,0:0|0:0,0:0:0:0:
48,256,62423,2,0,L|128:256,1,70,8|0,0:0|0:0,0:0:0:0:
224,248,62757,6,0,L|368:248,2,140,2|8|2,0:0|0:0|0:0,0:0:0:0:
136,248,63590,2,0,L|48:248,1,70,2|8,0:0|0:0,0:0:0:0:
264,128,64090,6,0,L|104:128,1,140,2|8,0:0|0:0,0:0:0:0:
328,96,64757,2,0,L|336:24,1,70,2|2,0:0|0:0,0:0:0:0:
248,24,65090,1,8,0:0:0:0:
80,56,65423,5,2,0:0:0:0:
280,72,65757,2,0,L|448:72,1,140,12|2,0:0|0:0,0:0:0:0:
344,128,66257,1,0,0:0:0:0:
432,128,66423,1,12,0:0:0:0:
168,200,66757,6,0,P|96:208|0:320,2,210,4|0|2,0:0|0:0|0:0,0:0:0:0:
448,168,68090,6,0,L|440:80,1,70,12|2,0:0|0:0,0:0:0:0:
352,96,68423,2,0,L|345:165,1,70,8|2,0:0|0:0,0:0:0:0:
440,168,68757,2,0,L|272:168,1,140,8|8,0:0|0:0,0:0:0:0:
120,168,69423,6,0,L|200:168,1,70,8|2,0:0|0:0,0:0:0:0:
280,168,69757,2,0,L|120:168,1,140,8|8,0:0|0:0,0:0:0:0:
296,168,70423,1,8,0:0:0:0:
112,176,70757,6,0,P|72:224|112:288,1,140,8|8,0:0|0:0,0:0:0:0:
256,288,71423,1,8,0:0:0:0:
104,285,71757,1,8,0:0:0:0:
288,280,72090,6,0,L|368:280,2,70,8|0|8,0:0|0:0|0:0,0:0:0:0:
208,280,72590,1,2,0:0:0:0:
128,280,72757,1,8,0:0:0:0:
280,280,73090,1,8,0:0:0:0:
104,216,73423,6,0,L|256:216,1,140,8|8,0:0|0:0,0:0:0:0:
392,216,74090,1,8,0:0:0:0:
236,216,74423,1,8,0:0:0:0:
424,208,74757,6,0,L|432:128,1,70,8|0,0:0|0:0,0:0:0:0:
352,128,75090,2,0,L|344:56,1,70,8|2,0:0|0:0,0:0:0:0:
424,48,75423,1,8,0:0:0:0:
264,48,75757,1,8,0:0:0:0:
440,64,76090,6,0,L|280:72,1,140,8|8,0:0|0:0,0:0:0:0:
224,72,76590,1,2,0:0:0:0:
328,88,76757,2,0,L|424:88,2,70,8|8|2,0:0|0:0|0:0,0:0:0:0:
136,112,77423,6,0,L|128:192,1,70,8|8,0:0|0:0,0:0:0:0:
392,176,78090,2,0,L|400:264,1,70,8|8,0:0|0:0,0:0:0:0:
32,248,78757,5,4,0:0:0:0:
256,192,79090,12,4,89423,0:0:0:0:
