osu file format v14

[General]
AudioFilename: audio.mp3
AudioLeadIn: 0
PreviewTime: 48673
Countdown: 0
SampleSet: Soft
StackLeniency: 0.7
Mode: 2
LetterboxInBreaks: 0
WidescreenStoryboard: 0

[Editor]
DistanceSpacing: 1.3
BeatDivisor: 4
GridSize: 8
TimelineZoom: 2

[Metadata]
Title:Fuwa Fuwa Jikan (game size ver.)
TitleUnicode:ふわふわ時間 (game size ver.)
Artist:Pastel*Palettes
ArtistUnicode:Pastel*Palettes
Creator:Sc4v4ng3r
Version:Rain
Source:バンドリ! ガールズバンドパーティ!
Tags:けいおん!! k-on!! bandori girls band party time garupa Xetopia Hareimu
BeatmapID:1836122
BeatmapSetID:877904

[Difficulty]
HPDrainRate:6
CircleSize:4
OverallDifficulty:9
ApproachRate:9
SliderMultiplier:1.8
SliderTickRate:1

[Events]
//Background and Video events
0,0,"bg.png",0,0
//Break Periods
//Storyboard Layer 0 (Background)
//Storyboard Layer 1 (Fail)
//Storyboard Layer 2 (Pass)
//Storyboard Layer 3 (Foreground)
//Storyboard Sound Samples

[TimingPoints]
1424,333.333333333333,4,2,2,60,1,0
6090,-100,4,2,1,50,0,0
6423,-76.9230769230769,4,2,2,58,0,0
6757,-100,4,2,1,75,0,0
17423,-100,4,2,1,65,0,0
28090,-100,4,2,1,58,0,0
36090,-100,4,2,1,65,0,0
49423,-100,4,2,1,80,0,1
59590,-100,4,2,1,70,0,1
59923,-100,4,2,1,70,0,0
60090,-100,4,2,1,80,0,1
67757,-76.9230769230769,4,2,2,72,0,1
67923,-76.9230769230769,4,2,2,72,0,0
68090,-100,4,2,1,75,0,1
78757,-100,4,2,1,75,0,0

[Colours]
Combo1 : 243,192,37
Combo2 : 164,32,240
Combo3 : 37,185,239
Combo4 : 23,209,116
Combo5 : 226,45,124

[HitObjects]
256,128,757,6,0,L|240:232,1,90
376,136,1090,2,0,L|392:240,1,90
72,232,1424,6,0,L|176:232,2,90,8|0|8,0:0|0:0|0:0,0:0:0:0:
184,272,1923,1,0,0:0:0:0:
368,248,2090,2,0,P|432:216|480:101,1,180,8|8,0:0|0:0,0:0:0:0:
362,125,2590,1,0,0:0:0:0:
88,208,2757,6,0,L|80:104,1,90,8|0,0:0|0:0,0:0:0:0:
208,248,3090,2,0,L|216:144,1,90,8|0,0:0|0:0,0:0:0:0:
73,102,3423,2,0,L|169:94,1,90,8|0,0:0|0:0,0:0:0:0:
296,88,3757,2,0,L|400:80,1,90,8|0,0:0|0:0,0:0:0:0:
128,112,4090,6,0,L|39:106,1,90,8|0,0:0|0:0,0:0:0:0:
176,144,4423,2,0,L|64:152,1,90,8|0,0:0|0:0,0:0:0:0:
272,184,4757,2,0,P|320:208|272:296,1,180,8|8,0:0|0:0,0:0:0:0:
160,272,5257,1,0,0:0:0:0:
432,256,5423,6,0,L|440:160,1,90,8|0,0:0|0:0,0:0:0:0:
312,224,5757,2,0,L|296:112,1,90,8|0,0:0|0:0,0:0:0:0:
472,152,6090,1,2,0:0:0:0:
472,152,6257,1,2,0:0:0:0:
182,157,6423,6,0,P|72:195|48:264,1,175.499991966248,2|0,0:0|0:0,0:0:0:0:
264,272,6757,6,0,L|368:272,1,90,12|2,0:0|0:0,0:0:0:0:
472,256,7090,2,0,L|368:256,1,90,8|2,0:0|0:0,0:0:0:0:
128,232,7423,2,0,P|112:176|224:104,1,180,8|8,0:0|0:0,0:0:0:0:
312,104,7923,1,2,0:0:0:0:
48,144,8090,6,0,L|32:256,1,90,8|2,0:0|0:0,0:0:0:0:
216,240,8423,2,0,L|224:336,1,90,8|2,0:0|0:0,0:0:0:0:
40,240,8757,2,0,L|152:232,1,90,8|2,0:0|0:0,0:0:0:0:
304,232,9090,2,0,L|432:240,1,90,8|2,0:0|0:0,0:0:0:0:
64,216,9423,6,0,L|72:328,1,90,8|2,0:0|0:0,0:0:0:0:
192,312,9757,2,0,L|272:264,1,90,8|2,0:0|0:0,0:0:0:0:
17,288,10090,2,0,P|73:232|169:224,1,180,8|8,0:0|0:0,0:0:0:0:
280,264,10590,1,2,0:0:0:0:
24,176,10757,6,0,L|16:80,1,90,8|0,0:0|0:0,0:0:0:0:
200,64,11090,2,0,L|290:72,1,90,8|2,0:0|0:0,0:0:0:0:
408,80,11423,1,8,0:0:0:0:
224,144,11590,1,8,0:0:0:0:
168,160,11673,1,8,0:0:0:0:
112,176,11757,2,0,L|0:192,1,90,0|2,0:0|0:0,0:0:0:0:
392,264,12090,6,0,L|481:270,1,90,12|2,0:0|0:0,0:0:0:0:
352,304,12423,1,8,0:0:0:0:
472,320,12590,1,2,0:0:0:0:
200,280,12757,2,0,P|184:232|256:128,1,180,8|8,0:0|0:0,0:0:0:0:
368,128,13257,1,2,0:0:0:0:
72,152,13423,6,0,L|168:160,1,90,8|2,0:0|0:0,0:0:0:0:
320,208,13757,2,0,L|424:208,1,90,8|2,0:0|0:0,0:0:0:0:
248,264,14090,2,0,L|152:264,1,90,8|2,0:0|0:0,0:0:0:0:
328,312,14423,1,8,0:0:0:0:
432,320,14590,1,2,0:0:0:0:
128,280,14757,6,0,L|120:160,1,90,8|2,0:0|0:0,0:0:0:0:
272,208,15090,2,0,L|278:118,1,90,8|2,0:0|0:0,0:0:0:0:
16,88,15423,2,0,L|208:80,1,180,8|8,0:0|0:0,0:0:0:0:
312,88,15923,1,2,0:0:0:0:
56,176,16090,6,0,L|146:176,1,90,8|2,0:0|0:0,0:0:0:0:
320,208,16423,2,0,L|304:304,1,90,8|2,0:0|0:0,0:0:0:0:
200,312,16757,1,8,0:0:0:0:
384,336,16923,1,8,0:0:0:0:
416,288,17007,1,8,0:0:0:0:
448,240,17090,2,0,L|488:152,1,90,0|2,0:0|0:0,0:0:0:0:
160,264,17423,5,6,0:0:0:0:
48,232,17590,2,0,L|152:224,2,90,0|8|0,0:0|0:0|0:0,0:0:0:0:
232,296,18090,2,0,L|334:304,1,90,2|2,0:0|0:0,0:0:0:0:
480,224,18423,2,0,L|376:224,1,90,8|0,0:0|0:0,0:0:0:0:
72,296,18757,5,2,0:0:0:0:
192,312,18923,2,0,L|288:320,2,90,0|8|0,0:0|0:0|0:0,0:0:0:0:
16,224,19423,2,0,L|24:40,1,180,2|8,0:0|0:0,0:0:0:0:
144,48,19923,1,0,0:0:0:0:
416,56,20090,6,0,L|512:56,1,90,2|0,0:0|0:0,0:0:0:0:
328,120,20423,2,0,L|216:120,1,90,8|0,0:0|0:0,0:0:0:0:
120,128,20757,1,2,0:0:0:0:
120,128,20923,1,2,0:0:0:0:
304,184,21090,2,0,L|408:184,1,90,8|0,0:0|0:0,0:0:0:0:
136,248,21423,6,0,L|112:352,1,90,2|0,0:0|0:0,0:0:0:0:
320,328,21757,2,0,L|344:224,1,90,8|0,0:0|0:0,0:0:0:0:
224,248,22090,1,2,0:0:0:0:
224,248,22257,1,2,0:0:0:0:
480,88,22423,2,0,L|376:88,1,90,8|0,0:0|0:0,0:0:0:0:
96,120,22757,5,6,0:0:0:0:
208,144,22923,2,0,L|88:152,2,90,0|8|0,0:0|0:0|0:0,0:0:0:0:
328,136,23423,2,0,L|456:136,1,90,2|2,0:0|0:0,0:0:0:0:
240,208,23757,2,0,L|144:208,1,90,8|0,0:0|0:0,0:0:0:0:
408,256,24090,6,0,L|504:256,1,90,2|0,0:0|0:0,0:0:0:0:
368,192,24423,1,8,0:0:0:0:
488,192,24590,1,0,0:0:0:0:
304,272,24757,2,0,L|208:280,1,90,2|2,0:0|0:0,0:0:0:0:
392,320,25090,2,0,L|408:200,1,90,8|0,0:0|0:0,0:0:0:0:
144,136,25423,6,0,P|64:152|0:256,1,180,2|8,0:0|0:0,0:0:0:0:
104,280,25923,1,0,0:0:0:0:
288,280,26090,2,0,L|392:264,1,90,2|2,0:0|0:0,0:0:0:0:
192,208,26423,2,0,L|102:213,1,90,8|0,0:0|0:0,0:0:0:0:
288,120,26757,6,0,L|384:120,1,90,2|0,0:0|0:0,0:0:0:0:
48,112,27090,2,0,P|39:162|160:232,1,180,12|2,0:0|0:0,0:0:0:0:
272,240,27590,2,0,L|336:232,2,45,8|8|2,0:0|0:0|0:0,0:0:0:0:
160,256,27923,1,2,0:0:0:0:
464,256,28090,6,0,P|480:176|464:56,1,180,4|0,0:0|0:0,0:0:0:0:
352,64,28590,1,2,0:0:0:0:
240,96,28757,2,0,L|344:104,1,90,2|0,0:0|0:0,0:0:0:0:
144,168,29090,2,0,L|120:264,1,90,8|0,0:0|0:0,0:0:0:0:
376,272,29423,6,0,B|472:272|472:272|384:272,1,180,2|0,0:0|0:0,0:0:0:0:
272,272,29923,2,0,L|176:272,2,90,2|2|0,0:0|0:0|0:0,0:0:0:0:
456,264,30423,2,0,L|328:264,1,90,8|0,0:0|0:0,0:0:0:0:
96,256,30757,6,0,P|96:200|208:152,1,180,2|0,0:0|0:0,0:0:0:0:
312,168,31257,1,2,0:0:0:0:
312,168,31423,2,0,L|296:280,1,90,2|0,0:0|0:0,0:0:0:0:
112,216,31757,2,0,L|128:328,1,90,8|0,0:0|0:0,0:0:0:0:
392,280,32090,6,0,P|440:256|376:176,1,180,2|0,0:0|0:0,0:0:0:0:
272,200,32590,2,0,L|464:192,1,180,2|0,0:0|0:0,0:0:0:0:
264,104,33090,1,8,0:0:0:0:
128,120,33257,2,0,L|72:128,1,45,8|8,0:0|0:0,0:0:0:0:
256,200,33423,6,0,L|448:216,1,180,4|0,0:0|0:0,0:0:0:0:
328,272,33923,2,0,L|488:360,1,180,2|0,0:0|0:0,0:0:0:0:
304,384,34423,2,0,L|296:280,1,90,8|0,0:0|0:0,0:0:0:0:
32,240,34757,6,0,P|24:136|104:72,1,180,2|0,0:0|0:0,0:0:0:0:
192,80,35257,1,2,0:0:0:0:
72,72,35423,2,0,L|56:176,1,90,2|0,0:0|0:0,0:0:0:0:
240,192,35757,2,0,L|344:192,1,90,8|0,0:0|0:0,0:0:0:0:
40,224,36090,6,0,P|32:288|152:328,1,180,6|8,0:0|0:0,0:0:0:0:
240,328,36590,1,0,0:0:0:0:
128,312,36757,2,0,L|232:304,1,90,2|2,0:0|0:0,0:0:0:0:
400,272,37090,2,0,L|304:264,1,90,8|0,0:0|0:0,0:0:0:0:
48,224,37423,6,0,L|144:208,2,90,2|0|8,0:0|0:0|0:0,0:0:0:0:
360,248,37923,2,0,P|464:224|504:160,1,180,8|8,0:0|0:0,0:0:0:0:
232,136,38423,2,0,L|128:120,1,90,8|8,0:0|0:0,0:0:0:0:
456,152,38757,6,0,L|472:352,1,180,6|8,0:0|0:0,0:0:0:0:
352,352,39257,1,0,0:0:0:0:
168,312,39423,2,0,L|64:320,1,90,2|2,0:0|0:0,0:0:0:0:
336,272,39757,2,0,L|352:152,1,90,8|0,0:0|0:0,0:0:0:0:
72,256,40090,6,0,P|32:240|80:144,1,180,2|8,0:0|0:0,0:0:0:0:
216,160,40590,2,0,L|424:144,1,180,0|2,0:0|0:0,0:0:0:0:
208,232,41090,2,0,L|104:224,1,90,8|0,0:0|0:0,0:0:0:0:
408,224,41423,6,0,P|464:208|400:144,1,180,2|8,0:0|0:0,0:0:0:0:
296,168,41923,1,0,0:0:0:0:
112,216,42090,2,0,L|104:312,1,90,2|2,0:0|0:0,0:0:0:0:
360,304,42423,2,0,L|368:208,1,90,8|0,0:0|0:0,0:0:0:0:
88,168,42757,6,0,L|288:160,1,180,2|8,0:0|0:0,0:0:0:0:
384,168,43257,1,0,0:0:0:0:
200,264,43423,2,0,L|96:256,1,90,2|2,0:0|0:0,0:0:0:0:
368,240,43757,2,0,L|472:232,1,90,12|0,0:0|0:0,0:0:0:0:
144,168,44090,6,0,B|48:160|48:160|144:168,1,180,6|8,0:0|0:0,0:0:0:0:
288,192,44590,2,0,L|488:184,1,180,0|2,0:0|0:0,0:0:0:0:
304,288,45090,2,0,L|200:288,1,90,8|0,0:0|0:0,0:0:0:0:
472,248,45423,6,0,P|456:192|344:152,1,180,2|8,0:0|0:0,0:0:0:0:
168,168,45923,2,0,L|376:152,1,180,0|2,0:0|0:0,0:0:0:0:
168,88,46423,2,0,L|56:80,1,90,8|0,0:0|0:0,0:0:0:0:
384,152,46757,5,8,0:0:0:0:
496,168,46923,1,0,0:0:0:0:
480,224,47007,1,0,0:0:0:0:
456,280,47090,1,2,0:0:0:0:
184,296,47257,1,8,0:0:0:0:
64,288,47423,5,0,0:0:0:0:
184,280,47590,2,0,L|232:280,1,45,2|0,0:0|0:0,0:0:0:0:
400,304,47757,1,8,0:0:0:0:
456,200,47923,1,0,0:0:0:0:
400,192,48007,1,0,0:0:0:0:
344,184,48090,5,2,0:0:0:0:
72,192,48257,1,8,0:0:0:0:
328,184,48423,1,8,0:0:0:0:
384,168,48507,1,0,0:0:0:0:
384,112,48590,1,2,0:0:0:0:
328,96,48673,1,0,0:0:0:0:
152,96,48757,6,0,L|8:112,1,135,4|0,0:0|0:0,0:0:0:0:
192,184,49090,2,0,L|352:208,1,135,4|0,0:0|0:0,0:0:0:0:
88,224,49423,6,0,P|32:248|96:312,1,180,6|8,0:0|0:0,0:0:0:0:
272,296,49923,1,0,0:0:0:0:
392,288,50090,2,0,L|288:280,1,90,2|2,0:0|0:0,0:0:0:0:
48,224,50423,1,8,0:0:0:0:
168,216,50590,1,0,0:0:0:0:
440,176,50757,6,0,P|456:104|344:48,1,180,2|8,0:0|0:0,0:0:0:0:
200,64,51257,1,0,0:0:0:0:
88,96,51423,2,0,L|104:200,1,90,2|2,0:0|0:0,0:0:0:0:
368,200,51757,2,0,L|352:304,1,90,8|0,0:0|0:0,0:0:0:0:
72,296,52090,6,0,L|264:280,1,180,2|8,0:0|0:0,0:0:0:0:
64,216,52590,1,0,0:0:0:0:
166,159,52757,2,0,L|62:151,1,90,2|2,0:0|0:0,0:0:0:0:
344,160,53090,2,0,L|448:152,1,90,8|0,0:0|0:0,0:0:0:0:
152,96,53423,6,0,L|128:304,1,180,2|8,0:0|0:0,0:0:0:0:
248,304,53923,1,0,0:0:0:0:
400,296,54090,2,0,L|496:288,1,90,2|2,0:0|0:0,0:0:0:0:
320,256,54423,2,0,L|432:248,1,90,8|0,0:0|0:0,0:0:0:0:
112,208,54757,6,0,B|16:216|16:216|120:208,1,180,6|8,0:0|0:0,0:0:0:0:
216,200,55257,1,0,0:0:0:0:
496,168,55423,2,0,L|288:152,1,180,2|8,0:0|0:0,0:0:0:0:
200,141,55923,1,0,0:0:0:0:
480,192,56090,6,0,L|488:304,1,90,2|0,0:0|0:0,0:0:0:0:
224,288,56423,2,0,L|112:280,1,90,8|0,0:0|0:0,0:0:0:0:
280,248,56757,2,0,L|384:240,1,90,2|2,0:0|0:0,0:0:0:0:
256,208,57090,2,0,L|352:200,1,90,8|0,0:0|0:0,0:0:0:0:
24,160,57423,6,0,L|40:344,1,180,2|8,0:0|0:0,0:0:0:0:
152,352,57923,1,0,0:0:0:0:
336,320,58090,2,0,L|432:312,1,90,2|2,0:0|0:0,0:0:0:0:
160,256,58423,2,0,L|56:248,1,90,8|0,0:0|0:0,0:0:0:0:
184,216,58757,6,0,L|88:208,1,90,2|0,0:0|0:0,0:0:0:0:
408,248,59090,2,0,L|512:240,1,90,12|0,0:0|0:0,0:0:0:0:
208,336,59423,1,2,0:0:0:0:
328,320,59590,1,8,0:0:0:0:
384,304,59673,1,8,0:0:0:0:
424,264,59757,1,8,0:0:0:0:
432,208,59840,1,8,0:0:0:0:
400,160,59923,1,8,0:0:0:0:
344,144,60007,1,8,0:0:0:0:
112,160,60090,6,0,B|16:168|16:168|104:160,1,180,6|8,0:0|0:0,0:0:0:0:
264,176,60590,2,0,L|368:184,1,90,0|2,0:0|0:0,0:0:0:0:
464,208,60923,1,2,0:0:0:0:
200,280,61090,1,8,0:0:0:0:
304,336,61257,1,0,0:0:0:0:
48,320,61423,6,0,L|40:112,1,180,2|8,0:0|0:0,0:0:0:0:
224,112,61923,1,0,0:0:0:0:
112,136,62090,2,0,L|8:144,1,90,2|2,0:0|0:0,0:0:0:0:
280,184,62423,2,0,L|392:200,1,90,8|0,0:0|0:0,0:0:0:0:
88,256,62757,6,0,P|112:312|232:352,1,180,2|8,0:0|0:0,0:0:0:0:
336,336,63257,1,0,0:0:0:0:
168,296,63423,2,0,L|160:184,1,90,2|2,0:0|0:0,0:0:0:0:
416,280,63757,2,0,L|424:160,1,90,8|0,0:0|0:0,0:0:0:0:
96,144,64090,6,0,L|304:136,1,180,2|8,0:0|0:0,0:0:0:0:
392,128,64590,1,0,0:0:0:0:
216,232,64757,2,0,L|112:240,1,90,2|2,0:0|0:0,0:0:0:0:
384,296,65090,2,0,L|392:200,1,90,8|0,0:0|0:0,0:0:0:0:
280,184,65423,6,0,L|176:192,1,90,2|0,0:0|0:0,0:0:0:0:
472,216,65757,2,0,L|480:320,1,90,12|0,0:0|0:0,0:0:0:0:
320,320,66090,2,0,L|448:328,1,90,2|0,0:0|0:0,0:0:0:0:
136,296,66423,2,0,L|128:200,1,90,12|0,0:0|0:0,0:0:0:0:
424,152,66757,6,0,P|408:88|208:16,1,270,4|0,0:0|0:0,0:0:0:0:
128,56,67423,2,0,L|128:176,1,90,2|2,0:0|0:0,0:0:0:0:
416,256,67757,2,0,P|368:296|264:272,1,175.499991966248,2|0,0:0|0:0,0:0:0:0:
32,312,68090,6,0,L|24:200,1,90,12|2,0:0|0:0,0:0:0:0:
144,208,68423,1,8,0:0:0:0:
32,192,68590,1,2,0:0:0:0:
208,176,68757,2,0,L|320:168,1,90,8|2,0:0|0:0,0:0:0:0:
40,88,69090,2,0,L|152:88,1,90,8|2,0:0|0:0,0:0:0:0:
432,120,69423,6,0,L|304:120,1,90,8|2,0:0|0:0,0:0:0:0:
160,192,69757,2,0,L|56:192,1,90,8|2,0:0|0:0,0:0:0:0:
328,264,70090,2,0,L|336:144,1,90,8|2,0:0|0:0,0:0:0:0:
72,232,70423,2,0,L|66:142,1,90,8|2,0:0|0:0,0:0:0:0:
424,240,70757,6,0,P|488:208|416:176,1,180,8|8,0:0|0:0,0:0:0:0:
312,208,71257,1,2,0:0:0:0:
56,160,71423,2,0,L|152:160,1,90,8|2,0:0|0:0,0:0:0:0:
312,208,71757,2,0,L|328:320,1,90,8|2,0:0|0:0,0:0:0:0:
48,304,72090,6,0,P|80:344|224:352,1,180,8|8,0:0|0:0,0:0:0:0:
312,336,72590,1,2,0:0:0:0:
48,304,72757,2,0,L|152:296,1,90,8|2,0:0|0:0,0:0:0:0:
392,168,73090,2,0,L|302:161,1,90,8|2,0:0|0:0,0:0:0:0:
32,88,73423,6,0,L|240:80,1,180,8|8,0:0|0:0,0:0:0:0:
104,128,73923,1,2,0:0:0:0:
360,144,74090,2,0,L|368:248,1,90,8|2,0:0|0:0,0:0:0:0:
192,248,74423,2,0,L|184:344,1,90,8|2,0:0|0:0,0:0:0:0:
464,248,74757,6,0,P|424:184|304:184,1,180,8|8,0:0|0:0,0:0:0:0:
216,208,75257,1,2,0:0:0:0:
472,248,75423,2,0,L|480:352,1,90,8|2,0:0|0:0,0:0:0:0:
208,304,75757,2,0,L|104:296,1,90,8|2,0:0|0:0,0:0:0:0:
376,216,76090,6,0,L|168:192,1,180,8|8,0:0|0:0,0:0:0:0:
64,176,76590,1,2,0:0:0:0:
344,120,76757,1,8,0:0:0:0:
456,136,76923,2,0,L|504:144,1,45,8|8,0:0|0:0,0:0:0:0:
504,200,77090,2,0,L|360:248,1,135,2|0,0:0|0:0,0:0:0:0:
144,272,77423,6,0,L|40:264,1,90,8|8,0:0|0:0,0:0:0:0:
464,256,78090,2,0,L|472:152,1,90,8|8,0:0|0:0,0:0:0:0:
72,152,78757,5,4,0:0:0:0:
256,192,78923,12,4,89423,0:0:0:0:
