osu file format v14

[General]
AudioFilename: audio.mp3
AudioLeadIn: 0
PreviewTime: 48673
Countdown: 0
SampleSet: Soft
StackLeniency: 0.7
Mode: 2
LetterboxInBreaks: 0
WidescreenStoryboard: 0

[Editor]
DistanceSpacing: 1.2
BeatDivisor: 4
GridSize: 8
TimelineZoom: 1

[Metadata]
Title:Fuwa Fuwa Jikan (game size ver.)
TitleUnicode:ふわふわ時間 (game size ver.)
Artist:Pastel*Palettes
ArtistUnicode:Pastel*Palettes
Creator:Sc4v4ng3r
Version:Platter
Source:バンドリ! ガールズバンドパーティ!
Tags:けいおん!! k-on!! bandori girls band party time garupa Xetopia Hareimu
BeatmapID:1836121
BeatmapSetID:877904

[Difficulty]
HPDrainRate:5
CircleSize:3.4
OverallDifficulty:8
ApproachRate:8
SliderMultiplier:1.5
SliderTickRate:1

[Events]
//Background and Video events
0,0,"bg.png",0,0
//Break Periods
//Storyboard Layer 0 (Background)
//Storyboard Layer 1 (Fail)
//Storyboard Layer 2 (Pass)
//Storyboard Layer 3 (Foreground)
//Storyboard Sound Samples

[TimingPoints]
1424,333.333333333333,4,2,2,60,1,0
6090,-100,4,2,1,50,0,0
6423,-100,4,2,2,58,0,0
6757,-100,4,2,1,75,0,0
17423,-100,4,2,1,65,0,0
28090,-100,4,2,1,58,0,0
36090,-100,4,2,1,65,0,0
49423,-100,4,2,1,80,0,1
59590,-100,4,2,1,70,0,1
59923,-100,4,2,1,70,0,0
60090,-100,4,2,1,80,0,1
67757,-100,4,2,2,72,0,1
67923,-100,4,2,2,72,0,0
68090,-100,4,2,1,75,0,1
78757,-100,4,2,1,75,0,0

[Colours]
Combo1 : 243,192,37
Combo2 : 164,32,240
Combo3 : 37,185,239
Combo4 : 23,209,116
Combo5 : 226,45,124

[HitObjects]
264,112,757,6,0,L|176:112,1,75,0|0,0:0|0:0,0:0:0:0:
96,136,1090,2,0,L|183:137,1,75,0|0,0:0|0:0,0:0:0:0:
352,152,1424,6,8,L|360:72,1,75,8|0,0:0|0:0,0:0:0:0:
272,72,1757,2,0,L|264:160,1,75,8|0,0:0|0:0,0:0:0:0:
352,152,2090,2,0,L|480:248,1,150,8|8,0:0|0:0,0:0:0:0:
216,248,2757,6,0,L|136:248,1,75,8|0,0:0|0:0,0:0:0:0:
232,248,3090,2,0,L|312:248,1,75,8|0,0:0|0:0,0:0:0:0:
424,272,3423,2,0,L|432:192,1,75,8|0,0:0|0:0,0:0:0:0:
328,200,3757,2,0,L|320:104,1,75,8|0,0:0|0:0,0:0:0:0:
128,104,4090,6,0,L|48:104,2,75,8|0|8,0:0|0:0|0:0,0:0:0:0:
232,112,4590,1,0,0:0:0:0:
120,184,4757,2,0,P|192:216|272:208,1,150,8|8,0:0|0:0,0:0:0:0:
360,200,5257,1,0,0:0:0:0:
184,312,5423,6,0,L|96:320,1,75,8|0,0:0|0:0,0:0:0:0:
208,280,5757,2,0,L|112:288,1,75,8|0,0:0|0:0,0:0:0:0:
320,224,6090,2,0,L|328:120,1,75,2|2,0:0|0:0,0:0:0:0:
136,112,6423,2,0,L|136:208,1,75,2|0,0:0|0:0,0:0:0:0:
392,208,6757,6,0,L|467:208,2,75,12|2|8,0:0|0:0|0:0,0:0:0:0:
296,208,7257,1,2,0:0:0:0:
376,208,7423,2,0,P|440:208|512:128,1,150,8|8,0:0|0:0,0:0:0:0:
256,128,8090,6,0,L|160:120,1,75,8|2,0:0|0:0,0:0:0:0:
288,88,8423,2,0,L|368:80,1,75,8|2,0:0|0:0,0:0:0:0:
464,72,8757,2,0,L|472:160,1,75,8|2,0:0|0:0,0:0:0:0:
352,160,9090,2,0,L|344:264,1,75,8|2,0:0|0:0,0:0:0:0:
160,288,9423,5,8,0:0:0:0:
152,192,9590,1,2,0:0:0:0:
248,176,9757,2,0,L|352:168,1,75,8|2,0:0|0:0,0:0:0:0:
240,136,10090,2,0,L|400:120,1,150,8|8,0:0|0:0,0:0:0:0:
144,184,10757,6,0,L|64:184,1,75,8|0,0:0|0:0,0:0:0:0:
176,216,11090,2,0,L|72:216,1,75,8|2,0:0|0:0,0:0:0:0:
280,248,11423,1,8,0:0:0:0:
376,240,11590,1,8,0:0:0:0:
416,208,11673,1,8,0:0:0:0:
456,176,11757,2,0,L|448:88,1,75,0|2,0:0|0:0,0:0:0:0:
200,72,12090,6,0,L|112:80,1,75,12|2,0:0|0:0,0:0:0:0:
32,104,12423,2,0,L|112:112,1,75,8|2,0:0|0:0,0:0:0:0:
216,120,12757,2,0,P|133:132|48:176,1,150,8|8,0:0|0:0,0:0:0:0:
344,160,13423,6,0,L|432:160,1,75,8|2,0:0|0:0,0:0:0:0:
328,192,13757,2,0,L|232:192,1,75,8|2,0:0|0:0,0:0:0:0:
152,184,14090,2,0,L|160:280,1,75,8|2,0:0|0:0,0:0:0:0:
256,256,14423,2,0,L|248:168,1,75,8|2,0:0|0:0,0:0:0:0:
80,120,14757,6,0,L|0:120,2,75,8|2|8,0:0|0:0|0:0,0:0:0:0:
176,120,15257,1,2,0:0:0:0:
80,120,15423,2,0,P|48:152|32:272,1,150,8|8,0:0|0:0,0:0:0:0:
272,240,16090,6,0,L|360:248,1,75,8|2,0:0|0:0,0:0:0:0:
440,248,16423,2,0,L|344:256,1,75,8|2,0:0|0:0,0:0:0:0:
264,264,16757,1,8,0:0:0:0:
88,272,16923,2,0,L|24:280,2,37.5,8|8|0,0:0|0:0|0:0,0:0:0:0:
184,264,17257,1,2,0:0:0:0:
448,216,17423,5,6,0:0:0:0:
424,128,17590,2,0,L|336:120,1,75,0|8,0:0|0:0,0:0:0:0:
256,112,17923,1,0,0:0:0:0:
344,88,18090,2,0,L|248:80,1,75,2|2,0:0|0:0,0:0:0:0:
168,64,18423,1,8,0:0:0:0:
400,176,18757,5,2,0:0:0:0:
304,184,18923,2,0,L|216:184,2,75,0|8|0,0:0|0:0|0:0,0:0:0:0:
400,176,19423,2,0,L|240:176,1,150,2|8,0:0|0:0,0:0:0:0:
152,176,19923,1,0,0:0:0:0:
328,256,20090,6,0,L|432:264,1,75,2|0,0:0|0:0,0:0:0:0:
304,264,20423,2,0,L|208:256,1,75,8|0,0:0|0:0,0:0:0:0:
328,256,20757,2,0,L|416:256,2,75,2|2|8,0:0|0:0|0:0,0:0:0:0:
88,240,21423,6,0,L|168:232,1,75,2|0,0:0|0:0,0:0:0:0:
248,208,21757,2,0,L|72:192,1,150,8|2,0:0|0:0,0:0:0:0:
16,152,22257,1,2,0:0:0:0:
104,120,22423,2,0,L|200:112,1,75,8|0,0:0|0:0,0:0:0:0:
432,208,22757,5,6,0:0:0:0:
424,296,22923,1,0,0:0:0:0:
336,304,23090,2,0,L|240:304,1,75,8|0,0:0|0:0,0:0:0:0:
176,296,23423,2,0,L|280:296,2,75,2|2|8,0:0|0:0|0:0,0:0:0:0:
80,296,23923,1,0,0:0:0:0:
248,216,24090,6,0,L|336:216,2,75,2|0|8,0:0|0:0|0:0,0:0:0:0:
152,216,24590,1,0,0:0:0:0:
264,152,24757,2,0,L|352:152,1,75,2|2,0:0|0:0,0:0:0:0:
440,152,25090,1,8,0:0:0:0:
184,96,25423,6,0,L|24:96,2,150,2|8|2,0:0|0:0|0:0,0:0:0:0:
288,104,26257,1,2,0:0:0:0:
176,144,26423,2,0,L|88:144,1,75,8|0,0:0|0:0,0:0:0:0:
200,160,26757,6,0,L|136:216,1,75,2|0,0:0|0:0,0:0:0:0:
384,208,27090,2,0,P|424:144|376:128,1,150,12|2,0:0|0:0,0:0:0:0:
264,120,27590,1,8,0:0:0:0:
304,96,27673,1,8,0:0:0:0:
352,72,27757,1,2,0:0:0:0:
448,64,27923,1,2,0:0:0:0:
192,96,28090,6,0,L|40:96,1,150,4|0,0:0|0:0,0:0:0:0:
136,112,28590,2,0,L|128:192,1,75,2|2,0:0|0:0,0:0:0:0:
216,200,28923,1,0,0:0:0:0:
104,208,29090,1,8,0:0:0:0:
296,232,29423,6,0,L|472:224,1,150,2|0,0:0|0:0,0:0:0:0:
368,264,29923,2,0,L|200:248,1,150,2|0,0:0|0:0,0:0:0:0:
128,232,30423,2,0,L|136:144,1,75,8|0,0:0|0:0,0:0:0:0:
312,168,30757,6,0,B|392:168|392:168|316:168,1,150,2|0,0:0|0:0,0:0:0:0:
224,168,31257,2,0,L|136:168,2,75,2|2|0,0:0|0:0|0:0,0:0:0:0:
336,160,31757,1,8,0:0:0:0:
160,184,32090,6,0,P|80:160|48:104,1,150,2|0,0:0|0:0,0:0:0:0:
160,88,32590,2,0,L|0:80,1,150,2|0,0:0|0:0,0:0:0:0:
96,56,33090,1,8,0:0:0:0:
336,96,33257,1,8,0:0:0:0:
384,96,33340,1,8,0:0:0:0:
360,136,33423,6,0,L|200:128,1,150,4|0,0:0|0:0,0:0:0:0:
120,128,33923,2,0,L|112:208,1,75
200,216,34257,1,0,0:0:0:0:
296,208,34423,1,8,0:0:0:0:
56,184,34757,6,0,L|216:176,1,150,2|0,0:0|0:0,0:0:0:0:
304,176,35257,1,2,0:0:0:0:
208,192,35423,2,0,P|248:256|336:272,1,150,2|8,0:0|0:0,0:0:0:0:
416,264,35923,1,0,0:0:0:0:
184,288,36090,6,0,B|104:288|104:288|176:288,1,150,6|8,0:0|0:0,0:0:0:0:
272,288,36590,1,0,0:0:0:0:
176,288,36757,2,0,L|272:280,1,75,2|2,0:0|0:0,0:0:0:0:
360,272,37090,2,0,L|280:264,1,75,8|0,0:0|0:0,0:0:0:0:
112,240,37423,6,0,L|32:240,2,75,2|0|8,0:0|0:0|0:0,0:0:0:0:
280,224,37923,2,0,P|288:176|184:128,1,150,8|8,0:0|0:0,0:0:0:0:
112,120,38423,2,0,L|200:120,1,75,8|8,0:0|0:0,0:0:0:0:
448,160,38757,6,0,P|464:208|400:280,1,150,6|8,0:0|0:0,0:0:0:0:
216,280,39423,2,0,L|208:184,1,75,2|2,0:0|0:0,0:0:0:0:
304,192,39757,2,0,L|312:88,1,75,8|0,0:0|0:0,0:0:0:0:
208,96,40090,6,0,L|40:120,1,150,2|8,0:0|0:0,0:0:0:0:
152,152,40590,2,0,L|304:168,1,150,0|2,0:0|0:0,0:0:0:0:
400,176,41090,2,0,L|408:272,1,75,8|0,0:0|0:0,0:0:0:0:
240,288,41423,6,0,L|72:280,2,150,2|8|2,0:0|0:0|0:0,0:0:0:0:
432,288,42423,2,0,L|336:288,1,75,8|0,0:0|0:0,0:0:0:0:
176,288,42757,6,0,L|0:280,1,150,2|8,0:0|0:0,0:0:0:0:
216,256,43423,2,0,L|312:248,1,75,2|2,0:0|0:0,0:0:0:0:
128,208,43757,2,0,L|40:200,1,75,12|0,0:0|0:0,0:0:0:0:
296,168,44090,6,0,B|376:168|376:168|296:169,1,150,6|8,0:0|0:0,0:0:0:0:
208,168,44590,2,0,L|368:160,1,150,0|2,0:0|0:0,0:0:0:0:
456,168,45090,1,8,0:0:0:0:
264,128,45423,6,0,L|432:120,1,150,2|8,0:0|0:0,0:0:0:0:
296,96,45923,2,0,L|128:88,1,150,0|2,0:0|0:0,0:0:0:0:
48,96,46423,2,0,L|56:200,1,75,8|0,0:0|0:0,0:0:0:0:
296,232,46757,6,0,L|376:232,1,75,8|0,0:0|0:0,0:0:0:0:
424,232,47007,1,0,0:0:0:0:
472,232,47090,1,2,0:0:0:0:
368,304,47257,2,0,L|272:304,1,75,8|0,0:0|0:0,0:0:0:0:
192,304,47590,1,2,0:0:0:0:
144,304,47673,1,0,0:0:0:0:
96,304,47757,2,0,L|200:304,1,75,8|0,0:0|0:0,0:0:0:0:
416,288,48090,6,0,L|400:192,1,75,2|8,0:0|0:0,0:0:0:0:
296,176,48423,1,8,0:0:0:0:
248,160,48507,1,0,0:0:0:0:
200,144,48590,1,2,0:0:0:0:
400,88,48757,2,0,P|456:112|472:208,1,150,4|4,0:0|0:0,0:0:0:0:
56,216,49423,6,0,P|32:296|96:344,1,150,6|8,0:0|0:0,0:0:0:0:
170,334,49923,2,0,L|343:322,1,150,0|2,0:0|0:0,0:0:0:0:
232,288,50423,2,0,L|320:280,1,75,8|0,0:0|0:0,0:0:0:0:
472,264,50757,6,0,L|472:96,1,150,2|8,0:0|0:0,0:0:0:0:
376,112,51257,2,0,L|200:120,1,150,0|2,0:0|0:0,0:0:0:0:
320,136,51757,2,0,L|400:136,1,75,8|0,0:0|0:0,0:0:0:0:
232,184,52090,6,0,L|56:184,1,150,2|8,0:0|0:0,0:0:0:0:
176,216,52590,2,0,L|336:216,1,150,0|2,0:0|0:0,0:0:0:0:
424,224,53090,2,0,L|432:128,1,75,8|0,0:0|0:0,0:0:0:0:
264,128,53423,6,0,L|112:136,2,150,2|8|2,0:0|0:0|0:0,0:0:0:0:
168,136,54257,1,2,0:0:0:0:
72,144,54423,1,8,0:0:0:0:
488,160,54757,6,0,L|488:328,1,150,6|8,0:0|0:0,0:0:0:0:
392,320,55257,1,0,0:0:0:0:
232,264,55423,2,0,L|400:256,1,150,2|8,0:0|0:0,0:0:0:0:
480,256,55923,1,0,0:0:0:0:
320,232,56090,6,0,L|152:248,2,150,2|8|2,0:0|0:0|0:0,0:0:0:0:
416,216,56923,1,2,0:0:0:0:
320,232,57090,2,0,L|224:240,1,75,8|0,0:0|0:0,0:0:0:0:
88,240,57423,6,0,P|56:200|96:112,1,150,2|8,0:0|0:0,0:0:0:0:
184,104,57923,2,0,P|232:160|200:232,1,150,0|2,0:0|0:0,0:0:0:0:
112,224,58423,2,0,L|24:224,1,75,8|0,0:0|0:0,0:0:0:0:
136,232,58757,6,0,L|216:232,1,75,2|0,0:0|0:0,0:0:0:0:
440,232,59090,2,0,L|448:128,1,75,12|0,0:0|0:0,0:0:0:0:
352,136,59423,1,2,0:0:0:0:
256,144,59590,1,8,0:0:0:0:
208,168,59673,1,8,0:0:0:0:
176,208,59757,1,8,0:0:0:0:
176,256,59840,1,8,0:0:0:0:
208,296,59923,1,8,0:0:0:0:
256,312,60007,1,8,0:0:0:0:
344,312,60090,6,0,P|408:296|432:208,1,150,6|8,0:0|0:0,0:0:0:0:
336,216,60590,2,0,L|160:208,1,150,0|2,0:0|0:0,0:0:0:0:
88,208,61090,2,0,L|192:200,1,75,8|0,0:0|0:0,0:0:0:0:
328,192,61423,6,0,B|407:196|407:196|330:193,1,150,2|8,0:0|0:0,0:0:0:0:
240,176,61923,2,0,B|161:180|161:180|238:177,1,150,0|2,0:0|0:0,0:0:0:0:
328,176,62423,2,0,L|416:176,1,75,8|0,0:0|0:0,0:0:0:0:
232,144,62757,6,0,L|72:144,2,150,2|8|2,0:0|0:0|0:0,0:0:0:0:
328,144,63590,2,0,L|408:144,1,75,2|8,0:0|0:0,0:0:0:0:
112,208,64090,6,0,P|88:264|128:360,1,150,2|8,0:0|0:0,0:0:0:0:
312,336,64757,2,0,L|400:328,1,75,2|2,0:0|0:0,0:0:0:0:
480,296,65090,2,0,L|384:288,1,75,8|0,0:0|0:0,0:0:0:0:
304,280,65423,6,0,L|208:280,1,75,2|0,0:0|0:0,0:0:0:0:
48,240,65757,2,0,L|128:240,1,75,12|0,0:0|0:0,0:0:0:0:
224,240,66090,2,0,L|312:240,1,75,2|0,0:0|0:0,0:0:0:0:
120,192,66423,2,0,L|16:192,1,75,12|0,0:0|0:0,0:0:0:0:
320,136,66757,6,0,P|368:168|312:304,1,225,4|0,0:0|0:0,0:0:0:0:
224,304,67423,2,0,L|216:216,1,75,2|2,0:0|0:0,0:0:0:0:
392,216,67757,2,0,L|400:136,1,75,2|0,0:0|0:0,0:0:0:0:
128,120,68090,6,0,L|48:120,2,75,12|2|8,0:0|0:0|0:0,0:0:0:0:
224,128,68590,1,2,0:0:0:0:
320,128,68757,2,0,L|144:136,1,150,8|8,0:0|0:0,0:0:0:0:
72,144,69257,1,2,0:0:0:0:
256,176,69423,6,0,L|352:176,1,75,8|2,0:0|0:0,0:0:0:0:
432,168,69757,2,0,L|328:168,1,75,8|2,0:0|0:0,0:0:0:0:
272,168,70090,1,8,0:0:0:0:
440,168,70423,1,8,0:0:0:0:
112,200,70757,6,0,P|32:160|24:96,1,150,8|8,0:0|0:0,0:0:0:0:
104,104,71257,1,2,0:0:0:0:
184,104,71423,1,8,0:0:0:0:
16,112,71757,1,8,0:0:0:0:
208,176,72090,6,0,L|216:80,1,75,8|0,0:0|0:0,0:0:0:0:
128,104,72423,2,0,L|136:200,1,75,8|2,0:0|0:0,0:0:0:0:
208,208,72757,2,0,L|112:216,1,75,8|2,0:0|0:0,0:0:0:0:
48,216,73090,2,0,L|152:216,1,75,8|2,0:0|0:0,0:0:0:0:
304,216,73423,6,0,B|377:215|377:215|302:216,1,150,8|8,0:0|0:0,0:0:0:0:
216,216,73923,1,2,0:0:0:0:
136,216,74090,1,8,0:0:0:0:
304,216,74423,1,8,0:0:0:0:
96,192,74757,6,0,L|8:192,1,75,8|0,0:0|0:0,0:0:0:0:
120,184,75090,2,0,L|216:184,1,75,8|2,0:0|0:0,0:0:0:0:
296,184,75423,2,0,L|288:264,1,75,8|2,0:0|0:0,0:0:0:0:
192,256,75757,2,0,L|200:344,1,75,8|2,0:0|0:0,0:0:0:0:
360,328,76090,6,0,L|210:320,1,150,8|8,0:0|0:0,0:0:0:0:
128,320,76590,1,2,0:0:0:0:
218,320,76757,1,8,0:0:0:0:
400,280,76923,1,8,0:0:0:0:
440,248,77007,1,8,0:0:0:0:
440,192,77090,2,0,L|352:184,1,75,2|0,0:0|0:0,0:0:0:0:
128,176,77423,6,0,P|107:225|136:256,1,75,8|8,0:0|0:0,0:0:0:0:
480,232,78090,2,0,L|488:336,1,75,8|8,0:0|0:0,0:0:0:0:
120,288,78757,5,4,0:0:0:0:
256,192,79090,12,4,89423,0:0:0:0:
