osu file format v14

[General]
AudioFilename: audio.mp3
AudioLeadIn: 0
PreviewTime: 48673
Countdown: 0
SampleSet: Soft
StackLeniency: 0.7
Mode: 2
LetterboxInBreaks: 0
WidescreenStoryboard: 1

[Editor]
DistanceSpacing: 1.2
BeatDivisor: 4
GridSize: 8
TimelineZoom: 1

[Metadata]
Title:Fuwa Fuwa Jikan (game size ver.)
TitleUnicode:ふわふわ時間 (game size ver.)
Artist:Pastel*Palettes
ArtistUnicode:Pastel*Palettes
Creator:Sc4v4ng3r
Version:Cup
Source:バンドリ! ガールズバンドパーティ!
Tags:けいおん!! k-on!! bandori girls band party time garupa Xetopia Hareimu
BeatmapID:1847272
BeatmapSetID:877904

[Difficulty]
HPDrainRate:4
CircleSize:2.8
OverallDifficulty:6
ApproachRate:6
SliderMultiplier:1.1
SliderTickRate:1

[Events]
//Background and Video events
0,0,"bg.png",0,0
//Break Periods
//Storyboard Layer 0 (Background)
//Storyboard Layer 1 (Fail)
//Storyboard Layer 2 (Pass)
//Storyboard Layer 3 (Foreground)
//Storyboard Sound Samples

[TimingPoints]
1424,333.333333333333,4,2,2,60,1,0
6090,-100,4,2,1,50,0,0
6423,-100,4,2,2,58,0,0
6757,-100,4,2,1,75,0,0
17423,-100,4,2,1,65,0,0
28090,-100,4,2,1,58,0,0
36090,-100,4,2,1,65,0,0
49423,-100,4,2,1,80,0,1
59590,-100,4,2,1,70,0,0
59923,-100,4,2,1,70,0,0
60090,-100,4,2,1,80,0,1
67757,-100,4,2,2,72,0,1
67923,-100,4,2,2,72,0,0
68090,-100,4,2,1,75,0,1
78757,-100,4,2,1,75,0,0

[Colours]
Combo1 : 243,192,37
Combo2 : 164,32,240
Combo3 : 37,185,239
Combo4 : 23,209,116
Combo5 : 226,45,124

[HitObjects]
224,128,757,6,0,L|224:256,1,110,0|0,0:0|0:0,0:0:0:0:
360,248,1424,6,0,L|480:224,1,110,8|8,0:0|0:0,0:0:0:0:
336,200,2090,1,8,0:0:0:0:
208,200,2423,1,8,0:0:0:0:
80,208,2757,6,0,P|120:280|160:280,1,110,8|8,0:0|0:0,0:0:0:0:
272,280,3423,2,0,L|400:264,1,110,8|8,0:0|0:0,0:0:0:0:
240,240,4090,6,0,L|120:224,2,110,8|8|8,0:0|0:0|0:0,0:0:0:0:
368,248,5090,1,8,0:0:0:0:
504,248,5423,6,0,L|496:136,1,110,8|8,0:0|0:0,0:0:0:0:
368,128,6090,2,0,L|296:128,1,55,2|2,0:0|0:0,0:0:0:0:
248,128,6423,1,2,0:0:0:0:
408,152,6757,6,0,P|464:168|496:224,1,110,12|8,0:0|0:0,0:0:0:0:
376,264,7423,1,8,0:0:0:0:
240,280,7757,1,8,0:0:0:0:
376,296,8090,6,0,L|504:272,2,110,8|8|8,0:0|0:0|0:0,0:0:0:0:
248,312,9090,1,8,0:0:0:0:
120,320,9423,6,0,L|8:296,1,110,8|8,0:0|0:0,0:0:0:0:
132,241,10090,1,8,0:0:0:0:
262,222,10423,1,8,0:0:0:0:
393,209,10757,6,0,L|505:241,2,110,8|8|8,0:0|0:0|0:0,0:0:0:0:
336,208,11590,1,8,0:0:0:0:
272,208,11757,1,0,0:0:0:0:
432,192,12090,6,0,L|504:192,2,55,12|2|8,0:0|0:0|0:0,0:0:0:0:
296,184,12757,2,0,L|176:168,1,110,8|8,0:0|0:0,0:0:0:0:
320,176,13423,6,0,L|456:176,2,110,8|8|8,0:0|0:0|0:0,0:0:0:0:
192,160,14423,1,8,0:0:0:0:
64,176,14757,6,0,L|8:176,2,55,8|2|8,0:0|0:0|0:0,0:0:0:0:
200,176,15423,2,0,L|328:176,1,110,8|8,0:0|0:0,0:0:0:0:
176,176,16090,6,0,P|184:240|224:256,1,110,8|8,0:0|0:0,0:0:0:0:
352,272,16757,2,0,L|360:192,1,55,8|8,0:0|0:0,0:0:0:0:
288,208,17090,1,2,0:0:0:0:
136,272,17423,6,0,L|16:272,1,110,6|8,0:0|0:0,0:0:0:0:
160,248,18090,1,2,0:0:0:0:
288,248,18423,1,8,0:0:0:0:
152,248,18757,6,0,L|144:120,1,110,2|8,0:0|0:0,0:0:0:0:
280,136,19423,2,0,L|288:256,1,110,2|8,0:0|0:0,0:0:0:0:
144,248,20090,6,0,L|88:248,2,55,2|0|8,0:0|0:0|0:0,0:0:0:0:
280,248,20757,2,0,L|400:248,1,110,2|8,0:0|0:0,0:0:0:0:
256,240,21423,6,0,L|120:240,1,110,2|8,0:0|0:0,0:0:0:0:
16,232,22090,2,0,L|152:232,1,110,2|8,0:0|0:0,0:0:0:0:
304,224,22757,6,0,L|424:224,1,110,6|8,0:0|0:0,0:0:0:0:
280,216,23423,2,0,L|160:216,1,110,2|8,0:0|0:0,0:0:0:0:
304,192,24090,6,0,L|384:192,2,55,2|0|8,0:0|0:0|0:0,0:0:0:0:
176,184,24757,2,0,L|96:184,2,55,2|2|8,0:0|0:0|0:0,0:0:0:0:
304,184,25423,6,0,P|376:272|304:312,1,220,2|2,0:0|0:0,0:0:0:0:
176,312,26423,1,8,0:0:0:0:
40,312,26757,5,2,0:0:0:0:
208,288,27090,2,0,L|336:288,1,110,12|2,0:0|0:0,0:0:0:0:
384,288,27590,1,8,0:0:0:0:
448,288,27757,1,2,0:0:0:0:
280,264,28090,6,0,P|208:240|296:168,1,220,4|2,0:0|0:0,0:0:0:0:
400,192,29090,1,8,0:0:0:0:
272,152,29423,6,0,P|344:128|432:88,2,165,2|2|8,0:0|0:0|0:0,0:0:0:0:
144,184,30757,6,0,P|144:272|264:328,1,220,2|2,0:0|0:0,0:0:0:0:
384,320,31757,1,8,0:0:0:0:
256,320,32090,6,0,L|72:312,2,165,2|2|8,0:0|0:0|0:0,0:0:0:0:
320,320,33257,1,8,0:0:0:0:
408,320,33423,6,0,L|264:224,2,165,4|2|8,0:0|0:0|0:0,0:0:0:0:
248,312,34757,6,0,P|176:280|248:200,1,220,2|2,0:0|0:0,0:0:0:0:
376,208,35757,1,8,0:0:0:0:
216,216,36090,6,0,L|208:344,1,110,6|8,0:0|0:0,0:0:0:0:
344,336,36757,2,0,L|350:226,1,110,2|8,0:0|0:0,0:0:0:0:
216,216,37423,6,0,L|200:152,1,55,2|0,0:0|0:0,0:0:0:0:
336,160,37923,2,0,L|464:160,1,110,8|8,0:0|0:0,0:0:0:0:
496,216,38423,2,0,L|432:216,1,55,8|8,0:0|0:0,0:0:0:0:
352,216,38757,6,0,L|232:216,1,110,6|8,0:0|0:0,0:0:0:0:
384,136,39423,2,0,L|392:272,1,110,2|8,0:0|0:0,0:0:0:0:
260,264,40090,6,0,L|124:264,1,110,2|8,0:0|0:0,0:0:0:0:
24,264,40757,2,0,L|144:264,1,110,0|8,0:0|0:0,0:0:0:0:
280,264,41423,6,0,L|296:144,2,110,2|8|2,0:0|0:0|0:0,0:0:0:0:
144,264,42423,1,8,0:0:0:0:
288,264,42757,6,0,L|400:264,2,110,2|8|2,0:0|0:0|0:0,0:0:0:0:
144,264,43757,1,12,0:0:0:0:
312,288,44090,6,0,L|448:288,1,110,6|8,0:0|0:0,0:0:0:0:
312,208,44757,2,0,L|432:208,1,110,0|8,0:0|0:0,0:0:0:0:
288,200,45423,6,0,L|112:200,2,165,2|0|8,0:0|0:0|0:0,0:0:0:0:
424,192,46757,6,0,P|376:112|304:96,1,165,8|8,0:0|0:0,0:0:0:0:
176,88,47590,1,2,0:0:0:0:
112,88,47757,1,8,0:0:0:0:
264,80,48090,5,2,0:0:0:0:
328,80,48257,1,8,0:0:0:0:
248,80,48423,1,8,0:0:0:0:
88,88,48757,1,4,0:0:0:0:
240,88,49090,1,4,0:0:0:0:
392,88,49423,6,0,P|416:160|384:192,1,110,6|8,0:0|0:0,0:0:0:0:
264,184,50090,2,0,L|136:184,1,110,2|8,0:0|0:0,0:0:0:0:
288,192,50757,6,0,L|416:192,1,110,2|8,0:0|0:0,0:0:0:0:
280,256,51423,2,0,L|416:256,1,110,2|8,0:0|0:0,0:0:0:0:
256,280,52090,6,0,P|184:272|80:224,2,165,2|0|8,0:0|0:0|0:0,0:0:0:0:
384,288,53423,5,2,0:0:0:0:
272,216,53757,1,8,0:0:0:0:
384,240,54090,1,2,0:0:0:0:
272,168,54423,1,8,0:0:0:0:
136,168,54757,6,0,L|128:304,1,110,6|8,0:0|0:0,0:0:0:0:
288,280,55423,2,0,L|296:144,1,110,2|8,0:0|0:0,0:0:0:0:
160,176,56090,6,0,L|280:176,2,110,2|8|2,0:0|0:0|0:0,0:0:0:0:
24,176,57090,1,8,0:0:0:0:
152,184,57423,6,0,L|272:184,1,110,2|8,0:0|0:0,0:0:0:0:
392,192,58090,1,2,0:0:0:0:
272,192,58423,1,8,0:0:0:0:
152,192,58757,5,2,0:0:0:0:
280,208,59090,2,0,L|400:208,1,110,12|2,0:0|0:0,0:0:0:0:
448,200,59590,1,8,0:0:0:0:
392,200,59757,1,8,0:0:0:0:
240,200,60090,6,0,L|128:200,1,110,6|8,0:0|0:0,0:0:0:0:
64,200,60590,2,0,P|64:152|168:112,1,165,0|8,0:0|0:0,0:0:0:0:
288,112,61423,6,0,L|400:184,1,110,2|8,0:0|0:0,0:0:0:0:
432,208,61923,2,0,L|328:272,1,110,0|2,0:0|0:0,0:0:0:0:
288,304,62423,1,8,0:0:0:0:
152,304,62757,6,0,B|42:304|42:304|152:303,1,220,2|2,0:0|0:0,0:0:0:0:
288,304,63757,1,8,0:0:0:0:
160,304,64090,6,0,L|288:304,1,110,2|8,0:0|0:0,0:0:0:0:
400,312,64757,2,0,L|392:192,1,110,2|8,0:0|0:0,0:0:0:0:
264,216,65423,5,2,0:0:0:0:
424,216,65757,2,0,L|432:88,1,110,12|2,0:0|0:0,0:0:0:0:
272,88,66423,1,12,0:0:0:0:
128,96,66757,6,0,P|72:136|152:240,1,220,4|2,0:0|0:0,0:0:0:0:
280,240,67757,1,2,0:0:0:0:
128,256,68090,6,0,L|16:256,1,110,12|8,0:0|0:0,0:0:0:0:
136,320,68757,2,0,L|256:320,1,110,8|8,0:0|0:0,0:0:0:0:
376,320,69423,6,0,L|424:288,2,55,8|2|8,0:0|0:0|0:0,0:0:0:0:
246,320,70090,1,8,0:0:0:0:
112,320,70423,1,8,0:0:0:0:
256,312,70757,6,0,L|384:312,1,110,8|8,0:0|0:0,0:0:0:0:
232,304,71423,2,0,L|224:176,1,110,8|8,0:0|0:0,0:0:0:0:
96,184,72090,6,0,L|104:56,1,110,8|8,0:0|0:0,0:0:0:0:
232,80,72757,1,8,0:0:0:0:
360,80,73090,1,8,0:0:0:0:
212,74,73423,6,0,L|76:74,1,110,8|8,0:0|0:0,0:0:0:0:
232,96,74090,2,0,P|264:144|240:192,1,110,8|8,0:0|0:0,0:0:0:0:
112,200,74757,6,0,P|80:248|104:296,1,110,8|8,0:0|0:0,0:0:0:0:
232,304,75423,1,8,0:0:0:0:
96,312,75757,1,8,0:0:0:0:
248,304,76090,6,0,L|360:304,1,110,8|8,0:0|0:0,0:0:0:0:
224,304,76757,2,0,L|144:304,2,55,8|8|2,0:0|0:0|0:0,0:0:0:0:
358,304,77423,6,0,L|358:248,1,55,8|8,0:0|0:0,0:0:0:0:
160,256,78090,2,0,L|160:184,1,55,8|8,0:0|0:0,0:0:0:0:
424,208,78757,5,4,0:0:0:0:
256,192,79090,12,4,89423,0:0:0:0:
