osu file format v14

[General]
AudioFilename: audio.mp3
AudioLeadIn: 0
PreviewTime: 61533
Countdown: 0
SampleSet: Soft
StackLeniency: 0.7
Mode: 3
LetterboxInBreaks: 0
SpecialStyle: 0
WidescreenStoryboard: 0

[Editor]
Bookmarks: 14150,19797,25444,36739,48033,53680,67797,79092,96033
DistanceSpacing: 1
BeatDivisor: 4
GridSize: 16
TimelineZoom: 2

[Metadata]
Title:Baby Sweet Berry Love
TitleUnicode:Baby Sweet Berry Love
Artist:Pastel*Palettes
ArtistUnicode:Pastel*Palettes
Creator:Al-Reina
Version:Neko
Source:バンドリ! ガールズバンドパーティ!
Tags:Kanon Matsubara cryochan BanG Dream! Girls Band Party! Garupa Bandori! PasuPare パスパレ Paspale パステルパレット 前島亜美 Maeshima Ami 中上育美 Nakagami Ikumi 秦佐和子 Hata Sawako 上坂すみれ Uesaka Sumire 小澤亜李 Ozawa Ari Japanese video game J-pop jpop 変態王子と笑わない猫。hentai ouji to warawanai neko 変猫 henneko the prince and the stony cat anime ending 小倉唯 ogura yui cover song Kanon Matsubara cryochan BanG Dream! Girls Band Party! Garupa Bandori! PasuPare パスパレ Paspale パステルパレット 前島亜美 Maeshima Ami 中上育美 Nakagami Ikumi 秦佐和子 Hata Sawako 上坂すみれ Uesaka Sumire 小澤亜李 Ozawa Ari Japanese video game J-pop jpop 変態王子と笑わない猫。hentai ouji to warawanai neko 変猫 henneko the prince and the stony cat anime ending 小倉唯 ogura yui cover song games
BeatmapID:2979009
BeatmapSetID:1448749

[Difficulty]
HPDrainRate:8
CircleSize:7
OverallDifficulty:8
ApproachRate:5
SliderMultiplier:1.4
SliderTickRate:1

[Events]
//Background and Video events
0,0,"Maya.jpg",0,0
//Break Periods
//Storyboard Layer 0 (Background)
//Storyboard Layer 1 (Fail)
//Storyboard Layer 2 (Pass)
//Storyboard Layer 3 (Foreground)
//Storyboard Layer 4 (Overlay)
//Storyboard Sound Samples
Sample,86503,0,"Hat open.wav",60

[TimingPoints]
1445,352.941176470588,4,2,1,50,1,0
8503,-100,4,2,1,60,0,0
14150,-100,4,2,1,65,0,0
25444,-100,4,2,1,50,0,0
36739,-100,4,2,1,60,0,0
56680,-100,4,2,1,35,0,0
57209,-100,4,2,1,40,0,0
57915,-100,4,2,1,45,0,0
58621,-100,4,2,1,50,0,0
58974,-100,4,2,1,55,0,0
59327,-100,4,2,1,60,0,0
62150,-100,4,2,1,70,0,1
72915,-100,4,2,1,65,0,0
73444,-100,4,2,1,70,0,1
84739,-100,4,2,1,60,0,0
87562,-100,4,2,1,65,0,1
90386,-100,4,2,1,60,0,0

[HitObjects]
182,192,2327,128,0,2503:0:0:0:0:
475,192,2327,128,0,2503:0:0:0:0:
109,192,2503,128,0,2680:0:0:0:0:
402,192,2503,128,0,2680:0:0:0:0:
36,192,2680,128,0,2856:0:0:0:0:
329,192,2680,128,0,2856:0:0:0:0:
109,192,2856,128,2,3562:0:0:0:0:
256,192,2856,128,0,3209:0:0:0:0:
402,192,3209,128,0,3562:0:0:0:0:
36,192,3562,128,0,4268:0:0:0:0:
329,192,3562,128,0,3915:0:0:0:0:
182,192,3915,128,0,4092:0:0:0:0:
475,192,4092,128,0,4621:0:0:0:0:
109,192,4444,128,0,5150:0:0:0:0:
256,192,4621,128,0,5150:0:0:0:0:
402,192,4797,128,0,5150:0:0:0:0:
256,192,5503,128,2,5680:0:0:0:0:
402,192,5503,128,0,5680:0:0:0:0:
182,192,5680,128,2,5856:0:0:0:0:
329,192,5680,128,0,5856:0:0:0:0:
109,192,5856,128,2,6033:0:0:0:0:
256,192,5856,128,0,6033:0:0:0:0:
36,192,6033,128,0,6209:0:0:0:0:
329,192,6033,128,0,6209:0:0:0:0:
109,192,6209,128,0,6386:0:0:0:0:
402,192,6209,128,0,6386:0:0:0:0:
182,192,6386,128,0,6739:0:0:0:0:
475,192,6386,128,0,7092:0:0:0:0:
402,192,6739,128,0,7092:0:0:0:0:
36,192,6915,128,0,7621:0:0:0:0:
329,192,7092,128,2,7268:0:0:0:0:
256,192,7092,1,0,0:0:0:0:
182,192,7268,128,0,7444:0:0:0:0:
402,192,7444,128,0,7797:0:0:0:0:
256,192,7621,128,0,7974:0:0:0:0:
109,192,7797,128,2,8150:0:0:0:0:
36,192,7797,1,0,0:0:0:0:
329,192,7974,128,0,8150:0:0:0:0:
475,192,7974,128,0,8150:0:0:0:0:
256,192,8150,128,0,8327:0:0:0:0:
402,192,8150,128,0,8327:0:0:0:0:
182,192,8327,128,2,8503:0:0:0:0:
329,192,8327,128,0,8503:0:0:0:0:
36,192,8503,128,2,9209:0:0:0:0:
109,192,8503,1,4,0:0:0:0:
256,192,8503,128,0,8856:0:0:0:0:
402,192,8503,1,0,0:0:0:0:
475,192,8503,1,0,0:0:0:0:
475,192,8856,128,0,9209:0:0:0:0:
109,192,9209,128,2,9562:0:0:0:0:
182,192,9209,1,0,0:0:0:65:Crash 2.wav
256,192,9209,1,0,0:0:0:0:
329,192,9209,1,0,0:0:0:0:
402,192,9209,128,0,9915:0:0:0:0:
182,192,9562,128,0,9739:0:0:0:0:
329,192,9739,128,0,9915:0:0:0:0:
36,192,9915,1,2,0:0:0:0:
109,192,9915,1,4,0:0:0:0:
256,192,9915,128,0,10268:0:0:0:0:
475,192,10092,128,0,10268:0:0:0:0:
109,192,10268,128,2,10621:0:0:0:0:
182,192,10268,1,0,0:0:0:65:Crash 2.wav
329,192,10444,128,0,10621:0:0:0:0:
36,192,10621,128,2,11327:0:0:0:0:
256,192,10621,1,4,0:0:0:0:
402,192,10621,128,0,11327:0:0:0:0:
475,192,10621,128,0,11327:0:0:0:0:
182,192,11150,1,0,0:0:0:0:
329,192,11239,1,0,0:0:0:0:
109,192,11327,1,8,0:0:0:0:
256,192,11327,1,2,0:0:0:0:
182,192,11415,1,8,0:0:0:0:
36,192,11503,1,8,0:0:0:0:
256,192,11503,1,0,0:0:0:0:
109,192,11592,1,8,0:0:0:0:
329,192,11592,1,0,0:0:0:0:
182,192,11680,1,2,0:0:0:0:
402,192,11680,1,0,0:0:0:0:
475,192,11680,1,0,0:0:0:0:
109,192,11856,1,0,0:0:0:60:Tom2.wav
256,192,11856,1,0,0:0:0:0:
36,192,12033,1,2,0:0:0:0:
182,192,12033,128,8,12386:0:0:0:0:
329,192,12033,1,0,0:0:0:0:
256,192,12209,1,8,0:0:0:0:
402,192,12209,1,0,0:0:0:0:
475,192,12209,1,0,0:0:0:0:
36,192,12386,128,2,13444:0:0:0:0:
109,192,12386,1,0,0:0:0:0:
475,192,12562,128,0,13621:0:0:0:0:
182,192,12739,1,2,0:0:0:0:
256,192,12739,1,4,0:0:0:0:
329,192,12739,1,0,0:0:0:0:
182,192,13092,1,2,0:0:0:0:
256,192,13092,1,0,0:0:0:65:Crash 2.wav
329,192,13092,1,0,0:0:0:0:
109,192,13444,1,8,0:0:0:0:
256,192,13444,1,2,0:0:0:0:
182,192,13533,1,8,0:0:0:0:
329,192,13533,1,0,0:0:0:0:
256,192,13621,1,8,0:0:0:0:
402,192,13621,1,0,0:0:0:0:
36,192,13797,1,8,0:0:0:0:
109,192,13797,1,2,0:0:0:0:
329,192,13797,1,0,0:0:0:0:
182,192,13974,1,8,0:0:0:0:
256,192,13974,1,0,0:0:0:0:
475,192,13974,1,0,0:0:0:0:
36,192,14150,128,2,14856:0:0:0:0:
109,192,14150,1,4,0:0:0:0:
182,192,14150,1,0,0:0:0:0:
256,192,14150,1,0,0:0:0:0:
402,192,14150,128,0,14327:0:0:0:0:
329,192,14327,128,0,14503:0:0:0:60:Hat open.wav
475,192,14327,1,0,0:0:0:0:
109,192,14503,1,8,0:0:0:0:
182,192,14503,1,2,0:0:0:0:
256,192,14503,128,0,14680:0:0:0:0:
329,192,14680,1,0,0:0:0:60:Hat open.wav
475,192,14680,128,0,14856:0:0:0:0:
109,192,14856,1,2,0:0:0:0:
402,192,14856,1,0,0:0:0:0:
182,192,14944,1,0,0:0:0:0:
329,192,14944,1,0,0:0:0:0:
256,192,15033,1,0,0:0:0:60:Hat open.wav
36,192,15121,1,0,0:0:0:0:
475,192,15121,1,0,0:0:0:0:
109,192,15209,1,8,0:0:0:0:
182,192,15209,1,2,0:0:0:0:
329,192,15209,1,0,0:0:0:0:
402,192,15209,1,0,0:0:0:0:
36,192,15386,1,0,0:0:0:60:Hat open.wav
256,192,15562,128,2,16268:0:0:0:0:
329,192,15562,128,0,15739:0:0:0:0:
182,192,15739,128,0,15915:0:0:0:60:Hat open.wav
475,192,15739,1,0,0:0:0:0:
36,192,15915,1,2,0:0:0:0:
329,192,15915,128,8,16092:0:0:0:0:
402,192,15915,1,0,0:0:0:0:
109,192,16092,1,0,0:0:0:60:Hat open.wav
182,192,16092,128,0,16268:0:0:0:0:
36,192,16268,1,2,0:0:0:0:
402,192,16268,1,0,0:0:0:0:
109,192,16356,1,0,0:0:0:0:
475,192,16356,1,0,0:0:0:0:
256,192,16444,1,0,0:0:0:60:Hat open.wav
182,192,16533,1,0,0:0:0:0:
329,192,16533,1,0,0:0:0:0:
36,192,16621,1,8,0:0:0:0:
109,192,16621,1,2,0:0:0:0:
402,192,16621,1,0,0:0:0:0:
475,192,16621,1,0,0:0:0:0:
256,192,16797,1,0,0:0:0:60:Hat open.wav
182,192,16974,128,2,17150:0:0:0:0:
475,192,16974,128,0,17503:0:0:0:0:
256,192,17150,128,0,17327:0:0:0:60:Hat open.wav
402,192,17150,1,0,0:0:0:0:
109,192,17327,1,8,0:0:0:0:
182,192,17327,128,2,17503:0:0:0:0:
329,192,17327,1,0,0:0:0:0:
402,192,17503,1,0,0:0:0:60:Hat open.wav
36,192,17680,1,2,0:0:0:0:
256,192,17680,1,0,0:0:0:0:
36,192,17856,128,0,18209:0:0:0:60:Hat open.wav
329,192,17856,1,0,0:0:0:0:
182,192,18033,1,8,0:0:0:0:
402,192,18033,1,2,0:0:0:0:
475,192,18033,128,0,18209:0:0:0:0:
256,192,18209,1,0,0:0:0:60:Hat open.wav
109,192,18386,128,2,18562:0:0:0:0:
475,192,18386,128,0,19092:0:0:0:0:
182,192,18562,128,0,18739:0:0:0:60:Hat open.wav
256,192,18562,1,0,0:0:0:0:
109,192,18739,128,8,18915:0:0:0:0:
329,192,18739,1,2,0:0:0:0:
402,192,18739,1,0,0:0:0:0:
36,192,18915,128,0,19092:0:0:0:60:Hat open.wav
256,192,18915,1,0,0:0:0:0:
329,192,19092,1,2,0:0:0:0:
109,192,19092,1,0,0:0:0:0:
402,192,19180,1,0,0:0:0:0:
182,192,19180,1,0,0:0:0:0:
256,192,19268,1,0,0:0:0:60:Hat open.wav
329,192,19356,1,0,0:0:0:0:
36,192,19356,1,0,0:0:0:0:
475,192,19444,1,8,0:0:0:0:
402,192,19444,1,2,0:0:0:0:
182,192,19444,1,0,0:0:0:0:
109,192,19444,1,0,0:0:0:0:
329,192,19621,1,8,0:0:0:0:
256,192,19621,1,0,0:0:0:0:
109,192,19709,1,8,0:0:0:0:
36,192,19709,1,0,0:0:0:0:
475,192,19797,1,2,0:0:0:0:
256,192,19797,128,4,20150:0:0:0:0:
402,192,19797,1,0,0:0:0:0:
182,192,19797,1,0,0:0:0:0:
36,192,19974,128,0,20150:0:0:0:0:
109,192,20150,1,8,0:0:0:0:
182,192,20150,1,0,0:0:0:0:
475,192,20150,128,0,20327:0:0:0:0:
36,192,20327,1,2,0:0:0:0:
256,192,20327,1,0,0:0:0:65:Crash 2.wav
329,192,20327,1,0,0:0:0:0:
402,192,20327,128,0,20680:0:0:0:0:
36,192,20680,128,2,21209:0:0:0:0:
256,192,20680,1,0,0:0:0:0:
109,192,20856,128,8,21209:0:0:0:0:
182,192,20856,128,0,21209:0:0:0:60:Hat open.wav
329,192,20856,1,0,0:0:0:0:
256,192,21209,128,2,21562:0:0:0:0:
329,192,21209,1,4,0:0:0:0:
402,192,21209,1,0,0:0:0:0:
475,192,21209,1,0,0:0:0:0:
182,192,21386,128,0,21562:0:0:0:0:
109,192,21562,1,8,0:0:0:0:
329,192,21562,128,0,21739:0:0:0:0:
402,192,21562,1,0,0:0:0:0:
36,192,21739,128,2,21915:0:0:0:0:
182,192,21739,1,0,0:0:0:65:Crash 2.wav
256,192,21739,1,0,0:0:0:0:
475,192,21739,128,0,22797:0:0:0:0:
329,192,22092,1,0,0:0:0:0:
182,192,22092,1,2,0:0:0:0:
109,192,22268,1,8,0:0:0:0:
402,192,22268,1,0,0:0:0:0:
256,192,22268,1,0,0:0:0:60:Hat open.wav
36,192,22444,1,2,0:0:0:0:
109,192,22444,128,4,22797:0:0:0:0:
182,192,22444,128,0,22797:0:0:0:0:
329,192,22444,1,0,0:0:0:0:
36,192,22797,128,2,23150:0:0:0:0:
329,192,22797,1,0,0:0:0:0:
256,192,22974,1,8,0:0:0:0:
402,192,22974,128,0,23150:0:0:0:60:Hat open.wav
475,192,22974,1,0,0:0:0:0:
109,192,23150,128,0,23503:0:0:0:0:
256,192,23327,1,2,0:0:0:0:
329,192,23327,128,0,23503:0:0:0:65:Crash 2.wav
36,192,23503,1,2,0:0:0:0:
182,192,23503,128,0,24033:0:0:0:0:
329,192,23680,1,8,0:0:0:0:
402,192,23680,128,0,24033:0:0:0:60:Hat open.wav
475,192,23680,128,0,24033:0:0:0:0:
36,192,24033,1,2,0:0:0:0:
109,192,24033,1,4,0:0:0:0:
329,192,24033,1,0,0:0:0:0:
256,192,24121,1,0,0:0:0:0:
182,192,24209,1,2,0:0:0:0:
475,192,24209,1,0,0:0:0:0:
402,192,24297,1,0,0:0:0:0:
36,192,24386,1,8,0:0:0:0:
256,192,24386,1,0,0:0:0:60:Hat open.wav
329,192,24386,1,0,0:0:0:0:
109,192,24474,1,0,0:0:0:0:
182,192,24562,1,8,0:0:0:0:
329,192,24562,1,0,0:0:0:0:
402,192,24562,1,0,0:0:0:0:
256,192,24650,1,0,0:0:0:0:
36,192,24739,1,2,0:0:0:0:
475,192,24739,1,0,0:0:0:0:
109,192,24827,1,0,0:0:0:0:
182,192,24915,1,8,0:0:0:0:
402,192,24915,1,0,0:0:0:0:
109,192,25003,1,8,0:0:0:0:
329,192,25003,1,0,0:0:0:0:
36,192,25092,1,0,0:0:0:50:Tom1.wav
256,192,25092,1,0,0:0:0:0:
475,192,25180,1,0,0:0:0:0:
182,192,25268,1,0,0:0:0:50:Tom1.wav
402,192,25268,1,0,0:0:0:0:
329,192,25356,1,0,0:0:0:0:
36,192,25444,1,2,0:0:0:0:
109,192,25444,1,0,0:0:0:35:Crash 2.wav
182,192,25444,1,0,0:0:0:0:
256,192,25444,1,0,0:0:0:0:
475,192,25444,128,0,26503:0:0:0:0:
402,192,25797,128,0,26503:0:0:0:0:
256,192,25974,1,2,0:0:0:0:
36,192,26150,128,0,26856:0:0:0:0:
109,192,26327,128,0,26856:0:0:0:0:
182,192,26503,128,0,26856:0:0:0:55:Clap.wav
329,192,26503,1,0,0:0:0:0:
475,192,26680,1,0,0:0:0:0:
256,192,26856,1,2,0:0:0:0:
475,192,26856,128,0,27386:0:0:0:0:
256,192,27121,1,2,0:0:0:0:
36,192,27386,128,2,28268:0:0:0:0:
256,192,27386,1,0,0:0:0:0:
475,192,27562,128,0,28268:0:0:0:0:
182,192,27915,1,0,0:0:0:55:Clap.wav
329,192,27915,1,0,0:0:0:0:
109,192,28268,128,2,29327:0:0:0:0:
256,192,28268,1,0,0:0:0:0:
36,192,28621,128,0,29327:0:0:0:0:
256,192,28797,1,2,0:0:0:0:
475,192,28974,128,0,29680:0:0:0:0:
402,192,29150,128,0,29680:0:0:0:0:
329,192,29327,128,0,29680:0:0:0:55:Clap.wav
182,192,29327,1,0,0:0:0:0:
36,192,29503,1,0,0:0:0:0:
36,192,29680,128,2,30209:0:0:0:0:
256,192,29680,1,0,0:0:0:0:
256,192,29944,1,2,0:0:0:0:
256,192,30209,1,2,0:0:0:0:
475,192,30209,128,0,31092:0:0:0:0:
36,192,30386,128,0,31092:0:0:0:0:
182,192,30739,1,0,0:0:0:55:Clap.wav
329,192,30739,1,0,0:0:0:0:
109,192,31092,128,2,31797:0:0:0:0:
256,192,31092,1,0,0:0:0:0:
256,192,31444,128,0,31974:0:0:0:0:
402,192,31621,128,2,32150:0:0:0:0:
36,192,31797,128,0,32503:0:0:0:0:
182,192,31974,128,2,32503:0:0:0:0:
329,192,32150,128,0,32503:0:0:0:55:Clap.wav
475,192,32327,128,0,32503:0:0:0:0:
256,192,32503,1,2,0:0:0:0:
402,192,32503,128,0,33209:0:0:0:0:
109,192,32680,128,0,32856:0:0:0:0:
256,192,32856,128,0,33386:0:0:0:0:
109,192,33033,128,2,33562:0:0:0:0:
475,192,33209,128,0,33915:0:0:0:0:
329,192,33386,128,2,33915:0:0:0:0:
182,192,33562,128,0,33915:0:0:0:55:Clap.wav
36,192,33739,128,0,33915:0:0:0:0:
256,192,33915,128,2,34621:0:0:0:0:
402,192,34268,128,0,34974:0:0:0:0:
182,192,34621,1,2,0:0:0:0:
329,192,34621,128,0,34974:0:0:0:0:
36,192,34797,128,0,35327:0:0:0:0:
109,192,34886,128,0,35327:0:0:0:0:
182,192,34974,128,0,35327:0:0:0:55:Clap.wav
475,192,34974,128,0,35327:0:0:0:0:
256,192,35327,128,2,35856:0:0:0:0:
402,192,35327,1,0,0:0:0:0:
182,192,35503,128,0,36033:0:0:0:0:
329,192,35503,1,0,0:0:0:0:
109,192,35680,128,2,36209:0:0:0:0:
475,192,35680,1,0,0:0:0:55:Clap.wav
36,192,35856,128,0,36386:0:0:0:0:
402,192,35856,1,0,0:0:0:0:
329,192,36033,1,2,0:0:0:0:
256,192,36209,1,0,0:0:0:0:
475,192,36209,128,0,36739:0:0:0:0:
182,192,36386,1,2,0:0:0:0:
402,192,36386,128,0,36739:0:0:0:55:Clap.wav
109,192,36562,1,0,0:0:0:0:
329,192,36562,128,0,36739:0:0:0:0:
36,192,36739,128,2,38150:0:0:0:0:
109,192,36739,1,4,0:0:0:0:
182,192,36739,1,0,0:0:0:0:
256,192,36739,1,0,0:0:0:0:
109,192,37092,128,8,37444:0:0:0:0:
182,192,37092,1,0,0:0:0:0:
402,192,37092,1,0,0:0:0:0:
329,192,37268,1,0,0:0:0:0:
256,192,37444,1,2,0:0:0:0:
402,192,37444,128,0,37621:0:0:0:0:
182,192,37621,128,2,37797:0:0:0:0:
475,192,37621,1,0,0:0:0:0:
109,192,37797,1,8,0:0:0:0:
329,192,37797,128,0,37974:0:0:0:0:
402,192,37797,1,0,0:0:0:0:
256,192,37974,128,0,38680:0:0:0:0:
182,192,38150,128,2,38680:0:0:0:0:
329,192,38150,1,0,0:0:0:0:
475,192,38327,1,0,0:0:0:0:
329,192,38503,1,8,0:0:0:0:
402,192,38503,1,0,0:0:0:0:
36,192,38680,128,0,39209:0:0:0:0:
402,192,38856,1,2,0:0:0:0:
475,192,38856,128,0,39209:0:0:0:0:
182,192,39033,1,2,0:0:0:0:
256,192,39033,1,0,0:0:0:0:
109,192,39209,1,8,0:0:0:0:
329,192,39209,1,0,0:0:0:0:
402,192,39209,1,0,0:0:0:0:
256,192,39386,1,0,0:0:0:0:
36,192,39562,128,2,40268:0:0:0:0:
182,192,39562,1,0,0:0:0:0:
329,192,39739,1,0,0:0:0:0:
109,192,39915,128,8,40268:0:0:0:0:
402,192,39915,1,0,0:0:0:0:
475,192,39915,1,0,0:0:0:0:
182,192,40092,1,0,0:0:0:0:
256,192,40268,1,2,0:0:0:0:
475,192,40268,128,0,40621:0:0:0:0:
182,192,40444,1,2,0:0:0:0:
402,192,40444,128,0,40621:0:0:0:0:
36,192,40621,1,8,0:0:0:0:
109,192,40621,1,0,0:0:0:0:
256,192,40621,128,0,40797:0:0:0:0:
329,192,40797,128,0,41503:0:0:0:0:
109,192,40974,1,2,0:0:0:0:
402,192,40974,128,0,41503:0:0:0:0:
256,192,41150,1,0,0:0:0:0:
109,192,41327,1,8,0:0:0:0:
182,192,41327,1,0,0:0:0:0:
36,192,41503,128,0,42033:0:0:0:0:
256,192,41680,1,2,0:0:0:0:
475,192,41680,128,0,42033:0:0:0:0:
182,192,41856,1,2,0:0:0:0:
329,192,41856,1,0,0:0:0:0:
109,192,42033,1,8,0:0:0:0:
256,192,42033,1,0,0:0:0:0:
402,192,42033,1,0,0:0:0:0:
182,192,42209,1,8,0:0:0:0:
475,192,42209,1,0,0:0:0:0:
109,192,42297,1,8,0:0:0:0:
402,192,42297,1,0,0:0:0:0:
36,192,42386,1,2,0:0:0:0:
329,192,42386,1,0,0:0:0:0:
109,192,42562,1,2,0:0:0:0:
475,192,42562,1,0,0:0:0:60:Tom2.wav
182,192,42739,1,8,0:0:0:0:
329,192,42739,1,0,0:0:0:0:
402,192,42739,1,0,0:0:0:0:
256,192,42915,1,2,0:0:0:0:
402,192,42915,1,0,0:0:0:0:
36,192,43092,128,0,43268:0:0:0:0:
256,192,43268,128,2,43444:0:0:0:0:
329,192,43268,1,0,0:0:0:0:
36,192,43444,128,8,43797:0:0:0:0:
109,192,43444,1,0,0:0:0:0:
475,192,43444,1,0,0:0:0:0:
256,192,43621,128,0,43797:0:0:0:0:
329,192,43797,1,2,0:0:0:0:
402,192,43797,1,0,0:0:0:0:
256,192,43974,1,2,0:0:0:0:
402,192,43974,1,0,0:0:0:60:Tom3.wav
109,192,44150,1,8,0:0:0:0:
182,192,44150,1,0,0:0:0:0:
475,192,44150,1,0,0:0:0:0:
109,192,44327,1,2,0:0:0:0:
256,192,44327,1,0,0:0:0:0:
475,192,44503,128,0,44680:0:0:0:0:
182,192,44680,1,2,0:0:0:0:
256,192,44680,128,0,44856:0:0:0:0:
36,192,44856,1,8,0:0:0:0:
402,192,44856,1,0,0:0:0:0:
475,192,44856,128,0,45209:0:0:0:0:
256,192,45033,128,0,45209:0:0:0:0:
36,192,45209,128,2,45386:0:0:0:0:
109,192,45209,1,4,0:0:0:0:
182,192,45209,128,0,45386:0:0:0:0:
329,192,45386,1,0,0:0:0:0:
36,192,45562,128,8,45915:0:0:0:0:
182,192,45562,128,0,45739:0:0:0:50:Hat open.wav
402,192,45562,1,0,0:0:0:0:
475,192,45562,1,0,0:0:0:0:
329,192,45739,1,0,0:0:0:0:
256,192,45915,128,2,46092:0:0:0:0:
402,192,45915,128,0,46268:0:0:0:65:Crash 2.wav
182,192,45915,1,0,0:0:0:0:
36,192,46092,1,2,0:0:0:0:
109,192,46092,1,0,0:0:0:0:
182,192,46268,128,8,46444:0:0:0:0:
329,192,46268,128,0,46621:0:0:0:50:Hat open.wav
475,192,46268,1,0,0:0:0:0:
36,192,46444,1,0,0:0:0:0:
36,192,46621,1,2,0:0:0:0:
109,192,46621,128,4,46797:0:0:0:0:
256,192,46621,128,0,47503:0:0:0:0:
402,192,46621,1,0,0:0:0:0:
475,192,46621,1,0,0:0:0:0:
182,192,46797,1,2,0:0:0:0:
329,192,46797,1,0,0:0:0:0:
36,192,46974,1,8,0:0:0:0:
109,192,46974,1,0,0:0:0:0:
402,192,46974,1,0,0:0:0:0:
182,192,47150,1,2,0:0:0:0:
329,192,47150,1,0,0:0:0:65:Crash 2.wav
402,192,47150,1,0,0:0:0:0:
475,192,47150,1,0,0:0:0:0:
182,192,47503,1,8,0:0:0:0:
475,192,47503,1,0,0:0:0:0:
109,192,47592,1,8,0:0:0:0:
402,192,47592,1,0,0:0:0:0:
36,192,47680,1,8,0:0:0:0:
329,192,47680,1,0,0:0:0:0:
182,192,47856,1,2,0:0:0:0:
256,192,47856,1,0,0:0:0:0:
36,192,48033,128,2,48386:0:0:0:0:
109,192,48033,128,4,48386:0:0:0:0:
256,192,48033,1,0,0:0:0:0:
402,192,48033,1,0,0:0:0:0:
475,192,48033,1,0,0:0:0:0:
329,192,48209,128,0,48386:0:0:0:0:
256,192,48386,128,0,48562:0:0:0:0:
109,192,48562,128,2,48915:0:0:0:0:
182,192,48562,128,0,48915:0:0:0:0:
402,192,48739,128,0,48915:0:0:0:0:
329,192,48915,128,0,49092:0:0:0:0:
182,192,49092,128,2,49444:0:0:0:0:
256,192,49092,128,0,49444:0:0:0:0:
475,192,49268,128,0,49444:0:0:0:0:
36,192,49444,128,0,49621:0:0:0:0:
256,192,49621,1,2,0:0:0:0:
402,192,49621,128,0,49974:0:0:0:0:
182,192,49797,1,2,0:0:0:0:
329,192,49797,128,0,49974:0:0:0:0:
109,192,49974,1,0,0:0:0:0:
475,192,49974,128,0,50327:0:0:0:0:
182,192,50150,1,0,0:0:0:0:
402,192,50150,128,0,50327:0:0:0:0:
36,192,50327,1,8,0:0:0:0:
256,192,50327,1,0,0:0:0:0:
109,192,50415,1,8,0:0:0:0:
329,192,50415,1,0,0:0:0:0:
182,192,50503,1,8,0:0:0:0:
402,192,50503,1,0,0:0:0:0:
256,192,50680,1,0,0:0:0:60:Tom3.wav
36,192,50856,1,2,0:0:0:0:
182,192,50856,1,0,0:0:0:65:Crash 2.wav
256,192,50856,1,0,0:0:0:0:
329,192,50856,128,0,51209:0:0:0:0:
475,192,50856,128,0,51209:0:0:0:0:
109,192,51033,128,0,51209:0:0:0:0:
182,192,51209,128,0,51386:0:0:0:0:
256,192,51386,128,2,51739:0:0:0:0:
402,192,51386,128,0,51739:0:0:0:0:
36,192,51562,128,0,51739:0:0:0:0:
109,192,51739,128,0,51915:0:0:0:0:
182,192,51915,128,2,52268:0:0:0:0:
329,192,51915,128,0,52268:0:0:0:0:
475,192,52092,128,0,52268:0:0:0:0:
36,192,52268,1,0,0:0:0:0:
109,192,52444,128,2,52797:0:0:0:0:
256,192,52444,128,0,52797:0:0:0:0:
475,192,52621,1,0,0:0:0:0:
182,192,52797,128,0,53327:0:0:0:0:
402,192,52797,1,0,0:0:0:0:
109,192,52974,128,0,53327:0:0:0:0:
329,192,52974,1,0,0:0:0:0:
36,192,53150,128,2,53327:0:0:0:0:
256,192,53150,1,0,0:0:0:0:
329,192,53327,1,8,0:0:0:0:
402,192,53327,1,0,0:0:0:0:
475,192,53327,128,0,53680:0:0:0:0:
256,192,53503,1,0,0:0:0:60:Tom2.wav
36,192,53680,128,2,54033:0:0:0:0:
109,192,53680,128,4,54033:0:0:0:0:
182,192,53680,1,0,0:0:0:0:
402,192,53680,1,0,0:0:0:0:
256,192,53680,1,0,0:0:0:0:
329,192,53856,1,0,0:0:0:0:
402,192,54033,1,8,0:0:0:0:
475,192,54033,128,0,54209:0:0:0:50:Hat open.wav
36,192,54209,128,2,54562:0:0:0:0:
109,192,54209,128,0,54562:0:0:0:65:Crash 2.wav
256,192,54209,1,0,0:0:0:0:
329,192,54209,1,0,0:0:0:0:
182,192,54562,1,2,0:0:0:0:
256,192,54562,128,0,54739:0:0:0:0:
36,192,54739,128,8,55092:0:0:0:0:
109,192,54739,128,0,55092:0:0:0:50:Hat open.wav
329,192,54739,1,0,0:0:0:0:
402,192,54739,1,0,0:0:0:0:
182,192,55092,1,2,0:0:0:0:
329,192,55092,1,4,0:0:0:0:
402,192,55092,128,0,55444:0:0:0:0:
475,192,55092,128,0,55444:0:0:0:0:
256,192,55092,1,0,0:0:0:0:
109,192,55268,1,2,0:0:0:0:
256,192,55268,1,0,0:0:0:0:
36,192,55444,1,8,0:0:0:0:
182,192,55444,128,0,55621:0:0:0:50:Hat open.wav
256,192,55621,1,2,0:0:0:0:
329,192,55621,1,0,0:0:0:65:Crash 2.wav
402,192,55621,128,0,55974:0:0:0:0:
475,192,55621,128,0,55974:0:0:0:0:
36,192,55974,128,2,56150:0:0:0:0:
109,192,55974,1,0,0:0:0:0:
182,192,56150,1,8,0:0:0:0:
256,192,56150,1,0,0:0:0:50:Hat open.wav
402,192,56150,128,0,56503:0:0:0:0:
475,192,56150,128,0,56503:0:0:0:0:
36,192,56503,1,2,0:0:0:0:
109,192,56503,1,4,0:0:0:0:
256,192,56503,1,0,0:0:0:0:
329,192,56503,1,0,0:0:0:0:
256,192,56680,1,8,0:0:0:0:
402,192,56680,1,0,0:0:0:0:
182,192,56768,1,8,0:0:0:0:
36,192,56856,1,8,0:0:0:0:
109,192,56856,1,2,0:0:0:0:
475,192,56856,1,0,0:0:0:0:
402,192,56944,1,8,0:0:0:0:
109,192,57033,1,8,0:0:0:0:
256,192,57033,1,0,0:0:0:0:
329,192,57121,1,8,0:0:0:0:
36,192,57209,1,8,0:0:0:0:
402,192,57209,1,2,0:0:0:0:
475,192,57209,1,0,0:0:0:0:
109,192,57297,1,8,0:0:0:0:
256,192,57386,1,8,0:0:0:0:
402,192,57386,1,0,0:0:0:0:
182,192,57474,1,8,0:0:0:0:
36,192,57562,1,8,0:0:0:0:
109,192,57562,1,2,0:0:0:0:
475,192,57562,1,0,0:0:0:0:
402,192,57650,1,8,0:0:0:0:
109,192,57739,1,8,0:0:0:0:
256,192,57739,1,0,0:0:0:0:
329,192,57827,1,8,0:0:0:0:
182,192,57915,1,8,0:0:0:0:
402,192,57915,1,2,0:0:0:0:
475,192,57915,1,0,0:0:0:0:
109,192,58003,1,8,0:0:0:0:
36,192,58092,1,8,0:0:0:0:
256,192,58092,1,0,0:0:0:0:
182,192,58180,1,8,0:0:0:0:
36,192,58268,128,8,58621:0:0:0:0:
109,192,58268,1,2,0:0:0:0:
329,192,58268,1,0,0:0:0:0:
402,192,58356,1,8,0:0:0:0:
256,192,58444,1,8,0:0:0:0:
475,192,58444,1,0,0:0:0:0:
329,192,58533,1,8,0:0:0:0:
182,192,58621,1,8,0:0:0:0:
402,192,58621,1,2,0:0:0:0:
475,192,58621,128,0,58974:0:0:0:0:
109,192,58709,1,8,0:0:0:0:
36,192,58797,1,8,0:0:0:0:
256,192,58797,1,0,0:0:0:0:
182,192,58886,1,8,0:0:0:0:
36,192,58974,1,8,0:0:0:0:
109,192,58974,128,2,59327:0:0:0:0:
329,192,58974,1,0,0:0:0:0:
402,192,59062,1,8,0:0:0:0:
256,192,59150,1,8,0:0:0:0:
475,192,59150,1,0,0:0:0:0:
329,192,59239,1,8,0:0:0:0:
36,192,59327,1,2,0:0:0:0:
402,192,59327,128,0,59680:0:0:0:0:
475,192,59327,1,0,0:0:0:0:
109,192,59503,1,2,0:0:0:0:
256,192,59503,1,0,0:0:0:0:
182,192,59680,1,8,0:0:0:0:
329,192,59680,1,0,0:0:0:0:
475,192,59680,1,0,0:0:0:0:
36,192,60033,128,2,60739:0:0:0:0:
256,192,60033,1,0,0:0:0:0:
182,192,60209,1,2,0:0:0:0:
402,192,60209,1,0,0:0:0:0:
109,192,60386,1,8,0:0:0:0:
329,192,60386,1,0,0:0:0:0:
256,192,60562,128,2,60739:0:0:0:0:
475,192,60562,128,0,60739:0:0:0:0:
109,192,60915,1,0,0:0:0:50:Tom1.wav
402,192,61003,1,0,0:0:0:50:Tom1.wav
109,192,61092,1,0,0:0:0:60:Tom2.wav
182,192,61268,1,0,0:0:0:60:Tom3.wav
475,192,61621,1,2,0:0:0:0:
402,192,61621,128,0,61797:0:0:0:0:
36,192,61797,1,8,0:0:0:0:
109,192,61797,1,0,0:0:0:0:
182,192,61797,1,0,0:0:0:0:
329,192,61797,128,0,61974:0:0:0:0:
256,192,61974,128,0,62150:0:0:0:0:
109,192,62150,128,4,62503:0:0:0:0:
182,192,62150,1,0,0:0:0:0:
402,192,62150,1,0,0:0:0:0:
36,192,62150,1,2,0:0:0:0:
475,192,62150,128,0,62327:0:0:0:0:
329,192,62327,128,0,62503:0:0:0:0:
256,192,62503,128,2,62856:0:0:0:0:
475,192,62503,1,0,0:0:0:0:
36,192,62503,128,8,62680:0:0:0:0:
402,192,62503,1,0,0:0:0:0:
182,192,62680,128,0,62856:0:0:0:60:Hat open.wav
402,192,62856,128,2,63209:0:0:0:0:
475,192,62856,128,0,63562:0:0:0:0:
109,192,63033,1,0,0:0:0:60:Hat open.wav
182,192,63209,1,8,0:0:0:0:
256,192,63209,128,2,63386:0:0:0:0:
329,192,63209,1,0,0:0:0:0:
36,192,63386,128,0,63739:0:0:0:60:Hat open.wav
329,192,63562,128,2,64268:0:0:0:0:
402,192,63562,1,0,0:0:0:0:
182,192,63739,128,0,63915:0:0:0:60:Hat open.wav
36,192,63915,128,8,64444:0:0:0:0:
402,192,63915,1,2,0:0:0:0:
475,192,63915,1,0,0:0:0:0:
182,192,64092,128,0,64444:0:0:0:60:Hat open.wav
256,192,64268,128,2,64444:0:0:0:0:
475,192,64444,128,0,64974:0:0:0:60:Hat open.wav
109,192,64621,1,8,0:0:0:0:
256,192,64621,1,2,0:0:0:0:
402,192,64621,128,0,64974:0:0:0:0:
329,192,64797,128,0,64974:0:0:0:60:Hat open.wav
182,192,64974,1,2,0:0:0:0:
256,192,64974,128,0,65150:0:0:0:0:
402,192,65150,128,0,65327:0:0:0:60:Hat open.wav
36,192,65327,128,8,65503:0:0:0:0:
109,192,65327,1,2,0:0:0:0:
256,192,65327,1,0,0:0:0:0:
329,192,65327,1,0,0:0:0:0:
182,192,65503,128,0,65680:0:0:0:60:Hat open.wav
256,192,65680,128,2,66033:0:0:0:0:
475,192,65680,128,0,66033:0:0:0:0:
36,192,65856,1,0,0:0:0:60:Hat open.wav
109,192,66033,1,8,0:0:0:0:
182,192,66033,1,2,0:0:0:0:
329,192,66033,128,0,66209:0:0:0:0:
402,192,66033,1,0,0:0:0:0:
36,192,66209,128,0,66739:0:0:0:60:Hat open.wav
182,192,66386,1,2,0:0:0:0:
475,192,66386,128,0,66739:0:0:0:0:
109,192,66562,128,0,66915:0:0:0:60:Hat open.wav
182,192,66739,128,8,67092:0:0:0:0:
402,192,66739,1,2,0:0:0:0:
256,192,66915,128,0,67268:0:0:0:60:Hat open.wav
329,192,67092,128,2,67797:0:0:0:0:
475,192,67092,1,0,0:0:0:0:
109,192,67268,128,0,67444:0:0:0:60:Hat open.wav
182,192,67444,128,8,67621:0:0:0:0:
402,192,67444,1,2,0:0:0:0:
475,192,67444,1,0,0:0:0:0:
36,192,67621,128,0,67797:0:0:0:60:Hat open.wav
109,192,67797,1,2,0:0:0:0:
182,192,67797,1,0,0:0:0:65:Crash 2.wav
256,192,67797,128,0,68150:0:0:0:0:
475,192,67797,128,0,68503:0:0:0:0:
329,192,67974,1,0,0:0:0:0:
36,192,68150,1,8,0:0:0:0:
109,192,68150,1,2,0:0:0:0:
182,192,68150,128,0,68503:0:0:0:0:
402,192,68327,1,0,0:0:0:60:Hat open.wav
36,192,68503,128,2,69209:0:0:0:0:
329,192,68503,128,0,68856:0:0:0:0:
109,192,68680,1,0,0:0:0:60:Hat open.wav
182,192,68856,1,8,0:0:0:0:
256,192,68856,128,2,69033:0:0:0:0:
402,192,68856,1,0,0:0:0:0:
475,192,69033,128,0,69386:0:0:0:60:Hat open.wav
109,192,69209,1,2,0:0:0:0:
182,192,69209,128,0,69915:0:0:0:0:
329,192,69386,128,0,69562:0:0:0:60:Hat open.wav
36,192,69562,1,8,0:0:0:0:
109,192,69562,1,2,0:0:0:0:
475,192,69562,128,0,70092:0:0:0:0:
329,192,69739,128,0,70092:0:0:0:60:Hat open.wav
256,192,69915,128,2,70092:0:0:0:0:
36,192,70092,128,0,70621:0:0:0:60:Hat open.wav
402,192,70268,1,8,0:0:0:0:
109,192,70268,128,2,70621:0:0:0:0:
256,192,70268,1,0,0:0:0:0:
475,192,70444,1,0,0:0:0:60:Hat open.wav
402,192,70533,1,0,0:0:0:0:
256,192,70621,128,2,70797:0:0:0:0:
329,192,70621,1,0,0:0:0:0:
402,192,70797,128,0,70974:0:0:0:60:Hat open.wav
109,192,70974,1,8,0:0:0:0:
182,192,70974,128,2,71150:0:0:0:0:
256,192,70974,1,0,0:0:0:0:
329,192,70974,1,0,0:0:0:0:
36,192,71150,128,0,71327:0:0:0:60:Hat open.wav
256,192,71327,1,2,0:0:0:0:
475,192,71327,128,0,71680:0:0:0:0:
182,192,71503,1,0,0:0:0:60:Hat open.wav
36,192,71680,1,8,0:0:0:0:
109,192,71680,1,2,0:0:0:0:
329,192,71680,128,0,72033:0:0:0:0:
402,192,71680,1,0,0:0:0:0:
256,192,71856,128,0,72033:0:0:0:60:Hat open.wav
36,192,72033,128,2,72209:0:0:0:0:
182,192,72033,128,4,72209:0:0:0:0:
402,192,72033,1,0,0:0:0:0:
475,192,72033,1,0,0:0:0:0:
109,192,72209,128,0,72386:0:0:0:0:
256,192,72209,128,0,72386:0:0:0:0:
36,192,72386,1,8,0:0:0:0:
182,192,72386,128,2,72562:0:0:0:0:
329,192,72386,128,0,72562:0:0:0:0:
475,192,72386,1,0,0:0:0:0:
256,192,72562,128,0,72739:0:0:0:60:Hat open.wav
402,192,72562,128,0,72739:0:0:0:0:
329,192,72739,128,2,72915:0:0:0:0:
475,192,72739,128,0,72915:0:0:0:0:
36,192,72915,1,8,0:0:0:0:
256,192,72915,1,0,0:0:0:0:
109,192,73003,1,8,0:0:0:0:
329,192,73003,1,0,0:0:0:0:
182,192,73092,1,8,0:0:0:0:
402,192,73092,1,0,0:0:0:0:
475,192,73092,128,0,73268:0:0:0:0:
36,192,73268,1,8,0:0:0:0:
109,192,73268,1,0,0:0:0:0:
256,192,73268,128,0,73444:0:0:0:0:
36,192,73444,1,2,0:0:0:0:
109,192,73444,128,4,73797:0:0:0:0:
182,192,73444,1,0,0:0:0:0:
329,192,73444,128,0,73621:0:0:0:0:
402,192,73444,1,0,0:0:0:0:
475,192,73621,128,0,73797:0:0:0:0:
182,192,73797,128,8,73974:0:0:0:0:
256,192,73797,128,2,74150:0:0:0:0:
329,192,73797,1,0,0:0:0:0:
402,192,73797,1,0,0:0:0:0:
36,192,73974,128,0,74150:0:0:0:60:Hat open.wav
402,192,74150,128,2,74503:0:0:0:0:
475,192,74150,128,0,74856:0:0:0:0:
109,192,74327,1,0,0:0:0:60:Hat open.wav
182,192,74503,1,8,0:0:0:0:
256,192,74503,128,2,74680:0:0:0:0:
329,192,74503,1,0,0:0:0:0:
36,192,74680,128,0,75033:0:0:0:60:Hat open.wav
329,192,74856,128,2,75562:0:0:0:0:
402,192,74856,1,0,0:0:0:0:
182,192,75033,128,0,75209:0:0:0:60:Hat open.wav
36,192,75209,128,8,75739:0:0:0:0:
402,192,75209,1,2,0:0:0:0:
475,192,75209,1,0,0:0:0:0:
182,192,75386,128,0,75739:0:0:0:60:Hat open.wav
256,192,75562,128,2,75739:0:0:0:0:
475,192,75739,128,0,76268:0:0:0:60:Hat open.wav
109,192,75915,1,8,0:0:0:0:
256,192,75915,1,2,0:0:0:0:
402,192,75915,128,0,76268:0:0:0:0:
329,192,76092,1,0,0:0:0:60:Hat open.wav
182,192,76180,1,0,0:0:0:0:
36,192,76268,1,2,0:0:0:0:
256,192,76268,128,0,76444:0:0:0:0:
475,192,76444,128,0,76621:0:0:0:60:Hat open.wav
36,192,76621,1,8,0:0:0:0:
109,192,76621,128,2,76797:0:0:0:0:
256,192,76621,1,0,0:0:0:0:
402,192,76621,1,0,0:0:0:0:
182,192,76797,128,0,76974:0:0:0:60:Hat open.wav
256,192,76974,128,2,77327:0:0:0:0:
475,192,76974,128,0,77327:0:0:0:0:
36,192,77150,1,0,0:0:0:60:Hat open.wav
109,192,77327,1,8,0:0:0:0:
182,192,77327,1,2,0:0:0:0:
329,192,77327,1,0,0:0:0:0:
402,192,77327,128,0,77503:0:0:0:0:
36,192,77503,128,0,78033:0:0:0:60:Hat open.wav
256,192,77680,1,2,0:0:0:0:
475,192,77680,128,0,78033:0:0:0:0:
182,192,77856,128,0,78209:0:0:0:60:Hat open.wav
256,192,78033,128,8,78386:0:0:0:0:
402,192,78033,1,2,0:0:0:0:
329,192,78209,128,0,78562:0:0:0:60:Hat open.wav
402,192,78386,128,2,79092:0:0:0:0:
475,192,78386,1,0,0:0:0:0:
36,192,78562,128,0,78739:0:0:0:60:Hat open.wav
109,192,78739,128,8,78915:0:0:0:0:
182,192,78739,1,2,0:0:0:0:
256,192,78739,1,0,0:0:0:0:
329,192,78915,128,0,79092:0:0:0:60:Hat open.wav
36,192,79092,1,2,0:0:0:0:
182,192,79092,128,0,79444:0:0:0:65:Crash 2.wav
256,192,79092,1,0,0:0:0:0:
475,192,79092,128,0,79797:0:0:0:0:
109,192,79268,1,0,0:0:0:0:
256,192,79444,128,8,79797:0:0:0:0:
329,192,79444,1,2,0:0:0:0:
402,192,79444,1,0,0:0:0:0:
109,192,79621,1,0,0:0:0:60:Hat open.wav
36,192,79797,128,2,80503:0:0:0:0:
329,192,79797,128,0,80150:0:0:0:0:
402,192,79974,1,0,0:0:0:60:Hat open.wav
109,192,80150,1,8,0:0:0:0:
182,192,80150,1,2,0:0:0:0:
256,192,80150,128,0,80327:0:0:0:0:
475,192,80327,128,0,80680:0:0:0:60:Hat open.wav
182,192,80503,128,2,81209:0:0:0:0:
256,192,80503,1,0,0:0:0:0:
329,192,80680,128,0,80856:0:0:0:60:Hat open.wav
36,192,80856,1,8,0:0:0:0:
109,192,80856,1,2,0:0:0:0:
475,192,80856,128,0,81386:0:0:0:0:
329,192,81033,128,0,81386:0:0:0:60:Hat open.wav
36,192,81209,128,2,81562:0:0:0:0:
256,192,81386,1,0,0:0:0:60:Hat open.wav
109,192,81562,1,8,0:0:0:0:
182,192,81562,1,2,0:0:0:0:
256,192,81562,1,0,0:0:0:0:
402,192,81562,1,0,0:0:0:0:
329,192,81739,1,0,0:0:0:60:Hat open.wav
402,192,81827,1,0,0:0:0:0:
256,192,81915,128,2,82092:0:0:0:0:
475,192,81915,1,0,0:0:0:0:
109,192,82092,128,0,82268:0:0:0:60:Hat open.wav
182,192,82268,1,8,0:0:0:0:
256,192,82268,1,2,0:0:0:0:
402,192,82268,1,0,0:0:0:0:
475,192,82268,128,0,82444:0:0:0:0:
329,192,82444,128,0,82621:0:0:0:60:Hat open.wav
36,192,82621,128,2,82974:0:0:0:0:
256,192,82621,1,0,0:0:0:0:
475,192,82797,1,0,0:0:0:60:Hat open.wav
109,192,82974,1,8,0:0:0:0:
256,192,82974,128,2,83327:0:0:0:0:
329,192,82974,1,0,0:0:0:0:
402,192,82974,1,0,0:0:0:0:
182,192,83150,128,0,83327:0:0:0:60:Hat open.wav
109,192,83327,1,2,0:0:0:0:
402,192,83327,1,8,0:0:0:0:
36,192,83415,1,8,0:0:0:0:
329,192,83415,1,0,0:0:0:0:
256,192,83503,1,8,0:0:0:0:
475,192,83503,1,0,0:0:0:0:
182,192,83592,1,8,0:0:0:0:
402,192,83592,1,0,0:0:0:0:
109,192,83680,128,2,83856:0:0:0:0:
329,192,83680,128,0,83856:0:0:0:0:
182,192,83856,128,0,84033:0:0:0:60:Tom2.wav
402,192,83856,128,0,84033:0:0:0:0:
256,192,84033,128,2,84209:0:0:0:0:
475,192,84033,128,0,84209:0:0:0:0:
36,192,84209,1,0,0:0:0:60:Tom2.wav
329,192,84209,128,0,84386:0:0:0:0:
109,192,84297,1,0,0:0:0:60:Tom2.wav
182,192,84386,128,2,84739:0:0:0:0:
402,192,84386,128,0,84562:0:0:0:60:Tom2.wav
475,192,84562,128,0,84739:0:0:0:60:Tom3.wav
36,192,84739,128,2,85444:0:0:0:0:
109,192,84739,128,4,85092:0:0:0:0:
256,192,84739,1,0,0:0:0:0:
329,192,84739,1,0,0:0:0:0:
402,192,84739,1,0,0:0:0:0:
256,192,85092,128,0,85444:0:0:0:0:
402,192,85444,128,0,85797:0:0:0:0:
475,192,85444,128,0,85974:0:0:0:0:
256,192,85797,128,0,85974:0:0:0:0:
36,192,85974,128,2,86327:0:0:0:0:
109,192,85974,1,0,0:0:0:65:Crash 2.wav
182,192,85974,1,0,0:0:0:0:
329,192,85974,128,0,86680:0:0:0:0:
182,192,86327,128,2,86503:0:0:0:0:
36,192,86503,128,2,87033:0:0:0:0:
182,192,86680,128,8,87033:0:0:0:0:
256,192,86680,128,4,87033:0:0:0:0:
402,192,86680,1,0,0:0:0:0:
475,192,86680,1,0,0:0:0:0:
329,192,87033,1,2,0:0:0:0:
402,192,87033,1,0,0:0:0:0:
182,192,87209,1,8,0:0:0:0:
475,192,87209,1,0,0:0:0:0:
109,192,87297,1,8,0:0:0:0:
402,192,87297,1,0,0:0:0:0:
36,192,87386,1,8,0:0:0:0:
329,192,87386,1,0,0:0:0:0:
256,192,87474,1,8,0:0:0:0:
475,192,87474,1,0,0:0:0:0:
36,192,87562,128,2,87739:0:0:0:0:
109,192,87562,1,0,0:0:0:65:Crash 2.wav
182,192,87562,1,0,0:0:0:0:
402,192,87562,1,0,0:0:0:0:
329,192,87739,128,0,87915:0:0:0:60:Hat open.wav
109,192,87915,1,8,0:0:0:0:
182,192,87915,128,2,88092:0:0:0:0:
256,192,87915,1,0,0:0:0:0:
402,192,87915,1,0,0:0:0:0:
475,192,88092,128,0,88268:0:0:0:60:Hat open.wav
36,192,88268,128,2,88621:0:0:0:0:
329,192,88268,128,0,88621:0:0:0:0:
256,192,88444,1,0,0:0:0:0:
109,192,88621,1,8,0:0:0:0:
182,192,88621,128,2,88974:0:0:0:0:
402,192,88621,1,0,0:0:0:0:
475,192,88621,1,0,0:0:0:0:
256,192,88797,128,0,88974:0:0:0:60:Hat open.wav
36,192,88974,1,2,0:0:0:0:
109,192,88974,1,4,0:0:0:0:
329,192,88974,1,0,0:0:0:0:
402,192,88974,1,0,0:0:0:0:
475,192,88974,1,0,0:0:0:0:
109,192,89150,1,8,0:0:0:0:
182,192,89150,1,0,0:0:0:0:
256,192,89150,1,0,0:0:0:0:
402,192,89239,1,8,0:0:0:0:
475,192,89239,1,0,0:0:0:0:
36,192,89327,128,8,89503:0:0:0:0:
182,192,89327,1,2,0:0:0:0:
256,192,89327,1,0,0:0:0:0:
329,192,89327,1,0,0:0:0:0:
109,192,89503,128,8,89680:0:0:0:0:
256,192,89503,1,0,0:0:0:0:
329,192,89503,1,0,0:0:0:0:
402,192,89503,1,0,0:0:0:0:
182,192,89680,128,2,89856:0:0:0:0:
329,192,89680,1,8,0:0:0:0:
402,192,89680,1,0,0:0:0:0:
475,192,89680,1,0,0:0:0:0:
256,192,89856,128,8,90033:0:0:0:0:
402,192,89856,1,0,0:0:0:0:
475,192,89856,1,0,0:0:0:0:
36,192,90033,1,8,0:0:0:0:
109,192,90033,1,2,0:0:0:0:
329,192,90033,128,0,90209:0:0:0:0:
475,192,90033,1,0,0:0:0:0:
36,192,90209,1,8,0:0:0:0:
109,192,90209,1,0,0:0:0:0:
182,192,90209,1,0,0:0:0:0:
402,192,90209,128,0,90386:0:0:0:0:
109,192,90386,128,2,90562:0:0:0:0:
182,192,90386,1,0,0:0:0:65:Crash 2.wav
256,192,90386,1,0,0:0:0:0:
329,192,90386,1,0,0:0:0:0:
475,192,90386,128,0,91092:0:0:0:0:
36,192,90562,1,0,0:0:0:60:Hat open.wav
256,192,90562,128,0,90739:0:0:0:0:
182,192,90739,128,8,90915:0:0:0:0:
329,192,90739,1,2,0:0:0:0:
402,192,90739,1,0,0:0:0:0:
36,192,90915,128,0,91092:0:0:0:60:Hat open.wav
256,192,90915,1,0,0:0:0:0:
109,192,91092,1,2,0:0:0:0:
402,192,91092,1,0,0:0:0:0:
182,192,91180,1,0,0:0:0:0:
329,192,91180,1,0,0:0:0:0:
256,192,91268,1,0,0:0:0:60:Hat open.wav
36,192,91356,1,0,0:0:0:0:
475,192,91356,1,0,0:0:0:0:
109,192,91444,1,8,0:0:0:0:
182,192,91444,1,2,0:0:0:0:
329,192,91444,1,0,0:0:0:0:
402,192,91444,1,0,0:0:0:0:
475,192,91621,1,0,0:0:0:60:Hat open.wav
36,192,91797,128,2,91974:0:0:0:0:
256,192,91797,128,0,92503:0:0:0:0:
182,192,91974,1,0,0:0:0:60:Hat open.wav
475,192,91974,128,0,92150:0:0:0:0:
36,192,92150,128,8,92327:0:0:0:0:
109,192,92150,1,2,0:0:0:0:
329,192,92150,1,0,0:0:0:0:
402,192,92327,1,0,0:0:0:60:Hat open.wav
475,192,92327,128,0,92503:0:0:0:0:
109,192,92503,1,2,0:0:0:0:
329,192,92503,1,0,0:0:0:0:
182,192,92592,1,0,0:0:0:0:
402,192,92592,1,0,0:0:0:0:
256,192,92680,1,0,0:0:0:60:Hat open.wav
36,192,92768,1,0,0:0:0:0:
475,192,92768,1,0,0:0:0:0:
109,192,92856,1,8,0:0:0:0:
182,192,92856,1,2,0:0:0:0:
329,192,92856,1,0,0:0:0:0:
402,192,92856,1,0,0:0:0:0:
256,192,93033,1,0,0:0:0:60:Hat open.wav
36,192,93209,128,2,93386:0:0:0:0:
475,192,93209,128,0,93739:0:0:0:0:
182,192,93386,128,0,93562:0:0:0:60:Hat open.wav
402,192,93386,1,0,0:0:0:0:
36,192,93562,128,8,93739:0:0:0:0:
109,192,93562,1,2,0:0:0:0:
329,192,93562,1,0,0:0:0:0:
402,192,93739,1,0,0:0:0:60:Hat open.wav
109,192,93915,1,2,0:0:0:0:
256,192,93915,1,0,0:0:0:0:
109,192,94092,128,0,94444:0:0:0:60:Hat open.wav
329,192,94092,1,0,0:0:0:0:
182,192,94268,1,8,0:0:0:0:
475,192,94268,128,2,94444:0:0:0:0:
402,192,94268,1,0,0:0:0:0:
256,192,94444,1,0,0:0:0:60:Hat open.wav
36,192,94621,128,2,95327:0:0:0:0:
329,192,94621,128,0,94797:0:0:0:0:
256,192,94797,1,0,0:0:0:60:Hat open.wav
402,192,94797,128,0,94974:0:0:0:0:
109,192,94974,1,8,0:0:0:0:
182,192,94974,1,2,0:0:0:0:
329,192,94974,128,0,95150:0:0:0:0:
256,192,95150,1,0,0:0:0:60:Hat open.wav
475,192,95150,128,0,95327:0:0:0:0:
182,192,95327,1,2,0:0:0:0:
402,192,95327,1,0,0:0:0:0:
109,192,95415,1,0,0:0:0:0:
329,192,95415,1,0,0:0:0:0:
256,192,95503,1,0,0:0:0:60:Hat open.wav
182,192,95592,1,0,0:0:0:0:
475,192,95592,1,0,0:0:0:0:
36,192,95680,1,8,0:0:0:0:
109,192,95680,1,2,0:0:0:0:
329,192,95680,1,0,0:0:0:0:
402,192,95680,1,0,0:0:0:0:
256,192,95856,1,8,0:0:0:0:
182,192,95856,1,0,0:0:0:0:
402,192,95944,1,8,0:0:0:0:
475,192,95944,1,0,0:0:0:0:
36,192,96033,1,2,0:0:0:0:
109,192,96033,1,4,0:0:0:0:
256,192,96033,1,0,0:0:0:0:
329,192,96033,128,0,96386:0:0:0:0:
182,192,96209,128,0,96386:0:0:0:0:
36,192,96386,1,8,0:0:0:0:
256,192,96386,1,0,0:0:0:0:
475,192,96386,128,0,96562:0:0:0:0:
109,192,96562,1,2,0:0:0:0:
182,192,96562,1,0,0:0:0:65:Crash 2.wav
329,192,96562,1,0,0:0:0:0:
402,192,96562,128,0,96915:0:0:0:0:
36,192,96915,128,2,97444:0:0:0:0:
256,192,96915,1,0,0:0:0:0:
109,192,97092,128,8,97444:0:0:0:0:
182,192,97092,128,0,97444:0:0:0:60:Hat open.wav
329,192,97092,1,0,0:0:0:0:
256,192,97444,128,2,97797:0:0:0:0:
329,192,97444,1,4,0:0:0:0:
402,192,97444,1,0,0:0:0:0:
475,192,97444,1,0,0:0:0:0:
109,192,97621,128,0,97797:0:0:0:0:
36,192,97797,1,8,0:0:0:0:
329,192,97797,128,0,97974:0:0:0:0:
402,192,97797,1,0,0:0:0:0:
109,192,97974,128,2,98150:0:0:0:0:
182,192,97974,1,0,0:0:0:65:Crash 2.wav
256,192,97974,1,0,0:0:0:0:
475,192,97974,128,0,99033:0:0:0:0:
182,192,98327,1,2,0:0:0:0:
329,192,98327,1,0,0:0:0:0:
109,192,98503,1,8,0:0:0:0:
256,192,98503,1,0,0:0:0:60:Hat open.wav
402,192,98503,1,0,0:0:0:0:
36,192,98680,128,2,99033:0:0:0:0:
109,192,98680,128,4,99033:0:0:0:0:
182,192,98680,1,0,0:0:0:0:
329,192,98680,1,0,0:0:0:0:
182,192,99033,1,2,0:0:0:0:
329,192,99033,128,0,99386:0:0:0:0:
256,192,99209,1,8,0:0:0:0:
402,192,99209,128,0,99386:0:0:0:60:Hat open.wav
475,192,99209,1,0,0:0:0:0:
182,192,99386,128,0,99739:0:0:0:0:
256,192,99562,128,2,99739:0:0:0:0:
329,192,99562,1,0,0:0:0:65:Crash 2.wav
36,192,99739,128,2,100268:0:0:0:0:
109,192,99739,1,0,0:0:0:0:
329,192,99915,128,8,100268:0:0:0:0:
402,192,99915,128,0,100268:0:0:0:60:Hat open.wav
475,192,99915,1,0,0:0:0:0:
109,192,100268,1,2,0:0:0:0:
182,192,100268,1,4,0:0:0:0:
475,192,100268,1,0,0:0:0:0:
256,192,100356,1,0,0:0:0:0:
36,192,100444,1,2,0:0:0:0:
329,192,100444,1,0,0:0:0:0:
109,192,100533,1,0,0:0:0:0:
182,192,100621,1,8,0:0:0:0:
256,192,100621,1,0,0:0:0:60:Hat open.wav
475,192,100621,1,0,0:0:0:0:
402,192,100709,1,0,0:0:0:0:
109,192,100797,1,8,0:0:0:0:
182,192,100797,1,0,0:0:0:0:
329,192,100797,1,0,0:0:0:0:
256,192,100886,1,0,0:0:0:0:
36,192,100974,1,2,0:0:0:0:
475,192,100974,1,0,0:0:0:0:
402,192,101062,1,0,0:0:0:0:
109,192,101150,1,8,0:0:0:0:
329,192,101150,1,0,0:0:0:0:
182,192,101239,1,8,0:0:0:0:
402,192,101239,1,0,0:0:0:0:
256,192,101327,1,0,0:0:0:50:Tom1.wav
475,192,101327,1,0,0:0:0:0:
36,192,101415,1,0,0:0:0:0:
109,192,101503,1,0,0:0:0:50:Tom1.wav
329,192,101503,1,0,0:0:0:0:
182,192,101592,1,0,0:0:0:0:
36,192,101680,1,0,0:0:0:45:Crash 2.wav
256,192,101680,1,0,0:0:0:0:
329,192,101680,1,0,0:0:0:0:
402,192,101680,1,0,0:0:0:0:
475,192,101680,1,0,0:0:0:0:
