osu file format v14

[General]
AudioFilename: audio.mp3
AudioLeadIn: 0
PreviewTime: 61595
Countdown: 0
SampleSet: Soft
StackLeniency: 0.4
Mode: 0
LetterboxInBreaks: 0
WidescreenStoryboard: 0

[Editor]
Bookmarks: 8442,14089,19736,25383,36678,47972,53619,62089,84678,90325,95972,101619
DistanceSpacing: 1
BeatDivisor: 4
GridSize: 16
TimelineZoom: 1.2

[Metadata]
Title:Baby Sweet Berry Love
TitleUnicode:Baby Sweet Berry Love
Artist:Pastel*Palettes
ArtistUnicode:Pastel*Palettes
Creator:-Mikan
Version:Neko
Source:バンドリ! ガールズバンドパーティ!
Tags:Djulus Shizuku- Cami Ogura Yui 小倉唯 Hentai Ouji to Warawanai Neko 変態王子と笑わない猫。 Cover Anime Japanese Ending ED BanG Dream! Girls Band Party! Garupa Bandori! ガルパ!PasuPare パスパレ Paspale パステルパレット ぱすてるぱれっと 丸山彩 Maruyama Aya 大和麻弥 Yamato Maya 若宮イヴ Wakamiya Eve 白鷺千聖 Shirasagi Chisato 氷川日菜 Hikawa Hina 前島亜美 Maeshima Ami 中上育美 Nakagami Ikumi 秦佐和子 Hata Sawako 上坂すみれ Uesaka Sumire 小澤亜李 Ozawa Ari
BeatmapID:1957278
BeatmapSetID:936984

[Difficulty]
HPDrainRate:6
CircleSize:4
OverallDifficulty:9
ApproachRate:9.2
SliderMultiplier:1.7
SliderTickRate:1

[Events]
//Background and Video events
0,0,"bbf13767-53ac-4406-b1ab-6f0595ef925d.jpg",0,0
Video,2202,"Baby Sweet Berry Love.avi"
//Break Periods
//Storyboard Layer 0 (Background)
//Storyboard Layer 1 (Fail)
//Storyboard Layer 2 (Pass)
//Storyboard Layer 3 (Foreground)
//Storyboard Sound Samples

[TimingPoints]
1419,352.941176470588,4,2,1,51,1,0
2301,-181.818181818181,4,2,1,51,0,0
2830,-133.333333333333,4,2,1,51,0,0
3183,-133.333333333333,4,2,3,51,0,0
4242,-133.333333333333,4,2,1,51,0,0
4418,-133.333333333333,4,2,3,51,0,0
4948,-133.333333333333,4,2,1,51,0,0
5830,-133.333333333333,4,2,3,51,0,0
7066,-133.333333333333,4,2,1,51,0,0
8124,-133.333333333333,4,2,3,51,0,0
8477,-111.111111111111,4,2,1,61,0,0
14124,-100,4,2,2,71,0,0
21095,-100,4,2,2,5,0,0
21183,-100,4,2,2,71,0,0
21977,-100,4,2,2,5,0,0
22066,-100,4,2,2,71,0,0
23918,-100,4,2,2,5,0,0
24007,-100,4,2,2,71,0,0
24360,-133.333333333333,4,2,2,71,0,0
24536,-133.333333333333,4,2,2,71,0,0
25418,-153.846153846153,4,2,3,51,0,0
25948,-153.846153846153,4,2,1,51,0,0
26124,-153.846153846153,4,2,3,51,0,0
26477,-153.846153846153,4,2,1,51,0,0
26654,-153.846153846153,4,2,3,51,0,0
26742,-153.846153846153,4,2,3,5,0,0
26830,-153.846153846153,4,2,1,51,0,0
27360,-153.846153846153,4,2,3,51,0,0
27889,-153.846153846153,4,2,1,51,0,0
28154,-153.846153846153,4,2,1,5,0,0
28242,-153.846153846153,4,2,1,51,0,0
28595,-153.846153846153,4,2,3,51,0,0
28772,-153.846153846153,4,2,1,51,0,0
28948,-153.846153846153,4,2,3,51,0,0
29301,-153.846153846153,4,2,1,51,0,0
29478,-153.846153846153,4,2,3,51,0,0
29654,-153.846153846153,4,2,1,51,0,0
30184,-153.846153846153,4,2,3,51,0,0
30713,-153.846153846153,4,2,1,51,0,0
30977,-153.846153846153,4,2,1,5,0,0
31066,-153.846153846153,4,2,1,51,0,0
31418,-153.846153846153,4,2,3,51,0,0
31596,-153.846153846153,4,2,1,51,0,0
31948,-153.846153846153,4,2,3,51,0,0
32125,-153.846153846153,4,2,1,51,0,0
32830,-153.846153846153,4,2,3,51,0,0
33007,-153.846153846153,4,2,1,51,0,0
34242,-153.846153846153,4,2,3,51,0,0
34595,-153.846153846153,4,2,1,51,0,0
34948,-222.22222222222,4,2,1,51,0,0
35213,-222.22222222222,4,2,1,5,0,0
35301,-222.22222222222,4,2,1,51,0,0
36713,-125,4,2,1,61,0,0
36977,-125,4,2,1,5,0,0
37066,-125,4,2,1,61,0,0
37330,-125,4,2,1,5,0,0
37418,-125,4,2,1,61,0,0
39448,-125,4,2,1,5,0,0
39536,-125,4,2,1,61,0,0
39801,-125,4,2,1,5,0,0
39889,-125,4,2,1,61,0,0
45183,-111.111111111111,4,2,2,66,0,0
45448,-111.111111111111,4,2,2,5,0,0
45536,-111.111111111111,4,2,2,66,0,0
45801,-111.111111111111,4,2,2,5,0,0
45889,-111.111111111111,4,2,2,66,0,0
46154,-111.111111111111,4,2,2,5,0,0
46242,-111.111111111111,4,2,2,66,0,0
46507,-111.111111111111,4,2,2,5,0,0
46595,-111.111111111111,4,2,2,66,0,0
48007,-111.111111111111,4,2,2,51,0,0
49066,-285.714285714284,4,2,1,51,0,0
49330,-285.714285714284,4,2,1,5,0,0
49418,-285.714285714284,4,2,1,51,0,0
50830,-285.714285714284,4,2,2,51,0,0
51889,-285.714285714284,4,2,1,51,0,0
52154,-285.714285714284,4,2,1,5,0,0
52242,-285.714285714284,4,2,1,51,0,0
53654,-117.647058823529,4,2,1,61,0,0
54448,-117.647058823529,4,2,1,5,0,0
54536,-117.647058823529,4,2,1,61,0,0
55860,-117.647058823529,4,2,1,5,0,0
55948,-117.647058823529,4,2,1,61,0,0
56477,-100,4,2,1,31,0,0
59301,-117.647058823529,4,2,1,51,0,0
60801,-117.647058823529,4,2,1,5,0,0
60889,-100,4,2,2,51,0,0
61595,-100,4,2,1,61,0,0
62124,-100,4,2,2,81,0,1
84713,-100,4,2,2,71,0,0
97330,-100,4,2,2,5,0,0
97418,-100,4,2,2,71,0,0
98213,-100,4,2,2,5,0,0
98301,-100,4,2,2,71,0,0
100154,-100,4,2,2,5,0,0
100242,-100,4,2,2,71,0,0
100595,-133.333333333333,4,2,2,71,0,0

[Colours]
Combo1 : 255,164,209
Combo2 : 207,164,137
Combo3 : 159,255,159
Combo4 : 138,197,255

[HitObjects]
424,115,2301,6,0,B|407:98|407:98|375:105,2,46.7500014266968,0|0|0,0:0|0:0|0:0,0:0:0:0:
479,30,2830,6,0,P|454:85|436:159,1,127.500004863739,2|2,0:0|0:0,0:0:0:0:
419,300,3536,2,0,P|409:263|394:229,1,63.7500024318696,2|0,0:0|0:0,0:0:0:0:
437,149,3889,1,2,0:0:0:0:
494,206,4066,6,0,P|459:229|374:197,1,127.500004863739,2|2,0:0|0:0,0:0:0:0:
357,135,4595,1,2,0:0:0:0:
284,284,4771,1,2,0:0:0:0:
213,252,4948,2,0,P|242:216|293:208,2,95.6250036478044,2|2|2,0:0|0:0|0:0,0:0:0:0:
149,331,5654,6,0,P|110:333|77:340,1,63.7500024318696,2|2,0:0|0:0,0:0:0:0:
13,245,6007,2,0,P|44:250|76:251,1,63.7500024318696,2|2,0:0|0:0,0:0:0:0:
213,252,6360,2,0,P|177:193|112:198,1,127.500004863739,2|2,0:0|0:0,0:0:0:0:
76,251,6889,1,2,0:0:0:0:
72,64,7066,5,2,0:0:0:0:
142,37,7242,1,0,0:0:0:0:
59,141,7418,1,0,0:0:0:0:
2,93,7595,1,0,0:0:0:0:
139,114,7771,1,2,0:0:0:0:
124,191,7948,5,0,0:0:0:0:
2,93,8124,1,2,0:0:0:0:
142,37,8301,1,2,0:0:0:0:
268,132,8477,6,0,B|247:171|256:218|267:199|286:236|259:289,1,152.999995330811,4|0,3:2|0:0,0:0:0:0:
196,243,9007,1,0,0:0:0:0:
334,175,9183,6,0,B|395:172|395:172|423:199|423:199|485:195,1,152.999995330811,4|0,3:2|0:0,0:0:0:0:
455,123,9713,1,0,0:0:0:0:
361,254,9889,6,0,B|353:284|353:284|378:334,1,76.4999976654053,4|0,3:2|0:0,0:0:0:0:
475,195,10242,1,0,3:0:0:0:
512,265,10418,2,0,L|430:279,1,76.4999976654053,0|4,0:0|3:2,0:0:0:0:
334,175,10771,6,0,B|323:154|318:133,1,38.2499988327027,2|0,0:0|0:0,0:0:0:0:
395,58,10948,2,0,P|408:28|418:14,1,38.2499988327027,2|0,0:0|0:0,0:0:0:0:
452,162,11124,5,2,0:0:0:0:
419,188,11213,1,2,0:0:0:0:
371,183,11301,2,0,L|303:167,1,38.2499988327027,8|8,0:0|0:0,0:0:0:0:
251,97,11477,1,0,3:0:0:0:
206,77,11566,1,0,3:0:0:0:
161,88,11654,1,8,0:0:0:0:
94,185,11830,1,0,3:0:0:0:
15,97,12007,6,0,L|16:58,1,38.2499988327027,8|8,0:0|0:0,0:0:0:0:
200,160,12183,2,0,L|201:198,1,38.2499988327027,8|8,0:0|0:0,0:0:0:0:
30,338,12360,2,0,L|39:237,1,76.4999976654053,0|0,3:0|3:0,0:0:0:0:
201,198,12713,6,0,B|286:200|248:224|295:244|337:238,1,114.749996498108,4|0,3:2|0:0,0:0:0:0:
403,204,13066,2,0,P|390:158|321:181,1,114.749996498108,4|0,3:2|0:0,0:0:0:0:
305,237,13418,5,8,0:0:0:0:
318,271,13507,1,8,0:0:0:0:
309,305,13595,1,8,0:0:0:0:
323,339,13683,1,8,0:0:0:0:
314,373,13771,1,8,0:0:0:0:
196,266,13948,5,8,0:0:0:0:
191,231,14036,1,8,0:0:0:0:
201,198,14124,2,0,L|206:140,1,42.5,4|0,3:2|0:0,0:0:0:0:
366,45,14301,2,0,L|372:100,1,42.5,2|0,0:0|0:0,0:0:0:0:
264,86,14477,2,0,L|270:31,1,42.5,8|0,0:0|0:0,0:0:0:0:
427,148,14654,2,0,L|430:190,1,42.5,2|0,0:0|0:0,0:0:0:0:
307,271,14830,5,0,3:0:0:0:
298,260,14918,2,0,L|305:204,1,42.5,2|0,0:0|0:0,0:0:0:0:
449,19,15095,1,2,0:0:0:0:
460,28,15183,2,0,L|465:70,1,42.5,8|0,0:0|0:0,0:0:0:0:
268,43,15360,1,2,0:0:0:0:
429,190,15536,6,0,L|472:193,1,42.5,0|0,3:0|0:0,0:0:0:0:
326,311,15713,2,0,L|283:313,1,42.5,2|0,0:0|0:0,0:0:0:0:
440,362,15889,2,0,L|500:356,1,42.5,8|0,0:0|0:0,0:0:0:0:
303,217,16066,2,0,L|260:214,1,42.5,2|0,0:0|0:0,0:0:0:0:
141,294,16242,5,0,3:0:0:0:
151,304,16330,2,0,L|211:307,1,42.5,2|0,0:0|0:0,0:0:0:0:
358,156,16507,1,2,0:0:0:0:
348,146,16595,2,0,L|288:143,1,42.5,8|0,0:0|0:0,0:0:0:0:
108,40,16771,1,2,0:0:0:0:
41,208,16948,6,0,L|108:205,1,42.5,0|0,3:0|0:0,0:0:0:0:
197,65,17124,2,0,L|264:62,1,42.5,2|0,0:0|0:0,0:0:0:0:
387,224,17301,2,0,L|281:214,1,85,8|2,0:0|0:0,0:0:0:0:
204,197,17566,5,0,0:0:0:0:
219,188,17654,2,0,L|212:129,1,42.5,0|0,3:0|0:0,0:0:0:0:
465,70,17830,2,0,L|455:140,1,42.5,2|0,0:0|0:0,0:0:0:0:
302,10,18007,2,0,L|386:2,1,85,8|2,0:0|0:0,0:0:0:0:
512,192,18360,6,0,L|463:189,1,42.5,0|0,3:0|0:0,0:0:0:0:
305,143,18536,1,2,0:0:0:0:
187,273,18713,6,0,L|236:270,1,42.5,8|0,0:0|0:0,0:0:0:0:
385,110,18889,1,2,0:0:0:0:
224,90,19066,5,0,3:0:0:0:
209,103,19154,2,0,L|216:172,1,42.5,2|0,0:0|0:0,0:0:0:0:
305,341,19330,1,2,0:0:0:0:
319,332,19418,2,0,L|326:263,1,42.5,8|0,0:0|0:0,0:0:0:0:
41,208,19595,5,8,0:0:0:0:
38,239,19683,1,8,0:0:0:0:
57,266,19771,2,0,L|115:258,1,42.5,4|0,3:2|0:0,0:0:0:0:
213,145,19948,1,0,0:0:0:0:
190,345,20124,2,0,L|148:351,1,42.5,8|0,0:0|0:0,0:0:0:0:
14,136,20301,6,0,P|55:132|93:152,1,85,4|0,3:2|0:0,0:0:0:0:
389,199,20654,1,0,3:0:0:0:
396,113,20830,2,0,B|348:106|318:139|350:143|306:165|257:159,1,127.5,8|0,0:0|0:0,0:0:0:0:
213,145,21183,6,0,L|207:84,1,42.5,4|0,3:2|0:0,0:0:0:0:
329,14,21360,1,0,0:0:0:0:
389,199,21536,2,0,L|388:269,1,42.5,8|0,0:0|0:0,0:0:0:0:
190,345,21713,6,0,P|142:312|139:238,1,127.5,4|0,3:2|0:0,0:0:0:0:
210,267,22066,1,0,3:0:0:0:
34,351,22242,1,8,0:0:0:0:
34,351,22418,6,0,B|9:311|21:239|43:289|64:217|37:158,1,170,4|2,3:2|3:2,0:0:0:0:
176,63,22948,1,8,0:0:0:0:
153,231,23124,1,2,0:0:0:0:
135,247,23213,1,2,0:0:0:0:
114,249,23301,1,4,3:2:0:0:
18,88,23477,1,2,3:2:0:0:
208,162,23654,2,0,B|225:169|244:161|244:161|268:149|293:161|293:161|315:171|342:163,1,127.5,8|0,0:0|0:0,0:0:0:0:
404,71,24007,5,4,3:2:0:0:
392,36,24095,1,0,3:0:0:0:
361,22,24183,1,0,3:0:0:0:
328,31,24271,1,0,3:0:0:0:
313,52,24360,2,0,L|325:113,1,31.8750012159348,8|0,0:0|3:0,0:0:0:0:
488,223,24536,5,8,0:0:0:0:
453,229,24624,1,0,3:0:0:0:
425,251,24713,1,0,3:0:0:0:
415,285,24801,1,0,3:0:0:0:
397,247,24889,5,8,0:0:0:0:
355,230,24977,1,8,0:0:0:0:
306,234,25066,1,8,0:0:0:0:
270,265,25154,1,8,0:3:0:0:
253,309,25242,1,4,0:3:0:0:
204,320,25330,1,4,0:3:0:0:
159,297,25418,6,0,B|119:296|119:296|92:313|92:313|37:311,1,110.499994941712,0|2,3:0|0:0,0:0:0:0:
15,243,25948,1,0,3:0:0:0:
15,243,26124,2,0,L|9:173,1,55.2499974708558,2|2,0:0|0:0,0:0:0:0:
108,86,26477,2,0,B|130:121|111:157|73:151,1,82.8749962062838,8|0,0:3|0:0,0:0:0:0:
2,90,26830,6,0,B|30:70|70:72|50:88|94:100|129:75,1,110.499994941712,0|0,3:0|0:0,0:0:0:0:
159,22,27360,1,2,0:0:0:0:
213,98,27536,2,0,P|261:91|288:92,1,55.2499974708558,2|0,0:0|0:0,0:0:0:0:
381,129,27889,2,0,P|351:126|325:171,1,82.8749962062838,8|0,0:3|0:0,0:0:0:0:
372,239,28242,6,0,P|373:189|382:121,1,110.499994941712,0|2,3:0|0:0,0:0:0:0:
425,48,28771,1,0,3:0:0:0:
425,48,28948,2,0,P|373:40|348:41,1,55.2499974708558,2|2,0:0|0:0,0:0:0:0:
267,90,29301,1,8,0:3:0:0:
380,129,29477,1,2,0:0:0:0:
284,11,29654,6,0,P|227:19|200:53,2,82.8749962062838,0|0|2,3:0|3:0|0:0,0:0:0:0:
267,90,30360,2,0,P|262:125|261:163,1,55.2499974708558,2|0,0:0|0:0,0:0:0:0:
218,263,30713,2,0,P|213:232|185:180,1,82.8749962062838,8|0,0:3|0:0,0:0:0:0:
82,181,31066,6,0,B|146:164|125:207|201:181,1,110.499994941712,0|2,3:0|0:0,0:0:0:0:
265,158,31595,1,0,3:0:0:0:
326,212,31771,1,0,0:0:0:0:
401,181,31948,1,0,3:0:0:0:
312,84,32124,1,8,0:3:0:0:
393,102,32301,1,0,0:0:0:0:
326,212,32477,6,0,P|317:245|315:273,1,55.2499974708558,0|0,3:0|0:0,0:0:0:0:
434,252,32830,1,2,0:0:0:0:
455,174,33007,2,0,L|384:183,1,55.2499974708558,0|0,3:0|0:0,0:0:0:0:
312,84,33360,1,0,3:0:0:0:
393,102,33536,1,8,0:3:0:0:
326,212,33713,1,0,0:0:0:0:
265,158,33889,6,0,P|234:152|197:156,1,55.2499974708558,0|0,3:0|0:0,0:0:0:0:
138,177,34242,2,0,P|192:179|211:173,1,55.2499974708558,2|0,0:0|0:0,0:0:0:0:
193,97,34595,2,0,P|183:133|185:158,1,55.2499974708558,0|0,3:0|0:0,0:0:0:0:
225,244,34948,6,0,P|225:215|215:186,1,57.374998249054,8|0,0:3|0:0,0:0:0:0:
99,103,35301,5,4,0:3:0:0:
58,209,35477,1,0,0:0:0:0:
138,177,35654,1,8,0:0:0:0:
20,92,35830,1,0,0:0:0:0:
0,267,36007,5,4,0:3:0:0:
58,209,36183,1,4,0:3:0:0:
84,315,36360,1,8,0:0:0:0:
154,284,36536,1,0,0:0:0:0:
161,366,36713,6,0,P|195:357|283:346,1,102,4|0,0:0|0:0,0:0:0:0:
311,242,37066,2,0,B|300:275|318:303|325:292|345:317|335:356,1,102,8|0,0:0|0:0,0:0:0:0:
261,347,37418,1,4,0:3:0:0:
381,254,37595,1,4,0:3:0:0:
252,183,37771,2,0,P|245:133|237:105,1,68,8|4,0:0|0:3,0:0:0:0:
378,29,38124,5,4,0:3:0:0:
345,120,38301,1,0,0:0:0:0:
200,48,38477,2,0,B|234:36|234:36|278:45,1,68,8|0,0:0|0:0,0:0:0:0:
252,183,38830,1,4,0:3:0:0:
169,119,39007,1,4,0:3:0:0:
148,111,39095,1,0,3:0:0:0:
135,97,39183,2,0,P|126:139|117:216,1,102,8|0,0:0|0:0,0:0:0:0:
15,252,39536,6,0,B|45:240|95:249|50:275|99:276|137:270,1,102,4|0,0:3|0:0,0:0:0:0:
252,183,39889,1,8,0:0:0:0:
118,197,40066,1,0,0:0:0:0:
207,263,40242,1,4,0:3:0:0:
169,119,40418,1,4,0:3:0:0:
109,272,40595,6,0,P|102:317|100:344,1,68,8|4,0:0|0:3,0:0:0:0:
207,263,40948,1,4,0:3:0:0:
15,252,41124,1,0,0:0:0:0:
100,339,41301,1,8,0:0:0:0:
48,150,41477,1,0,0:0:0:0:
13,349,41654,5,4,0:3:0:0:
113,265,41830,1,4,0:3:0:0:
196,364,42007,1,8,0:0:0:0:
305,215,42183,5,8,0:0:0:0:
319,195,42271,1,8,0:0:0:0:
319,174,42360,2,0,L|240:184,1,68,4|4,0:3|0:3,0:0:0:0:
169,119,42713,1,8,0:0:0:0:
271,26,42889,2,0,P|260:63|253:113,1,68,4|0,0:3|0:0,0:0:0:0:
251,182,43242,5,4,0:3:0:0:
182,38,43418,1,8,0:0:0:0:
118,197,43595,1,0,0:0:0:0:
254,91,43771,6,0,L|333:81,1,68,4|4,0:3|0:3,0:0:0:0:
411,223,44124,1,8,0:0:0:0:
465,147,44301,2,0,P|414:145|382:139,1,68,4|0,0:3|0:0,0:0:0:0:
321,82,44654,5,4,0:3:0:0:
287,255,44830,1,8,0:0:0:0:
397,142,45007,1,0,0:0:0:0:
230,186,45183,6,0,B|188:174|160:190|186:198|147:209|110:195,1,114.749996498108,4|0,3:2|0:0,0:0:0:0:
115,83,45536,2,0,B|131:73|148:56|148:56|130:146,1,114.749996498108,8|0,0:0|0:0,0:0:0:0:
31,232,45889,2,0,P|20:167|2:103,1,114.749996498108,4|0,3:2|0:0,0:0:0:0:
119,198,46242,2,0,P|104:253|95:310,1,114.749996498108,8|0,0:0|0:0,0:0:0:0:
174,375,46595,6,0,B|197:344|197:344|187:298,1,76.4999976654053,4|0,3:2|0:0,0:0:0:0:
95,310,46948,1,8,0:0:0:0:
5,306,47124,2,0,B|-3:343|-3:343|19:374,1,76.4999976654053,4|0,3:2|0:0,0:0:0:0:
110,214,47477,5,8,0:0:0:0:
115,206,47566,1,8,0:0:0:0:
119,198,47654,2,0,P|172:188|207:188,1,76.4999976654053,8|8,0:0|0:0,0:0:0:0:
350,104,48007,5,6,0:2:0:0:
269,57,48183,1,0,0:0:0:0:
267,149,48360,1,0,0:0:0:0:
435,153,48536,5,2,3:2:0:0:
436,58,48713,1,0,0:0:0:0:
350,104,48889,1,0,0:0:0:0:
349,250,49066,6,0,L|348:301,1,44.6249986381531,2|0,3:2|0:0,0:0:0:0:
346,368,49418,1,0,0:0:0:0:
267,315,49595,5,2,3:2:0:0:
431,320,49771,1,0,3:0:0:0:
267,224,49948,1,0,0:0:0:0:
433,229,50124,1,0,0:0:0:0:
350,104,50301,5,8,0:0:0:0:
350,104,50389,1,8,0:0:0:0:
350,104,50477,2,0,L|352:70,1,29.7499990921021,8|0,0:0|3:0,0:0:0:0:
193,34,50830,5,4,0:0:0:0:
109,97,51007,1,0,0:0:0:0:
199,146,51183,1,0,0:0:0:0:
25,160,51360,5,2,3:2:0:0:
109,97,51537,1,0,0:0:0:0:
19,48,51713,1,0,0:0:0:0:
119,214,51889,6,0,L|123:266,1,44.6249986381531,0|0,3:0|0:0,0:0:0:0:
128,331,52242,1,0,0:0:0:0:
38,289,52418,5,0,3:0:0:0:
25,160,52595,1,0,3:0:0:0:
199,146,52771,1,0,0:0:0:0:
212,275,52948,1,0,0:0:0:0:
119,214,53124,5,8,0:0:0:0:
119,214,53213,1,8,0:0:0:0:
119,214,53301,2,0,L|115:174,1,29.7499990921021,8|0,0:0|3:0,0:0:0:0:
295,79,53654,5,4,3:2:0:0:
212,275,53830,1,0,0:0:0:0:
109,97,54007,1,8,0:0:0:0:
296,220,54183,6,0,P|349:209|402:202,1,108.375002067089,4|0,3:2|0:0,0:0:0:0:
472,229,54536,1,0,3:0:0:0:
235,135,54713,2,0,P|212:95|222:48,1,72.2500013780594,8|0,0:0|0:0,0:0:0:0:
376,30,55066,5,4,3:2:0:0:
407,280,55242,1,0,0:0:0:0:
477,131,55418,1,8,0:0:0:0:
307,304,55595,6,0,B|271:293|236:306|260:321|225:331|185:327,1,108.375002067089,4|0,3:2|0:0,0:0:0:0:
136,288,55948,1,0,3:0:0:0:
443,349,56124,2,0,P|472:329|482:276,1,72.2500013780594,8|0,0:0|0:0,0:0:0:0:
346,138,56477,21,4,3:2:0:0:
407,280,56654,1,8,0:0:0:0:
220,214,56830,1,8,1:2:0:0:
447,154,57007,1,8,0:0:0:0:
445,178,57095,1,8,0:0:0:0:
434,194,57183,1,8,1:2:0:0:
346,362,57360,5,8,0:0:0:0:
235,135,57536,1,8,1:2:0:0:
143,256,57713,1,8,0:0:0:0:
136,271,57801,1,8,0:0:0:0:
136,288,57889,21,8,1:2:0:0:
175,318,57977,1,8,0:0:0:0:
226,299,58066,1,8,0:0:0:0:
232,245,58154,1,8,0:0:0:0:
192,208,58242,1,8,1:2:0:0:
148,176,58330,1,8,0:0:0:0:
139,122,58418,1,8,0:0:0:0:
162,72,58507,1,8,0:0:0:0:
212,53,58595,1,8,1:2:0:0:
263,67,58683,1,8,0:0:0:0:
295,109,58771,1,8,0:0:0:0:
326,59,58860,1,8,0:0:0:0:
383,55,58948,1,8,1:2:0:0:
434,80,59036,1,8,0:0:0:0:
451,134,59124,1,8,0:0:0:0:
434,189,59213,1,8,0:0:0:0:
382,215,59301,5,0,3:0:0:0:
372,136,59477,1,0,3:0:0:0:
469,267,59654,1,8,0:0:0:0:
486,260,60007,5,0,3:0:0:0:
363,297,60183,1,0,3:0:0:0:
215,340,60360,1,8,0:0:0:0:
382,215,60536,6,0,P|374:264|371:334,1,108.375002067089,0|0,3:0|0:0,0:0:0:0:
314,384,60889,1,8,0:3:0:0:
310,367,60977,1,8,0:3:0:0:
303,354,61066,1,8,0:3:0:0:
422,376,61242,1,8,0:3:0:0:
422,376,61595,5,0,3:0:0:0:
307,187,61771,1,8,0:0:0:0:
215,340,61948,1,0,0:0:0:0:
446,177,62124,6,0,P|454:120|463:71,1,85,4|2,3:2|0:0,0:0:0:0:
220,48,62477,2,0,P|231:104|237:154,1,85,8|2,0:0|0:0,0:0:0:0:
400,33,62830,1,0,3:0:0:0:
306,65,63007,1,2,0:0:0:0:
446,177,63183,1,8,0:0:0:0:
234,131,63360,6,0,B|198:128|133:135|186:168|122:183|69:162,1,170,2|2,0:0|0:0,0:0:0:0:
34,48,63889,1,8,0:0:0:0:
214,216,64066,1,2,0:0:0:0:
3,211,64242,2,0,B|-10:171|-10:171|4:126,1,85,0|2,3:0|0:0,0:0:0:0:
113,0,64595,2,0,B|126:40|126:40|111:84,1,85,8|2,0:0|0:0,0:0:0:0:
34,48,64860,5,2,0:0:0:0:
34,48,64948,1,0,3:2:0:0:
220,48,65124,1,2,0:0:0:0:
75,164,65301,1,8,0:0:0:0:
214,216,65477,1,2,0:0:0:0:
122,346,65654,6,0,P|129:294|132:210,1,127.5,0|0,3:0|0:0,0:0:0:0:
75,164,66007,2,0,P|83:205|86:233,1,42.5,8|0,0:0|0:0,0:0:0:0:
214,216,66183,1,2,0:0:0:0:
220,48,66360,5,0,3:0:0:0:
169,147,66536,1,2,0:0:0:0:
359,41,66713,1,8,0:0:0:0:
379,234,66889,1,2,0:0:0:0:
452,143,67066,1,0,3:0:0:0:
282,176,67242,5,2,0:0:0:0:
288,204,67330,1,2,0:0:0:0:
293,230,67418,1,8,0:0:0:0:
429,380,67595,1,2,0:0:0:0:
435,352,67683,1,2,0:0:0:0:
440,325,67771,6,0,P|374:331|344:335,1,85,4|2,3:2|0:0,0:0:0:0:
214,216,68124,2,0,B|197:175|197:175|212:125,1,85,8|2,0:0|0:0,0:0:0:0:
446,63,68477,2,0,B|463:104|463:104|448:154,1,85,0|2,3:0|0:0,0:0:0:0:
268,58,68830,1,8,0:0:0:0:
453,224,69007,2,0,P|393:210|314:208,1,127.5,2|0,0:0|0:0,0:0:0:0:
214,216,69360,5,2,0:0:0:0:
373,109,69536,1,8,0:0:0:0:
352,334,69713,2,0,P|410:320|451:318,1,85,2|0,0:0|3:0,0:0:0:0:
327,207,70066,1,2,0:0:0:0:
240,335,70242,1,8,0:0:0:0:
90,240,70418,5,2,0:0:0:0:
70,211,70507,1,2,0:0:0:0:
74,178,70595,1,0,3:2:0:0:
185,57,70771,1,2,0:0:0:0:
208,136,70948,2,0,B|165:141|165:141|125:110,1,85,8|2,0:0|0:0,0:0:0:0:
14,260,71301,2,0,B|46:234|46:234|89:239,1,85,0|2,3:0|0:0,0:0:0:0:
24,115,71654,1,8,0:0:0:0:
24,115,71830,1,2,0:0:0:0:
89,239,72007,5,0,3:0:0:0:
185,57,72183,1,2,0:0:0:0:
214,216,72360,1,8,0:0:0:0:
54,35,72536,1,2,0:0:0:0:
307,127,72713,1,0,3:0:0:0:
159,278,72889,5,8,0:0:0:0:
193,304,72977,1,8,0:0:0:0:
230,304,73066,1,8,0:0:0:0:
378,101,73242,1,8,0:0:0:0:
341,101,73331,1,8,0:0:0:0:
307,127,73418,6,0,L|315:230,1,85,4|2,3:2|0:0,0:0:0:0:
394,346,73771,2,0,B|435:362|435:362|482:349,1,85,8|2,0:0|0:0,0:0:0:0:
403,200,74124,1,0,3:0:0:0:
326,309,74301,1,2,0:0:0:0:
208,136,74477,1,8,0:0:0:0:
71,260,74654,6,0,B|180:253|125:316|255:302,1,170,2|2,0:0|0:0,0:0:0:0:
313,211,75183,1,8,0:0:0:0:
208,136,75360,1,2,0:0:0:0:
367,279,75536,2,0,B|393:246|393:246|382:166,1,85,0|2,3:0|0:0,0:0:0:0:
154,78,75889,2,0,B|127:110|127:110|138:190,1,85,8|2,0:0|0:0,0:0:0:0:
208,136,76154,1,2,0:0:0:0:
208,136,76242,5,0,3:2:0:0:
76,35,76418,1,2,0:0:0:0:
71,260,76595,1,8,0:0:0:0:
247,46,76771,1,2,0:0:0:0:
387,203,76948,6,0,B|334:197|334:197|308:210|308:210|246:200,1,127.5,0|0,3:0|0:0,0:0:0:0:
231,162,77301,2,0,L|281:172,1,42.5,8|0,0:0|0:0,0:0:0:0:
367,279,77477,1,2,0:0:0:0:
370,113,77654,5,0,3:0:0:0:
263,202,77830,1,2,0:0:0:0:
177,22,78007,1,8,0:0:0:0:
280,78,78183,1,2,0:0:0:0:
148,264,78360,1,0,3:0:0:0:
83,154,78536,5,2,3:2:0:0:
116,127,78624,1,0,3:0:0:0:
162,133,78713,1,8,0:0:0:0:
197,163,78801,1,0,3:0:0:0:
214,206,78889,1,2,3:2:0:0:
257,223,78977,1,0,3:0:0:0:
300,205,79066,6,0,P|306:156|314:104,1,85,4|2,3:2|0:0,0:0:0:0:
133,215,79418,2,0,P|141:266|147:316,1,85,8|2,0:0|0:0,0:0:0:0:
363,318,79771,1,0,3:0:0:0:
300,205,79948,1,2,0:0:0:0:
240,360,80124,1,8,0:0:0:0:
76,222,80301,6,0,P|105:173|186:181,1,127.5,2|0,0:0|0:0,0:0:0:0:
210,236,80654,1,2,0:0:0:0:
336,38,80830,1,8,0:0:0:0:
390,107,81007,6,0,B|353:127|353:127|299:118,1,85,2|0,0:0|3:0,0:0:0:0:
199,63,81360,1,2,0:0:0:0:
300,205,81536,1,8,0:0:0:0:
147,309,81713,5,2,0:0:0:0:
136,278,81801,1,2,0:0:0:0:
146,242,81889,1,0,3:2:0:0:
310,119,82066,1,2,0:0:0:0:
229,273,82242,1,8,0:0:0:0:
110,87,82418,1,2,0:0:0:0:
300,205,82595,6,0,B|351:201|351:201|378:220|378:220|447:215,1,127.5,0|0,3:0|0:0,0:0:0:0:
458,148,82948,1,8,0:0:0:0:
322,286,83124,1,2,0:0:0:0:
210,104,83301,5,8,0:3:0:0:
232,80,83389,1,8,0:3:0:0:
265,79,83477,1,8,0:3:0:0:
295,91,83566,1,8,0:3:0:0:
310,119,83654,1,8,0:3:0:0:
423,300,83830,5,4,0:3:0:0:
460,75,84007,1,4,0:3:0:0:
262,352,84183,1,4,0:3:0:0:
262,352,84271,1,4,0:3:0:0:
262,352,84360,1,4,0:3:0:0:
61,144,84536,1,4,0:3:0:0:
11,309,84713,6,0,B|172:325|71:246|257:259,1,255,4|0,0:0|0:0,0:0:0:0:
421,216,85418,2,0,P|401:165|277:195,1,170,2|0,0:0|0:0,0:0:0:0:
252,258,85948,6,0,P|258:195|262:-11,1,255,4|0,0:0|3:0,0:0:0:0:
100,154,86654,2,0,P|143:86|222:98,1,170,4|0,0:0|3:0,0:0:0:0:
320,257,87183,5,8,0:0:0:0:
303,262,87271,1,8,0:0:0:0:
286,264,87360,1,8,0:0:0:0:
269,263,87448,1,8,0:0:0:0:
252,258,87536,1,4,0:0:0:0:
175,159,87713,5,2,0:0:0:0:
89,331,87889,2,0,P|137:312|181:312,1,85,8|2,0:0|0:0,0:0:0:0:
303,119,88242,2,0,P|260:115|222:98,1,85,0|2,3:0|0:0,0:0:0:0:
185,35,88507,1,2,0:0:0:0:
185,22,88595,1,8,0:0:0:0:
285,193,88771,1,2,0:0:0:0:
100,154,88948,5,0,3:0:0:0:
286,35,89124,1,8,0:0:0:0:
306,39,89213,1,8,0:0:0:0:
327,44,89301,1,8,0:0:0:0:
83,76,89477,5,8,0:0:0:0:
381,188,89654,1,8,0:0:0:0:
33,271,89830,1,8,0:0:0:0:
185,22,90007,1,8,0:0:0:0:
262,362,90183,1,8,0:0:0:0:
95,196,90360,6,0,L|101:139,1,42.5,4|0,3:2|0:0,0:0:0:0:
285,193,90536,2,0,L|291:250,1,42.5,2|0,0:0|0:0,0:0:0:0:
141,309,90713,2,0,L|147:252,1,42.5,8|0,0:0|0:0,0:0:0:0:
220,91,90889,2,0,L|226:148,1,42.5,2|0,0:0|0:0,0:0:0:0:
48,86,91066,5,0,3:0:0:0:
40,72,91154,2,0,L|102:77,1,42.5,2|0,0:0|0:0,0:0:0:0:
315,178,91330,1,2,0:0:0:0:
327,189,91418,2,0,L|265:194,1,42.5,8|0,0:0|0:0,0:0:0:0:
185,22,91595,1,2,0:0:0:0:
455,101,91771,6,0,L|453:160,1,42.5,0|0,3:0|0:0,0:0:0:0:
335,316,91948,2,0,L|330:265,1,42.5,2|0,0:0|0:0,0:0:0:0:
314,65,92124,2,0,L|318:107,1,42.5,8|0,0:0|0:0,0:0:0:0:
445,274,92301,2,0,L|446:231,1,42.5,2|0,0:0|0:0,0:0:0:0:
252,179,92477,5,0,3:0:0:0:
242,198,92566,2,0,L|295:190,1,42.5,2|0,0:0|0:0,0:0:0:0:
408,38,92742,1,2,0:0:0:0:
425,24,92831,2,0,L|372:16,1,42.5,8|0,0:0|0:0,0:0:0:0:
453,143,93007,1,2,0:0:0:0:
214,48,93183,6,0,L|222:107,1,42.5,0|0,3:0|0:0,0:0:0:0:
278,233,93360,2,0,L|283:190,1,42.5,2|0,0:0|0:0,0:0:0:0:
169,155,93536,2,0,P|127:151|88:166,1,85,8|2,0:0|0:0,0:0:0:0:
27,327,93801,5,2,0:0:0:0:
42,318,93889,2,0,L|46:265,1,42.5,0|0,3:0|0:0,0:0:0:0:
0,129,94066,2,0,L|7:180,1,42.5,2|0,0:0|0:0,0:0:0:0:
119,244,94242,2,0,P|164:260|210:253,1,85,8|2,0:0|0:0,0:0:0:0:
330,102,94595,6,0,P|292:106|267:117,1,42.5,0|0,3:0|0:0,0:0:0:0:
172,178,94771,1,2,0:0:0:0:
145,53,94948,6,0,P|183:57|208:68,1,42.5,8|0,0:0|0:0,0:0:0:0:
320,179,95124,1,2,0:0:0:0:
213,309,95301,5,0,3:0:0:0:
196,298,95389,2,0,L|202:238,1,42.5,2|0,0:0|0:0,0:0:0:0:
394,151,95566,1,2,0:0:0:0:
414,161,95654,2,0,L|420:221,1,42.5,8|0,0:0|0:0,0:0:0:0:
288,107,95830,5,8,0:0:0:0:
269,71,95918,1,8,0:0:0:0:
277,29,96007,2,0,L|328:24,1,42.5,4|0,3:2|0:0,0:0:0:0:
444,14,96183,1,0,0:0:0:0:
512,111,96360,2,0,L|451:106,1,42.5,8|0,0:0|0:0,0:0:0:0:
229,155,96536,6,0,P|282:182|339:158,1,85,4|0,3:2|0:0,0:0:0:0:
377,78,96889,1,0,3:0:0:0:
415,229,97066,2,0,B|328:222|381:275|264:252,1,127.5,8|0,0:0|0:0,0:0:0:0:
218,245,97418,6,0,L|229:298,1,42.5,4|0,3:2|0:0,0:0:0:0:
62,366,97595,1,0,0:0:0:0:
132,198,97771,2,0,L|142:245,1,42.5,8|0,0:0|0:0,0:0:0:0:
181,354,97948,6,0,P|245:367|300:313,1,127.5,4|0,3:2|0:0,0:0:0:0:
226,286,98301,1,0,3:0:0:0:
421,361,98477,1,8,0:0:0:0:
421,361,98654,6,0,B|396:251|467:309|445:186,1,170,4|2,3:2|3:2,0:0:0:0:
374,76,99183,1,8,0:0:0:0:
296,225,99360,1,2,0:0:0:0:
333,236,99448,1,2,0:0:0:0:
370,226,99536,1,4,3:2:0:0:
461,96,99713,1,2,3:2:0:0:
285,44,99889,2,0,P|235:48|148:51,1,127.5,8|0,0:0|0:0,0:0:0:0:
57,98,100242,5,4,3:2:0:0:
47,125,100330,1,0,3:0:0:0:
58,153,100418,1,0,3:0:0:0:
82,170,100507,1,0,3:0:0:0:
111,172,100595,2,0,L|155:165,1,31.8750012159348,8|0,0:0|3:0,0:0:0:0:
386,201,100771,5,8,0:0:0:0:
353,220,100860,1,0,3:0:0:0:
315,220,100948,1,0,3:0:0:0:
283,199,101036,1,0,3:0:0:0:
296,243,101124,5,8,0:0:0:0:
279,286,101213,1,8,0:0:0:0:
236,302,101301,1,8,0:0:0:0:
190,295,101389,1,0,3:0:0:0:
159,259,101477,1,8,0:3:0:0:
103,252,101566,1,0,3:0:0:0:
45,290,101654,5,4,0:0:0:0:
