osu file format v14

[General]
AudioFilename: audio.mp3
AudioLeadIn: 0
PreviewTime: 70869
Countdown: 0
SampleSet: Soft
StackLeniency: 0.7
Mode: 3
LetterboxInBreaks: 0
EpilepsyWarning: 1
SpecialStyle: 0
WidescreenStoryboard: 1

[Editor]
Bookmarks: 9736,20898,32061,46015,57177,62759,65550,68340,76712,82119,87875
DistanceSpacing: 0.6
BeatDivisor: 4
GridSize: 8
TimelineZoom: 2

[Metadata]
Title:Attsu Atsu Tokonatsu Love*Summer!
TitleUnicode:あっつあつ 常夏 らぶ☆サマー!
Artist:Pastel*Palettes
ArtistUnicode:Pastel*Palettes
Creator:Al-Reina
Version:Hard
Source:バンドリ!ガールズバンドパーティ!
Tags:Kanon Matsubara Sun cryochan Hot, Hot! Sunny BanG Dream! Girls Band Party! Garupa Bandori! PasuPare パスパレ Paspale パステルパレット 前島亜美 Maeshima Ami 中上育美 Nakagami Ikumi 秦佐和子 Hata Sawako 上坂すみれ Uesaka Sumire 小澤亜李 Ozawa Ari Japanese video game J-pop jpop 織田あすか Oda Asuka elements garden 笠井雄太 Kasai Yūta Yuuta 1st Album TITLE IDOL BRMM-10349
BeatmapID:2775364
BeatmapSetID:1339615

[Difficulty]
HPDrainRate:7.5
CircleSize:4
OverallDifficulty:7.5
ApproachRate:10
SliderMultiplier:1.4
SliderTickRate:1

[Events]
//Background and Video events
0,0,"chisato.jpg",0,0
//Break Periods
//Storyboard Layer 0 (Background)
//Storyboard Layer 1 (Fail)
//Storyboard Layer 2 (Pass)
//Storyboard Layer 3 (Foreground)
//Storyboard Layer 4 (Overlay)
//Storyboard Sound Samples

[TimingPoints]
1364,348.837209302326,4,2,1,50,1,0
9736,-100,4,2,1,65,0,0
20898,-100,4,2,1,60,0,0
70957,-100,4,2,1,70,0,1
93457,-100,4,2,1,65,0,0

[HitObjects]
320,192,2584,5,0,0:0:0:60:Ride.wav
192,192,2672,1,0,0:0:0:60:Ride.wav
448,192,2759,1,0,0:0:0:60:Ride.wav
64,192,2933,1,0,0:0:0:0:
192,192,3108,1,0,0:0:0:0:
320,192,3282,1,0,0:0:0:0:
192,192,3631,128,0,3805:0:0:0:0:
448,192,3805,128,0,3980:0:0:0:0:
64,192,3980,128,0,4154:0:0:0:0:
320,192,4154,1,0,0:0:0:0:
192,192,4329,1,0,0:0:0:0:
64,192,4503,1,0,0:0:0:0:
448,192,4677,1,0,0:0:0:0:
64,192,5026,128,0,5201:0:0:0:0:
320,192,5201,128,0,5375:0:0:0:0:
192,192,5375,128,0,5550:0:0:0:60:Ride.wav
64,192,5550,1,0,0:0:0:60:Ride.wav
448,192,5724,1,0,0:0:0:0:
320,192,5898,1,0,0:0:0:0:
192,192,6073,1,0,0:0:0:0:
320,192,6422,128,0,6596:0:0:0:0:
64,192,6596,128,0,6770:0:0:0:0:
448,192,6770,128,0,6945:0:0:0:0:
192,192,6945,1,0,0:0:0:60:Ride.wav
320,192,7119,1,0,0:0:0:60:Ride.wav
448,192,7294,1,0,0:0:0:60:Ride.wav
64,192,7468,128,0,8340:0:0:0:60:Ride.wav
192,192,7468,1,0,0:0:0:0:
448,192,8340,1,0,0:0:0:0:
192,192,8515,1,0,0:0:0:0:
64,192,8602,1,0,0:0:0:0:
320,192,8602,1,0,0:0:0:0:
448,192,8776,1,0,0:0:0:0:
320,192,8864,1,0,0:0:0:0:
448,192,8951,1,0,0:0:0:0:
64,192,9038,1,0,0:0:0:0:
192,192,9038,1,0,0:0:0:0:
320,192,9125,1,0,0:0:0:0:
448,192,9212,1,0,0:0:0:0:
192,192,9300,1,0,0:0:0:0:
64,192,9387,1,0,0:0:0:0:
448,192,9387,128,0,9736:0:0:0:0:
64,192,9736,1,2,0:0:0:0:
192,192,9736,128,4,10084:0:0:0:0:
320,192,9736,1,0,0:0:0:0:
448,192,9910,1,0,0:0:0:0:
64,192,10084,128,8,10433:0:0:0:0:
320,192,10084,1,2,0:0:0:0:
192,192,10259,1,0,0:0:0:0:
320,192,10433,1,2,0:0:0:0:
448,192,10433,1,0,0:0:0:0:
192,192,10520,1,0,0:0:0:0:
64,192,10608,1,0,0:0:0:0:
192,192,10782,1,8,0:0:0:0:
448,192,10782,1,2,0:0:0:0:
64,192,10957,1,0,0:0:0:0:
320,192,11131,1,2,0:0:0:0:
448,192,11131,128,0,11480:0:0:0:0:
192,192,11305,128,0,11480:0:0:0:0:
64,192,11480,1,8,0:0:0:0:
320,192,11480,1,2,0:0:0:0:
192,192,11654,128,0,12352:0:0:0:0:
448,192,11829,1,2,0:0:0:0:
64,192,12003,1,0,0:0:0:0:
320,192,12177,1,10,0:0:0:0:
64,192,12352,1,0,0:0:0:0:
320,192,12526,128,2,12875:0:0:0:0:
448,192,12526,1,0,0:0:0:0:
192,192,12701,1,0,0:0:0:0:
64,192,12875,1,8,0:0:0:0:
448,192,12875,128,2,13224:0:0:0:0:
320,192,13050,1,0,0:0:0:0:
64,192,13224,1,2,0:0:0:0:
192,192,13224,1,0,0:0:0:0:
320,192,13311,1,0,0:0:0:0:
448,192,13398,1,0,0:0:0:0:
192,192,13573,1,8,0:0:0:0:
320,192,13573,1,2,0:0:0:0:
448,192,13747,1,0,0:0:0:0:
64,192,13922,1,2,0:0:0:0:
192,192,13922,128,0,14270:0:0:0:0:
320,192,14096,128,0,14270:0:0:0:0:
64,192,14270,1,8,0:0:0:0:
448,192,14270,1,2,0:0:0:0:
320,192,14445,1,0,0:0:0:0:
64,192,14619,1,10,0:0:0:0:
192,192,14619,1,0,0:0:0:40:Tom3.wav
192,192,14794,1,10,0:0:0:0:
320,192,14794,1,0,0:0:0:40:Tom3.wav
320,192,14968,1,10,0:0:0:0:
448,192,14968,1,0,0:0:0:40:Tom3.wav
64,192,15143,1,2,0:0:0:0:
192,192,15143,128,4,15491:0:0:0:0:
448,192,15143,1,0,0:0:0:0:
320,192,15491,1,2,0:0:0:0:
448,192,15491,1,0,0:0:0:0:
64,192,15666,128,8,15840:0:0:0:0:
192,192,15666,1,4,0:0:0:0:
320,192,15666,1,0,0:0:0:0:
448,192,15840,128,0,16015:0:0:0:0:
192,192,16015,1,2,0:0:0:0:
320,192,16015,1,0,0:0:0:0:
64,192,16189,128,2,16364:0:0:0:0:
448,192,16189,1,0,0:0:0:0:
320,192,16364,128,8,16538:0:0:0:0:
448,192,16364,1,0,0:0:0:0:
64,192,16538,1,2,0:0:0:0:
192,192,16538,128,0,16887:0:0:0:0:
448,192,16712,1,0,0:0:0:0:
64,192,16887,1,2,0:0:0:0:
320,192,16887,1,0,0:0:0:0:
320,192,17061,1,8,0:0:0:0:
448,192,17061,128,0,17236:0:0:0:0:
64,192,17236,1,0,0:0:0:0:
192,192,17410,128,2,17584:0:0:0:0:
320,192,17410,1,0,0:0:0:0:
64,192,17584,1,2,0:0:0:0:
448,192,17584,128,0,17759:0:0:0:0:
64,192,17759,128,8,17933:0:0:0:0:
320,192,17759,1,0,0:0:0:0:
192,192,17933,128,2,18282:0:0:0:0:
320,192,17933,1,4,0:0:0:0:
448,192,17933,1,0,0:0:0:0:
64,192,18282,1,2,0:0:0:0:
320,192,18282,1,0,0:0:0:0:
64,192,18457,1,8,0:0:0:0:
448,192,18457,1,0,0:0:0:0:
192,192,18631,1,2,0:0:0:0:
320,192,18631,1,0,0:0:0:0:
64,192,18805,1,8,0:0:0:0:
320,192,18805,1,0,0:0:0:0:
192,192,18980,1,2,0:0:0:0:
448,192,18980,1,0,0:0:0:0:
192,192,19154,1,8,0:0:0:0:
320,192,19154,1,0,0:0:0:0:
64,192,19329,1,2,0:0:0:0:
448,192,19329,1,0,0:0:0:0:
192,192,19503,1,8,0:0:0:0:
320,192,19503,128,4,19677:0:0:0:0:
448,192,19503,128,0,19677:0:0:0:0:
64,192,19852,128,8,20201:0:0:0:0:
192,192,19852,128,4,20201:0:0:0:0:
320,192,19852,1,0,0:0:0:0:
448,192,20201,1,8,0:0:0:0:
192,192,20375,1,8,0:0:0:0:
320,192,20462,1,8,0:0:0:0:
64,192,20550,1,0,0:0:0:40:Tom1.wav
192,192,20637,1,0,0:0:0:40:Tom1.wav
320,192,20724,1,0,0:0:0:45:Tom2.wav
448,192,20811,1,0,0:0:0:45:Tom3.wav
64,192,20898,1,2,0:0:0:0:
192,192,20898,1,4,0:0:0:0:
320,192,20898,1,0,0:0:0:0:
320,192,21247,1,8,0:0:0:0:
448,192,21247,1,0,0:0:0:0:
64,192,21422,1,2,0:0:0:0:
192,192,21422,1,0,0:0:0:0:
320,192,21596,1,0,0:0:0:0:
64,192,21770,1,2,0:0:0:0:
448,192,21770,1,0,0:0:0:0:
64,192,21945,1,8,0:0:0:0:
192,192,21945,1,0,0:0:0:0:
320,192,22119,1,0,0:0:0:0:
64,192,22294,1,2,0:0:0:0:
448,192,22294,1,0,0:0:0:0:
192,192,22468,1,2,0:0:0:0:
320,192,22468,1,0,0:0:0:0:
64,192,22643,1,8,0:0:0:0:
192,192,22643,1,0,0:0:0:0:
320,192,22817,1,2,0:0:0:0:
448,192,22817,1,0,0:0:0:0:
192,192,22991,1,0,0:0:0:0:
64,192,23166,1,2,0:0:0:0:
448,192,23166,1,0,0:0:0:0:
320,192,23340,1,8,0:0:0:0:
448,192,23340,1,0,0:0:0:0:
192,192,23515,1,0,0:0:0:0:
64,192,23689,1,2,0:0:0:0:
448,192,23689,1,0,0:0:0:0:
320,192,23864,1,0,0:0:0:0:
64,192,24038,1,8,0:0:0:0:
192,192,24038,1,0,0:0:0:0:
320,192,24212,1,2,0:0:0:0:
448,192,24212,1,0,0:0:0:0:
64,192,24387,1,0,0:0:0:0:
192,192,24561,1,2,0:0:0:0:
448,192,24561,1,0,0:0:0:0:
320,192,24736,1,8,0:0:0:0:
448,192,24736,1,0,0:0:0:0:
64,192,24910,1,0,0:0:0:0:
192,192,25084,1,2,0:0:0:0:
448,192,25084,1,0,0:0:0:0:
64,192,25259,1,2,0:0:0:0:
320,192,25259,1,0,0:0:0:0:
320,192,25433,1,8,0:0:0:0:
448,192,25433,1,0,0:0:0:0:
64,192,25608,1,2,0:0:0:0:
192,192,25608,1,0,0:0:0:0:
320,192,25782,1,0,0:0:0:0:
64,192,25957,1,2,0:0:0:0:
448,192,25957,1,0,0:0:0:0:
64,192,26131,1,8,0:0:0:0:
192,192,26131,1,0,0:0:0:0:
320,192,26305,1,0,0:0:0:0:
192,192,26480,1,2,0:0:0:0:
448,192,26480,1,0,0:0:0:0:
64,192,26829,1,8,0:0:0:0:
192,192,26829,1,0,0:0:0:0:
64,192,27003,1,2,0:0:0:0:
320,192,27003,1,0,0:0:0:0:
448,192,27177,1,0,0:0:0:0:
64,192,27352,1,8,0:0:0:0:
192,192,27352,1,0,0:0:0:100:Clap.wav
64,192,27526,1,8,0:0:0:0:
192,192,27526,1,0,0:0:0:100:Clap.wav
320,192,27701,1,0,0:0:0:0:
64,192,27875,1,2,0:0:0:0:
448,192,27875,1,0,0:0:0:0:
192,192,28050,1,0,0:0:0:0:
320,192,28224,1,8,0:0:0:0:
448,192,28224,1,0,0:0:0:0:
64,192,28398,1,2,0:0:0:0:
448,192,28398,1,0,0:0:0:0:
192,192,28573,1,0,0:0:0:0:
320,192,28747,1,8,0:0:0:0:
448,192,28747,1,0,0:0:0:100:Clap.wav
320,192,28922,1,8,0:0:0:0:
448,192,28922,1,0,0:0:0:100:Clap.wav
192,192,29096,1,8,0:0:0:0:
320,192,29183,1,8,0:0:0:0:
64,192,29270,1,2,0:0:0:0:
448,192,29270,1,0,0:0:0:0:
64,192,29619,128,8,29794:0:0:0:0:
192,192,29619,1,4,0:0:0:0:
448,192,29619,128,0,29794:0:0:0:0:
192,192,29968,1,2,0:0:0:0:
320,192,29968,1,0,0:0:0:0:
64,192,30317,128,8,30491:0:0:0:0:
320,192,30317,1,4,0:0:0:0:
448,192,30317,128,0,30491:0:0:0:0:
192,192,30491,1,8,0:0:0:0:
320,192,30579,1,8,0:0:0:0:
64,192,30666,1,2,0:0:0:0:
448,192,30666,128,0,31015:0:0:0:0:
64,192,31189,1,0,0:0:0:0:
448,192,31276,1,0,0:0:0:0:
320,192,31538,1,2,0:0:0:0:
192,192,31625,1,2,0:0:0:0:
64,192,31712,1,8,0:0:0:0:
448,192,31712,1,0,0:0:0:0:
192,192,31887,1,2,0:0:0:0:
320,192,31887,1,0,0:0:0:0:
64,192,32061,1,2,0:0:0:0:
320,192,32061,1,4,0:0:0:0:
448,192,32061,1,0,0:0:0:0:
192,192,32410,1,8,0:0:0:0:
320,192,32410,1,4,0:0:0:0:
448,192,32410,1,0,0:0:0:0:
64,192,32584,1,2,0:0:0:0:
192,192,32584,1,0,0:0:0:50:soft-hitfinish.wav
448,192,32759,1,0,0:0:0:0:
64,192,32933,1,2,0:0:0:0:
320,192,32933,1,0,0:0:0:0:
64,192,33108,1,8,0:0:0:0:
192,192,33108,1,0,0:0:0:0:
448,192,33282,1,0,0:0:0:0:
64,192,33457,1,2,0:0:0:0:
320,192,33457,1,0,0:0:0:0:
192,192,33631,1,2,0:0:0:0:
448,192,33631,1,0,0:0:0:0:
64,192,33805,1,8,0:0:0:0:
192,192,33805,1,0,0:0:0:0:
320,192,33980,1,2,0:0:0:0:
448,192,33980,128,0,34154:0:0:0:0:
192,192,34154,128,0,34329:0:0:0:0:
64,192,34329,128,2,34503:0:0:0:0:
320,192,34329,1,0,0:0:0:0:
320,192,34503,128,8,34677:0:0:0:0:
448,192,34503,1,0,0:0:0:0:
192,192,34677,128,0,34852:0:0:0:0:
64,192,34852,1,2,0:0:0:0:
448,192,34852,1,0,0:0:0:0:
320,192,35026,1,0,0:0:0:0:
64,192,35201,1,8,0:0:0:0:
192,192,35201,1,0,0:0:0:0:
320,192,35375,128,2,35898:0:0:0:0:
448,192,35375,1,0,0:0:0:0:
192,192,35550,1,0,0:0:0:0:
64,192,35724,1,2,0:0:0:0:
64,192,35898,1,8,0:0:0:0:
448,192,35898,1,0,0:0:0:0:
320,192,36073,1,0,0:0:0:0:
192,192,36247,128,2,36770:0:0:0:0:
448,192,36247,1,0,0:0:0:0:
320,192,36422,1,2,0:0:0:0:
320,192,36596,1,8,0:0:0:0:
64,192,36770,1,2,0:0:0:0:
448,192,36770,128,0,37294:0:0:0:0:
320,192,36945,1,0,0:0:0:0:
192,192,37119,1,2,0:0:0:0:
64,192,37294,128,8,37643:0:0:0:0:
192,192,37294,1,0,0:0:0:0:
320,192,37468,1,0,0:0:0:0:
192,192,37643,1,2,0:0:0:0:
448,192,37643,1,0,0:0:0:0:
320,192,37991,1,8,0:0:0:0:
448,192,37991,1,0,0:0:0:0:
192,192,38166,1,2,0:0:0:0:
448,192,38166,1,0,0:0:0:0:
64,192,38340,1,0,0:0:0:0:
320,192,38515,1,8,0:0:0:0:
448,192,38515,1,0,0:0:0:100:Clap.wav
320,192,38689,1,8,0:0:0:0:
448,192,38689,1,0,0:0:0:100:Clap.wav
192,192,38864,1,0,0:0:0:0:
64,192,39038,128,2,39387:0:0:0:0:
448,192,39038,1,0,0:0:0:0:
320,192,39212,1,2,0:0:0:0:
192,192,39387,1,8,0:0:0:0:
320,192,39387,1,0,0:0:0:0:
64,192,39561,1,2,0:0:0:0:
448,192,39561,128,0,39910:0:0:0:0:
320,192,39736,1,0,0:0:0:0:
64,192,39910,1,8,0:0:0:0:
192,192,39910,1,0,0:0:0:100:Clap.wav
64,192,40084,1,8,0:0:0:0:
192,192,40084,1,0,0:0:0:100:Clap.wav
320,192,40259,1,8,0:0:0:0:
192,192,40346,1,8,0:0:0:0:
64,192,40433,1,2,0:0:0:0:
448,192,40433,1,0,0:0:0:0:
64,192,40782,128,8,40957:0:0:0:0:
192,192,40782,1,4,0:0:0:0:
448,192,40782,128,0,40957:0:0:0:0:
192,192,41131,1,2,0:0:0:0:
320,192,41131,1,0,0:0:0:0:
64,192,41480,128,4,41654:0:0:0:0:
320,192,41480,1,8,0:0:0:0:
448,192,41480,128,0,41654:0:0:0:0:
64,192,41829,128,8,42177:0:0:0:0:
192,192,41829,1,4,0:0:0:0:
448,192,41829,1,0,0:0:0:0:
192,192,42177,1,2,0:0:0:0:
320,192,42177,1,0,0:0:0:0:
64,192,42352,1,8,0:0:0:0:
320,192,42352,128,4,42701:0:0:0:0:
192,192,42701,1,2,0:0:0:0:
448,192,42701,1,0,0:0:0:0:
64,192,42875,1,8,0:0:0:0:
192,192,42875,1,4,0:0:0:0:
320,192,43050,1,2,0:0:0:0:
448,192,43050,1,0,0:0:0:0:
64,192,43224,1,2,0:0:0:0:
192,192,43224,1,4,0:0:0:0:
448,192,43224,1,0,0:0:0:0:
192,192,43573,1,8,0:0:0:0:
320,192,43573,1,0,0:0:0:0:
448,192,43747,1,0,0:0:0:0:
64,192,43922,1,2,0:0:0:0:
320,192,43922,1,0,0:0:0:0:
192,192,44096,1,2,0:0:0:0:
448,192,44096,1,0,0:0:0:0:
64,192,44270,1,8,0:0:0:0:
192,192,44270,1,0,0:0:0:0:
320,192,44445,1,2,0:0:0:0:
448,192,44445,1,0,0:0:0:0:
64,192,44619,1,8,0:0:0:0:
192,192,44619,1,4,0:0:0:0:
448,192,44619,1,0,0:0:0:0:
64,192,44794,1,2,0:0:0:0:
320,192,44794,1,0,0:0:0:0:
320,192,44968,1,8,0:0:0:0:
448,192,44968,1,0,0:0:0:0:
64,192,45143,1,2,0:0:0:0:
192,192,45143,1,0,0:0:0:0:
192,192,45491,1,2,0:0:0:0:
448,192,45491,128,0,45840:0:0:0:0:
320,192,45840,1,0,0:0:0:45:Tom3.wav
192,192,45927,1,0,0:0:0:0:
64,192,46015,1,2,0:0:0:0:
320,192,46015,1,4,0:0:0:0:
448,192,46015,1,0,0:0:0:0:
192,192,46364,1,0,0:0:0:60:Ride.wav
64,192,46538,1,2,0:0:0:0:
320,192,46538,1,0,0:0:0:0:
64,192,46712,1,8,0:0:0:0:
448,192,46712,1,0,0:0:0:60:Ride.wav
192,192,47061,1,2,0:0:0:0:
448,192,47061,1,0,0:0:0:60:Ride.wav
64,192,47236,1,8,0:0:0:0:
448,192,47236,1,0,0:0:0:0:
192,192,47410,1,2,0:0:0:0:
320,192,47410,1,0,0:0:0:60:Ride.wav
64,192,47672,1,2,0:0:0:0:
192,192,47672,1,0,0:0:0:0:
320,192,47759,128,0,47933:0:0:0:0:
192,192,47933,1,2,0:0:0:0:
448,192,47933,128,0,48108:0:0:0:0:
192,192,48108,128,8,48282:0:0:0:0:
320,192,48108,1,0,0:0:0:60:Ride.wav
448,192,48282,128,0,48457:0:0:0:0:
320,192,48457,1,0,0:0:0:60:Ride.wav
64,192,48457,128,2,48631:0:0:0:0:
192,192,48631,1,8,0:0:0:0:
320,192,48631,128,0,48805:0:0:0:0:
64,192,48805,1,2,0:0:0:0:
448,192,48805,1,0,0:0:0:0:
320,192,49154,1,0,0:0:0:60:Ride.wav
64,192,49329,1,2,0:0:0:0:
448,192,49329,1,0,0:0:0:0:
192,192,49503,1,8,0:0:0:0:
448,192,49503,1,0,0:0:0:60:Ride.wav
192,192,49852,1,2,0:0:0:0:
320,192,49852,1,0,0:0:0:60:Ride.wav
192,192,50026,1,8,0:0:0:0:
448,192,50026,1,0,0:0:0:0:
64,192,50201,1,2,0:0:0:0:
320,192,50201,1,0,0:0:0:60:Ride.wav
192,192,50462,1,2,0:0:0:0:
448,192,50462,1,0,0:0:0:0:
64,192,50724,1,2,0:0:0:0:
320,192,50724,1,0,0:0:0:0:
192,192,50898,1,8,0:0:0:0:
320,192,50898,1,0,0:0:0:60:Ride.wav
448,192,51073,1,0,0:0:0:60:Ride.wav
320,192,51160,1,0,0:0:0:60:Ride.wav
64,192,51247,1,2,0:0:0:0:
192,192,51247,1,0,0:0:0:0:
448,192,51334,1,0,0:0:0:60:Ride.wav
192,192,51422,1,8,0:0:0:0:
320,192,51422,1,0,0:0:0:60:Ride.wav
64,192,51596,1,2,0:0:0:0:
448,192,51596,1,0,0:0:0:0:
64,192,51945,1,0,0:0:0:60:Ride.wav
192,192,52119,1,2,0:0:0:0:
448,192,52119,1,0,0:0:0:0:
192,192,52294,1,8,0:0:0:0:
320,192,52294,1,0,0:0:0:60:Ride.wav
64,192,52643,1,2,0:0:0:0:
448,192,52643,1,0,0:0:0:60:Ride.wav
192,192,52817,1,8,0:0:0:0:
448,192,52817,1,0,0:0:0:0:
64,192,52991,1,2,0:0:0:0:
320,192,52991,1,0,0:0:0:60:Ride.wav
64,192,53253,1,2,0:0:0:0:
192,192,53253,1,0,0:0:0:0:
320,192,53340,128,0,53515:0:0:0:60:Ride.wav
64,192,53515,1,2,0:0:0:0:
448,192,53515,128,0,53689:0:0:0:0:
64,192,53689,128,8,53864:0:0:0:0:
320,192,53689,1,0,0:0:0:60:Ride.wav
448,192,53864,128,0,54038:0:0:0:0:
192,192,54038,128,2,54212:0:0:0:0:
320,192,54038,1,0,0:0:0:60:Ride.wav
64,192,54212,1,8,0:0:0:0:
320,192,54212,128,0,54387:0:0:0:0:
64,192,54387,1,2,0:0:0:0:
192,192,54387,1,4,0:0:0:0:
448,192,54387,1,0,0:0:0:0:
64,192,54736,1,8,0:0:0:0:
448,192,54736,1,2,0:0:0:0:
192,192,54910,1,0,0:0:0:0:
320,192,55084,1,2,0:0:0:0:
448,192,55084,1,0,0:0:0:0:
64,192,55259,1,0,0:0:0:0:
192,192,55433,1,8,0:0:0:0:
320,192,55433,1,2,0:0:0:0:
448,192,55608,1,0,0:0:0:0:
64,192,55782,1,2,0:0:0:0:
192,192,55782,1,0,0:0:0:0:
320,192,55957,1,0,0:0:0:0:
64,192,56131,1,8,0:0:0:0:
448,192,56131,1,2,0:0:0:0:
320,192,56305,1,0,0:0:0:0:
64,192,56480,1,8,0:0:0:0:
192,192,56480,1,0,0:0:0:0:
320,192,56654,1,8,0:0:0:0:
192,192,56741,1,8,0:0:0:0:
64,192,56829,1,8,0:0:0:0:
448,192,56916,1,8,0:0:0:0:
320,192,57003,1,8,0:0:0:0:
192,192,57090,1,8,0:0:0:0:
64,192,57177,1,8,0:0:0:0:
320,192,57177,1,0,0:0:0:45:Tom3.wav
64,192,57352,1,8,0:0:0:0:
448,192,57352,1,0,0:0:0:45:Tom3.wav
320,192,57526,128,0,57875:0:0:0:0:
64,192,57875,128,0,58050:0:0:0:0:
448,192,58050,128,0,58398:0:0:0:0:
192,192,58398,128,0,58573:0:0:0:0:
320,192,58573,128,0,58922:0:0:0:0:
64,192,58922,128,0,59096:0:0:0:0:
448,192,59096,128,0,59270:0:0:0:0:
192,192,59270,1,2,0:0:0:0:
320,192,59270,1,0,0:0:0:0:
64,192,59445,128,8,59968:0:0:0:0:
192,192,59445,1,4,0:0:0:0:
448,192,59445,1,0,0:0:0:0:
192,192,59968,1,8,0:0:0:0:
448,192,59968,1,0,0:0:0:45:Tom3.wav
64,192,60143,1,8,0:0:0:0:
448,192,60143,1,0,0:0:0:45:Tom3.wav
192,192,60317,128,0,60666:0:0:0:0:
320,192,60666,128,0,60840:0:0:0:0:
64,192,60840,128,0,61189:0:0:0:0:
448,192,61189,128,0,61364:0:0:0:0:
192,192,61364,128,0,61712:0:0:0:0:
320,192,61712,128,0,61887:0:0:0:0:
64,192,61887,1,0,0:0:0:0:
192,192,62061,1,2,0:0:0:0:
448,192,62061,1,0,0:0:0:0:
64,192,62236,1,8,0:0:0:0:
320,192,62236,128,4,62759:0:0:0:0:
448,192,62236,1,0,0:0:0:0:
64,192,62759,1,8,0:0:0:0:
192,192,62759,1,4,0:0:0:0:
448,192,62759,1,0,0:0:0:0:
192,192,63108,1,2,0:0:0:0:
320,192,63108,1,0,0:0:0:0:
192,192,63282,128,8,63631:0:0:0:0:
448,192,63282,1,0,0:0:0:0:
448,192,63631,1,0,0:0:0:40:Tom1.wav
320,192,63805,1,0,0:0:0:45:Tom2.wav
192,192,63980,1,0,0:0:0:45:Tom3.wav
64,192,64154,1,8,0:0:0:0:
320,192,64154,1,4,0:0:0:0:
448,192,64154,1,0,0:0:0:0:
192,192,64503,1,2,0:0:0:0:
320,192,64503,1,0,0:0:0:0:
64,192,64677,128,8,65026:0:0:0:0:
320,192,64677,1,4,0:0:0:0:
448,192,64677,1,0,0:0:0:0:
192,192,65026,1,8,0:0:0:0:
320,192,65114,1,8,0:0:0:0:
448,192,65201,1,8,0:0:0:0:
64,192,65288,1,8,0:0:0:0:
192,192,65375,1,8,0:0:0:0:
320,192,65462,1,8,0:0:0:0:
64,192,65550,1,8,0:0:0:0:
192,192,65550,1,4,0:0:0:0:
448,192,65550,1,0,0:0:0:0:
64,192,65724,1,2,0:0:0:0:
64,192,65898,1,2,0:0:0:0:
192,192,66073,1,8,0:0:0:0:
320,192,66073,1,4,0:0:0:0:
448,192,66073,1,0,0:0:0:0:
448,192,66247,1,2,0:0:0:0:
448,192,66422,1,2,0:0:0:0:
64,192,66596,1,8,0:0:0:0:
192,192,66596,1,4,0:0:0:0:
320,192,66596,1,0,0:0:0:0:
192,192,66770,1,2,0:0:0:0:
64,192,66945,1,8,0:0:0:0:
320,192,66945,1,4,0:0:0:0:
448,192,66945,1,0,0:0:0:0:
320,192,67119,1,2,0:0:0:0:
320,192,67294,1,2,0:0:0:0:
64,192,67468,1,8,0:0:0:0:
192,192,67468,1,4,0:0:0:0:
448,192,67468,1,0,0:0:0:0:
192,192,67643,1,2,0:0:0:0:
192,192,67817,1,2,0:0:0:0:
64,192,67991,1,4,0:0:0:0:
320,192,67991,1,8,0:0:0:0:
448,192,67991,1,0,0:0:0:0:
448,192,68166,1,2,0:0:0:0:
64,192,68340,1,8,0:0:0:0:
192,192,68340,1,4,0:0:0:0:
320,192,68340,1,0,0:0:0:0:
192,192,68689,1,0,0:0:0:0:
320,192,68864,1,0,0:0:0:0:
64,192,69038,1,8,0:0:0:0:
192,192,69125,1,0,0:0:0:40:Tom1.wav
448,192,69212,1,0,0:0:0:45:Tom2.wav
64,192,69387,1,8,0:0:0:0:
192,192,69387,1,0,0:0:0:0:
320,192,69561,1,2,0:0:0:0:
448,192,69561,1,0,0:0:0:0:
64,192,69736,1,8,0:0:0:0:
320,192,69736,1,0,0:0:0:45:Tom3.wav
64,192,69910,1,8,0:0:0:0:
448,192,69910,1,0,0:0:0:45:Tom3.wav
192,192,70084,1,8,0:0:0:0:
448,192,70084,1,0,0:0:0:45:Tom3.wav
192,192,70259,1,8,0:0:0:0:
320,192,70259,1,0,0:0:0:45:Tom3.wav
64,192,70433,1,2,0:0:0:0:
448,192,70433,1,0,0:0:0:0:
192,192,70608,1,8,0:0:0:0:
320,192,70608,1,0,0:0:0:0:
64,192,70782,1,2,0:0:0:0:
448,192,70782,1,0,0:0:0:0:
192,192,70957,1,2,0:0:0:0:
320,192,70957,1,4,0:0:0:0:
448,192,70957,128,0,71131:0:0:0:0:
64,192,71305,1,2,0:0:0:0:
320,192,71305,1,0,0:0:0:0:
320,192,71480,1,8,0:0:0:0:
448,192,71480,1,4,0:0:0:0:
192,192,71654,1,0,0:0:0:0:
320,192,71829,1,2,0:0:0:0:
448,192,71829,1,0,0:0:0:0:
64,192,72003,1,2,0:0:0:0:
192,192,72003,1,0,0:0:0:0:
64,192,72177,1,8,0:0:0:0:
448,192,72177,1,0,0:0:0:0:
320,192,72352,1,0,0:0:0:0:
64,192,72526,128,2,72701:0:0:0:0:
448,192,72526,1,0,0:0:0:0:
192,192,72701,128,2,72875:0:0:0:0:
320,192,72701,1,0,0:0:0:0:
64,192,72875,128,8,73398:0:0:0:0:
320,192,72875,128,0,73050:0:0:0:0:
448,192,73050,128,2,73398:0:0:0:0:
192,192,73398,1,2,0:0:0:0:
320,192,73398,1,0,0:0:0:0:
320,192,73573,1,8,0:0:0:0:
448,192,73573,1,0,0:0:0:0:
64,192,73747,128,2,73922:0:0:0:0:
192,192,73747,1,0,0:0:0:0:
192,192,74096,1,2,0:0:0:0:
320,192,74096,128,0,74270:0:0:0:0:
64,192,74270,1,8,0:0:0:0:
192,192,74270,1,0,0:0:0:0:
448,192,74445,128,0,74619:0:0:0:0:
192,192,74619,128,2,74794:0:0:0:0:
320,192,74619,1,0,0:0:0:0:
64,192,74794,128,2,74968:0:0:0:0:
448,192,74794,1,0,0:0:0:0:
448,192,74968,1,0,0:0:0:0:
320,192,74968,128,8,75143:0:0:0:0:
192,192,75143,1,0,0:0:0:0:
64,192,75317,1,2,0:0:0:0:
448,192,75317,128,0,75491:0:0:0:0:
192,192,75491,1,2,0:0:0:0:
320,192,75491,128,0,75666:0:0:0:0:
192,192,75666,128,8,75840:0:0:0:0:
448,192,75666,128,0,76189:0:0:0:0:
64,192,75840,128,2,76189:0:0:0:0:
192,192,76189,1,2,0:0:0:0:
320,192,76189,1,0,0:0:0:0:
64,192,76364,1,8,0:0:0:0:
192,192,76364,1,0,0:0:0:0:
320,192,76538,1,8,0:0:0:0:
192,192,76625,1,8,0:0:0:0:
64,192,76712,1,2,0:0:0:0:
320,192,76712,1,4,0:0:0:0:
448,192,76712,1,0,0:0:0:0:
64,192,76887,128,0,76974:0:0:0:0:
448,192,76887,128,0,76974:0:0:0:0:
64,192,77061,128,8,77236:0:0:0:0:
448,192,77061,128,2,77236:0:0:0:0:
64,192,77410,1,2,0:0:0:0:
192,192,77410,1,0,0:0:0:0:
320,192,77584,1,0,0:0:0:0:
64,192,77759,1,8,0:0:0:0:
448,192,77759,1,2,0:0:0:0:
192,192,77933,1,0,0:0:0:0:
320,192,78108,1,2,0:0:0:0:
448,192,78108,1,0,0:0:0:0:
64,192,78282,128,0,78369:0:0:0:0:
448,192,78282,128,0,78369:0:0:0:0:
64,192,78457,128,8,78631:0:0:0:0:
448,192,78457,128,2,78631:0:0:0:0:
320,192,78805,1,2,0:0:0:0:
448,192,78805,1,0,0:0:0:0:
192,192,78980,1,0,0:0:0:0:
64,192,79154,1,8,0:0:0:0:
320,192,79154,1,2,0:0:0:0:
448,192,79329,1,0,0:0:0:0:
192,192,79503,1,4,0:0:0:0:
320,192,79503,1,0,0:0:0:0:
64,192,79503,1,2,0:0:0:0:
448,192,79852,1,2,0:0:0:0:
64,192,79852,1,8,0:0:0:0:
192,192,80026,1,8,0:0:0:0:
320,192,80114,1,8,0:0:0:0:
448,192,80201,1,2,0:0:0:0:
64,192,80201,1,8,0:0:0:0:
320,192,80375,1,8,0:0:0:0:
192,192,80462,1,8,0:0:0:0:
448,192,80550,1,2,0:0:0:0:
64,192,80550,1,8,0:0:0:0:
192,192,80724,1,8,0:0:0:0:
320,192,80811,1,8,0:0:0:0:
448,192,80898,1,4,0:0:0:0:
64,192,80898,1,8,0:0:0:0:
64,192,81073,128,8,81247:0:0:0:0:
448,192,81073,1,0,0:0:0:0:
320,192,81247,1,0,0:0:0:0:
192,192,81247,1,2,0:0:0:0:
192,192,81422,1,8,0:0:0:0:
320,192,81422,1,4,0:0:0:0:
448,192,81422,128,0,81770:0:0:0:0:
320,192,81770,1,8,0:0:0:0:
64,192,81858,1,8,0:0:0:0:
192,192,81945,1,0,0:0:0:40:Tom1.wav
320,192,82032,1,0,0:0:0:45:Tom2.wav
64,192,82119,1,2,0:0:0:0:
192,192,82119,128,4,82294:0:0:0:0:
448,192,82119,1,0,0:0:0:0:
64,192,82468,1,2,0:0:0:0:
448,192,82468,1,0,0:0:0:0:
64,192,82643,1,8,0:0:0:0:
192,192,82643,1,4,0:0:0:0:
320,192,82817,1,0,0:0:0:0:
64,192,82991,1,2,0:0:0:0:
192,192,82991,1,0,0:0:0:0:
320,192,83166,1,2,0:0:0:0:
448,192,83166,1,0,0:0:0:0:
192,192,83340,1,8,0:0:0:0:
448,192,83340,1,0,0:0:0:0:
64,192,83515,1,0,0:0:0:0:
192,192,83689,1,2,0:0:0:0:
320,192,83689,128,0,83864:0:0:0:0:
64,192,83864,1,2,0:0:0:0:
448,192,83864,128,0,84038:0:0:0:0:
64,192,84038,128,8,84212:0:0:0:0:
320,192,84038,128,0,84561:0:0:0:0:
192,192,84212,128,2,84561:0:0:0:0:
64,192,84561,1,2,0:0:0:0:
448,192,84561,1,0,0:0:0:0:
64,192,84736,1,8,0:0:0:0:
192,192,84736,1,0,0:0:0:0:
320,192,84910,128,2,85259:0:0:0:0:
448,192,84910,1,0,0:0:0:0:
64,192,85259,1,2,0:0:0:0:
192,192,85259,128,0,85433:0:0:0:0:
320,192,85433,1,8,0:0:0:0:
448,192,85433,1,0,0:0:0:0:
64,192,85608,128,0,85782:0:0:0:0:
192,192,85782,1,2,0:0:0:0:
448,192,85782,128,0,85957:0:0:0:0:
64,192,85957,1,2,0:0:0:0:
320,192,85957,128,0,86131:0:0:0:0:
64,192,86131,1,8,0:0:0:0:
192,192,86131,1,0,0:0:0:0:
448,192,86305,1,0,0:0:0:0:
192,192,86480,128,2,86654:0:0:0:0:
320,192,86480,1,0,0:0:0:0:
64,192,86654,128,2,86829:0:0:0:0:
448,192,86654,1,0,0:0:0:0:
192,192,86829,128,8,87352:0:0:0:0:
448,192,86829,128,0,87003:0:0:0:0:
320,192,87003,128,2,87352:0:0:0:0:
64,192,87352,1,2,0:0:0:0:
448,192,87352,1,0,0:0:0:0:
320,192,87526,1,8,0:0:0:0:
448,192,87526,1,0,0:0:0:0:
192,192,87701,1,8,0:0:0:0:
320,192,87788,1,8,0:0:0:0:
64,192,87875,1,2,0:0:0:0:
192,192,87875,1,4,0:0:0:0:
448,192,87875,1,0,0:0:0:0:
64,192,88050,128,0,88137:0:0:0:0:
448,192,88050,128,0,88137:0:0:0:0:
64,192,88224,128,8,88398:0:0:0:0:
448,192,88224,128,2,88398:0:0:0:0:
320,192,88573,1,2,0:0:0:0:
448,192,88573,1,0,0:0:0:0:
192,192,88747,1,0,0:0:0:0:
64,192,88922,1,8,0:0:0:0:
448,192,88922,1,2,0:0:0:0:
320,192,89096,1,0,0:0:0:0:
192,192,89270,1,2,0:0:0:0:
448,192,89270,1,0,0:0:0:0:
64,192,89445,128,0,89532:0:0:0:0:
448,192,89445,128,0,89532:0:0:0:0:
64,192,89619,128,8,89794:0:0:0:0:
448,192,89619,128,2,89794:0:0:0:0:
64,192,89968,1,2,0:0:0:0:
192,192,89968,1,0,0:0:0:0:
320,192,90143,1,0,0:0:0:0:
64,192,90317,1,8,0:0:0:0:
448,192,90317,1,2,0:0:0:0:
192,192,90491,1,0,0:0:0:0:
64,192,90666,1,2,0:0:0:0:
320,192,90666,1,4,0:0:0:0:
448,192,90666,1,0,0:0:0:0:
192,192,91015,1,8,0:0:0:0:
320,192,91015,1,0,0:0:0:0:
64,192,91189,1,8,0:0:0:0:
192,192,91276,1,8,0:0:0:0:
320,192,91364,1,8,0:0:0:0:
448,192,91364,1,0,0:0:0:0:
448,192,91538,1,8,0:0:0:0:
320,192,91625,1,8,0:0:0:0:
64,192,91712,1,8,0:0:0:0:
192,192,91712,1,0,0:0:0:0:
64,192,91887,1,8,0:0:0:0:
192,192,91974,1,8,0:0:0:0:
320,192,92061,1,8,0:0:0:0:
448,192,92061,128,4,92236:0:0:0:0:
64,192,92236,1,2,0:0:0:0:
192,192,92236,1,0,0:0:0:0:
64,192,92410,1,8,0:0:0:0:
192,192,92410,128,4,92759:0:0:0:0:
320,192,92410,128,0,92759:0:0:0:0:
64,192,92759,1,8,0:0:0:0:
448,192,92759,1,0,0:0:0:0:
320,192,92933,1,8,0:0:0:0:
448,192,93020,1,8,0:0:0:0:
192,192,93108,1,0,0:0:0:40:Tom1.wav
64,192,93195,1,0,0:0:0:40:Tom1.wav
320,192,93282,1,0,0:0:0:45:Tom2.wav
448,192,93369,1,0,0:0:0:45:Tom3.wav
64,192,93457,128,2,93805:0:0:0:0:
192,192,93457,1,4,0:0:0:0:
320,192,93457,1,0,0:0:0:0:
448,192,93631,1,0,0:0:0:0:
192,192,93805,1,8,0:0:0:0:
320,192,93805,128,2,94154:0:0:0:0:
64,192,93980,1,0,0:0:0:0:
192,192,94154,1,2,0:0:0:0:
448,192,94154,1,0,0:0:0:0:
64,192,94241,1,0,0:0:0:0:
320,192,94329,1,0,0:0:0:0:
192,192,94503,1,8,0:0:0:0:
448,192,94503,1,2,0:0:0:0:
320,192,94677,1,0,0:0:0:0:
64,192,94852,128,2,95201:0:0:0:0:
192,192,94852,1,0,0:0:0:0:
448,192,95026,128,0,95201:0:0:0:0:
192,192,95201,1,8,0:0:0:0:
320,192,95201,1,2,0:0:0:0:
64,192,95375,128,0,96073:0:0:0:0:
320,192,95550,1,2,0:0:0:0:
448,192,95724,1,0,0:0:0:0:
192,192,95898,1,10,0:0:0:0:
448,192,96073,1,0,0:0:0:0:
192,192,96247,1,2,0:0:0:0:
320,192,96247,128,0,96596:0:0:0:0:
64,192,96422,1,0,0:0:0:0:
192,192,96596,128,8,96945:0:0:0:0:
448,192,96596,1,2,0:0:0:0:
320,192,96770,1,0,0:0:0:0:
64,192,96945,1,2,0:0:0:0:
448,192,96945,1,0,0:0:0:0:
320,192,97032,1,0,0:0:0:0:
192,192,97119,1,0,0:0:0:0:
64,192,97294,1,8,0:0:0:0:
448,192,97294,1,2,0:0:0:0:
192,192,97468,1,0,0:0:0:0:
320,192,97643,128,2,97991:0:0:0:0:
448,192,97643,1,0,0:0:0:0:
64,192,97817,128,0,97991:0:0:0:0:
192,192,97991,1,8,0:0:0:0:
448,192,97991,1,2,0:0:0:0:
320,192,98166,1,0,0:0:0:0:
64,192,98340,1,10,0:0:0:0:
192,192,98340,1,0,0:0:0:45:Tom3.wav
192,192,98515,1,8,0:0:0:0:
448,192,98515,1,0,0:0:0:45:Tom3.wav
320,192,98689,1,8,0:0:0:0:
448,192,98689,1,0,0:0:0:45:Tom3.wav
64,192,98864,1,2,0:0:0:0:
192,192,98864,128,4,99212:0:0:0:0:
320,192,98864,1,0,0:0:0:0:
64,192,99212,1,2,0:0:0:0:
448,192,99212,1,0,0:0:0:0:
192,192,99387,1,8,0:0:0:0:
320,192,99387,1,4,0:0:0:0:
448,192,99387,128,0,99736:0:0:0:0:
64,192,99736,1,2,0:0:0:0:
320,192,99736,1,0,0:0:0:0:
192,192,99910,128,2,100084:0:0:0:0:
448,192,99910,1,0,0:0:0:0:
320,192,100084,128,8,100259:0:0:0:0:
448,192,100084,1,0,0:0:0:0:
64,192,100259,128,2,100608:0:0:0:0:
192,192,100259,1,0,0:0:0:0:
448,192,100433,1,0,0:0:0:0:
192,192,100608,1,2,0:0:0:0:
320,192,100608,1,0,0:0:0:0:
320,192,100782,1,8,0:0:0:0:
448,192,100782,128,0,100957:0:0:0:0:
192,192,100957,1,0,0:0:0:0:
64,192,101131,128,2,101305:0:0:0:0:
320,192,101131,1,0,0:0:0:0:
192,192,101305,1,2,0:0:0:0:
448,192,101305,128,0,101480:0:0:0:0:
192,192,101480,128,8,101654:0:0:0:0:
320,192,101480,1,0,0:0:0:0:
64,192,101654,128,2,102003:0:0:0:0:
320,192,101654,1,4,0:0:0:0:
448,192,101654,1,0,0:0:0:0:
192,192,102003,1,2,0:0:0:0:
320,192,102003,1,0,0:0:0:0:
192,192,102177,1,8,0:0:0:0:
448,192,102177,1,0,0:0:0:0:
64,192,102352,1,2,0:0:0:0:
320,192,102352,1,0,0:0:0:0:
192,192,102526,1,8,0:0:0:0:
320,192,102526,1,0,0:0:0:0:
64,192,102701,1,2,0:0:0:0:
448,192,102701,1,0,0:0:0:0:
64,192,102875,1,8,0:0:0:0:
320,192,102875,1,0,0:0:0:0:
192,192,103050,1,2,0:0:0:0:
448,192,103050,1,0,0:0:0:0:
64,192,103224,1,8,0:0:0:0:
320,192,103224,128,4,103398:0:0:0:0:
448,192,103224,128,0,103398:0:0:0:0:
64,192,103573,128,8,103922:0:0:0:0:
192,192,103573,128,4,103922:0:0:0:0:
448,192,103573,1,0,0:0:0:0:
320,192,103922,1,8,0:0:0:0:
448,192,104096,1,8,0:0:0:0:
192,192,104183,1,8,0:0:0:0:
320,192,104270,1,0,0:0:0:40:Tom1.wav
64,192,104358,1,0,0:0:0:40:Tom1.wav
192,192,104445,1,0,0:0:0:45:Tom2.wav
320,192,104532,1,0,0:0:0:45:Tom3.wav
64,192,104619,128,2,107672:0:0:0:0:
192,192,104619,128,4,106974:0:0:0:0:
448,192,104619,1,0,0:0:0:0:
448,192,106974,128,0,107672:0:0:0:0:
