osu file format v14

[General]
AudioFilename: audio.mp3
AudioLeadIn: 0
PreviewTime: 70869
Countdown: 0
SampleSet: Soft
StackLeniency: 0.7
Mode: 3
LetterboxInBreaks: 0
EpilepsyWarning: 1
SpecialStyle: 0
WidescreenStoryboard: 1

[Editor]
Bookmarks: 9736,20898,32061,46015,57177,62759,65550,68340,76712,82119,87875
DistanceSpacing: 0.6
BeatDivisor: 4
GridSize: 8
TimelineZoom: 2

[Metadata]
Title:Attsu Atsu Tokonatsu Love*Summer!
TitleUnicode:あっつあつ 常夏 らぶ☆サマー!
Artist:Pastel*Palettes
ArtistUnicode:Pastel*Palettes
Creator:Al-Reina
Version:Easy
Source:バンドリ!ガールズバンドパーティ!
Tags:Kanon Matsubara Sun cryochan Hot, Hot! Sunny BanG Dream! Girls Band Party! Garupa Bandori! PasuPare パスパレ Paspale パステルパレット 前島亜美 Maeshima Ami 中上育美 Nakagami Ikumi 秦佐和子 Hata Sawako 上坂すみれ Uesaka Sumire 小澤亜李 Ozawa Ari Japanese video game J-pop jpop 織田あすか Oda Asuka elements garden 笠井雄太 Kasai Yūta Yuuta 1st Album TITLE IDOL BRMM-10349
BeatmapID:2775363
BeatmapSetID:1339615

[Difficulty]
HPDrainRate:6.5
CircleSize:4
OverallDifficulty:6.5
ApproachRate:10
SliderMultiplier:1.4
SliderTickRate:1

[Events]
//Background and Video events
0,0,"chisato.jpg",0,0
//Break Periods
//Storyboard Layer 0 (Background)
//Storyboard Layer 1 (Fail)
//Storyboard Layer 2 (Pass)
//Storyboard Layer 3 (Foreground)
//Storyboard Layer 4 (Overlay)
//Storyboard Sound Samples

[TimingPoints]
1364,348.837209302326,4,2,1,50,1,0
9736,-100,4,2,1,65,0,0
20898,-100,4,2,1,60,0,0
70957,-100,4,2,1,70,0,1
93457,-100,4,2,1,65,0,0

[HitObjects]
64,192,2759,128,0,3282:0:0:0:60:Ride.wav
192,192,3282,128,0,3631:0:0:0:0:
448,192,3631,1,0,0:0:0:0:
320,192,3805,1,0,0:0:0:0:
192,192,3980,1,0,0:0:0:0:
448,192,4154,128,0,4677:0:0:0:0:
320,192,4677,128,0,5026:0:0:0:0:
64,192,5026,1,0,0:0:0:0:
192,192,5201,1,0,0:0:0:0:
320,192,5375,1,0,0:0:0:60:Ride.wav
192,192,5550,128,0,6073:0:0:0:60:Ride.wav
64,192,6073,128,0,6422:0:0:0:0:
448,192,6422,1,0,0:0:0:0:
320,192,6596,1,0,0:0:0:0:
192,192,6770,1,0,0:0:0:0:
320,192,6945,128,0,7468:0:0:0:60:Ride.wav
192,192,7468,128,0,8340:0:0:0:60:Ride.wav
320,192,8340,1,0,0:0:0:0:
320,192,8602,1,0,0:0:0:0:
192,192,8776,1,0,0:0:0:0:
64,192,9038,1,0,0:0:0:0:
320,192,9387,128,0,9736:0:0:0:0:
64,192,9736,128,2,10084:0:0:0:0:
192,192,9736,1,4,0:0:0:0:
448,192,10084,128,10,10433:0:0:0:0:
192,192,10433,128,2,10782:0:0:0:0:
320,192,10782,1,10,0:0:0:0:
64,192,11131,1,2,0:0:0:0:
448,192,11305,1,0,0:0:0:0:
64,192,11654,128,0,12526:0:0:0:0:
320,192,12526,128,2,12875:0:0:0:0:
192,192,12875,128,10,13224:0:0:0:0:
448,192,13224,128,2,13573:0:0:0:0:
64,192,13573,1,10,0:0:0:0:
448,192,13922,1,2,0:0:0:0:
192,192,14096,1,0,0:0:0:0:
448,192,14445,128,0,14794:0:0:0:0:
320,192,14794,1,10,0:0:0:0:
192,192,14968,1,10,0:0:0:0:
64,192,15143,128,2,15491:0:0:0:0:
448,192,15143,1,4,0:0:0:0:
320,192,15491,1,2,0:0:0:0:
448,192,15666,1,12,0:0:0:0:
192,192,15840,128,0,16189:0:0:0:0:
448,192,16189,1,2,0:0:0:0:
64,192,16364,1,8,0:0:0:0:
320,192,16538,128,2,16887:0:0:0:0:
192,192,16887,1,2,0:0:0:0:
64,192,17061,1,8,0:0:0:0:
448,192,17236,128,0,17584:0:0:0:0:
320,192,17584,1,2,0:0:0:0:
192,192,17759,1,8,0:0:0:0:
64,192,17933,1,2,0:0:0:0:
448,192,17933,1,4,0:0:0:0:
320,192,18282,1,2,0:0:0:0:
192,192,18457,1,8,0:0:0:0:
192,192,18805,1,8,0:0:0:0:
320,192,19154,1,8,0:0:0:0:
64,192,19503,1,8,0:0:0:0:
320,192,19503,1,4,0:0:0:0:
64,192,19852,128,8,20898:0:0:0:0:
192,192,19852,1,4,0:0:0:0:
320,192,20201,1,8,0:0:0:0:
448,192,20550,1,0,0:0:0:40:Tom1.wav
320,192,20898,1,2,0:0:0:0:
448,192,20898,1,4,0:0:0:0:
192,192,21247,1,8,0:0:0:0:
448,192,21422,1,2,0:0:0:0:
320,192,21770,1,2,0:0:0:0:
64,192,21945,1,8,0:0:0:0:
192,192,22294,1,2,0:0:0:0:
320,192,22468,1,2,0:0:0:0:
64,192,22643,1,8,0:0:0:0:
320,192,22817,1,2,0:0:0:0:
448,192,23166,1,2,0:0:0:0:
192,192,23340,1,8,0:0:0:0:
64,192,23689,1,2,0:0:0:0:
320,192,24038,1,8,0:0:0:0:
192,192,24212,1,2,0:0:0:0:
64,192,24561,1,2,0:0:0:0:
448,192,24736,1,8,0:0:0:0:
320,192,25084,1,2,0:0:0:0:
64,192,25259,1,2,0:0:0:0:
448,192,25433,1,8,0:0:0:0:
64,192,25608,1,2,0:0:0:0:
192,192,25957,1,2,0:0:0:0:
320,192,26131,1,8,0:0:0:0:
448,192,26480,1,2,0:0:0:0:
192,192,26829,1,8,0:0:0:0:
320,192,27003,1,2,0:0:0:0:
192,192,27352,1,8,0:0:0:0:
192,192,27526,1,8,0:0:0:0:
64,192,27875,1,2,0:0:0:0:
320,192,28224,1,8,0:0:0:0:
192,192,28398,1,2,0:0:0:0:
320,192,28747,1,8,0:0:0:0:
320,192,28922,1,8,0:0:0:0:
64,192,29096,1,8,0:0:0:0:
448,192,29270,1,2,0:0:0:0:
64,192,29619,1,8,0:0:0:0:
192,192,29619,1,4,0:0:0:0:
320,192,29968,1,2,0:0:0:0:
64,192,30317,1,8,0:0:0:0:
192,192,30317,1,4,0:0:0:0:
448,192,30666,128,2,31015:0:0:0:0:
320,192,31538,1,2,0:0:0:0:
64,192,31712,1,8,0:0:0:0:
320,192,31887,1,2,0:0:0:0:
192,192,32061,1,2,0:0:0:0:
448,192,32061,1,4,0:0:0:0:
64,192,32410,1,8,0:0:0:0:
320,192,32410,1,4,0:0:0:0:
448,192,32584,1,2,0:0:0:0:
320,192,32933,1,2,0:0:0:0:
192,192,33108,1,8,0:0:0:0:
64,192,33457,1,2,0:0:0:0:
320,192,33631,1,2,0:0:0:0:
192,192,33805,1,8,0:0:0:0:
320,192,33980,1,2,0:0:0:0:
448,192,34329,1,2,0:0:0:0:
64,192,34503,1,8,0:0:0:0:
320,192,34852,1,2,0:0:0:0:
192,192,35201,1,8,0:0:0:0:
448,192,35375,1,2,0:0:0:0:
320,192,35724,1,2,0:0:0:0:
64,192,35898,1,8,0:0:0:0:
320,192,36247,1,2,0:0:0:0:
192,192,36422,1,2,0:0:0:0:
448,192,36596,1,8,0:0:0:0:
192,192,36770,1,2,0:0:0:0:
64,192,37119,1,2,0:0:0:0:
320,192,37294,128,8,37643:0:0:0:0:
192,192,37643,1,2,0:0:0:0:
320,192,37991,1,8,0:0:0:0:
64,192,38166,1,2,0:0:0:0:
320,192,38515,1,8,0:0:0:0:
320,192,38689,1,8,0:0:0:0:
448,192,39038,1,2,0:0:0:0:
64,192,39212,1,2,0:0:0:0:
192,192,39387,1,8,0:0:0:0:
448,192,39561,1,2,0:0:0:0:
192,192,39910,1,8,0:0:0:0:
192,192,40084,1,8,0:0:0:0:
320,192,40259,1,8,0:0:0:0:
64,192,40433,1,2,0:0:0:0:
320,192,40782,1,8,0:0:0:0:
448,192,40782,1,4,0:0:0:0:
192,192,41131,1,2,0:0:0:0:
320,192,41480,1,4,0:0:0:0:
448,192,41480,1,8,0:0:0:0:
64,192,41829,1,8,0:0:0:0:
448,192,41829,1,4,0:0:0:0:
64,192,42177,1,2,0:0:0:0:
192,192,42352,1,8,0:0:0:0:
448,192,42352,1,4,0:0:0:0:
448,192,42701,1,2,0:0:0:0:
320,192,42875,1,12,0:0:0:0:
192,192,43050,1,2,0:0:0:0:
64,192,43224,1,2,0:0:0:0:
448,192,43224,1,4,0:0:0:0:
192,192,43573,1,8,0:0:0:0:
448,192,43922,1,2,0:0:0:0:
320,192,44096,1,2,0:0:0:0:
192,192,44270,1,8,0:0:0:0:
192,192,44619,1,8,0:0:0:0:
448,192,44619,1,4,0:0:0:0:
64,192,44794,1,2,0:0:0:0:
320,192,45143,1,2,0:0:0:0:
64,192,45491,128,2,46015:0:0:0:0:
320,192,46015,1,2,0:0:0:0:
448,192,46015,1,4,0:0:0:0:
192,192,46538,1,2,0:0:0:0:
448,192,46712,1,8,0:0:0:0:
320,192,47061,1,2,0:0:0:0:
64,192,47236,1,8,0:0:0:0:
448,192,47410,1,2,0:0:0:0:
192,192,47672,1,2,0:0:0:0:
320,192,47933,1,2,0:0:0:0:
64,192,48108,1,8,0:0:0:0:
320,192,48457,1,2,0:0:0:0:
192,192,48631,1,8,0:0:0:0:
448,192,48805,1,2,0:0:0:0:
448,192,49329,1,2,0:0:0:0:
192,192,49503,1,8,0:0:0:0:
64,192,49852,1,2,0:0:0:0:
320,192,50026,1,8,0:0:0:0:
192,192,50201,1,2,0:0:0:0:
448,192,50462,1,2,0:0:0:0:
64,192,50724,1,2,0:0:0:0:
320,192,50898,1,8,0:0:0:0:
64,192,51247,1,2,0:0:0:0:
448,192,51422,1,8,0:0:0:0:
192,192,51596,1,2,0:0:0:0:
192,192,52119,1,2,0:0:0:0:
320,192,52294,1,8,0:0:0:0:
448,192,52643,1,2,0:0:0:0:
64,192,52817,1,8,0:0:0:0:
320,192,52991,1,2,0:0:0:0:
192,192,53253,1,2,0:0:0:0:
448,192,53515,1,2,0:0:0:0:
64,192,53689,1,8,0:0:0:0:
320,192,54038,1,2,0:0:0:0:
192,192,54212,1,8,0:0:0:0:
64,192,54387,1,2,0:0:0:0:
448,192,54387,1,4,0:0:0:0:
320,192,54736,1,10,0:0:0:0:
64,192,55084,1,2,0:0:0:0:
448,192,55433,1,10,0:0:0:0:
192,192,55782,1,2,0:0:0:0:
320,192,56131,1,10,0:0:0:0:
64,192,56480,1,8,0:0:0:0:
192,192,56654,128,8,57177:0:0:0:0:
320,192,57177,1,8,0:0:0:0:
448,192,57352,1,8,0:0:0:0:
64,192,57875,1,0,0:0:0:0:
448,192,58573,1,0,0:0:0:0:
320,192,59270,1,2,0:0:0:0:
64,192,59445,1,8,0:0:0:0:
448,192,59445,128,4,59968:0:0:0:0:
192,192,59968,1,8,0:0:0:0:
64,192,60143,1,8,0:0:0:0:
448,192,60666,1,0,0:0:0:0:
64,192,61364,1,0,0:0:0:0:
192,192,62061,1,2,0:0:0:0:
64,192,62236,128,8,62759:0:0:0:0:
448,192,62236,1,4,0:0:0:0:
320,192,62759,1,8,0:0:0:0:
448,192,62759,1,4,0:0:0:0:
192,192,63108,1,2,0:0:0:0:
448,192,63282,1,8,0:0:0:0:
64,192,63631,1,0,0:0:0:40:Tom1.wav
320,192,63805,128,0,64154:0:0:0:45:Tom2.wav
64,192,64154,1,8,0:0:0:0:
192,192,64154,1,4,0:0:0:0:
448,192,64503,1,2,0:0:0:0:
192,192,64677,1,8,0:0:0:0:
320,192,64677,1,4,0:0:0:0:
64,192,65026,1,8,0:0:0:0:
192,192,65201,1,8,0:0:0:0:
320,192,65375,1,8,0:0:0:0:
64,192,65550,1,8,0:0:0:0:
448,192,65550,1,4,0:0:0:0:
192,192,65898,1,2,0:0:0:0:
64,192,66073,1,8,0:0:0:0:
320,192,66073,1,4,0:0:0:0:
448,192,66422,1,2,0:0:0:0:
64,192,66596,1,8,0:0:0:0:
192,192,66596,1,4,0:0:0:0:
320,192,66945,1,8,0:0:0:0:
448,192,66945,1,4,0:0:0:0:
320,192,67294,1,2,0:0:0:0:
192,192,67468,1,8,0:0:0:0:
448,192,67468,1,4,0:0:0:0:
64,192,67817,1,2,0:0:0:0:
448,192,67991,1,4,0:0:0:0:
320,192,67991,1,8,0:0:0:0:
64,192,68340,1,8,0:0:0:0:
192,192,68340,1,4,0:0:0:0:
320,192,69038,1,8,0:0:0:0:
192,192,69212,1,0,0:0:0:45:Tom2.wav
320,192,69387,1,8,0:0:0:0:
64,192,69736,1,8,0:0:0:0:
448,192,69910,1,8,0:0:0:0:
64,192,70084,1,8,0:0:0:0:
448,192,70259,1,8,0:0:0:0:
320,192,70608,1,8,0:0:0:0:
192,192,70782,1,2,0:0:0:0:
64,192,70957,1,2,0:0:0:0:
448,192,70957,1,4,0:0:0:0:
448,192,71305,1,2,0:0:0:0:
64,192,71480,1,8,0:0:0:0:
320,192,71480,1,4,0:0:0:0:
192,192,71829,1,2,0:0:0:0:
320,192,72003,1,2,0:0:0:0:
448,192,72177,1,8,0:0:0:0:
64,192,72526,1,2,0:0:0:0:
320,192,72701,1,2,0:0:0:0:
192,192,72875,1,8,0:0:0:0:
64,192,73050,128,2,73398:0:0:0:0:
320,192,73398,1,2,0:0:0:0:
448,192,73573,1,8,0:0:0:0:
64,192,73747,1,2,0:0:0:0:
192,192,74096,1,2,0:0:0:0:
320,192,74270,1,8,0:0:0:0:
192,192,74619,1,2,0:0:0:0:
448,192,74794,1,2,0:0:0:0:
64,192,74968,1,8,0:0:0:0:
448,192,75317,1,2,0:0:0:0:
192,192,75491,1,2,0:0:0:0:
320,192,75666,1,8,0:0:0:0:
448,192,75840,128,2,76189:0:0:0:0:
64,192,76189,1,2,0:0:0:0:
192,192,76364,1,8,0:0:0:0:
320,192,76538,1,8,0:0:0:0:
64,192,76712,1,2,0:0:0:0:
448,192,76712,1,4,0:0:0:0:
192,192,77061,1,10,0:0:0:0:
448,192,77410,1,2,0:0:0:0:
64,192,77759,1,10,0:0:0:0:
320,192,78108,1,2,0:0:0:0:
64,192,78457,1,10,0:0:0:0:
448,192,78805,1,2,0:0:0:0:
192,192,79154,1,10,0:0:0:0:
320,192,79503,1,2,0:0:0:0:
448,192,79503,1,4,0:0:0:0:
64,192,79852,128,10,80201:0:0:0:0:
320,192,80201,128,10,80550:0:0:0:0:
192,192,80550,128,10,80898:0:0:0:0:
320,192,80898,1,8,0:0:0:0:
448,192,80898,1,4,0:0:0:0:
64,192,81073,1,8,0:0:0:0:
192,192,81422,128,8,81770:0:0:0:0:
320,192,81422,1,4,0:0:0:0:
448,192,81770,128,8,82119:0:0:0:0:
64,192,82119,1,2,0:0:0:0:
192,192,82119,1,4,0:0:0:0:
320,192,82468,1,2,0:0:0:0:
64,192,82643,1,8,0:0:0:0:
448,192,82643,1,4,0:0:0:0:
320,192,82991,1,2,0:0:0:0:
64,192,83166,1,2,0:0:0:0:
192,192,83340,1,8,0:0:0:0:
320,192,83689,1,2,0:0:0:0:
64,192,83864,1,2,0:0:0:0:
448,192,84038,1,8,0:0:0:0:
320,192,84212,128,2,84561:0:0:0:0:
64,192,84561,1,2,0:0:0:0:
192,192,84736,1,8,0:0:0:0:
320,192,84910,1,2,0:0:0:0:
448,192,85259,1,2,0:0:0:0:
64,192,85433,1,8,0:0:0:0:
448,192,85782,1,2,0:0:0:0:
192,192,85957,1,2,0:0:0:0:
320,192,86131,1,8,0:0:0:0:
192,192,86480,1,2,0:0:0:0:
448,192,86654,1,2,0:0:0:0:
64,192,86829,1,8,0:0:0:0:
192,192,87003,128,2,87352:0:0:0:0:
448,192,87352,1,2,0:0:0:0:
320,192,87526,1,8,0:0:0:0:
192,192,87701,1,8,0:0:0:0:
64,192,87875,1,2,0:0:0:0:
448,192,87875,1,4,0:0:0:0:
320,192,88224,1,10,0:0:0:0:
192,192,88573,1,2,0:0:0:0:
448,192,88922,1,10,0:0:0:0:
64,192,89270,1,2,0:0:0:0:
448,192,89619,1,10,0:0:0:0:
192,192,89968,1,2,0:0:0:0:
320,192,90317,1,10,0:0:0:0:
64,192,90666,1,2,0:0:0:0:
192,192,90666,1,4,0:0:0:0:
448,192,91015,128,8,91364:0:0:0:0:
64,192,91364,128,8,91712:0:0:0:0:
448,192,91712,1,8,0:0:0:0:
320,192,91887,1,8,0:0:0:0:
64,192,92061,1,8,0:0:0:0:
192,192,92061,1,4,0:0:0:0:
192,192,92410,1,8,0:0:0:0:
320,192,92410,128,4,92759:0:0:0:0:
64,192,92759,1,8,0:0:0:0:
448,192,92933,1,8,0:0:0:0:
192,192,93108,128,0,93457:0:0:0:40:Tom1.wav
320,192,93457,128,2,93805:0:0:0:0:
448,192,93457,1,4,0:0:0:0:
64,192,93805,128,10,94154:0:0:0:0:
448,192,94154,128,2,94503:0:0:0:0:
192,192,94503,1,10,0:0:0:0:
320,192,94852,1,2,0:0:0:0:
64,192,95026,1,0,0:0:0:0:
320,192,95375,128,0,96247:0:0:0:0:
64,192,96247,128,2,96596:0:0:0:0:
448,192,96596,128,10,96945:0:0:0:0:
192,192,96945,128,2,97294:0:0:0:0:
448,192,97294,1,10,0:0:0:0:
64,192,97643,1,2,0:0:0:0:
320,192,97817,1,0,0:0:0:0:
64,192,98166,128,0,98515:0:0:0:0:
192,192,98515,1,8,0:0:0:0:
320,192,98689,1,8,0:0:0:0:
64,192,98864,1,2,0:0:0:0:
448,192,98864,128,4,99212:0:0:0:0:
192,192,99212,1,2,0:0:0:0:
64,192,99387,1,12,0:0:0:0:
320,192,99561,128,0,99910:0:0:0:0:
192,192,99910,1,2,0:0:0:0:
448,192,100084,1,8,0:0:0:0:
64,192,100259,128,2,100608:0:0:0:0:
320,192,100608,1,2,0:0:0:0:
448,192,100782,1,8,0:0:0:0:
192,192,100957,128,0,101305:0:0:0:0:
64,192,101305,1,2,0:0:0:0:
448,192,101480,1,8,0:0:0:0:
192,192,101654,1,2,0:0:0:0:
320,192,101654,1,4,0:0:0:0:
64,192,102003,1,2,0:0:0:0:
320,192,102177,1,8,0:0:0:0:
320,192,102526,1,8,0:0:0:0:
192,192,102875,1,8,0:0:0:0:
192,192,103224,1,8,0:0:0:0:
448,192,103224,1,4,0:0:0:0:
320,192,103573,1,8,0:0:0:0:
448,192,103573,128,4,104619:0:0:0:0:
192,192,103922,1,8,0:0:0:0:
64,192,104270,1,0,0:0:0:40:Tom1.wav
64,192,104619,128,2,107672:0:0:0:0:
192,192,104619,1,4,0:0:0:0:
