osu file format v14

[General]
AudioFilename: HanamaruAndante.mp3
AudioLeadIn: 1500
PreviewTime: 49483
Countdown: 0
SampleSet: Soft
StackLeniency: 0.7
Mode: 0
LetterboxInBreaks: 0
WidescreenStoryboard: 1

[Editor]
Bookmarks: 51651
DistanceSpacing: 1.1
BeatDivisor: 4
GridSize: 4
TimelineZoom: 1.4

[Metadata]
Title:Hanamaru Andante
TitleUnicode:はなまる◎アンダンテ
Artist:Pastel Palettes
ArtistUnicode:Pastel*Palettes
Creator:CPLs
Version:Normal
Source:バンドリ! ガールズバンドパーティ!
Tags:bang dream girls band party bandori garupa ガルバ bushiroad elements garden pasupare shuwa パスパレ aya maruyama hina hikawa chisato shirasagi maya yamato eve wakamiya 丸山彩 氷川日菜 白鷺千聖 大和麻弥 若宮イヴ
BeatmapID:1407434
BeatmapSetID:664568

[Difficulty]
HPDrainRate:3.5
CircleSize:3.5
OverallDifficulty:5
ApproachRate:5.5
SliderMultiplier:1.1
SliderTickRate:1

[Events]
//Background and Video events
0,0,"pspr.jpg",0,0
//Break Periods
//Storyboard Layer 0 (Background)
//Storyboard Layer 1 (Fail)
//Storyboard Layer 2 (Pass)
//Storyboard Layer 3 (Foreground)
//Storyboard Sound Samples

[TimingPoints]
1411,361.44578313253,4,2,1,62,1,0
15868,-133.333333333333,4,2,1,35,0,0
27435,-133.333333333333,4,2,1,50,0,0
35929,-100,4,2,1,50,0,0
38278,-100,4,2,2,50,0,0
39001,-100,4,2,1,50,0,0
47856,-100,4,2,2,50,0,0
50567,-100,4,2,1,70,0,1
78398,-100,4,2,1,60,0,0
91049,-100,4,2,1,40,0,0
93941,-100,4,2,1,35,0,0
95386,-100,4,2,1,30,0,0
96832,-133.333333333333,4,2,1,25,0,0

[Colours]
Combo1 : 159,255,159
Combo2 : 255,166,210
Combo3 : 255,255,155
Combo4 : 192,192,192
Combo5 : 156,255,206

[HitObjects]
141,132,1411,6,0,P|62:196|145:251,1,220,6|2,0:0|0:0,0:0:0:0:
238,197,2495,1,8,0:0:0:0:
335,268,2856,2,0,P|373:209|329:130,2,165,2|2|0,0:0|0:0|0:0,0:0:0:0:
213,268,4302,6,0,P|133:261|118:171,1,165,2|2,0:0|0:0,0:0:0:0:
112,67,5206,1,2,0:0:0:0:
205,140,5567,2,0,P|241:104|305:106,1,110,2|0,0:0|0:0,0:0:0:0:
357,110,6109,1,8,0:0:0:0:
416,123,6290,2,0,L|440:241,1,110,2|0,0:0|0:0,0:0:0:0:
386,263,6832,2,0,L|316:277,1,55,8|0,0:0|0:0,0:0:0:0:
271,274,7194,6,0,P|238:333|139:334,1,165,4|2,0:0|0:0,0:0:0:0:
169,220,8097,1,2,0:0:0:0:
183,99,8459,2,0,B|240:69|240:108|308:82,1,110,2|2,0:0|0:0,0:0:0:0:
344,60,9001,1,8,0:0:0:0:
390,24,9182,2,0,B|433:76|433:76|433:120,1,110,2|0,0:0|0:0,0:0:0:0:
433,179,9724,2,0,L|432:240,1,55,8|0,0:0|0:0,0:0:0:0:
432,294,10085,6,0,B|370:293|370:293|348:253|348:253|336:231,1,110,4|8,0:0|0:0,0:0:0:0:
230,286,10808,2,0,P|213:235|231:185,1,110,2|8,0:0|0:0,0:0:0:0:
273,140,11350,1,0,0:0:0:0:
212,143,11531,2,0,L|96:154,1,110,2|8,0:0|0:0,0:0:0:0:
121,210,12073,2,0,L|8:223,1,110,2|0,0:0|0:0,0:0:0:0:
9,162,12615,2,0,L|-1:105,1,55,8|0,0:0|0:0,0:0:0:0:
49,73,12977,6,0,P|142:33|259:56,1,220,2|2,0:0|0:0,0:0:0:0:
374,28,14061,1,0,0:0:0:0:
414,141,14423,2,0,P|394:241|292:246,1,220,2|2,0:0|0:0,0:0:0:0:
235,138,15507,1,0,0:0:0:0:
125,159,15868,6,0,L|70:228,1,82.5000031471254,2|0,0:0|0:0,0:0:0:0:
147,312,16591,2,0,L|198:247,1,82.5000031471254,2|0,0:0|0:0,0:0:0:0:
290,317,17314,2,0,P|348:329|396:292,2,123.750004720688,2|2|2,0:0|0:0|0:0,0:0:0:0:
233,215,18760,2,0,P|174:202|126:239,2,123.750004720688,2|2|2,0:0|0:0|0:0,0:0:0:0:
233,215,20929,6,0,L|233:174,1,41.2500015735627,2|2,0:0|0:0,0:0:0:0:
176,163,21290,2,0,L|176:119,1,41.2500015735627,2|2,0:0|0:0,0:0:0:0:
221,86,21651,6,0,P|249:68|379:101,1,165.000006294251,2|2,0:0|0:0,0:0:0:0:
368,207,22736,1,2,0:0:0:0:
433,302,23097,2,0,P|369:332|280:296,1,165.000006294251,2|2,0:0|0:0,0:0:0:0:
235,270,24001,2,0,L|199:238,1,41.2500015735627,2|2,0:0|0:0,0:0:0:0:
102,305,24543,6,0,B|64:327|64:327|64:231|15:203,1,165.000006294251,2|2,0:0|0:0,0:0:0:0:
63,167,25447,2,0,P|90:157|103:157,1,41.2500015735627,2|2,0:0|0:0,0:0:0:0:
158,145,25808,2,0,L|168:238,1,82.5000031471254,2|0,0:0|0:0,0:0:0:0:
173,284,26350,2,0,L|224:280,1,41.2500015735627,2|0,0:0|0:0,0:0:0:0:
272,275,26712,2,0,L|276:363,1,82.5000031471254,2|2,0:0|0:0,0:0:0:0:
367,286,27435,6,0,P|451:269|449:196,1,165.000006294251,2|2,0:0|0:0,0:0:0:0:
367,124,28519,1,2,0:0:0:0:
261,169,28880,2,0,P|241:111|260:49,2,123.750004720688,2|2|2,0:0|0:0|0:0,0:0:0:0:
214,275,30326,2,0,L|86:286,1,123.750004720688,2|2,0:0|0:0,0:0:0:0:
23,125,31410,2,0,L|151:114,1,123.750004720688,2|2,0:0|0:0,0:0:0:0:
241,179,32314,6,0,L|236:122,1,41.2500015735627,2|2,0:0|0:0,0:0:0:0:
229,80,32676,2,0,P|279:74|326:19,2,123.750004720688,2|2|2,0:0|0:0|0:0,0:0:0:0:
81,171,34302,2,0,L|-1:171,2,82.5000031471254,2|2|2,0:0|0:0|0:0,0:0:0:0:
146,75,35386,1,2,0:0:0:0:
180,185,35748,1,2,0:0:0:0:
180,185,35929,6,0,P|176:227|277:263,1,165,4|8,0:0|0:0,0:0:0:0:
392,284,36832,2,0,L|446:296,2,55,8|8|0,0:0|0:0|0:0,0:0:0:0:
392,223,37374,2,0,L|420:108,1,110,8|0,0:0|0:0,0:0:0:0:
359,98,37917,2,0,L|245:75,2,110,10|4|8,0:0|0:0|0:0,0:0:0:0:
266,175,39001,6,0,P|246:240|144:251,1,165,6|0,0:0|0:0,0:0:0:0:
99,250,39724,2,0,L|70:361,1,110
189,331,40447,2,0,P|244:348|300:331,2,110,2|0|0,0:0|0:0|0:0,0:0:0:0:
243,222,41531,1,8,0:0:0:0:
362,241,41892,6,0,P|397:278|456:278,1,110,2|0,0:0|0:0,0:0:0:0:
512,269,42435,1,2,0:0:0:0:
507,208,42615,2,0,L|513:93,1,110,2|8,0:0|0:0,0:0:0:0:
452,90,43157,2,0,L|397:86,2,55,0|2|0,0:0|0:0|0:0,0:0:0:0:
429,146,43700,1,0,0:0:0:0:
421,205,43880,2,0,P|413:251|307:282,1,165,2|8,0:0|0:0,0:0:0:0:
252,275,44603,1,0,0:0:0:0:
194,256,44784,6,0,L|249:146,1,110,4|8,0:0|0:0,0:0:0:0:
122,148,45507,2,0,L|177:38,1,110,2|8,0:0|0:0,0:0:0:0:
291,59,46230,2,0,P|346:46|403:68,1,110,2|8,0:0|0:0,0:0:0:0:
383,184,46953,2,0,P|397:216|374:296,1,110,2|2,0:0|0:0,0:0:0:0:
321,294,47495,2,0,L|196:285,1,110,2|4,0:0|0:0,0:0:0:0:
150,281,48037,5,4,0:0:0:0:
184,165,48398,1,4,0:0:0:0:
123,163,48579,2,0,P|52:172|12:138,1,110,6|4,0:0|0:0,0:0:0:0:
177,55,49483,2,0,L|294:81,2,110,2|2|2,0:0|0:0|0:0,0:0:0:0:
231,162,50567,6,0,L|254:272,1,110,6|8,0:0|0:0,0:0:0:0:
265,329,51109,1,0,0:0:0:0:
265,329,51290,2,0,P|314:345|368:329,1,110,2|8,0:0|0:0,0:0:0:0:
399,211,52013,2,0,P|415:162|399:108,1,110,2|8,0:0|0:0,0:0:0:0:
381,49,52555,2,0,L|269:59,1,110,2|0,0:0|0:0,0:0:0:0:
211,68,53097,1,8,0:0:0:0:
248,183,53459,6,0,P|237:241|190:265,1,110,2|8,0:0|0:0,0:0:0:0:
137,282,54001,1,0,0:0:0:0:
76,289,54182,2,0,L|85:179,1,110,2|8,0:0|0:0,0:0:0:0:
37,68,54904,2,0,P|95:57|150:81,1,110,2|8,0:0|0:0,0:0:0:0:
195,103,55447,2,0,L|280:172,1,110,2|0,0:0|0:0,0:0:0:0:
329,207,55989,1,8,0:0:0:0:
447,229,56350,6,0,P|448:282|397:314,1,110,2|8,0:0|0:0,0:0:0:0:
285,329,57073,2,0,L|175:333,1,110,2|8,0:0|0:0,0:0:0:0:
53,329,57796,2,0,L|68:211,1,110,2|8,0:0|0:0,0:0:0:0:
77,160,58338,2,0,P|131:183|188:168,2,110,2|2|2,0:0|0:0|0:0,0:0:0:0:
16,151,59242,6,0,B|31:67|31:67|56:87,1,110,2|8,0:0|0:0,0:0:0:0:
110,86,59784,2,0,L|243:101,2,110,2|2|2,0:0|0:0|0:0,0:0:0:0:
235,217,61049,2,0,B|223:271|223:271|183:308,2,110,8|8|8,0:0|0:0|0:0,0:0:0:0:
351,184,62133,6,0,P|394:183|450:218,1,110,2|8,0:0|0:0,0:0:0:0:
487,265,62676,1,0,0:0:0:0:
446,309,62856,2,0,P|403:310|347:275,1,110,2|8,0:0|0:0,0:0:0:0:
226,285,63579,2,0,L|109:298,1,110,2|8,0:0|0:0,0:0:0:0:
65,263,64121,2,0,L|58:150,1,110,2|0,0:0|0:0,0:0:0:0:
61,92,64664,1,8,0:0:0:0:
180,108,65025,6,0,B|217:80|217:80|255:92|303:79,1,110,2|8,0:0|0:0,0:0:0:0:
340,89,65567,1,0,0:0:0:0:
399,99,65748,2,0,P|396:157|351:198,1,110,2|8,0:0|0:0,0:0:0:0:
245,223,66471,2,0,L|248:280,2,55,2|0|8,0:0|0:0|0:0,0:0:0:0:
187,202,67013,2,0,L|305:196,1,110,2|2,0:0|0:0,0:0:0:0:
361,193,67555,1,8,0:0:0:0:
324,77,67917,6,0,L|206:83,1,110,2|2,0:0|0:0,0:0:0:0:
151,84,68459,1,0,0:0:0:0:
91,94,68639,2,0,P|74:144|96:199,1,110,8|0,0:0|0:0,0:0:0:0:
201,249,69362,6,0,B|251:248|251:248|283:260|283:260|321:258,1,110,2|0,0:0|0:0,0:0:0:0:
369,258,69904,1,2,0:0:0:0:
429,250,70085,2,0,P|449:299|432:350,1,110,8|0,0:0|0:0,0:0:0:0:
310,339,70808,6,0,L|201:350,1,110,2|2,0:0|0:0,0:0:0:0:
140,359,71350,1,2,0:0:0:0:
79,362,71531,2,0,P|58:318|66:257,1,110,8|0,0:0|0:0,0:0:0:0:
180,220,72254,6,0,L|302:216,1,110,2|2,0:0|0:0,0:0:0:0:
350,214,72796,1,2,0:0:0:0:
410,208,72977,2,0,P|421:160|401:100,1,110,8|8,0:0|0:0,0:0:0:0:
283,70,73700,6,0,L|174:74,1,110,2|8,0:0|0:0,0:0:0:0:
190,194,74423,2,0,L|81:201,1,110,8|8,0:0|0:0,0:0:0:0:
107,318,75145,2,0,B|148:315|148:315|184:339|184:339|265:333,1,165,2|2,0:0|0:0,0:0:0:0:
304,218,76049,1,2,0:0:0:0:
369,319,76410,6,0,P|419:306|445:251,1,110,2|2,0:0|0:0,0:0:0:0:
434,197,76953,2,0,P|413:147|356:121,1,110,2|2,0:0|0:0,0:0:0:0:
305,120,77495,1,2,0:0:0:0:
212,197,77856,2,0,L|98:197,1,110,2|2,0:0|0:0,0:0:0:0:
41,197,78398,1,2,0:0:0:0:
206,277,79483,6,0,P|261:279|297:223,1,110,4|8,0:0|0:0,0:0:0:0:
231,136,80206,2,0,L|342:136,1,110,2|8,0:0|0:0,0:0:0:0:
398,116,80748,1,0,0:0:0:0:
455,136,80929,2,0,L|454:246,1,110,2|8,0:0|0:0,0:0:0:0:
453,306,81471,2,0,P|440:342|354:346,1,110,2|0,0:0|0:0,0:0:0:0:
315,351,82013,1,8,0:0:0:0:
205,298,82374,6,0,P|169:255|105:248,1,110,2|8,0:0|0:0,0:0:0:0:
58,256,82917,2,0,L|31:149,1,110,2|2,0:0|0:0,0:0:0:0:
143,96,83639,2,0,P|153:124|229:124,1,110,2|2,0:0|0:0,0:0:0:0:
283,116,84182,1,8,0:0:0:0:
340,98,84362,2,0,L|394:197,1,110,2|0,0:0|0:0,0:0:0:0:
402,247,84904,2,0,L|345:274,1,55,8|0,0:0|0:0,0:0:0:0:
295,292,85266,6,0,P|263:321|191:318,1,110,4|8,0:0|0:0,0:0:0:0:
171,267,85808,2,0,P|117:263|74:297,1,110,2|10,0:0|0:0,0:0:0:0:
63,175,86531,2,0,B|14:145|14:145|16:89,1,110,2|2,0:0|0:0,0:0:0:0:
49,41,87073,1,8,0:0:0:0:
109,39,87254,2,0,P|161:27|217:47,1,110,2|0,0:0|0:0,0:0:0:0:
260,83,87796,2,0,L|221:125,1,55,8|0,0:0|0:0,0:0:0:0:
194,176,88157,6,0,L|194:287,1,110,2|8,0:0|0:0,0:0:0:0:
315,288,88880,2,0,L|429:285,1,110,2|8,0:0|0:0,0:0:0:0:
489,182,89603,2,0,P|427:186|397:150,1,110,2|8,0:0|0:0,0:0:0:0:
377,96,90145,2,0,L|262:120,1,110,2|2,0:0|0:0,0:0:0:0:
209,129,90688,1,8,0:0:0:0:
192,250,91049,6,0,B|168:194|168:194|132:180|132:180|100:112,2,165,2|2|0,0:0|0:0|0:0,0:0:0:0:
290,320,92495,2,0,P|261:363|209:359,1,110,2|2,0:0|0:0,0:0:0:0:
97,308,93218,2,0,L|50:205,1,110,2|2,0:0|0:0,0:0:0:0:
130,116,93941,6,0,P|151:154|268:159,2,165,2|2|0,0:0|0:0|0:0,0:0:0:0:
239,64,95386,2,0,L|351:63,1,110,2|2,0:0|0:0,0:0:0:0:
346,184,96109,2,0,L|458:183,1,110,2|2,0:0|0:0,0:0:0:0:
432,296,96832,6,0,P|401:348|337:350,1,123.750004720688,2|2,0:0|0:0,0:0:0:0:
329,237,97736,2,0,L|235:258,2,82.5000031471254,2|2|2,0:0|0:0|0:0,0:0:0:0:
329,237,99724,6,0,L|300:111,1,123.750004720688,2|2,0:0|0:0,0:0:0:0:
302,1,100627,2,0,P|261:3|228:34,2,82.5000031471254,2|2|2,0:0|0:0|0:0,0:0:0:0:
