osu file format v14

[General]
AudioFilename: HanamaruAndante.mp3
AudioLeadIn: 1500
PreviewTime: 49483
Countdown: 0
SampleSet: Soft
StackLeniency: 0.7
Mode: 0
LetterboxInBreaks: 0
WidescreenStoryboard: 1

[Editor]
Bookmarks: 65748
DistanceSpacing: 1.5
BeatDivisor: 4
GridSize: 4
TimelineZoom: 1.4

[Metadata]
Title:Hanamaru Andante
TitleUnicode:はなまる◎アンダンテ
Artist:Pastel Palettes
ArtistUnicode:Pastel*Palettes
Creator:CPLs
Version:Hard
Source:バンドリ! ガールズバンドパーティ!
Tags:bang dream girls band party bandori garupa ガルバ bushiroad elements garden pasupare shuwa パスパレ aya maruyama hina hikawa chisato shirasagi maya yamato eve wakamiya 丸山彩 氷川日菜 白鷺千聖 大和麻弥 若宮イヴ
BeatmapID:1406566
BeatmapSetID:664568

[Difficulty]
HPDrainRate:5
CircleSize:4
OverallDifficulty:6
ApproachRate:7
SliderMultiplier:1.4
SliderTickRate:1

[Events]
//Background and Video events
0,0,"pspr.jpg",0,0
//Break Periods
//Storyboard Layer 0 (Background)
//Storyboard Layer 1 (Fail)
//Storyboard Layer 2 (Pass)
//Storyboard Layer 3 (Foreground)
//Storyboard Sound Samples

[TimingPoints]
1411,361.44578313253,4,2,1,62,1,0
15868,-133.333333333333,4,2,1,35,0,0
27435,-133.333333333333,4,2,1,50,0,0
35929,-100,4,2,1,50,0,0
38278,-100,4,2,2,50,0,0
39001,-100,4,2,1,50,0,0
47856,-100,4,2,2,50,0,0
50567,-100,4,2,1,70,0,1
78398,-100,4,2,1,60,0,0
91049,-100,4,2,1,40,0,0
93941,-100,4,2,1,35,0,0
95386,-100,4,2,1,30,0,0
96832,-133.333333333333,4,2,1,25,0,0

[Colours]
Combo1 : 159,255,159
Combo2 : 255,166,210
Combo3 : 255,255,155
Combo4 : 192,192,192
Combo5 : 156,255,206

[HitObjects]
27,283,1411,6,0,P|68:284|132:212,1,140,6|8,0:0|0:0,0:0:0:0:
29,172,1953,1,0,0:0:0:0:
111,108,2133,2,0,B|180:79|181:127|247:103,1,140,0|8,0:0|0:0,0:0:0:0:
226,206,2676,1,0,0:0:0:0:
247,308,2857,2,0,L|391:272,1,140,2|8,0:0|0:0,0:0:0:0:
486,254,3398,2,0,P|460:188|394:163,1,140,2|2,0:0|0:0,0:0:0:0:
296,146,3941,2,0,L|337:90,1,70,8|0,0:0|0:0,0:0:0:0:
430,79,4303,6,0,P|401:22|332:-4,1,140,2|8,0:0|0:0,0:0:0:0:
239,43,4844,1,2,0:0:0:0:
197,50,5206,1,2,0:0:0:0:
155,58,5567,2,0,L|176:127,1,70,2|0,0:0|0:0,0:0:0:0:
229,255,5929,2,0,P|206:303|177:316,1,70,0|8,0:0|0:0,0:0:0:0:
88,297,6291,2,0,P|111:249|140:236,1,70,0|2,0:0|0:0,0:0:0:0:
181,153,6652,2,0,L|148:83,2,70,0|8|0,0:0|0:0|0:0,0:0:0:0:
276,197,7194,6,0,P|304:251|391:268,1,140,4|8,0:0|0:0,0:0:0:0:
479,289,7736,1,0,0:0:0:0:
423,199,7917,2,0,L|432:126,1,70,2|0,0:0|0:0,0:0:0:0:
325,129,8279,1,8,0:0:0:0:
403,59,8459,2,0,B|377:33|377:33|337:47|266:40,1,140,2|2,0:0|0:0,0:0:0:0:
169,44,9001,2,0,L|150:140,1,70,8|2,0:0|0:0,0:0:0:0:
233,184,9363,2,0,L|219:252,2,70,0|0|8,0:0|0:0|0:0,0:0:0:0:
133,216,9905,1,0,0:0:0:0:
137,322,10086,6,0,P|208:345|271:313,1,140,4|8,0:0|0:0,0:0:0:0:
312,235,10628,2,0,L|289:160,2,70,0|2|0,0:0|0:0|0:0,0:0:0:0:
388,307,11170,2,0,P|430:269|425:230,1,70,8|0,0:0|0:0,0:0:0:0:
461,158,11532,2,0,P|438:83|374:56,1,140,2|8,0:0|0:0,0:0:0:0:
330,145,12074,2,0,B|231:177|231:177|264:197,1,140,2|0,0:0|0:0,0:0:0:0:
201,281,12616,2,0,L|131:242,1,70,8|0,0:0|0:0,0:0:0:0:
126,142,12977,6,0,B|123:90|123:90|38:146,1,140,2|0,0:0|0:0,0:0:0:0:
73,241,13520,2,0,L|47:305,1,70,0|2,0:0|0:0,0:0:0:0:
148,314,13881,2,0,L|122:378,2,70
201,222,14423,2,0,P|268:244|333:219,1,140,2|0,0:0|0:0,0:0:0:0:
388,307,14965,1,0,0:0:0:0:
490,283,15146,1,2,0:0:0:0:
418,206,15326,2,0,L|420:127,1,70
365,45,15688,1,0,0:0:0:0:
272,95,15869,6,0,P|218:108|167:88,1,105.000004005432,2|0,0:0|0:0,0:0:0:0:
69,71,16411,1,0,0:0:0:0:
98,172,16592,2,0,B|82:255|82:255|102:286,1,105.000004005432,2|0,0:0|0:0,0:0:0:0:
184,323,17134,1,0,0:0:0:0:
217,223,17315,2,0,P|254:196|313:194,1,105.000004005432,2|0,0:0|0:0,0:0:0:0:
301,298,17857,2,0,P|352:297|395:268,1,105.000004005432,2|0,0:0|0:0,0:0:0:0:
410,163,18399,2,0,L|414:102,1,52.5000020027161,2|0,0:0|0:0,0:0:0:0:
323,56,18760,6,0,L|163:47,2,157.500006008148,2|2|2,0:0|0:0|0:0,0:0:0:0:
323,56,20748,1,0,0:0:0:0:
266,144,20929,1,2,0:0:0:0:
214,52,21110,1,0,0:0:0:0:
164,144,21291,2,0,L|153:203,1,52.5000020027161,2|2,0:0|0:0,0:0:0:0:
246,246,21652,6,0,B|295:261|295:261|141:311,1,210.000008010865,2|2,0:0|0:0,0:0:0:0:
44,346,22556,2,0,L|21:287,2,52.5000020027161,2|2|0,0:0|0:0|0:0,0:0:0:0:
96,225,23098,6,0,B|76:183|76:183|138:19,1,210.000008010865,2|2,0:0|0:0,0:0:0:0:
217,94,24001,2,0,L|200:148,2,52.5000020027161,2|2|0,0:0|0:0|0:0,0:0:0:0:
316,128,24544,6,0,B|365:145|399:126|399:126|441:178|407:245,1,210.000008010865,2|2,0:0|0:0,0:0:0:0:
305,221,25447,2,0,L|254:262,1,52.5000020027161,0|2,0:0|0:0,0:0:0:0:
196,335,25809,6,0,P|150:282|101:275,1,105.000004005432,2|0,0:0|0:0,0:0:0:0:
13,273,26351,2,0,L|23:207,1,52.5000020027161,2|0,0:0|0:0,0:0:0:0:
119,183,26712,1,2,0:0:0:0:
119,183,26893,2,0,L|129:117,2,52.5000020027161,0|2|0,0:0|0:0|0:0,0:0:0:0:
188,262,27435,6,0,B|255:273|255:273|289:302,1,105.000004005432,2|2,0:0|0:0,0:0:0:0:
382,330,27977,1,0,0:0:0:0:
419,232,28157,2,0,P|389:185|338:171,1,105.000004005432,2|2,0:0|0:0,0:0:0:0:
238,161,28700,1,0,0:0:0:0:
315,91,28880,2,0,B|340:72|340:72|266:56,1,105.000004005432,2|0,0:0|0:0,0:0:0:0:
163,66,29423,2,0,L|150:175,1,105.000004005432,2|0,0:0|0:0,0:0:0:0:
254,151,29965,2,0,L|249:211,1,52.5000020027161,2|0,0:0|0:0,0:0:0:0:
284,305,30327,6,0,L|166:288,1,105.000004005432,2|0,0:0|0:0,0:0:0:0:
174,185,30869,2,0,L|70:170,1,105.000004005432,2|0,0:0|0:0,0:0:0:0:
89,273,31411,2,0,P|20:290|-21:214,1,157.500006008148,2|0,0:0|0:0,0:0:0:0:
4,124,32134,1,2,0:0:0:0:
4,124,32315,1,2,0:0:0:0:
99,81,32495,2,0,L|133:30,1,52.5000020027161,2|2,0:0|0:0,0:0:0:0:
205,109,32857,2,0,L|171:160,1,52.5000020027161
106,232,33218,6,0,P|143:250|207:251,1,105.000004005432,2|0,0:0|0:0,0:0:0:0:
299,300,33760,2,0,P|311:237|299:200,1,105.000004005432,2|0,0:0|0:0,0:0:0:0:
215,137,34303,2,0,L|260:92,1,52.5000020027161,2|0,0:0|0:0,0:0:0:0:
357,98,34664,2,0,L|416:134,1,52.5000020027161,2|0,0:0|0:0,0:0:0:0:
365,224,35026,2,0,L|365:279,1,52.5000020027161,2|0,0:0|0:0,0:0:0:0:
259,276,35387,2,0,L|256:205,1,52.5000020027161,2|0,0:0|0:0,0:0:0:0:
295,125,35748,1,2,0:0:0:0:
398,104,35929,6,0,B|450:129|450:129|449:212,1,140,6|0,0:0|0:0,0:0:0:0:
432,315,36471,2,0,L|372:354,1,70,8|0,0:0|0:0,0:0:0:0:
334,255,36833,2,0,L|274:294,2,70,8|8|0,0:0|0:0|0:0,0:0:0:0:
315,151,37374,2,0,P|276:103|201:73,1,140,8|0,0:0|0:0,0:0:0:0:
201,199,37917,6,0,L|97:305,2,140,10|4|8,0:0|0:0|0:0,0:0:0:0:
255,289,38821,1,0,0:0:0:0:
313,203,39001,2,0,P|357:228|445:208,1,140,6|0,0:0|0:0,0:0:0:0:
475,111,39544,1,0,0:0:0:0:
395,43,39724,2,0,L|375:119,1,70
285,57,40086,2,0,L|267:124,1,70
243,227,40447,6,0,B|137:199|137:199|147:233,1,140,2|0,0:0|0:0,0:0:0:0:
104,325,40989,1,0,0:0:0:0:
208,312,41170,2,0,L|278:327,1,70
409,258,41531,2,0,L|341:244,1,70,8|0,0:0|0:0,0:0:0:0:
387,148,41893,6,0,P|449:174|511:145,1,140,2|0,0:0|0:0,0:0:0:0:
436,78,42435,2,0,L|369:58,1,70,2|2,0:0|0:0,0:0:0:0:
270,22,42796,1,0,0:0:0:0:
182,80,42977,1,8,0:0:0:0:
278,120,43158,1,0,0:0:0:0:
287,224,43339,6,0,L|295:304,2,70,2|0|0,0:0|0:0|0:0,0:0:0:0:
391,215,43880,2,0,P|412:157|370:93,1,140,2|0,0:0|0:0,0:0:0:0:
278,48,44423,2,0,L|282:118,1,70,8|0,0:0|0:0,0:0:0:0:
287,224,44785,6,0,P|255:273|162:275,1,140,6|8,0:0|0:0,0:0:0:0:
200,175,45327,1,0,0:0:0:0:
101,211,45507,2,0,L|90:301,2,70,0|0|8,0:0|0:0|0:0,0:0:0:0:
94,105,46050,1,0,0:0:0:0:
175,39,46230,6,0,L|244:53,1,70,2|0,0:0|0:0,0:0:0:0:
336,2,46591,2,0,L|405:16,1,70,8|0,0:0|0:0,0:0:0:0:
396,125,46953,2,0,L|382:194,1,70,2|0,0:0|0:0,0:0:0:0:
468,253,47314,1,8,0:0:0:0:
468,253,47495,6,0,P|437:294|395:296,1,70,2|0,0:0|0:0,0:0:0:0:
316,302,47856,1,4,0:0:0:0:
316,302,48037,1,4,0:0:0:0:
349,94,48398,1,4,0:0:0:0:
349,94,48579,1,4,0:0:0:0:
223,262,48941,2,0,P|188:314|108:324,1,140,4|8,0:0|0:0,0:0:0:0:
49,245,49483,6,0,L|81:182,1,70,2|0,0:0|0:0,0:0:0:0:
144,98,49844,1,2,0:0:0:0:
247,118,50025,2,0,L|289:97,5,35,0|0|2|0|0|0,0:0|0:0|0:0|0:0|0:0|0:0,0:0:0:0:
330,92,50568,6,0,B|441:132|441:132|410:153,1,140,6|8,0:0|0:0,0:0:0:0:
341,208,51110,1,0,0:0:0:0:
433,257,51291,2,0,L|406:325,1,70,2|0,0:0|0:0,0:0:0:0:
303,319,51652,2,0,L|235:292,1,70,8|0,0:0|0:0,0:0:0:0:
266,191,52013,2,0,P|206:173|150:223,1,140,2|8,0:0|0:0,0:0:0:0:
115,318,52556,2,0,P|58:272|48:201,1,140,2|0,0:0|0:0,0:0:0:0:
101,120,53098,2,0,L|106:49,1,70,8|0,0:0|0:0,0:0:0:0:
195,104,53459,6,0,B|194:200|194:200|241:225,1,140,2|8,0:0|0:0,0:0:0:0:
332,255,54001,2,0,P|393:278|417:271,2,70,0|2|0,0:0|0:0|0:0,0:0:0:0:
343,149,54544,2,0,P|314:129|279:126,1,70,8|2,0:0|0:0,0:0:0:0:
232,220,54904,2,0,P|193:277|119:297,1,140,2|8,0:0|0:0,0:0:0:0:
140,192,55447,2,0,L|217:68,1,140,2|0,0:0|0:0,0:0:0:0:
291,16,55989,2,0,L|351:57,1,70,8|0,0:0|0:0,0:0:0:0:
323,158,56351,6,0,P|388:135|459:155,1,140,2|8,0:0|0:0,0:0:0:0:
401,243,56893,1,0,0:0:0:0:
401,243,57074,2,0,L|421:322,1,70,2|0,0:0|0:0,0:0:0:0:
315,334,57435,2,0,L|298:267,1,70,8|0,0:0|0:0,0:0:0:0:
278,165,57797,2,0,P|222:192|193:264,1,140,2|8,0:0|0:0,0:0:0:0:
198,365,58339,2,0,P|140:390|57:366,1,140,2|2,0:0|0:0,0:0:0:0:
95,272,58880,2,0,L|90:201,1,70
11,130,59242,6,0,P|70:97|146:113,1,140,2|2,0:0|0:0,0:0:0:0:
232,58,59784,1,2,0:0:0:0:
257,91,60145,1,2,0:0:0:0:
282,124,60507,2,0,L|326:183,1,70,2|0,0:0|0:0,0:0:0:0:
393,258,60868,2,0,L|301:275,1,70,0|8,0:0|0:0,0:0:0:0:
233,218,61230,2,0,L|222:292,1,70,0|8,0:0|0:0,0:0:0:0:
314,340,61591,2,0,L|325:271,1,70,0|8,0:0|0:0,0:0:0:0:
429,256,61953,1,0,0:0:0:0:
379,164,62133,6,0,B|434:175|434:175|387:102,1,140,2|8,0:0|0:0,0:0:0:0:
282,106,62676,1,0,0:0:0:0:
267,210,62856,2,0,P|207:205|192:193,1,70,2|0,0:0|0:0,0:0:0:0:
183,96,63218,2,0,P|150:82|116:86,1,70,8|2,0:0|0:0,0:0:0:0:
68,179,63579,2,0,P|49:237|100:288,1,140,2|2,0:0|0:0,0:0:0:0:
184,315,64121,2,0,P|254:339|317:313,1,140,2|0,0:0|0:0,0:0:0:0:
255,227,64664,2,0,L|308:179,1,70,8|2,0:0|0:0,0:0:0:0:
381,254,65025,6,0,B|403:225|403:225|403:116,1,140,2|8,0:0|0:0,0:0:0:0:
310,72,65567,1,0,0:0:0:0:
204,76,65748,2,0,L|224:146,2,70,2|0|8,0:0|0:0|0:0,0:0:0:0:
98,80,66290,1,0,0:0:0:0:
10,137,66471,2,0,L|30:207,1,70,2|2,0:0|0:0,0:0:0:0:
154,191,66832,1,8,0:0:0:0:
154,191,67013,2,0,P|123:242|144:320,1,140,2|0,0:0|0:0,0:0:0:0:
227,256,67555,2,0,L|305:285,1,70,8|0,0:0|0:0,0:0:0:0:
388,324,67917,6,0,B|480:352|480:352|469:304,1,140,2|2,0:0|0:0,0:0:0:0:
397,235,68459,1,0,0:0:0:0:
426,134,68639,2,0,P|474:148|486:177,2,70,8|0|0,0:0|0:0|0:0,0:0:0:0:
321,147,69182,1,2,0:0:0:0:
374,57,69362,6,0,B|463:41|463:41|419:-4,1,140,2|0,0:0|0:0,0:0:0:0:
323,2,69904,2,0,L|247:17,1,70,2|8,0:0|0:0,0:0:0:0:
175,85,70266,2,0,L|154:18,2,70,0|0|2,0:0|0:0|0:0,0:0:0:0:
140,184,70808,6,0,P|99:226|152:268,1,140,2|2,0:0|0:0,0:0:0:0:
249,261,71350,1,2,0:0:0:0:
339,206,71531,2,0,P|319:177|286:167,2,70,8|0|0,0:0|0:0|0:0,0:0:0:0:
329,310,72073,1,2,0:0:0:0:
428,275,72254,6,0,P|454:236|440:141,1,140,2|2,0:0|0:0,0:0:0:0:
346,107,72796,2,0,L|374:43,2,70,2|8|0,0:0|0:0|0:0,0:0:0:0:
314,207,73338,1,8,0:0:0:0:
229,144,73519,1,0,0:0:0:0:
180,50,73700,6,0,P|120:51|68:121,1,140,2|8,0:0|0:0,0:0:0:0:
134,191,74242,1,0,0:0:0:0:
33,221,74423,2,0,L|10:307,1,70,8|0,0:0|0:0,0:0:0:0:
99,350,74784,2,0,L|117:282,1,70,8|0,0:0|0:0,0:0:0:0:
205,226,75145,2,0,L|344:250,1,140,2|2,0:0|0:0,0:0:0:0:
360,354,75688,2,0,P|425:333|449:267,1,140,2|2,0:0|0:0,0:0:0:0:
435,166,76230,1,0,0:0:0:0:
340,122,76410,6,0,B|277:95|277:95|210:125,1,140,2|2,0:0|0:0,0:0:0:0:
265,214,76953,2,0,B|258:305|258:305|219:345,1,140,2|2,0:0|0:0,0:0:0:0:
143,272,77495,2,0,L|151:199,1,70,2|0,0:0|0:0,0:0:0:0:
54,160,77856,2,0,B|64:59|64:59|97:87,1,140,2|2,0:0|0:0,0:0:0:0:
199,106,78398,1,2,0:0:0:0:
199,106,78760,2,0,L|269:117,1,70
206,201,79121,2,0,L|260:209,3,35,8|8|8|8,0:0|0:0|0:0|0:0,0:0:0:0:
235,258,79483,6,0,P|233:295|338:319,1,140,4|8,0:0|0:0,0:0:0:0:
330,232,80025,1,0,0:0:0:0:
394,314,80206,2,0,B|420:279|420:279|422:170,1,140,2|8,0:0|0:0,0:0:0:0:
503,248,80748,1,0,0:0:0:0:
501,142,80929,2,0,L|503:0,1,140,2|8,0:0|0:0,0:0:0:0:
411,53,81471,2,0,L|271:53,1,140,2|0,0:0|0:0,0:0:0:0:
166,40,82013,2,0,L|166:110,1,70,8|0,0:0|0:0,0:0:0:0:
216,202,82374,6,0,P|147:207|96:265,1,140,2|8,0:0|0:0,0:0:0:0:
192,306,82917,2,0,L|335:333,1,140,2|2,0:0|0:0,0:0:0:0:
329,331,83639,2,0,P|297:253|323:190,1,140,2|0,0:0|0:0,0:0:0:0:
434,333,84182,1,8,0:0:0:0:
449,229,84362,2,0,L|411:169,1,70,2|0,0:0|0:0,0:0:0:0:
312,203,84724,2,0,L|274:143,2,70,2|0|0,0:0|0:0|0:0,0:0:0:0:
362,110,85266,6,0,P|336:51|258:26,1,140,4|8,0:0|0:0,0:0:0:0:
197,102,85808,1,2,0:0:0:0:
112,39,85989,2,0,P|69:43|44:74,2,70,0|2|8,0:0|0:0|0:0,0:0:0:0:
112,144,86531,2,0,L|96:286,1,140,2|2,0:0|0:0,0:0:0:0:
191,328,87073,1,8,0:0:0:0:
247,239,87254,2,0,P|316:221|387:244,1,140,2|0,0:0|0:0,0:0:0:0:
446,321,87796,2,0,P|473:292|476:258,1,70,8|0,0:0|0:0,0:0:0:0:
445,175,88157,6,0,L|454:27,1,140,2|8,0:0|0:0,0:0:0:0:
328,60,88700,1,0,0:0:0:0:
321,164,88880,2,0,L|316:243,2,70,2|0|8,0:0|0:0|0:0,0:0:0:0:
244,91,89423,1,0,0:0:0:0:
213,190,89603,2,0,B|153:173|153:173|153:95,1,140,2|8,0:0|0:0,0:0:0:0:
56,54,90145,2,0,L|51:199,1,140,2|2,0:0|0:0,0:0:0:0:
64,298,90688,2,0,L|133:271,1,70,8|0,0:0|0:0,0:0:0:0:
234,278,91049,6,0,P|255:312|346:315,1,140,2|0,0:0|0:0,0:0:0:0:
338,209,91591,2,0,B|436:234|436:234|426:195,1,140,2|0,0:0|0:0,0:0:0:0:
371,106,92133,2,0,L|426:62,1,70,0|0,0:0|0:0,0:0:0:0:
307,38,92495,2,0,L|252:82,1,70,2|0,0:0|0:0,0:0:0:0:
298,176,92856,2,0,P|241:171|226:158,1,70,2|2,0:0|0:0,0:0:0:0:
148,100,93218,2,0,P|121:145|123:171,1,70,0|2,0:0|0:0,0:0:0:0:
134,290,93579,2,0,P|167:269|169:229,1,70,2|0,0:0|0:0,0:0:0:0:
275,262,93941,6,0,L|414:301,1,140,2|0,0:0|0:0,0:0:0:0:
512,227,94483,2,0,L|373:188,1,140,2|0,0:0|0:0,0:0:0:0:
274,167,95025,2,0,P|317:116|340:112,1,70,0|0,0:0|0:0,0:0:0:0:
227,61,95386,2,0,B|135:38|135:38|149:91,1,140,2|2,0:0|0:0,0:0:0:0:
187,179,95929,1,0,0:0:0:0:
83,161,96109,2,0,L|78:235,1,70,2|0,0:0|0:0,0:0:0:0:
179,335,96471,2,0,L|184:266,1,70,2|0,0:0|0:0,0:0:0:0:
270,194,96832,6,0,P|299:221|383:214,1,105.000004005432,2|2,0:0|0:0,0:0:0:0:
445,161,97374,2,0,L|459:264,2,105.000004005432,2|2|2,0:0|0:0|0:0,0:0:0:0:
445,161,98459,1,2,0:0:0:0:
445,161,99724,6,0,P|399:184|343:166,1,105.000004005432,2|2,0:0|0:0,0:0:0:0:
253,127,100266,2,0,L|268:233,2,105.000004005432,2|2|2,0:0|0:0|0:0,0:0:0:0:
253,127,101350,1,2,0:0:0:0:
