osu file format v14

[General]
AudioFilename: audio.mp3
AudioLeadIn: 0
PreviewTime: -1
Countdown: 0
SampleSet: Normal
StackLeniency: 0.4
Mode: 0
LetterboxInBreaks: 0
WidescreenStoryboard: 0

[Editor]
DistanceSpacing: 1
BeatDivisor: 4
GridSize: 8
TimelineZoom: 1.9

[Metadata]
Title:Shuwarin Dreamin
TitleUnicode:しゅわりん☆どり〜みん
Artist:Pastel * Palettes
ArtistUnicode:Pastel*Palettes
Creator:P4ndemonium
Version:SHWUA SHUWA
Source:
Tags:
BeatmapID:1645347
BeatmapSetID:783557

[Difficulty]
HPDrainRate:6
CircleSize:3.9
OverallDifficulty:9
ApproachRate:9.3
SliderMultiplier:2
SliderTickRate:1

[Events]
//Background and Video events
0,0,"しゅわりん☆どり~みん - Copy.jpg",0,0
//Break Periods
//Storyboard Layer 0 (Background)
//Storyboard Layer 1 (Fail)
//Storyboard Layer 2 (Pass)
//Storyboard Layer 3 (Foreground)
//Storyboard Sound Samples

[TimingPoints]
1379,340.909090909091,4,1,0,30,1,0
1379,-200,4,1,0,30,0,0
8026,-200,4,1,0,50,0,0
9390,-133.333333333333,4,1,0,40,0,0
11947,-66.6666666666667,4,1,0,50,0,0
12202,-66.6666666666667,4,1,0,5,0,0
12288,-100,4,1,0,50,0,0
23026,-133.333333333333,4,1,0,40,0,0
24390,-200,4,1,0,50,0,0
24646,-200,4,1,0,5,0,0
24731,-100,4,1,0,50,0,0
24986,-100,4,1,0,5,0,0
25072,-66.6666666666667,4,1,0,50,0,0
25327,-66.6666666666667,4,1,0,5,0,0
25413,-133.333333333333,4,1,0,50,0,0
32316,-133.333333333333,4,1,0,5,0,0
32401,-133.333333333333,4,1,0,50,0,0
32486,-133.333333333333,4,1,0,5,0,0
32572,-133.333333333333,4,1,0,50,0,0
33680,-133.333333333333,4,1,0,5,0,0
33765,-133.333333333333,4,1,0,50,0,0
33850,-133.333333333333,4,1,0,5,0,0
33935,-133.333333333333,4,1,0,50,0,0
36407,-133.333333333333,4,1,0,5,0,0
36492,-133.333333333333,4,1,0,50,0,0
36748,-133.333333333333,4,1,0,5,0,0
36833,-100,4,1,0,50,0,0
37174,-133.333333333333,4,1,0,50,0,0
43225,-133.333333333333,4,1,0,5,0,0
43310,-133.333333333333,4,1,0,50,0,0
43396,-133.333333333333,4,1,0,5,0,0
43481,-133.333333333333,4,1,0,50,0,0
44589,-133.333333333333,4,1,0,5,0,0
44674,-133.333333333333,4,1,0,50,0,0
44759,-133.333333333333,4,1,0,5,0,0
44844,-133.333333333333,4,1,0,50,0,0
47060,-100,4,1,0,50,0,0
47742,-133.333333333333,4,1,0,40,0,0
51833,-200,4,1,0,50,0,0
52089,-200,4,1,0,5,0,0
52174,-100,4,1,0,50,0,0
52430,-100,4,1,0,5,0,0
52515,-66.6666666666667,4,1,0,50,0,0
52771,-66.6666666666667,4,1,0,5,0,0
52856,-66.6666666666667,4,1,0,50,0,0
53111,-66.6666666666667,4,1,0,5,0,0
53197,-100,4,1,0,50,0,0
61379,-100,4,1,0,70,0,1
80299,-133.333333333333,4,1,0,40,0,0
82856,-66.6666666666667,4,1,0,50,0,0
83111,-66.6666666666667,4,1,0,5,0,0
83197,-100,4,1,0,50,0,0
93935,-133.333333333333,4,1,0,40,0,0
95384,-133.333333333333,4,1,0,5,0,0
98026,-133.333333333333,4,1,0,40,0,0

[HitObjects]
70,123,1208,5,0,0:0:0:0:
70,123,1379,2,0,P|108:152|156:163,1,100
251,233,1890,1,0,0:0:0:0:
251,233,2060,2,0,P|202:242|163:272,1,100
316,329,2572,5,0,0:0:0:0:
316,329,2742,2,0,L|320:279,1,50
392,223,3083,1,0,0:0:0:0:
392,223,3254,2,0,L|387:173,1,50
463,67,3594,2,0,L|458:116,2,50
347,0,4106,6,0,P|359:21|364:46,1,50
307,168,4447,2,0,P|311:143|324:121,1,50
250,21,4788,2,0,P|249:45|241:69,1,50
213,139,5129,2,0,P|204:115|204:90,1,50
7,70,5469,6,0,P|26:54|49:45,1,50
205,91,5810,2,0,P|185:75|162:66,1,50
37,155,6151,2,0,P|61:155|85:163,1,50
175,176,6492,2,0,P|150:176|126:184,1,50
102,290,6833,6,0,L|99:265,13,25
42,200,8026,5,0,0:0:0:0:
314,226,8197,1,0,0:0:0:0:
314,226,9390,6,0,P|293:257|289:294,1,75.0000028610231
240,117,9731,1,0,0:0:0:0:
179,179,9901,2,0,P|199:210|203:247,1,75.0000028610231
395,127,10242,2,0,P|357:125|323:139,1,75.0000028610231
118,241,10583,5,0,0:0:0:0:
179,179,10753,2,0,P|158:147|154:110,1,75.0000028610231
302,302,11094,1,0,0:0:0:0:
241,240,11264,2,0,P|261:208|265:171,1,75.0000028610231
57,303,11606,2,0,P|36:271|32:234,1,75.0000028610231
110,31,11947,6,0,B|98:91|98:91|137:153|137:153|118:241,1,225.000008583069
133,253,12288,5,4,0:0:0:0:
331,178,12458,1,0,0:0:0:0:
186,149,12629,1,8,0:0:0:0:
363,184,12799,2,0,L|461:201,1,100
327,52,13140,2,0,L|228:69,1,100,0|8,0:0|0:0,0:0:0:0:
259,256,13481,6,0,L|455:290,1,200
403,97,13992,2,0,P|371:135|363:184,1,100,8|0,0:0|0:0,0:0:0:0:
299,342,14333,2,0,P|290:293|259:256,1,100
84,224,14674,2,0,L|182:206,1,100,8|0,0:0|0:0,0:0:0:0:
150,306,15015,5,0,0:0:0:0:
48,141,15185,1,0,0:0:0:0:
19,286,15356,1,8,0:0:0:0:
54,109,15526,2,0,L|72:11,1,100
164,107,15867,2,0,L|182:205,1,100,0|8,0:0|0:0,0:0:0:0:
273,301,16208,6,0,L|307:105,1,200
182,205,16719,1,8,0:0:0:0:
411,154,16890,1,0,0:0:0:0:
301,357,17060,2,0,L|292:307,1,50
198,116,17231,2,0,L|206:66,1,50
74,312,17401,2,0,L|124:304,3,50,8|0|0|0,0:0|0:0|0:0|0:0,0:0:0:0:
182,205,17742,6,0,L|84:223,1,100
10,172,18083,1,8,0:0:0:0:
222,322,18254,2,0,L|124:304,1,100
296,98,18594,2,0,L|198:116,1,100,0|8,0:0|0:0,0:0:0:0:
471,298,18935,6,0,P|439:260|430:212,1,100
384,86,19276,2,0,P|375:134|343:172,1,100,0|8,0:0|0:0,0:0:0:0:
198,231,19617,1,0,0:0:0:0:
148,71,19788,2,0,L|296:98,2,150
88,332,20469,5,12,0:0:0:0:
138,162,20640,1,2,0:0:0:0:
174,355,20810,5,8,0:0:0:0:
65,108,20981,1,2,0:0:0:0:
7,369,21151,5,8,0:0:0:0:
149,72,21322,1,2,0:0:0:0:
347,347,21492,5,8,0:0:0:0:
54,198,21663,1,2,0:0:0:0:
420,103,21833,5,12,0:0:0:0:
127,252,22004,1,2,0:0:0:0:
355,43,22174,5,8,0:0:0:0:
259,357,22345,1,2,0:0:0:0:
485,163,22515,5,8,0:0:0:0:
117,268,22685,1,2,0:0:0:0:
439,16,22856,5,8,0:0:0:0:
159,357,23026,2,0,L|84:350,1,75.0000028610231,4|0,0:0|0:0,0:0:0:0:
183,206,23367,1,0,0:0:0:0:
183,206,23538,2,0,L|257:199,1,75.0000028610231,8|0,0:0|0:0,0:0:0:0:
79,264,23879,2,0,L|117:268,3,37.5000014305115
183,206,24219,1,8,0:0:0:0:
94,77,24390,6,0,P|97:114|112:148,1,75,2|0,0:0|0:0,0:0:0:0:
201,164,24731,6,0,P|201:89|238:24,1,150,2|0,0:0|0:0,0:0:0:0:
326,15,25072,6,0,P|335:125|408:208,1,225.000008583069,2|0,0:0|0:0,0:0:0:0:
482,284,25413,6,0,L|445:287,5,37.5000014305115,2|0|0|0|0|0,0:0|0:0|0:0|0:0|0:0|0:0,0:0:0:0:
434,300,25924,6,0,L|359:293,1,75.0000028610231,4|0,0:0|0:0,0:0:0:0:
280,335,26265,1,8,0:0:0:0:
234,259,26435,1,0,0:0:0:0:
154,300,26606,2,0,L|79:306,1,75.0000028610231
126,177,26947,1,8,0:0:0:0:
203,223,27117,1,0,0:0:0:0:
43,207,27288,6,0,P|37:170|49:134,1,75.0000028610231
203,223,27629,1,8,0:0:0:0:
132,104,27799,2,0,P|137:141|126:177,1,75.0000028610231
272,51,28140,2,0,L|197:44,1,75.0000028610231,0|8,0:0|0:0,0:0:0:0:
354,174,28481,5,0,0:0:0:0:
203,223,28651,2,0,L|277:216,1,75.0000028610231
412,108,28992,1,8,0:0:0:0:
360,246,29163,2,0,P|365:209|354:174,1,75.0000028610231
430,37,29504,2,0,P|413:70|412:108,1,75.0000028610231,0|8,0:0|0:0,0:0:0:0:
453,241,29844,6,0,L|378:234,1,75.0000028610231
216,308,30185,2,0,L|291:302,2,75.0000028610231,0|8|0,0:0|0:0|0:0,0:0:0:0:
360,246,30697,2,0,P|377:278|378:316,1,75.0000028610231
196,222,31038,2,0,P|198:184|215:151,1,75.0000028610231,8|0,0:0|0:0,0:0:0:0:
52,307,31379,6,0,L|201:320,1,150.000005722046,4|8,0:0|0:0,0:0:0:0:
215,151,31890,2,0,L|103:161,1,112.500004291535
16,146,32231,2,0,P|21:128|30:112,1,37.5000014305115
187,285,32401,2,0,P|195:301|200:319,1,37.5000014305115,8|0,0:0|0:0,0:0:0:0:
262,76,32572,1,0,0:0:0:0:
330,237,32742,6,0,L|256:231,1,75.0000028610231,4|0,0:0|0:0,0:0:0:0:
405,189,33083,1,8,0:0:0:0:
422,319,33254,2,0,L|309:328,1,112.500004291535
223,314,33594,2,0,P|228:295|236:279,1,37.5000014305115
421,177,33765,2,0,P|415:158|407:142,1,37.5000014305115,8|0,0:0|0:0,0:0:0:0:
262,76,33935,1,0,0:0:0:0:
246,263,34106,6,0,L|252:188,1,75.0000028610231,4|0,0:0|0:0,0:0:0:0:
351,74,34447,2,0,L|344:0,1,75.0000028610231,8|0,0:0|0:0,0:0:0:0:
168,165,34788,1,0,0:0:0:0:
262,76,34958,2,0,L|255:150,1,75.0000028610231,0|8,0:0|0:0,0:0:0:0:
80,179,35299,5,2,0:0:0:0:
432,205,35640,1,2,0:0:0:0:
80,179,35810,1,2,0:0:0:0:
370,317,36151,6,0,P|340:269|333:214,1,112.500004291535,2|0,0:0|0:0,0:0:0:0:
254,167,36492,2,0,P|237:220|200:261,1,112.500004291535,2|0,0:0|0:0,0:0:0:0:
104,270,36833,6,0,P|150:254|199:261,1,100,4|0,0:0|0:0,0:0:0:0:
159,359,37174,1,8,0:0:0:0:
13,241,37344,1,0,0:0:0:0:
154,127,37515,1,0,0:0:0:0:
104,270,37685,2,0,L|97:195,1,75.0000028610231,0|8,0:0|0:0,0:0:0:0:
242,19,38026,1,0,0:0:0:0:
154,127,38197,6,0,L|160:52,1,75.0000028610231
30,317,38538,1,8,0:0:0:0:
97,195,38709,2,0,L|103:269,1,75.0000028610231
226,133,39049,2,0,P|190:121|154:127,1,75.0000028610231,0|8,0:0|0:0,0:0:0:0:
292,298,39390,5,0,0:0:0:0:
321,215,39560,2,0,P|284:209|248:221,1,75.0000028610231
389,272,39901,1,8,0:0:0:0:
463,225,40071,2,0,P|438:198|404:184,1,75.0000028610231
312,109,40413,2,0,P|346:94|371:67,1,75.0000028610231,0|8,0:0|0:0,0:0:0:0:
321,215,40754,6,0,L|314:140,1,75.0000028610231
151,165,41094,1,0,0:0:0:0:
229,37,41265,2,0,L|223:112,1,75.0000028610231,8|0,0:0|0:0,0:0:0:0:
85,224,41606,1,0,0:0:0:0:
85,224,41691,1,0,0:0:0:0:
85,224,41776,1,0,0:0:0:0:
222,26,41947,1,8,0:0:0:0:
222,26,42032,1,0,0:0:0:0:
222,26,42117,1,0,0:0:0:0:
321,215,42288,6,0,L|172:202,1,150.000005722046,4|8,0:0|0:0,0:0:0:0:
141,371,42799,2,0,L|253:361,1,112.500004291535
336,331,43140,2,0,P|327:314|316:299,1,37.5000014305115
192,170,43310,2,0,P|180:184|172:201,1,37.5000014305115,8|0,0:0|0:0,0:0:0:0:
34,330,43481,1,0,0:0:0:0:
81,184,43651,6,0,L|87:258,1,75.0000028610231,4|0,0:0|0:0,0:0:0:0:
252,104,43992,1,8,0:0:0:0:
172,201,44162,2,0,L|162:88,1,112.500004291535
124,9,44504,2,0,P|141:2|160:0,1,37.5000014305115
304,104,44674,2,0,P|286:97|267:95,1,37.5000014305115,8|0,0:0|0:0,0:0:0:0:
81,184,44844,1,0,0:0:0:0:
303,268,45015,5,12,0:0:0:0:
162,89,45185,1,2,0:0:0:0:
156,323,45356,5,8,0:0:0:0:
219,21,45526,1,2,0:0:0:0:
390,283,45697,5,8,0:0:0:0:
249,104,45867,1,2,0:0:0:0:
243,338,46038,5,8,0:0:0:0:
306,36,46208,1,2,0:0:0:0:
476,273,46379,5,6,0:0:0:0:
180,168,46549,1,8,0:0:0:0:
180,168,46634,1,8,0:0:0:0:
180,168,46719,1,8,0:0:0:0:
389,68,46890,1,2,0:0:0:0:
366,342,47060,6,0,L|374:292,1,50
275,218,47231,2,0,L|266:168,1,50
211,371,47401,2,0,L|219:321,1,50
160,254,47572,2,0,L|151:204,1,50
85,344,47742,6,0,L|58:196,1,150,4|0,0:0|0:0,0:0:0:0:
46,180,48254,1,0,0:0:0:0:
46,180,48424,2,0,L|59:106,1,75.0000028610231
133,0,48765,1,8,0:0:0:0:
161,161,48935,6,0,L|147:82,1,75.0000028610231
250,142,49276,1,0,0:0:0:0:
249,141,49447,2,0,L|263:68,1,75.0000028610231
331,190,49788,2,0,L|345:117,1,75.0000028610231
249,141,50129,1,8,0:0:0:0:
352,194,50299,1,0,0:0:0:0:
244,265,50469,6,0,L|391:291,1,150
408,305,50981,1,0,0:0:0:0:
408,304,51151,2,0,L|481:290,1,75.0000028610231
352,194,51492,2,0,L|425:207,1,75.0000028610231,8|0,0:0|0:0,0:0:0:0:
263,321,51833,6,0,P|278:287|282:250,1,75,2|0,0:0|0:0,0:0:0:0:
213,192,52174,6,0,P|175:256|110:294,1,150,2|0,0:0|0:0,0:0:0:0:
31,258,52515,6,0,P|78:158|56:49,1,225.000008583069,2|0,0:0|0:0,0:0:0:0:
177,23,52856,6,0,P|212:127|303:190,1,225.000008583069,2|0,0:0|0:0,0:0:0:0:
378,139,53197,6,0,P|369:90|386:43,1,100,4|0,0:0|0:0,0:0:0:0:
312,286,53538,2,0,P|320:237|303:190,1,100,8|0,0:0|0:0,0:0:0:0:
409,324,53879,1,0,0:0:0:0:
216,246,54049,1,0,0:0:0:0:
378,139,54219,1,8,0:0:0:0:
229,349,54390,1,0,0:0:0:0:
121,114,54560,6,0,P|163:138|213:138,1,100
133,308,54901,2,0,P|83:308|40:332,1,100,8|0,0:0|0:0,0:0:0:0:
34,133,55242,1,0,0:0:0:0:
216,246,55413,1,0,0:0:0:0:
27,347,55583,1,8,0:0:0:0:
303,331,55754,6,0,L|311:231,1,100,4|0,0:0|0:0,0:0:0:0:
133,308,56094,1,0,0:0:0:0:
207,146,56265,2,0,L|216:246,1,100,8|0,0:0|0:0,0:0:0:0:
111,160,56606,2,0,L|120:61,1,100
389,52,56947,5,8,0:0:0:0:
331,130,57117,2,0,P|299:91|291:42,1,100
216,246,57458,1,0,0:0:0:0:
286,313,57628,2,0,P|310:270|310:220,1,100,8|0,0:0|0:0,0:0:0:0:
200,57,57969,1,0,0:0:0:0:
200,57,58055,1,0,0:0:0:0:
200,57,58140,1,0,0:0:0:0:
331,130,58310,1,8,0:0:0:0:
99,152,58481,2,0,L|0:161,1,100,4|0,0:0|0:0,0:0:0:0:
378,214,58822,5,0,0:0:0:0:
96,184,58992,1,8,0:0:0:0:
307,374,59163,1,0,0:0:0:0:
248,97,59333,1,8,0:0:0:0:
133,356,59504,1,0,0:0:0:0:
454,172,59674,5,10,0:0:0:0:
58,212,59844,1,6,0:0:0:0:
39,214,60185,5,2,0:0:0:0:
473,170,60355,1,2,0:0:0:0:
256,192,60697,5,2,0:0:0:0:
256,192,61208,5,0,0:0:0:0:
414,247,61379,2,0,B|348:240|348:240|292:283|292:283|229:291,1,200,4|8,0:0|0:0,0:0:0:0:
229,93,61890,1,0,0:0:0:0:
71,148,62060,2,0,B|137:141|137:141|193:184|193:184|256:192,1,200,0|8,0:0|0:0,0:0:0:0:
107,240,62572,5,0,0:0:0:0:
324,84,62742,2,0,P|277:101|229:93,1,100
156,39,63083,1,8,0:0:0:0:
383,203,63253,2,0,P|336:186|287:194,1,100
139,366,63594,1,0,0:0:0:0:
328,285,63765,1,8,0:0:0:0:
164,161,63935,1,0,0:0:0:0:
415,350,64106,6,0,L|423:250,1,100
279,95,64447,2,0,L|287:194,1,100,8|0,0:0|0:0,0:0:0:0:
454,62,64788,2,0,P|405:70|358:53,1,100
318,196,65129,1,8,0:0:0:0:
183,103,65299,2,0,P|232:111|279:95,1,100
91,193,65640,5,0,0:0:0:0:
224,13,65810,1,8,0:0:0:0:
258,286,65981,1,0,0:0:0:0:
158,85,66151,1,8,0:0:0:0:
82,311,66322,1,0,0:0:0:0:
314,204,66492,5,8,0:0:0:0:
291,193,66577,1,0,0:0:0:0:
267,188,66662,1,0,0:0:0:0:
242,189,66747,1,0,0:0:0:0:
218,195,66833,6,0,P|171:211|122:203,1,100
162,114,67174,1,8,0:0:0:0:
242,307,67344,2,0,L|92:293,1,150
41,197,67685,2,0,L|90:192,1,50
197,32,67856,2,0,L|147:27,1,50,8|0,0:0|0:0,0:0:0:0:
315,172,68026,1,0,0:0:0:0:
414,47,68197,6,0,P|397:93|405:142,1,100
495,103,68538,1,8,0:0:0:0:
302,23,68708,2,0,L|315:172,1,150
401,192,69049,2,0,L|405:142,1,50
240,233,69219,2,0,L|245:283,1,50,8|0,0:0|0:0,0:0:0:0:
331,352,69390,5,0,0:0:0:0:
149,291,69560,2,0,P|195:274|244:282,1,100
190,381,69901,2,0,P|141:389|94:372,1,100,8|0,0:0|0:0,0:0:0:0:
67,177,70242,2,0,P|113:160|162:168,1,100
108,267,70583,2,0,P|59:275|12:258,1,100,8|0,0:0|0:0,0:0:0:0:
58,76,70924,5,12,0:0:0:0:
108,267,71094,1,2,0:0:0:0:
211,22,71265,5,8,0:0:0:0:
188,257,71435,1,2,0:0:0:0:
381,44,71606,5,8,0:0:0:0:
262,293,71776,1,2,0:0:0:0:
512,150,71947,5,8,0:0:0:0:
287,372,72117,1,2,0:0:0:0:
223,202,72288,6,0,B|289:195|289:195|345:238|345:238|408:246,1,200,4|8,0:0|0:0,0:0:0:0:
262,293,72799,1,0,0:0:0:0:
262,111,72969,2,0,B|196:104|196:104|140:147|140:147|77:155,1,200,0|8,0:0|0:0,0:0:0:0:
223,202,73480,1,0,0:0:0:0:
69,60,73651,6,0,P|86:106|77:155,1,100
18,222,73992,1,8,0:0:0:0:
191,26,74163,2,0,P|174:73|183:122,1,100
371,237,74504,1,0,0:0:0:0:
272,82,74674,1,8,0:0:0:0:
214,290,74844,1,0,0:0:0:0:
427,156,75015,6,0,P|380:138|331:147,1,100
315,318,75356,2,0,P|361:335|410:326,1,100,8|0,0:0|0:0,0:0:0:0:
205,197,75697,2,0,L|196:296,1,100
331,146,76038,2,0,L|323:47,1,100,8|0,0:0|0:0,0:0:0:0:
135,143,76379,5,4,0:0:0:0:
341,236,76549,1,2,0:0:0:0:
66,198,76719,5,8,0:0:0:0:
317,134,76890,1,2,0:0:0:0:
157,302,77060,5,2,0:0:0:0:
157,302,77146,1,0,0:0:0:0:
157,302,77231,2,0,L|162:253,1,50,2|0,0:0|0:0,0:0:0:0:
50,188,77401,2,0,L|45:138,1,50,10|0,0:0|0:0,0:0:0:0:
215,70,77572,2,0,L|219:20,1,50,2|0,0:0|0:0,0:0:0:0:
347,281,77742,6,0,B|418:177|450:272|537:161|492:87|438:67|385:79|361:111|361:111|337:58|274:34|221:80|199:129|212:190|260:201|346:222|348:299|293:365,1,800,2|0,0:0|0:0,0:0:0:0:
102,252,80299,6,0,P|123:283|127:320,1,75.0000028610231
176,143,80640,1,0,0:0:0:0:
237,205,80810,2,0,P|217:236|213:273,1,75.0000028610231
21,153,81151,2,0,P|59:151|93:165,1,75.0000028610231
298,267,81492,5,0,0:0:0:0:
237,205,81662,2,0,P|258:173|262:136,1,75.0000028610231
114,328,82003,1,0,0:0:0:0:
175,266,82173,2,0,P|155:234|151:197,1,75.0000028610231
359,329,82515,2,0,P|380:297|384:260,1,75.0000028610231
306,57,82856,6,0,B|318:117|318:117|279:179|279:179|298:267,1,225.000008583069,2|0,0:0|0:0,0:0:0:0:
283,279,83197,5,4,0:0:0:0:
188,126,83367,1,0,0:0:0:0:
333,155,83538,1,8,0:0:0:0:
156,120,83708,2,0,L|58:103,1,100
97,232,84049,2,0,L|195:215,1,100,0|8,0:0|0:0,0:0:0:0:
243,43,84390,6,0,L|46:8,1,200
17,189,84901,2,0,P|49:151|57:102,1,100,8|0,0:0|0:0,0:0:0:0:
194,214,85242,2,0,P|203:263|235:301,1,100
353,39,85583,2,0,L|255:56,1,100,8|0,0:0|0:0,0:0:0:0:
283,226,85924,5,0,0:0:0:0:
430,155,86094,1,0,0:0:0:0:
401,300,86265,1,8,0:0:0:0:
436,123,86435,2,0,L|453:25,1,100
215,64,86776,2,0,L|232:162,1,100,0|8,0:0|0:0,0:0:0:0:
318,235,87117,2,0,L|353:39,1,200
232,162,87629,1,8,0:0:0:0:
436,123,87799,1,0,0:0:0:0:
123,54,87969,6,0,L|131:103,1,50
326,185,88139,2,0,L|318:235,1,50
132,341,88309,2,0,L|123:291,3,50,8|0|0|0,0:0|0:0|0:0|0:0,0:0:0:0:
60,228,88651,5,4,0:0:0:0:
232,162,88822,1,0,0:0:0:0:
151,342,88992,1,0,0:0:0:0:
71,139,89163,1,0,0:0:0:0:
291,257,89333,1,0,0:0:0:0:
79,229,89504,1,0,0:0:0:0:
267,125,89674,1,8,0:0:0:0:
241,333,89844,1,0,0:0:0:0:
91,137,90015,5,0,0:0:0:0:
347,163,90185,1,0,0:0:0:0:
132,341,90356,1,8,0:0:0:0:
175,73,90526,1,0,0:0:0:0:
378,247,90697,1,0,0:0:0:0:
77,256,90867,1,0,0:0:0:0:
261,24,91038,1,8,0:0:0:0:
291,337,91208,1,0,0:0:0:0:
172,19,91379,5,12,0:0:0:0:
88,338,91549,1,2,0:0:0:0:
349,34,91719,5,8,0:0:0:0:
376,363,91890,1,2,0:0:0:0:
169,0,92060,5,8,0:0:0:0:
75,351,92231,1,2,0:0:0:0:
355,16,92401,5,8,0:0:0:0:
387,378,92572,1,2,0:0:0:0:
52,126,92742,5,12,0:0:0:0:
462,129,92913,1,2,0:0:0:0:
44,221,93083,5,8,0:0:0:0:
448,289,93254,1,2,0:0:0:0:
37,116,93424,5,8,0:0:0:0:
495,212,93594,1,2,0:0:0:0:
27,228,93765,1,8,0:0:0:0:
289,112,93935,6,0,P|294:148|282:184,1,75.0000028610231,4|0,0:0|0:0,0:0:0:0:
174,326,94276,1,0,0:0:0:0:
131,147,94447,2,0,L|205:140,1,75.0000028610231,8|0,0:0|0:0,0:0:0:0:
195,315,94788,6,0,L|233:319,5,37.5000014305115,0|0|0|0|8|0,0:0|0:0|0:0|0:0|0:0|0:0,0:0:0:0:
322,328,95299,1,2,0:0:0:0:
256,192,95384,12,0,98026,0:0:0:0:
