osu file format v14

[General]
AudioFilename: audio.mp3
AudioLeadIn: 0
PreviewTime: -1
Countdown: 1
SampleSet: None
StackLeniency: 0.7
Mode: 0
LetterboxInBreaks: 0
WidescreenStoryboard: 1

[Editor]
Bookmarks: 40336,41898,60240,67701,69877,96302,97545,146542,158045,195039,205799
DistanceSpacing: 1.8
BeatDivisor: 4
GridSize: 4
TimelineZoom: 1.6

[Metadata]
Title:staple tape worms on my penis
TitleUnicode:staple tape worms on my penis
Artist:Passenger Of Shit
ArtistUnicode:Passenger Of Shit
Creator:Elirac
Version:Genital Mutilation
Source:
Tags:shitcore breakcore meme nsfw benis why
BeatmapID:1475712
BeatmapSetID:696728

[Difficulty]
HPDrainRate:3
CircleSize:4
OverallDifficulty:9
ApproachRate:9.5
SliderMultiplier:1.3
SliderTickRate:2

[Events]
//Background and Video events
0,0,"1353802354674.jpg",0,0
//Break Periods
2,166638,170978
//Storyboard Layer 0 (Background)
//Storyboard Layer 1 (Fail)
//Storyboard Layer 2 (Pass)
//Storyboard Layer 3 (Foreground)
//Storyboard Sound Samples

[TimingPoints]
-62,310.880829015544,4,1,0,40,1,0
19490,-66.6666666666667,4,1,0,40,0,0
26665,310.880829015544,4,1,0,40,1,0
26665,-66.6666666666667,4,1,0,40,0,0
30395,-66.6666666666667,4,1,0,55,0,0
31017,-50,4,1,0,55,0,0
31328,-66.6666666666667,4,1,0,55,0,0
32882,-50,4,1,0,55,0,0
33193,-66.6666666666667,4,1,0,55,0,0
35991,-50,4,1,0,55,0,0
36302,-66.6666666666667,4,1,0,55,0,0
37856,-50,4,1,0,55,0,0
38167,-66.6666666666667,4,1,0,55,0,0
40343,-200,4,1,0,55,0,0
42209,-66.6666666666667,4,1,0,55,0,0
42830,-200,4,1,0,55,0,0
43452,-66.6666666666667,4,1,0,55,0,0
44074,-200,4,1,0,55,0,0
44696,-66.6666666666667,4,1,0,55,0,0
45317,-400,4,1,0,55,0,0
47183,-47.6,4,1,0,55,0,0
47804,-142.857142857143,4,1,0,55,0,0
48426,-47.6,4,1,0,55,0,0
49048,-142.857142857143,4,1,0,55,0,0
49670,-47.6,4,1,0,55,0,0
50291,-800,4,1,0,55,0,0
55266,-125,4,1,0,55,0,0
70188,-66.6666666666667,4,1,0,55,0,0
92571,-58.8235294117647,4,1,0,55,0,0
95058,-200,4,1,0,55,0,0
97545,-40,4,1,0,55,0,0
101587,-66.6666666666667,4,1,0,55,0,0
105006,-200,4,1,0,55,0,0
106872,-66.6666666666667,4,1,0,55,0,0
107494,-33.3333333333333,4,1,0,55,0,0
111613,-76.9230769230769,4,1,0,55,0,0
112157,-36.90036900369,4,1,0,55,0,0
112501,310.880829015544,4,1,0,55,1,0
112501,-71.4285714285714,4,1,0,55,0,0
119340,-142.857142857143,4,1,0,55,0,0
120583,-55.5555555555556,4,1,0,55,0,0
121205,-25,4,1,0,55,0,0
127889,-90.9090909090909,4,1,0,55,0,0
128977,-66.6666666666667,4,1,0,55,0,0
132086,-52.6315789473684,4,1,0,55,0,0
134884,-133.333333333333,4,1,0,55,0,0
137293,-66.6666666666667,4,1,0,55,0,0
143589,-55.5555555555556,4,1,0,55,0,0
156646,-200,4,1,0,55,0,0
158200,-25,4,1,0,55,0,0
159133,-176.470588235296,4,1,0,55,0,0
159754,-50,4,1,0,55,0,0
160376,-150.00000015,4,1,0,55,0,0
160998,-47.6190476190476,4,1,0,55,0,0
161620,-523.560209424084,4,1,0,55,0,0
163485,-66.6666666666667,4,1,0,55,0,0
164107,-200,4,1,0,55,0,0
164728,-66.6666666666667,4,1,0,55,0,0
165350,-200,4,1,0,55,0,0
165972,-76.9230769230769,4,1,0,55,0,0
171578,310.880829015544,4,1,0,55,1,0
171578,-25,4,1,0,55,0,0
175308,-100,4,1,0,55,0,0
176552,-25,4,1,0,70,0,0
183702,-133.333333333333,4,1,0,70,0,0
186500,-25,4,1,0,70,0,0
188831,-66.6666666666667,4,1,0,70,0,0
190255,310.880829015544,4,1,0,70,1,0
190255,-66.6666666666667,4,1,0,70,0,0
193985,-25,4,1,0,70,0,0
203856,-50,4,1,0,70,0,0

[Colours]
Combo1 : 186,31,31
Combo2 : 0,0,160
Combo3 : 99,146,173
Combo4 : 135,90,134

[HitObjects]
148,264,559,5,0,0:0:0:0:
108,80,870,1,0,0:0:0:0:
276,168,1181,1,0,0:0:0:0:
95,177,1492,1,0,0:0:0:0:
348,232,1803,5,0,0:0:0:0:
388,72,2114,1,0,0:0:0:0:
460,248,2425,2,0,L|370:349,1,130
195,230,3046,1,0,0:0:0:0:
33,352,3357,1,0,0:0:0:0:
272,192,3668,6,0,L|156:132,1,130
336,56,4290,1,0,0:0:0:0:
128,56,4601,1,0,0:0:0:0:
360,189,4912,5,0,0:0:0:0:
468,52,5222,1,0,0:0:0:0:
424,268,5533,1,0,0:0:0:0:
256,60,6777,5,0,0:0:0:0:
140,188,7399,5,0,0:0:0:0:
297,289,7710,1,0,0:0:0:0:
227,41,8020,1,0,0:0:0:0:
391,144,8331,1,0,0:0:0:0:
84,132,8642,6,0,L|64:204,1,65
48,264,8953,1,0,0:0:0:0:
212,340,9264,1,0,0:0:0:0:
392,328,9575,1,0,0:0:0:0:
212,340,9886,1,0,0:0:0:0:
212,164,10041,5,0,0:0:0:0:
355,89,10197,1,0,0:0:0:0:
206,28,10352,1,0,0:0:0:0:
104,264,10507,2,0,L|104:188,1,65
224,268,10818,2,0,L|224:192,1,65
228,84,11129,5,0,0:0:0:0:
364,84,11285,1,0,0:0:0:0:
360,200,11440,1,0,0:0:0:0:
224,200,11596,1,0,0:0:0:0:
86,200,11751,1,0,0:0:0:0:
86,316,12062,5,0,0:0:0:0:
224,316,12217,1,0,0:0:0:0:
148,244,12373,2,0,L|215:244,1,65
364,244,12684,2,0,L|206:244,1,130
368,124,13305,5,0,0:0:0:0:
156,72,13461,1,0,0:0:0:0:
272,56,13616,1,0,0:0:0:0:
80,160,13772,1,0,0:0:0:0:
116,272,13927,2,0,B|176:324|176:324|200:312,1,97.5
244,284,14238,1,0,0:0:0:0:
448,145,14549,1,0,0:0:0:0:
174,114,14860,5,0,0:0:0:0:
295,199,15015,1,0,0:0:0:0:
305,53,15171,1,0,0:0:0:0:
174,114,15326,1,0,0:0:0:0:
56,358,15482,2,0,L|162:269,1,130
380,84,16103,5,0,0:0:0:0:
408,246,16259,1,0,0:0:0:0:
248,276,16414,2,0,B|172:288|172:288|152:272,1,97.5
112,236,16725,1,0,0:0:0:0:
352,158,17036,5,0,0:0:0:0:
255,31,17191,1,0,0:0:0:0:
132,144,17347,2,0,L|200:192,1,65
41,254,17658,1,0,0:0:0:0:
187,327,17813,1,0,0:0:0:0:
41,248,17969,1,0,0:0:0:0:
324,188,18279,5,0,0:0:0:0:
414,334,18435,1,0,0:0:0:0:
463,154,18590,1,0,0:0:0:0:
486,238,18746,1,0,0:0:0:0:
224,180,18901,2,0,B|176:116|176:116|188:80,1,97.5
208,48,19212,1,0,0:0:0:0:
72,312,19523,5,0,0:0:0:0:
380,316,19834,1,0,0:0:0:0:
344,204,19989,1,0,0:0:0:0:
316,316,20145,1,0,0:0:0:0:
284,204,20300,1,0,0:0:0:0:
256,316,20456,2,0,L|216:204,1,97.50000371933
220,212,20767,2,0,L|188:312,1,97.50000371933
72,96,21077,5,0,0:0:0:0:
291,109,21233,1,0,0:0:0:0:
156,164,21388,2,0,L|304:104,1,146.250005578995
344,84,21699,1,0,0:0:0:0:
266,337,22010,5,0,0:0:0:0:
457,156,22165,1,0,0:0:0:0:
356,252,22321,2,0,L|272:168,1,97.50000371933
128,196,22632,1,0,0:0:0:0:
288,32,22787,1,0,0:0:0:0:
320,216,22943,1,0,0:0:0:0:
125,100,23254,5,0,0:0:0:0:
255,259,23409,1,0,0:0:0:0:
469,314,23564,1,0,0:0:0:0:
435,239,23720,1,0,0:0:0:0:
283,190,23875,2,0,B|365:174|365:174|345:96,1,146.250005578995
292,92,24186,1,0,0:0:0:0:
456,348,24497,5,0,0:0:0:0:
44,40,24808,1,0,0:0:0:0:
92,228,24963,1,0,0:0:0:0:
256,324,25119,1,0,0:0:0:0:
224,136,25274,1,0,0:0:0:0:
359,257,25430,2,0,L|236:239,1,97.50000371933
418,57,25741,2,0,L|479:142,1,97.50000371933
312,249,26051,5,0,0:0:0:0:
152,168,26207,1,0,0:0:0:0:
247,205,26362,2,0,B|149:254|149:254|153:189,1,146.250005578995
133,307,26665,1,0,0:0:0:0:
109,121,26975,5,0,0:0:0:0:
238,46,27131,1,0,0:0:0:0:
119,188,27286,2,0,L|231:154,1,97.50000371933
128,311,27597,1,0,0:0:0:0:
209,306,27753,1,0,0:0:0:0:
128,43,27908,1,0,0:0:0:0:
152,342,28219,5,0,0:0:0:0:
340,337,28374,1,0,0:0:0:0:
488,196,28530,1,0,0:0:0:0:
384,19,28685,1,0,0:0:0:0:
336,211,28841,2,0,L|161:211,1,146.250005578995
316,211,29152,1,0,0:0:0:0:
60,52,29462,1,0,0:0:0:0:
247,297,29773,1,0,0:0:0:0:
429,49,30084,1,0,0:0:0:0:
84,185,30395,6,0,B|147:169|147:169|190:211,1,97.50000371933
251,351,30706,1,0,0:0:0:0:
171,191,30861,1,0,0:0:0:0:
55,114,31017,2,0,B|156:116|156:116|170:193|170:193|170:194|250:236,1,260
125,51,31639,6,0,B|183:54|183:54|233:96,1,97.50000371933
55,114,31949,1,0,0:0:0:0:
52,219,32105,1,0,0:0:0:0:
301,51,32260,2,0,B|243:54|243:54|193:96,1,97.50000371933
481,56,32571,2,0,B|482:97|482:97|447:175,1,97.50000371933
52,219,32882,2,0,P|129:192|48:214,1,260
220,95,33504,1,0,0:0:0:0:
410,180,33815,1,0,0:0:0:0:
220,95,33970,1,0,0:0:0:0:
42,202,34126,1,0,0:0:0:0:
42,272,34437,1,0,0:0:0:0:
41,344,34747,1,0,0:0:0:0:
114,343,35058,1,0,0:0:0:0:
256,43,35369,6,0,B|244:98|244:98|203:117,1,97.50000371933
456,118,35680,1,0,0:0:0:0:
207,115,35835,1,0,0:0:0:0:
62,53,35991,2,0,B|116:105|116:105|208:114|208:114|285:177,1,260
69,338,36613,2,0,B|83:273|83:273|48:240,1,97.50000371933
348,336,36924,1,0,0:0:0:0:
210,117,37079,1,0,0:0:0:0:
308,265,37234,2,0,B|251:264|251:264|204:237,1,97.50000371933
468,61,37545,2,0,B|433:116|433:116|453:153,1,97.50000371933
308,265,37856,2,0,P|240:252|306:262,1,260
351,66,38478,1,0,0:0:0:0:
35,55,38789,5,0,0:0:0:0:
117,272,38944,1,0,0:0:0:0:
340,344,39100,1,0,0:0:0:0:
177,211,39255,1,0,0:0:0:0:
35,55,39411,1,0,0:0:0:0:
234,154,39566,1,0,0:0:0:0:
340,344,39721,1,0,0:0:0:0:
117,272,39877,1,0,0:0:0:0:
35,55,40032,1,0,0:0:0:0:
177,211,40188,1,0,0:0:0:0:
443,49,40343,6,0,B|337:122|337:122|359:76|359:76|373:174|373:174|358:223,1,325
233,322,42209,6,0,L|213:216,1,97.50000371933
193,63,42519,2,0,L|139:160,1,97.50000371933
72,286,42830,2,0,L|26:168,1,97.50000371933
0,79,43452,6,0,L|115:73,1,97.50000371933
282,66,43763,2,0,L|240:175,1,97.50000371933
190,328,44074,2,0,L|295:317,1,97.5
471,293,44696,6,0,L|398:201,1,97.50000371933
286,55,45006,2,0,L|185:108,1,97.50000371933
13,196,45317,2,0,B|68:265|68:265|158:265,1,178.75
407,268,47183,6,0,L|355:137,1,136.554626226173
58,80,47494,2,0,L|180:179,1,136.554626226173
466,145,47804,2,0,L|401:279,1,136.554626226173
100,298,48426,6,0,L|246:213,1,136.554626226173
466,145,48737,2,0,L|343:73,1,136.554626226173
85,195,49048,2,0,L|225:231,1,136.499995834351
448,272,49670,6,0,L|412:128,1,136.554626226173
52,62,49981,2,0,L|85:196,1,136.554626226173
124,340,50291,2,0,B|184:344|216:284|216:284|252:316|284:284|344:268,1,251.875
464,216,55266,6,0,B|424:168|424:168|412:200|412:200|388:160|388:160|468:148|468:148|460:80|460:80|448:160|448:160|436:112|436:112|412:136|412:136|436:88|436:88|384:188|384:188|448:116|448:116|349:89|349:89|384:132|384:132|372:84|372:84|432:132|432:132|416:76|416:76|344:132|344:132|332:56|332:56|456:56|456:56|344:164|344:164|320:144|320:144|297:47|297:47|260:44,1,1664
71,86,60551,5,0,0:0:0:0:
127,323,60861,1,0,0:0:0:0:
71,86,61017,1,0,0:0:0:0:
191,280,61172,1,0,0:0:0:0:
53,252,61483,5,0,0:0:0:0:
476,39,61794,1,0,0:0:0:0:
426,336,62105,1,0,0:0:0:0:
331,147,62260,1,0,0:0:0:0:
132,50,62416,1,0,0:0:0:0:
331,147,62727,5,0,0:0:0:0:
312,174,63038,1,0,0:0:0:0:
187,134,63348,1,0,0:0:0:0:
318,301,63504,1,0,0:0:0:0:
253,215,63659,1,0,0:0:0:0:
117,317,63970,5,0,0:0:0:0:
451,53,64281,1,0,0:0:0:0:
169,100,64592,1,0,0:0:0:0:
467,175,64747,1,0,0:0:0:0:
138,213,64903,1,0,0:0:0:0:
59,48,65214,5,0,0:0:0:0:
138,213,65525,1,0,0:0:0:0:
134,73,65835,1,0,0:0:0:0:
213,185,65991,1,0,0:0:0:0:
23,29,66146,1,0,0:0:0:0:
442,322,66457,5,0,0:0:0:0:
219,155,66768,1,0,0:0:0:0:
374,273,67079,1,0,0:0:0:0:
156,96,67234,1,0,0:0:0:0:
310,222,67390,1,0,0:0:0:0:
341,30,67701,6,0,B|195:104|195:104|361:169|361:169|194:110|194:110|181:238|181:238|258:212,1,728
361,169,70188,5,0,0:0:0:0:
182,238,70499,1,0,0:0:0:0:
341,30,70810,1,0,0:0:0:0:
117,68,71120,1,0,0:0:0:0:
95,226,71431,1,0,0:0:0:0:
299,251,71587,1,0,0:0:0:0:
117,68,71742,1,0,0:0:0:0:
81,346,72053,1,0,0:0:0:0:
405,153,72364,6,0,B|367:162|367:162|343:180|343:180|284:173,1,97.50000371933
72,167,72675,1,0,0:0:0:0:
252,59,72986,1,0,0:0:0:0:
164,217,73141,1,0,0:0:0:0:
190,343,73297,2,0,B|245:338|245:338|249:294|249:294|224:267|224:267|276:201,1,195.00000743866
351,113,73763,1,0,0:0:0:0:
245,337,73918,1,0,0:0:0:0:
37,34,74229,1,0,0:0:0:0:
475,350,74540,1,0,0:0:0:0:
253,195,74851,1,0,0:0:0:0:
37,34,75162,6,0,L|37:143,1,97.50000371933
475,252,75473,2,0,L|475:361,1,97.50000371933
37,131,75784,2,0,L|37:240,1,97.50000371933
475,154,76095,2,0,L|475:263,1,97.50000371933
149,234,76405,1,0,0:0:0:0:
374,306,76561,1,0,0:0:0:0:
95,341,76716,2,0,P|171:339|213:309,1,97.50000371933
366,155,77027,2,0,L|268:154,1,97.50000371933
29,281,77338,2,0,L|148:281,1,97.50000371933
450,279,77649,6,0,L|371:216,1,97.50000371933
141,34,77960,1,0,0:0:0:0:
165,279,78115,1,0,0:0:0:0:
383,354,78271,1,0,0:0:0:0:
425,39,78582,1,0,0:0:0:0:
326,286,78737,1,0,0:0:0:0:
107,336,78892,1,0,0:0:0:0:
275,233,79203,2,0,L|203:146,1,97.50000371933
139,54,79514,6,0,L|109:51,1,24.3750009298325
133,107,79592,2,0,L|100:110,1,24.3750009298325
139,157,79670,2,0,L|103:172,1,24.3750009298325
164,198,79747,2,0,L|144:224,1,24.3750009298325
204,227,79825,2,0,L|193:256,1,24.3750009298325
257,230,79903,2,0,L|264:257,1,24.3750009298325
300,206,79981,2,0,L|333:237,1,24.3750009298325
326,164,80058,2,0,L|361:170,1,24.3750009298325
239,128,80136,5,0,0:0:0:0:
45,336,80447,1,0,0:0:0:0:
452,344,80758,1,0,0:0:0:0:
239,27,81069,1,0,0:0:0:0:
476,221,81380,5,0,0:0:0:0:
256,304,81535,1,0,0:0:0:0:
34,221,81690,1,0,0:0:0:0:
256,340,82001,1,0,0:0:0:0:
256,45,82312,1,0,0:0:0:0:
392,258,82623,6,0,L|301:185,1,97.50000371933
374,280,82934,6,0,L|312:281,1,48.750001859665
376,206,83089,2,0,L|360:142,1,48.750001859665
299,219,83245,2,0,L|237:220,1,48.750001859665
449,341,83556,6,0,L|387:342,1,48.750001859665
451,267,83711,2,0,L|435:203,1,48.750001859665
374,280,83867,2,0,L|312:281,1,48.750001859665
45,280,84177,1,0,0:0:0:0:
52,94,84488,6,0,L|58:54,1,24.3750009298325
90,118,84566,2,0,L|119:88,1,24.3750009298325
117,155,84644,2,0,L|151:140,1,24.3750009298325
138,198,84721,2,0,L|171:191,1,24.3750009298325
151,243,84799,2,0,L|186:228,1,24.3750009298325
173,283,84877,2,0,L|199:251,1,24.3750009298325
212,307,84955,2,0,L|216:272,1,24.3750009298325
257,318,85032,2,0,L|255:281,1,24.3750009298325
305,305,85110,6,0,L|268:195,1,97.50000371933
386,47,85421,2,0,L|383:162,1,97.50000371933
276,349,85732,2,0,L|160:322,1,97.50000371933
255,120,86043,2,0,L|147:179,1,97.50000371933
382,278,86354,6,0,L|318:264,1,48.750001859665
434,143,86509,2,0,L|368:151,1,48.750001859665
482,231,86665,2,0,L|406:211,1,48.750001859665
111,186,86975,2,0,L|245:192,1,97.50000371933
377,332,87286,6,0,L|287:258,1,97.50000371933
380,77,87597,2,0,L|264:96,1,97.50000371933
153,270,87908,2,0,L|94:251,1,48.750001859665
241,167,88063,2,0,L|225:117,1,48.750001859665
375,173,88219,2,0,L|410:110,1,48.750001859665
90,204,88530,6,0,L|12:179,1,48.750001859665
205,69,88685,2,0,L|184:3,1,48.750001859665
380,77,88841,2,0,L|425:-5,1,48.750001859665
236,331,89152,1,0,0:0:0:0:
95,252,89462,6,0,L|64:226,1,24.3750009298325
124,234,89540,2,0,L|112:199,1,24.3750009298325
160,217,89618,2,0,L|157:184,1,24.3750009298325
196,218,89696,2,0,L|201:186,1,24.3750009298325
236,229,89773,2,0,L|233:192,1,24.3750009298325
272,219,89851,2,0,L|253:194,1,24.3750009298325
305,194,89929,2,0,L|277:181,1,24.3750009298325
333,167,90006,2,0,L|301:163,1,24.3750009298325
351,128,90084,6,0,B|314:215|244:240|183:210,1,195.00000743866
95,252,90706,1,0,0:0:0:0:
148,234,91017,1,0,0:0:0:0:
40,189,91328,1,0,0:0:0:0:
165,154,91483,1,0,0:0:0:0:
440,330,91639,1,0,0:0:0:0:
48,75,91949,1,0,0:0:0:0:
40,189,92260,5,0,0:0:0:0:
358,123,92571,2,0,L|331:242,1,110.50000210762
311,29,92882,1,0,0:0:0:0:
322,285,93038,1,0,0:0:0:0:
50,357,93193,2,0,B|34:297|34:297|68:245,1,110.50000210762
303,281,93504,1,0,0:0:0:0:
36,300,93659,1,0,0:0:0:0:
3,39,93815,1,0,0:0:0:0:
467,0,94126,1,0,0:0:0:0:
436,256,94437,6,0,L|409:233,1,27.6250005269051
408,282,94514,2,0,L|394:251,1,27.6250005269051
373,297,94592,2,0,L|372:267,1,27.6250005269051
333,304,94670,2,0,L|338:266,1,27.6250005269051
291,300,94747,2,0,L|304:261,1,27.6250005269051
251,280,94825,2,0,L|282:245,1,27.6250005269051
219,242,94903,2,0,L|256:221,1,27.6250005269051
209,200,94981,2,0,L|254:194,1,27.6250005269051
190,163,95058,6,0,B|202:111|150:90|127:106|127:106|83:144|103:161|103:161|94:182|60:187|52:171|52:171|57:222|57:222|62:175|62:175|7:197|7:197|51:217|51:217|30:177|30:177|32:181,1,487.5
131,308,97545,6,0,L|298:288,1,162.5
190,163,97856,1,0,0:0:0:0:
230,0,98012,1,0,0:0:0:0:
352,97,98167,2,0,L|182:132,1,162.5
432,281,98478,1,0,0:0:0:0:
287,260,98633,1,0,0:0:0:0:
144,325,98789,6,0,L|106:252,1,81.25
265,167,98944,2,0,L|222:258,1,81.25
402,247,99100,2,0,L|367:167,1,81.25
316,187,99255,1,0,0:0:0:0:
314,46,99411,2,0,L|317:226,1,162.5
76,197,99721,6,0,L|239:306,1,162.5
445,80,100032,2,0,L|276:142,1,162.5
110,69,100343,2,0,P|56:167|122:216,1,162.5
370,106,100654,1,0,0:0:0:0:
367,209,100810,1,0,0:0:0:0:
79,305,100965,1,0,0:0:0:0:
125,119,101120,1,0,0:0:0:0:
366,161,101276,2,0,L|194:202,1,162.5
143,322,101587,6,0,L|159:285,1,24.3750009298325
178,339,101664,2,0,L|183:302,1,24.3750009298325
216,340,101742,2,0,L|213:312,1,24.3750009298325
252,326,101820,2,0,L|233:303,1,24.3750009298325
277,311,101898,2,0,L|276:282,1,24.3750009298325
309,313,101975,2,0,L|320:284,1,24.3750009298325
346,286,102053,2,0,L|368:317,1,24.3750009298325
366,255,102131,2,0,L|403:274,1,24.3750009298325
369,222,102209,2,0,L|415:220,1,24.3750009298325
357,197,102286,2,0,L|387:177,1,24.3750009298325
334,172,102364,2,0,L|349:140,1,24.3750009298325
307,163,102442,2,0,L|304:125,1,24.3750009298325
270,174,102519,5,0,0:0:0:0:
53,332,102830,1,0,0:0:0:0:
469,52,103141,1,0,0:0:0:0:
63,73,103452,1,0,0:0:0:0:
62,229,103763,1,0,0:0:0:0:
249,288,103918,1,0,0:0:0:0:
480,232,104074,1,0,0:0:0:0:
253,23,104385,1,0,0:0:0:0:
252,172,104696,1,0,0:0:0:0:
116,266,105006,6,0,L|154:289,1,32.5
365,94,105317,2,0,L|328:71,1,32.5
181,345,105628,6,0,L|228:342,1,32.5
290,36,105939,2,0,L|243:40,1,32.5
288,374,106250,6,0,L|324:342,1,32.5
187,34,106561,2,0,L|156:60,1,32.5
386,310,106872,6,0,L|399:265,1,24.3750009298325
351,280,106949,2,0,L|358:245,1,24.3750009298325
312,261,107027,2,0,L|304:226,1,24.3750009298325
274,264,107105,2,0,L|269:228,1,24.3750009298325
232,261,107183,2,0,L|241:229,1,24.3750009298325
191,239,107260,2,0,L|218:203,1,24.3750009298325
157,205,107338,2,0,L|194:188,1,24.3750009298325
137,160,107416,2,0,L|182:155,1,24.3750009298325
137,160,107494,6,0,P|200:239|299:250,1,195.00000743866
462,169,107804,1,0,0:0:0:0:
495,8,107960,1,0,0:0:0:0:
138,79,108115,2,0,L|347:131,1,195.00000743866
458,286,108426,1,0,0:0:0:0:
247,372,108582,1,0,0:0:0:0:
35,191,108737,6,0,L|150:213,1,97.50000371933
130,209,108892,2,0,L|35:191,1,97.50000371933
35,191,109048,2,0,L|150:213,1,97.50000371933
79,199,109203,1,0,0:0:0:0:
239,84,109359,2,0,L|50:161,1,195.00000743866
435,140,109670,2,0,L|212:107,1,195.00000743866
214,279,109981,5,0,0:0:0:0:
222,281,110136,1,0,0:0:0:0:
234,273,110291,1,0,0:0:0:0:
237,261,110447,1,0,0:0:0:0:
219,220,110602,2,0,L|108:194,1,97.50000371933
124,197,110835,5,0,0:0:0:0:
120,228,110991,1,0,0:0:0:0:
90,229,111146,1,0,0:0:0:0:
51,192,111302,1,0,0:0:0:0:
70,136,111457,1,0,0:0:0:0:
117,104,111613,2,0,L|186:107,2,63.3749970989229
117,104,111924,1,0,0:0:0:0:
129,161,112079,1,0,0:0:0:0:
155,205,112157,6,0,P|268:280|291:61,1,390.00001487732
312,67,112578,1,0,0:0:0:0:
259,51,112656,1,0,0:0:0:0:
275,92,112734,1,0,0:0:0:0:
243,125,112811,1,0,0:0:0:0:
57,40,112967,1,0,0:0:0:0:
238,167,113122,5,0,0:0:0:0:
196,211,113200,1,0,0:0:0:0:
134,216,113278,1,0,0:0:0:0:
117,224,113355,1,0,0:0:0:0:
82,273,113433,1,0,0:0:0:0:
99,331,113511,1,0,0:0:0:0:
158,344,113589,1,0,0:0:0:0:
138,283,113666,1,0,0:0:0:0:
192,292,113744,1,0,0:0:0:0:
161,136,113899,1,0,0:0:0:0:
250,281,114055,5,0,0:0:0:0:
250,281,114133,1,0,0:0:0:0:
250,281,114210,1,0,0:0:0:0:
250,281,114288,1,0,0:0:0:0:
304,303,114366,1,0,0:0:0:0:
342,296,114444,1,0,0:0:0:0:
365,254,114521,1,0,0:0:0:0:
386,295,114599,1,0,0:0:0:0:
425,243,114677,1,0,0:0:0:0:
248,198,114832,1,0,0:0:0:0:
426,180,114988,6,0,L|409:77,1,90.9999972229005
304,227,115298,1,0,0:0:0:0:
103,260,115454,1,0,0:0:0:0:
107,227,115609,5,0,0:0:0:0:
142,174,115687,1,0,0:0:0:0:
202,159,115765,1,0,0:0:0:0:
177,227,115920,1,0,0:0:0:0:
229,263,115998,1,0,0:0:0:0:
291,247,116076,1,0,0:0:0:0:
255,128,116231,5,0,0:0:0:0:
199,129,116309,1,0,0:0:0:0:
144,102,116387,1,0,0:0:0:0:
215,60,116464,1,0,0:0:0:0:
178,83,116542,1,0,0:0:0:0:
178,83,116620,1,0,0:0:0:0:
178,83,116697,1,0,0:0:0:0:
56,210,116853,6,0,L|40:239,1,22.7499993057251
93,226,116931,2,0,L|101:255,1,22.7499993057251
142,201,117008,2,0,L|140:235,1,22.7499993057251
187,200,117086,2,0,L|168:229,1,22.7499993057251
231,221,117164,2,0,L|202:242,1,22.7499993057251
249,254,117241,2,0,L|213:255,1,22.7499993057251
256,303,117319,2,0,L|222:294,1,22.7499993057251
265,339,117397,2,0,L|243:360,1,22.7499993057251
336,292,117475,5,0,0:0:0:0:
399,330,117552,1,0,0:0:0:0:
469,313,117630,1,0,0:0:0:0:
400,314,117708,1,0,0:0:0:0:
344,276,117785,1,0,0:0:0:0:
486,152,117941,1,0,0:0:0:0:
314,221,118096,5,0,0:0:0:0:
321,197,118174,1,0,0:0:0:0:
361,191,118252,1,0,0:0:0:0:
357,229,118330,1,0,0:0:0:0:
392,251,118407,1,0,0:0:0:0:
448,223,118485,1,0,0:0:0:0:
402,191,118563,1,0,0:0:0:0:
357,147,118640,1,0,0:0:0:0:
425,118,118718,5,0,0:0:0:0:
383,54,118796,1,0,0:0:0:0:
348,125,118874,1,0,0:0:0:0:
276,122,118951,1,0,0:0:0:0:
306,51,119029,1,0,0:0:0:0:
482,39,119184,1,0,0:0:0:0:
231,60,119340,6,0,L|127:67,1,90.9999972229005
188,96,119728,1,0,0:0:0:0:
184,132,119806,1,0,0:0:0:0:
137,116,119884,1,0,0:0:0:0:
105,142,119962,1,0,0:0:0:0:
458,317,120273,1,0,0:0:0:0:
76,302,120583,6,0,L|60:337,1,29.2499991073609
105,306,120661,2,0,L|111:341,1,29.2499991073609
147,287,120739,2,0,L|177:326,1,29.2499991073609
164,258,120817,2,0,L|206:261,1,29.2499991073609
163,218,120894,2,0,L|200:204,1,29.2499991073609
136,189,120972,2,0,L|160:148,1,29.2499991073609
102,155,121050,2,0,L|63:169,1,29.2499991073609
99,119,121127,2,0,L|50:94,1,29.2499991073609
171,62,121205,6,0,B|388:81|388:81|283:158|283:158|386:193|386:193|346:284,1,520
55,335,121827,6,0,B|202:343|202:343|103:258|103:258|190:148|190:148|17:197,1,520
444,54,122449,6,0,B|479:123|479:123|429:208|429:208|347:138|347:138|314:251|314:251|402:295|402:295|405:339,1,520
39,136,123070,6,0,B|97:140|97:140|258:34|258:34|231:169|231:169|125:72,1,520
109,318,123692,6,0,B|461:332|461:332|444:258|444:258|418:257|418:257|482:188,1,520
175,221,124314,6,0,B|280:193|280:193|121:125|121:125|401:63,1,520
426,345,124936,6,0,B|354:373|354:373|473:265|473:265|429:341|429:341|275:165,1,520
276,166,125324,5,0,0:0:0:0:
227,169,125402,1,0,0:0:0:0:
287,220,125480,1,0,0:0:0:0:
252,253,125557,1,0,0:0:0:0:
188,264,125635,1,0,0:0:0:0:
118,234,125713,1,0,0:0:0:0:
118,234,125791,1,0,0:0:0:0:
167,219,125868,5,0,0:0:0:0:
304,331,126024,1,0,0:0:0:0:
127,187,126179,1,0,0:0:0:0:
262,354,126335,1,0,0:0:0:0:
139,138,126490,1,0,0:0:0:0:
224,353,126646,5,0,0:0:0:0:
169,326,126723,1,0,0:0:0:0:
134,341,126801,1,0,0:0:0:0:
134,341,126879,1,0,0:0:0:0:
78,334,126956,1,0,0:0:0:0:
66,245,127034,1,0,0:0:0:0:
58,289,127112,1,0,0:0:0:0:
115,283,127190,1,0,0:0:0:0:
160,281,127267,1,0,0:0:0:0:
123,230,127345,1,0,0:0:0:0:
170,230,127423,5,0,0:0:0:0:
208,177,127501,1,0,0:0:0:0:
185,122,127579,1,0,0:0:0:0:
122,157,127657,1,0,0:0:0:0:
65,151,127734,1,0,0:0:0:0:
37,101,127812,1,0,0:0:0:0:
46,37,127889,2,0,P|101:39|165:9,1,107.25000327301
223,41,128200,5,0,0:0:0:0:
259,223,128355,1,0,0:0:0:0:
311,52,128511,1,0,0:0:0:0:
179,180,128666,2,0,L|123:296,1,107.25000327301
178,351,128977,6,0,L|188:315,1,24.3750009298325
224,353,129055,2,0,L|218:318,1,24.3750009298325
263,346,129133,2,0,L|248:314,1,24.3750009298325
302,332,129210,2,0,L|283:302,1,24.3750009298325
344,308,129288,2,0,L|319:284,1,24.3750009298325
371,268,129366,2,0,L|339:256,1,24.3750009298325
393,226,129444,2,0,L|348:221,1,24.3750009298325
386,179,129521,2,0,L|354:184,1,24.3750009298325
382,134,129599,2,0,L|346:149,1,24.3750009298325
340,100,129677,2,0,L|305:117,1,24.3750009298325
289,79,129754,2,0,L|274:115,1,24.3750009298325
231,96,129832,2,0,L|248:133,1,24.3750009298325
286,181,129910,5,0,0:0:0:0:
42,228,130221,1,0,0:0:0:0:
456,314,130532,1,0,0:0:0:0:
88,41,130842,1,0,0:0:0:0:
54,345,131153,1,0,0:0:0:0:
254,194,131309,1,0,0:0:0:0:
481,35,131464,1,0,0:0:0:0:
229,217,131775,1,0,0:0:0:0:
267,279,132086,6,0,B|208:296|208:296|175:263|175:263|145:271,1,123.499996702194
479,148,132397,1,0,0:0:0:0:
151,52,132708,1,0,0:0:0:0:
129,284,132863,1,0,0:0:0:0:
373,169,133019,2,0,B|328:139|353:113|353:113|260:176|260:176|265:106,1,246.999993404389
323,339,133485,1,0,0:0:0:0:
326,132,133640,1,0,0:0:0:0:
36,297,133951,1,0,0:0:0:0:
483,281,134262,1,0,0:0:0:0:
49,52,134573,1,0,0:0:0:0:
174,208,134884,6,0,B|149:176|149:176|173:167|209:175|209:175|211:148|177:137|129:143|115:154|115:154|121:111|156:97|201:106|238:111|246:136|246:136|322:118|322:118|325:149|308:175|269:183|269:183|280:211|339:208|374:153|362:109|337:112|337:112|385:119|390:143,1,755.625028824807
443,205,137371,6,0,L|368:319,1,97.50000371933
114,307,137682,2,0,L|38:199,1,97.50000371933
326,24,137993,2,0,L|297:135,1,97.50000371933
340,359,138304,2,0,L|243:291,1,97.50000371933
96,24,138614,6,0,L|132:130,1,97.50000371933
483,134,138925,2,0,L|390:189,1,97.50000371933
483,134,139236,2,0,L|390:189,1,97.50000371933
483,134,139547,2,0,L|390:189,1,97.50000371933
190,228,139858,6,0,B|245:225|233:195|163:203|204:248|135:226|183:169|215:215|215:215|204:175|167:181|155:244|197:252|197:252|165:213|208:177|216:238|165:216|165:216|208:188,1,390.00001487732
310,176,140635,1,0,0:0:0:0:
87,78,140791,2,0,L|97:209,1,97.50000371933
404,342,141102,6,0,L|396:227,1,97.50000371933
156,94,141412,2,0,L|57:153,1,97.50000371933
326,337,141723,2,0,L|426:287,1,97.50000371933
81,43,142034,2,0,L|125:158,1,97.50000371933
436,353,142345,6,0,L|330:262,1,97.50000371933
156,40,142656,2,0,L|81:146,1,97.50000371933
357,365,142967,2,0,L|420:276,1,97.50000371933
82,29,143278,2,0,L|160:125,1,97.50000371933
176,256,143589,6,0,B|261:164|261:164|176:256|176:256|264:338|264:338|91:177|91:177|176:256|176:256|238:189|238:189|103:334|103:334|176:256|176:256|244:319|244:319|116:200|116:200|176:256|176:256|92:345|92:345|176:256|176:256|197:276|197:276|154:236|154:236|176:256|176:256|192:238|192:238|117:318|117:318|235:192|235:192|176:256,1,2222.99993215943
331,54,146697,5,0,0:0:0:0:
418,106,147008,1,0,0:0:0:0:
378,284,147319,1,0,0:0:0:0:
378,284,147475,1,0,0:0:0:0:
378,284,147630,1,0,0:0:0:0:
34,111,147941,6,0,P|171:116|246:38,1,233.999992858887
32,113,148563,1,0,0:0:0:0:
32,113,148718,1,0,0:0:0:0:
32,113,148874,1,0,0:0:0:0:
119,305,149184,2,0,P|223:226|344:275,1,233.999992858887
118,306,149806,5,0,0:0:0:0:
118,306,149962,1,0,0:0:0:0:
118,306,150117,1,0,0:0:0:0:
414,43,150428,1,0,0:0:0:0:
41,209,150739,1,0,0:0:0:0:
354,147,151050,1,0,0:0:0:0:
365,200,151205,1,0,0:0:0:0:
354,254,151361,1,0,0:0:0:0:
68,118,151671,6,0,P|172:72|188:165,1,233.999992858887
68,119,152293,1,0,0:0:0:0:
158,62,152449,1,0,0:0:0:0:
191,158,152604,1,0,0:0:0:0:
370,341,152915,2,0,P|441:301|329:257,1,233.999992858887
129,306,153537,5,0,0:0:0:0:
69,172,153692,1,0,0:0:0:0:
162,37,153848,1,0,0:0:0:0:
431,58,154159,1,0,0:0:0:0:
47,281,154469,1,0,0:0:0:0:
465,340,154780,5,0,0:0:0:0:
309,132,154936,1,0,0:0:0:0:
40,37,155091,1,0,0:0:0:0:
199,257,155247,1,0,0:0:0:0:
465,340,155402,1,0,0:0:0:0:
253,194,155557,1,0,0:0:0:0:
40,37,155713,1,0,0:0:0:0:
309,132,155868,1,0,0:0:0:0:
465,340,156024,1,0,0:0:0:0:
199,257,156179,1,0,0:0:0:0:
40,37,156335,1,0,0:0:0:0:
253,194,156490,1,0,0:0:0:0:
477,213,156646,6,0,B|438:173|434:140|434:96|434:96|457:79|470:123|470:123|418:120|418:120|363:82,1,292.5
0,58,158200,6,0,P|-78:64|22:101,1,260
317,384,158511,2,0,P|273:478|227:385,1,260
281,0,158822,2,0,P|275:-78|238:22,1,260
139,240,159133,2,0,L|257:194,1,110.500004496257
457,99,159754,6,0,L|324:94,1,130
78,222,160065,2,0,L|207:226,1,130
263,31,160376,2,0,L|389:88,1,130
381,310,160998,6,0,L|221:324,1,136.499995834351
381,310,161309,2,0,L|221:324,1,136.499995834351
245,321,161620,2,0,L|381:310,1,136.499995834351
284,60,163485,6,0,L|282:187,1,97.50000371933
69,73,163796,2,0,L|46:182,1,97.50000371933
179,175,164107,2,0,L|197:284,1,97.50000371933
395,350,164728,6,0,L|443:245,1,97.50000371933
99,345,165039,2,0,L|65:238,1,97.50000371933
286,246,165350,2,0,L|317:143,1,97.50000371933
131,144,165972,6,0,L|222:182,1,84.4999961318971
423,67,166283,2,0,L|314:83,1,84.4999961318971
221,158,171578,6,0,B|221:226|221:226|290:226|290:226|290:157|290:157|212:157,1,260,8|0,0:0|0:0,0:0:0:0:
22,24,171888,1,0,0:0:0:0:
493,365,172199,1,0,0:0:0:0:
493,365,172355,1,0,0:0:0:0:
504,9,172510,1,0,0:0:0:0:
16,380,172821,1,0,0:0:0:0:
256,192,172977,1,0,0:0:0:0:
3,1,173132,1,0,0:0:0:0:
314,334,173443,1,0,0:0:0:0:
314,334,173599,1,0,0:0:0:0:
185,47,173754,6,0,B|132:103|132:103|206:101|206:101|142:188,1,260
424,107,174065,1,0,0:0:0:0:
40,282,174375,1,0,0:0:0:0:
312,110,174531,1,0,0:0:0:0:
51,309,174686,2,0,P|142:348|93:290,1,260
326,265,174997,1,0,0:0:0:0:
137,149,175153,1,0,0:0:0:0:
439,121,175308,6,0,B|473:152|470:196|416:151|416:151|409:101|409:101|464:93|449:42|388:90|388:90|382:137|382:137|223:161,1,455
87,263,176552,6,0,B|46:313|46:313|121:319,1,130
264,284,176706,2,0,P|319:296|286:271,1,130
167,206,176862,2,0,B|147:144|147:144|174:228,1,130
56,115,177017,2,0,B|89:86|54:83|54:83|96:65|96:65|139:71,1,130
270,89,177173,6,0,B|244:117|244:117|290:119|290:119|264:51,1,130
306,205,177328,2,0,P|363:239|414:213,1,130
422,80,177484,2,0,B|367:117|367:117|405:174,1,130
384,292,177639,2,0,B|418:303|418:303|319:292,1,130
233,344,177794,6,0,B|236:268|236:268|173:304,1,130
54,313,177950,2,0,P|100:272|45:289,1,130
36,166,178105,2,0,B|134:180|134:180|96:149,1,130
225,142,178261,2,0,B|230:198|230:198|309:175,1,130
340,44,178416,6,0,B|309:40|309:40|371:39|371:39|323:77,1,130
446,146,178572,2,0,B|452:190|452:190|354:146,1,130
397,284,178727,2,0,B|350:304|350:304|283:234,1,130
218,330,178883,2,0,L|53:293,1,130
96,160,179039,6,0,B|116:177|116:177|139:160|139:160|122:125|122:125|79:122|79:122|52:166|52:166|83:207|83:207|115:202|115:202|165:182|165:182|145:127|145:127|96:114|96:114|53:133|53:133|52:185|52:185|64:215|64:215|120:219|120:219|160:204|160:204|161:146|161:146|144:114|144:114|91:102|89:102|35:133|35:133|39:184|39:184|68:225|68:225|125:217|125:217|159:183|159:183|159:117|159:117|127:95|127:95|72:91|72:91|36:149|36:150|46:218|46:218|129:227|129:227|184:169|184:169|178:137|178:137|138:91|138:91|106:89|106:89|54:100|54:100|34:106|34:106|14:152|14:152|24:185,1,1820
24,318,180282,1,0,0:0:0:0:
123,345,180438,1,0,0:0:0:0:
264,162,180593,1,0,0:0:0:0:
225,352,180748,1,0,0:0:0:0:
475,289,180904,6,0,L|145:255,1,260
27,91,181215,2,0,L|343:69,1,260
479,77,181526,6,0,P|389:84|491:113,1,260
277,285,181837,2,0,B|313:290|322:317|322:317|248:356,1,130
136,320,181992,2,0,B|98:326|98:326|126:342|126:342|97:257,1,130
160,172,182147,5,0,0:0:0:0:
477,260,182303,1,0,0:0:0:0:
46,45,182458,1,0,0:0:0:0:
46,45,182614,1,0,0:0:0:0:
48,199,182769,1,0,0:0:0:0:
400,73,182925,1,0,0:0:0:0:
255,240,183080,1,0,0:0:0:0:
219,134,183236,1,0,0:0:0:0:
92,312,183391,6,0,P|229:346|336:273,1,260
413,138,183702,2,0,L|382:132,1,24.3750009298325
56,71,183857,2,0,L|98:75,1,24.3750009298325
333,200,184013,6,0,L|288:207,1,24.3750009298325
70,255,184168,2,0,L|114:251,1,24.3750009298325
260,43,184324,2,0,L|251:73,1,24.3750009298325
389,331,184479,2,0,L|360:307,1,24.3750009298325
18,172,184635,2,0,L|52:174,1,24.3750009298325
470,58,184790,2,0,L|442:77,1,24.3750009298325
226,350,184946,2,0,L|237:317,1,24.3750009298325
140,31,185101,2,0,L|151:66,1,24.3750009298325
483,213,185257,6,0,L|442:215,1,24.3750009298325
51,334,185412,2,0,L|77:312,1,24.3750009298325
332,33,185567,2,0,L|333:78,1,24.3750009298325
359,353,185723,2,0,L|336:315,1,24.3750009298325
155,161,185878,2,0,L|192:172,1,24.3750009298325
373,160,186034,2,0,L|333:170,1,24.3750009298325
265,194,186189,1,0,0:0:0:0:
132,323,186500,6,0,B|61:305|61:305|117:269|117:269|-12:223|-12:223|59:234|121:226|164:88,1,520
300,306,186966,6,0,B|348:328|364:256|364:256|412:272|456:129|456:129|393:175|357:125|357:125|409:76|363:79|363:79|306:38,1,520
229,221,187432,6,0,B|237:258|231:323|114:329|114:329|145:282|145:283|108:286|108:286|157:246|157:246|69:212|69:212|120:116,1,520
198,57,187899,6,0,B|238:114|336:148|414:30|414:30|290:20|290:20|312:191,1,520
162,328,188365,6,0,B|186:255|186:255|224:231|224:231|149:205|149:205|196:165|196:165|221:368|221:368|297:359,1,520
379,315,188831,6,0,B|424:272|366:223|366:223|454:200|454:200|451:109|451:109|454:206|454:206|314:97|314:97|453:110|453:110|371:187,1,780.00002975464
218,216,190255,5,0,0:0:0:0:
184,232,190410,1,0,0:0:0:0:
253,231,190565,1,0,0:0:0:0:
214,117,190721,1,0,0:0:0:0:
430,335,190876,2,0,P|379:344|354:302,1,97.50000371933
347,79,191187,5,0,0:0:0:0:
252,317,191342,1,0,0:0:0:0:
124,71,191498,1,0,0:0:0:0:
303,309,191653,1,0,0:0:0:0:
231,62,191809,1,0,0:0:0:0:
111,306,191964,1,0,0:0:0:0:
227,194,192120,1,0,0:0:0:0:
227,194,192275,1,0,0:0:0:0:
227,194,192431,5,0,0:0:0:0:
227,194,192586,1,0,0:0:0:0:
227,194,192741,1,0,0:0:0:0:
227,194,192897,1,0,0:0:0:0:
227,194,193052,1,0,0:0:0:0:
227,194,193207,1,0,0:0:0:0:
227,194,193363,1,0,0:0:0:0:
227,194,193518,1,0,0:0:0:0:
227,194,193673,1,0,0:0:0:0:
227,194,193829,1,0,0:0:0:0:
284,264,193985,6,0,B|321:216|328:167|314:126|285:86|219:71|166:81|117:127|102:197|122:244|166:301|235:294|285:264|285:264|322:216|328:167|314:126|285:85|219:71|166:81|117:127|102:197|122:244|166:301|235:294|285:264|285:264|322:216|328:167|314:126|285:85|219:71|166:81|117:127|102:197|122:244|166:301|235:294|285:264|285:264|321:216|328:167|303:135|258:112,1,1820
227,194,195228,6,0,L|152:312,1,130
227,194,195539,2,0,L|302:312,1,130
294,93,195850,6,0,L|132:94,1,130
164,93,196005,2,0,L|294:93,1,130
294,93,196160,2,0,L|132:94,1,130
164,93,196316,2,0,L|294:93,1,130
227,93,196471,5,0,0:0:0:0:
227,93,196627,1,0,0:0:0:0:
48,311,196783,1,0,0:0:0:0:
48,311,196938,1,0,0:0:0:0:
334,260,197094,1,0,0:0:0:0:
334,260,197249,1,0,0:0:0:0:
80,114,197405,1,0,0:0:0:0:
80,114,197560,1,0,0:0:0:0:
167,323,197715,5,0,0:0:0:0:
255,217,197871,1,0,0:0:0:0:
347,115,198026,1,0,0:0:0:0:
347,115,198182,1,0,0:0:0:0:
106,221,198337,1,0,0:0:0:0:
106,221,198493,1,0,0:0:0:0:
387,287,198648,1,0,0:0:0:0:
387,287,198804,1,0,0:0:0:0:
213,77,198959,5,0,0:0:0:0:
213,77,199114,1,0,0:0:0:0:
218,254,199270,1,0,0:0:0:0:
218,254,199425,1,0,0:0:0:0:
412,183,199581,1,0,0:0:0:0:
241,163,199737,1,0,0:0:0:0:
412,183,199892,1,0,0:0:0:0:
241,163,200047,1,0,0:0:0:0:
306,319,200203,5,0,0:0:0:0:
136,313,200358,1,0,0:0:0:0:
306,319,200514,1,0,0:0:0:0:
136,313,200669,1,0,0:0:0:0:
56,147,200824,1,0,0:0:0:0:
253,239,200980,1,0,0:0:0:0:
465,138,201135,1,0,0:0:0:0:
249,69,201446,2,0,P|367:169|172:126,1,520
289,349,201913,6,0,B|205:308|205:308|275:284|309:215|253:146|253:146|326:87|326:87|315:221,1,520
79,231,202379,6,0,B|111:301|111:301|129:269|129:269|142:293|142:293|234:212|234:212|297:281|297:281|308:275|308:275|298:295|298:295|318:285|318:285|449:295,1,520
223,341,202845,6,0,B|194:121|194:121|317:130|261:250|261:250|70:177,1,520
181,28,203311,6,0,B|314:112|237:269|237:269|310:271|310:271|316:304|316:304|384:174|384:174|322:50,1,650
156,126,203856,6,0,B|207:197|207:197|272:146|272:146|309:200|309:200|274:215|274:215|293:238|339:251|412:189|412:189|448:193|482:226|476:260|476:260|504:365|354:309|354:309|405:271|405:271|332:262|332:262|298:307|287:346|218:255|261:378|103:306|103:306|167:271|167:271|147:252|147:252|156:215|156:215|92:229|92:229|158:355|158:355|256:204,1,1625
