osu file format v14

[General]
AudioFilename: audio.mp3
AudioLeadIn: 0
PreviewTime: 59586
Countdown: 0
SampleSet: Soft
StackLeniency: 0.7
Mode: 0
LetterboxInBreaks: 0
WidescreenStoryboard: 1

[Editor]
Bookmarks: 7372,20943,30229,39372,48372,59943,78229,87372,105657,114800,123943,133086,142229,152514,170800,176514,188943
DistanceSpacing: 1.1
BeatDivisor: 4
GridSize: 16
TimelineZoom: 1.2

[Metadata]
Title:UNTILL THE DAWN
TitleUnicode:UNTILL THE DAWN
Artist:PassCode
ArtistUnicode:PassCode
Creator:mrforse
Version:YUMERIOS' NORMAL
Source:
Tags:japanese jrock j-rock jpop j-pop pop rock female vocals vocalist 3rd Single Ray 高嶋楓 Takashima Kaede 南菜生 Minami Nao 今田夢菜 Imada Yuna 大上陽奈子 Oogami Hinako yumerios 619 amats nemidnight
BeatmapID:3533338
BeatmapSetID:1728899

[Difficulty]
HPDrainRate:3
CircleSize:3
OverallDifficulty:4
ApproachRate:5.5
SliderMultiplier:0.999999999999999
SliderTickRate:1

[Events]
//Background and Video events
0,0,"bg.jpg",0,0
//Break Periods
2,48714,54229
2,105857,113657
2,133286,140514
2,152714,160514
//Storyboard Layer 0 (Background)
//Storyboard Layer 1 (Fail)
//Storyboard Layer 2 (Pass)
//Storyboard Layer 3 (Foreground)
//Storyboard Layer 4 (Overlay)
//Storyboard Sound Samples

[TimingPoints]
-628,285.714285714286,4,2,1,80,1,0
7372,-95.2380952380952,4,2,1,70,0,0
20943,-111.111111111111,4,2,1,60,0,0
30229,-100,4,2,1,70,0,0
39372,-111.111111111111,4,2,1,90,0,0
48514,-111.111111111111,4,2,1,40,0,0
55372,-100,4,2,1,80,0,0
59943,-90.9090909090909,4,2,1,90,0,1
78229,-100,4,2,1,80,0,0
85086,-100,4,2,1,60,0,0
85800,-100,4,2,1,80,0,0
105657,-111.111111111111,4,2,1,60,0,0
114800,-100,4,2,1,70,0,0
123943,-90.9090909090909,4,2,1,90,0,0
133086,-111.111111111111,4,2,1,80,0,0
142229,-100,4,2,1,90,0,0
151943,-100,4,2,1,40,0,0
152514,-100,4,2,1,40,0,0
161657,-111.111111111111,4,2,1,40,0,0
170800,-90.9090909090909,4,2,1,90,0,1
188943,-100,4,2,1,90,0,0
202800,-100,4,2,1,70,0,0

[Colours]
Combo1 : 138,189,206
Combo2 : 231,152,95

[HitObjects]
131,40,372,6,0,P|141:114|147:156,1,99.9999999999999,2|2,3:2|3:2,0:0:0:0:
154,188,800,1,10,0:0:0:0:
154,188,943,1,2,3:2:0:0:
234,262,1229,2,0,P|266:267|295:252,1,50,2|10,3:3|0:0,0:0:0:0:
313,222,1514,2,0,P|348:202|413:223,1,99.9999999999999,2|2,3:2|3:2,0:0:0:0:
442,255,1943,1,10,0:0:0:0:
442,255,2086,2,0,L|436:311,1,50,2|8,3:2|3:3,0:0:0:0:
349,371,2514,2,0,L|299:364,1,50,10|2,0:0|0:0,0:0:0:0:
251,349,2800,6,0,P|234:315|247:255,1,99.9999999999999,2|2,3:2|3:2,0:0:0:0:
279,218,3229,1,10,0:0:0:0:
231,118,3514,2,0,P|202:111|175:122,1,50,10|2,0:0|3:2,0:0:0:0:
138,141,3800,2,0,L|72:131,2,50,10|2|10,0:0|3:2|0:0,0:0:0:0:
166,182,4229,1,10,0:0:0:0:
166,182,4372,2,0,P|178:243|188:299,1,99.9999999999999,2|0,3:2|3:2,0:0:0:0:
284,327,4943,6,0,P|304:288|289:230,1,99.9999999999999,2|2,3:2|3:2,0:0:0:0:
261,203,5372,1,10,0:0:0:0:
261,203,5514,1,2,3:2:0:0:
334,121,5800,2,0,P|376:115|401:111,1,50,2|10,3:2|0:0,0:0:0:0:
428,136,6086,2,0,P|444:162|424:233,1,99.9999999999999,6|10,3:2|0:0,0:0:0:0:
394,261,6514,1,10,0:0:0:0:
394,261,6657,2,0,L|226:238,1,150,2|12,3:2|0:0,0:0:0:0:
129,230,7372,6,0,P|108:187|130:119,1,104.999996795654,6|10,3:2|0:0,0:0:0:0:
195,45,7943,2,0,L|256:38,1,52.4999983978271,2|2,3:2|0:0,0:0:0:0:
305,33,8229,1,10,0:0:0:0:
396,103,8514,2,0,P|386:151|376:224,1,104.999996795654,2|10,3:2|0:0,0:0:0:0:
289,282,9086,2,0,L|230:268,1,52.4999983978271,2|2,3:2|0:0,0:0:0:0:
201,231,9372,2,0,L|142:245,1,52.4999983978271,10|2,0:0|0:0,0:0:0:0:
99,256,9657,6,0,P|82:286|103:354,1,104.999996795654,2|10,3:2|0:0,0:0:0:0:
210,383,10229,2,0,L|214:324,1,52.4999983978271,2|2,3:2|0:0,0:0:0:0:
221,278,10514,1,10,0:0:0:0:
126,211,10800,2,0,P|115:166|96:95,1,104.999996795654,2|10,3:2|0:0,0:0:0:0:
152,5,11372,2,0,P|184:-2|213:7,1,52.4999983978271,2|2,3:2|0:0,0:0:0:0:
236,42,11657,2,0,P|268:49|297:40,1,52.4999983978271,2|10,3:2|0:0,0:0:0:0:
324,7,11943,6,0,P|364:-11|426:12,1,104.999996795654,2|10,3:2|0:0,0:0:0:0:
461,114,12514,2,0,L|515:128,2,52.4999983978271,2|2|10,3:2|0:0|0:0,0:0:0:0:
418,145,12943,1,2,0:0:0:0:
341,231,13229,1,2,0:0:0:0:
341,231,13372,2,0,L|279:240,1,52.4999983978271,10|2,0:0|0:0,0:0:0:0:
249,203,13657,2,0,L|244:117,2,78.7499975967407,2|2|2,3:2|0:0|0:0,0:0:0:0:
207,235,14229,6,0,P|187:265|197:342,1,104.999996795654,2|10,3:2|0:0,0:0:0:0:
233,361,14657,2,0,L|353:373,1,104.999996795654,2|2,0:0|0:0,0:0:0:0:
390,375,15086,1,10,0:0:0:0:
460,217,15514,2,0,P|496:210|525:207,2,52.4999983978271,2|10|2,0:0|0:0|0:0,0:0:0:0:
415,187,15943,2,0,P|389:178|354:189,1,52.4999983978271,2|10,3:2|0:0,0:0:0:0:
336,227,16229,2,0,P|310:236|275:225,1,52.4999983978271,2|10,3:2|0:0,0:0:0:0:
243,200,16514,6,0,L|226:85,1,104.999996795654,6|8,3:2|0:0,0:0:0:0:
113,76,17086,2,0,L|96:191,1,104.999996795654,2|8,3:2|0:0,0:0:0:0:
23,268,17657,1,0,3:2:0:0:
118,332,17943,2,0,L|123:390,2,52.4999983978271,10|2|2,0:0|0:0|3:2,0:0:0:0:
144,286,18372,2,0,P|174:270|203:273,1,52.4999983978271,2|10,0:0|0:0,0:0:0:0:
233,301,18657,1,2,0:0:0:0:
233,301,18800,6,0,P|294:285|344:275,1,104.999996795654,2|8,3:2|0:0,0:0:0:0:
429,209,19372,2,0,L|515:220,2,78.7499975967407,2|2|2,3:2|0:0|0:0,0:0:0:0:
399,165,19943,6,0,P|347:139|293:164,1,104.999996795654,0|8,3:2|0:0,0:0:0:0:
268,190,20372,1,0,3:2:0:0:
268,190,20514,1,8,3:3:0:0:
188,274,20800,1,8,0:0:0:0:
188,274,20943,6,0,L|86:255,1,89.999997253418,6|2,3:2|3:2,0:0:0:0:
62,283,21372,2,0,L|62:349,2,44.999998626709,10|2|2,0:0|0:0|3:2,0:0:0:0:
8,206,21943,1,10,0:0:0:0:
8,206,22086,2,0,P|-6:154|14:119,1,89.999997253418,2|2,3:2|3:2,0:0:0:0:
41,91,22514,2,0,L|46:41,2,44.999998626709,10|2|2,0:0|0:0|3:2,0:0:0:0:
114,166,23086,1,10,0:0:0:0:
114,166,23229,6,0,B|151:159|151:159|160:152|160:152|221:144,1,89.999997253418,6|2,3:2|3:2,0:0:0:0:
235,174,23657,1,10,0:0:0:0:
235,174,23800,1,2,0:0:0:0:
313,113,24086,1,2,3:2:0:0:
388,176,24372,2,0,P|371:225|358:283,1,89.999997253418,6|2,3:2|3:2,0:0:0:0:
350,310,24800,1,10,0:0:0:0:
277,377,25086,1,8,3:3:0:0:
212,301,25372,1,10,0:0:0:0:
212,301,25514,6,0,P|193:223|186:198,1,89.999997253418,6|2,3:2|3:2,0:0:0:0:
152,189,25943,2,0,L|93:182,2,44.999998626709,10|2|2,0:0|0:0|3:2,0:0:0:0:
230,128,26514,1,10,0:0:0:0:
230,128,26657,2,0,P|248:92|227:42,1,89.999997253418,2|2,3:2|3:2,0:0:0:0:
187,44,27086,2,0,L|184:-4,2,44.999998626709,10|2|2,0:0|0:0|3:2,0:0:0:0:
106,99,27657,1,10,0:0:0:0:
106,99,27800,6,0,P|117:162|123:198,1,89.999997253418,6|2,3:2|0:0,0:0:0:0:
98,227,28229,2,0,L|49:232,2,44.999998626709,6|2|6,3:2|0:0|3:2,0:0:0:0:
178,285,28800,2,0,L|234:290,1,44.999998626709,6|2,3:2|0:0,0:0:0:0:
267,293,29086,1,0,0:0:0:0:
342,228,29372,1,0,0:0:0:0:
342,228,29514,2,0,L|325:118,1,89.999997253418
457,36,30229,6,0,P|484:71|474:130,1,99.9999999999999,6|8,3:2|0:0,0:0:0:0:
448,170,30657,2,0,P|421:205|431:264,1,99.9999999999999,2|0,0:0|0:0,0:0:0:0:
461,293,31086,2,0,L|516:301,2,50,10|2|2,0:0|0:0|3:2,0:0:0:0:
378,366,31657,1,10,0:0:0:0:
294,294,31943,1,2,3:2:0:0:
208,363,32229,2,0,L|156:352,1,50,10|0,0:0|0:0,0:0:0:0:
113,331,32514,6,0,P|90:285|114:232,1,99.9999999999999,0|8,3:2|0:0,0:0:0:0:
189,170,33086,1,0,3:2:0:0:
120,83,33372,2,0,P|90:74|59:85,1,50,10|2,0:0|0:0,0:0:0:0:
31,106,33657,5,2,3:2:0:0:
92,197,33943,1,10,0:0:0:0:
7,267,34229,2,0,L|18:334,1,50,2|8,3:2|0:0,0:0:0:0:
51,350,34514,2,0,P|89:366|116:360,1,50,2|8,3:2|0:0,0:0:0:0:
142,343,34800,6,0,L|261:326,1,99.9999999999999,4|8,3:2|0:0,0:0:0:0:
338,380,35372,1,0,3:2:0:0:
418,305,35657,2,0,P|421:264|414:246,1,50,10|2,0:0|0:0,0:0:0:0:
386,217,35943,2,0,P|334:210|280:200,1,99.9999999999999,2|10,3:2|0:0,0:0:0:0:
248,234,36372,2,0,P|196:241|137:259,1,99.9999999999999,2|2,0:0|0:0,0:0:0:0:
54,200,36943,1,2,0:0:0:0:
54,200,37086,6,0,P|32:140|53:103,1,99.9999999999999,2|8,3:2|0:0,0:0:0:0:
80,73,37514,2,0,P|140:51|177:72,1,99.9999999999999,2|0,0:0|0:0,0:0:0:0:
261,127,38086,1,2,0:0:0:0:
261,127,38229,2,0,L|253:245,1,99.9999999999999,2|10,3:2|0:0,0:0:0:0:
284,266,38657,1,10,0:0:0:0:
225,359,38943,2,0,P|174:364|139:328,1,99.9999999999999,10|6,3:3|3:3,0:0:0:0:
125,295,39372,5,6,3:2:0:0:
125,295,39514,2,0,L|116:201,2,89.999997253418,0|0|0,3:2|3:2|3:2,0:0:0:0:
90,330,40229,1,0,3:2:0:0:
90,330,40372,1,0,3:2:0:0:
22,257,40657,1,0,3:2:0:0:
87,182,40943,1,0,3:2:0:0:
87,182,41086,2,0,L|83:124,2,44.999998626709,10|2|0,0:0|3:2|3:2,0:0:0:0:
166,241,41657,5,0,3:2:0:0:
166,241,41800,2,0,L|261:223,2,89.999997253418,2|2|0,3:2|3:2|3:2,0:0:0:0:
139,278,42514,1,0,3:2:0:0:
139,278,42657,1,0,3:2:0:0:
218,337,42943,1,0,3:2:0:0:
288,266,43229,1,0,3:2:0:0:
288,266,43372,2,0,L|345:274,2,44.999998626709,10|2|0,0:0|3:2|3:2,0:0:0:0:
227,194,43943,5,0,3:2:0:0:
227,194,44086,2,0,L|134:182,2,89.999997253418,0|0|0,3:2|3:2|3:2,0:0:0:0:
263,160,44800,1,2,3:2:0:0:
263,160,44943,1,0,3:2:0:0:
183,101,45229,1,2,3:2:0:0:
121,177,45514,1,0,3:2:0:0:
121,177,45657,2,0,L|64:181,2,44.999998626709,10|2|0,0:0|3:2|3:2,0:0:0:0:
186,247,46229,5,0,3:2:0:0:
186,247,46372,2,0,L|197:348,2,89.999997253418,0|0|0,3:2|3:2|3:2,0:0:0:0:
228,227,47086,1,0,3:2:0:0:
228,227,47229,1,0,3:2:0:0:
309,283,47514,1,0,3:2:0:0:
393,231,47800,1,0,3:2:0:0:
393,231,47943,2,0,L|383:173,1,44.999998626709,8|0,0:0|3:2,0:0:0:0:
349,151,48229,2,0,L|359:93,2,44.999998626709,8|0|2,0:0|3:2|0:0,0:0:0:0:
307,297,55372,6,0,P|323:222|334:190,1,99.9999999999999,10|10,0:0|0:0,0:0:0:0:
317,151,55800,2,0,P|283:135|262:135,1,50,2|8,3:2|0:0,0:0:0:0:
237,171,56086,2,0,P|203:187|182:187,1,50,2|8,3:2|0:0,0:0:0:0:
148,160,56372,2,0,P|114:146|57:293,1,250,2|0,3:2|0:0,0:0:0:0:
192,384,57514,1,0,3:2:0:0:
192,384,57657,6,0,L|247:370,1,50,8|0,0:0|3:2,0:0:0:0:
287,354,57943,1,8,0:0:0:0:
351,265,58229,2,0,L|414:274,2,50,8|0|8,0:0|3:2|0:0,0:0:0:0:
317,227,58657,2,0,P|292:174|311:119,1,99.9999999999999,0|8,3:2|0:0,0:0:0:0:
324,91,59086,2,0,L|269:86,1,50,8|8,3:2|0:0,0:0:0:0:
224,77,59372,1,8,3:2:0:0:
136,143,59657,2,0,P|130:173|142:200,1,50,10|10,3:2|0:0,0:0:0:0:
172,239,59943,5,6,3:2:0:0:
261,174,60229,1,10,0:0:0:0:
339,253,60514,1,2,3:2:0:0:
424,182,60800,1,10,0:0:0:0:
424,182,60943,2,0,P|443:141|408:77,1,110.000003356934,2|2,0:0|0:0,0:0:0:0:
375,49,61372,1,10,0:0:0:0:
375,49,61514,2,0,P|334:30|270:65,1,110.000003356934,2|0,0:0|0:0,0:0:0:0:
206,138,62086,1,2,0:0:0:0:
206,138,62229,6,0,L|84:132,1,110.000003356934,2|10,3:2|0:0,0:0:0:0:
11,202,62800,2,0,P|-3:243|25:314,1,110.000003356934,2|8,3:2|0:0,0:0:0:0:
56,343,63229,1,2,0:0:0:0:
56,343,63372,1,2,3:2:0:0:
139,272,63657,1,10,0:0:0:0:
221,345,63943,1,2,3:2:0:0:
298,267,64229,2,0,P|304:224|309:205,1,55.0000016784668,8|0,0:0|0:0,0:0:0:0:
265,176,64514,6,0,P|245:133|274:67,1,110.000003356934,4|10,3:2|0:0,0:0:0:0:
314,53,64943,2,0,L|324:-7,2,55.0000016784668,2|2|2,0:0|3:2|0:0,0:0:0:0:
420,80,65514,2,0,P|439:110|419:185,1,110.000003356934,2|0,0:0|0:0,0:0:0:0:
375,203,65943,2,0,L|314:197,2,55.0000016784668,10|2|2,0:0|0:0|3:2,0:0:0:0:
410,245,66372,1,2,0:0:0:0:
344,333,66657,2,0,L|216:309,1,110.000003356934,2|0,0:0|0:0,0:0:0:0:
186,338,67086,1,8,0:0:0:0:
105,262,67372,1,0,3:2:0:0:
189,192,67657,2,0,P|197:164|186:132,1,55.0000016784668,10|0,0:0|0:0,0:0:0:0:
156,96,67943,6,0,P|110:76|52:108,1,110.000003356934,2|8,3:2|0:0,0:0:0:0:
19,139,68372,2,0,L|27:255,1,110.000003356934,2|0,3:2|3:2,0:0:0:0:
32,303,68800,1,10,0:0:0:0:
117,372,69086,5,6,3:2:0:0:
197,297,69372,2,0,P|227:287|265:294,1,55.0000016784668,10|0,0:0|0:0,0:0:0:0:
296,318,69657,1,2,3:2:0:0:
393,264,69943,1,10,0:0:0:0:
393,264,70086,2,0,P|403:204|415:141,1,110.000003356934,2|2,0:0|0:0,0:0:0:0:
385,113,70515,1,10,0:0:0:0:
385,113,70657,2,0,P|344:94|280:129,1,110.000003356934,2|0,0:0|0:0,0:0:0:0:
220,206,71229,1,2,0:0:0:0:
220,206,71372,6,0,P|167:232|107:203,1,110.000003356934,2|10,3:2|0:0,0:0:0:0:
26,160,71943,2,0,P|12:119|46:48,1,110.000003356934,2|8,3:2|0:0,0:0:0:0:
76,22,72372,1,2,0:0:0:0:
76,22,72515,1,2,3:2:0:0:
156,96,72800,1,10,0:0:0:0:
236,21,73086,1,2,3:2:0:0:
312,100,73372,1,10,0:0:0:0:
232,175,73657,6,0,L|119:150,2,110.000003356934,6|8|0,3:2|0:0|3:2,0:0:0:0:
311,251,74514,1,10,0:0:0:0:
216,307,74800,2,0,P|189:249|210:204,1,110.000003356934,2|8,3:2|0:0,0:0:0:0:
309,172,75372,2,0,P|336:114|315:69,1,110.000003356934,0|10,3:2|0:0,0:0:0:0:
228,13,75943,6,0,L|115:31,1,110.000003356934,2|8,3:2|0:0,0:0:0:0:
46,112,76514,2,0,L|62:176,1,55.0000016784668,0|0,3:2|3:2,0:0:0:0:
71,219,76800,1,10,0:0:0:0:
156,288,77086,2,0,L|223:276,1,55.0000016784668,2|8,3:2|0:0,0:0:0:0:
254,245,77372,1,10,0:0:0:0:
254,245,77514,2,0,L|308:254,1,55.0000016784668,10|8,0:0|0:0,0:0:0:0:
355,284,77800,1,8,3:3:0:0:
355,284,77943,1,6,3:3:0:0:
430,218,78229,6,0,L|441:110,2,99.9999999999999,6|2|8,3:2|3:2|0:0,0:0:0:0:
478,230,78943,1,2,3:2:0:0:
403,310,79229,2,0,L|288:287,1,99.9999999999999,2|2,3:2|3:2,0:0:0:0:
221,360,79800,1,2,3:2:0:0:
221,360,79943,2,0,P|163:380|104:339,1,99.9999999999999,10|2,0:0|0:0,0:0:0:0:
105,329,80372,1,2,0:0:0:0:
105,329,80514,6,0,L|6:318,2,99.9999999999999,2|2|8,3:2|3:2|0:0,0:0:0:0:
135,289,81229,1,2,3:2:0:0:
230,234,81514,2,0,P|256:179|232:129,1,99.9999999999999,2|2,3:2|3:2,0:0:0:0:
203,48,82086,1,2,3:2:0:0:
203,48,82229,2,0,L|333:60,1,99.9999999999999,10|2,0:0|0:0,0:0:0:0:
339,90,82657,1,2,0:0:0:0:
339,90,82800,6,0,L|442:80,2,99.9999999999999,2|2|8,3:2|3:2|0:0,0:0:0:0:
305,126,83514,1,2,3:2:0:0:
393,191,83800,2,0,P|416:244|390:301,1,99.9999999999999,2|2,3:2|3:2,0:0:0:0:
335,368,84372,1,2,3:2:0:0:
335,368,84514,2,0,L|270:361,1,50,10|0,0:0|3:2,0:0:0:0:
247,329,84800,2,0,L|182:336,2,50,14|2|2,0:0|0:0|3:2,0:0:0:0:
386,109,85800,6,0,P|393:84|381:50,1,50,6|0,3:2|0:0,0:0:0:0:
353,24,86086,1,6,3:2:0:0:
265,90,86372,1,0,3:2:0:0:
265,90,86514,2,0,L|273:152,1,50,8|0,0:0|3:2,0:0:0:0:
230,169,86800,2,0,L|222:231,1,50,8|0,0:0|3:2,0:0:0:0:
259,253,87086,1,8,0:0:0:0:
189,338,87372,6,0,P|138:307|92:299,1,99.9999999999999,4|10,3:2|0:0,0:0:0:0:
53,319,87800,1,2,0:0:0:0:
53,319,87943,1,2,3:2:0:0:
3,220,88229,1,2,3:2:0:0:
70,133,88514,2,0,P|127:108|184:134,1,99.9999999999999,2|10,3:2|0:0,0:0:0:0:
187,159,88943,2,0,P|244:184|301:158,1,99.9999999999999,2|2,0:0|0:0,0:0:0:0:
308,134,89372,1,10,0:0:0:0:
238,48,89657,6,0,P|168:62|131:69,1,99.9999999999999,2|10,3:2|0:0,0:0:0:0:
99,170,90229,2,0,P|169:184|206:191,1,99.9999999999999,2|2,3:2|3:2,0:0:0:0:
250,203,90657,1,10,0:0:0:0:
250,203,90800,2,0,P|270:255|246:318,1,99.9999999999999,2|10,3:2|0:0,0:0:0:0:
186,378,91372,1,2,3:2:0:0:
77,360,91657,1,10,0:0:0:0:
28,261,91943,6,0,P|18:210|2:164,2,99.9999999999999,6|10|2,3:2|0:0|3:2,0:0:0:0:
142,270,92800,1,2,3:2:0:0:
142,270,92943,2,0,P|193:249|244:231,1,99.9999999999999,10|2,0:0|0:0,0:0:0:0:
279,257,93372,1,10,0:0:0:0:
344,169,93657,1,2,3:2:0:0:
262,94,93943,2,0,P|256:68|259:36,1,50,10|2,0:0|0:0,0:0:0:0:
290,6,94229,2,0,L|404:3,2,99.9999999999999,2|8|2,3:2|0:0|3:2,0:0:0:0:
209,81,95086,1,2,3:2:0:0:
209,81,95229,6,0,L|80:68,1,99.9999999999999,10|2,0:0|0:0,0:0:0:0:
66,96,95657,1,10,0:0:0:0:
6,188,95943,1,2,3:2:0:0:
92,256,96229,2,0,L|159:242,1,50,2|10,3:2|0:0,0:0:0:0:
178,212,96514,2,0,L|188:100,2,99.9999999999999,6|10|0,3:2|0:0|3:2,0:0:0:0:
260,285,97372,2,0,P|295:295|328:278,1,50,2|10,3:2|0:0,0:0:0:0:
343,256,97657,6,0,P|394:237|446:260,1,99.9999999999999,2|8,3:2|0:0,0:0:0:0:
439,361,98229,2,0,P|388:380|336:357,1,99.9999999999999,2|8,3:2|0:0,0:0:0:0:
249,313,98800,2,0,L|234:184,2,99.9999999999999,2|8|0,3:2|0:0|3:2,0:0:0:0:
161,380,99657,2,0,P|128:383|95:370,1,50,2|10,3:2|0:0,0:0:0:0:
68,354,99943,2,0,P|53:299|79:253,1,99.9999999999999,2|10,3:2|0:0,0:0:0:0:
113,236,100372,1,2,0:0:0:0:
191,159,100657,1,10,0:0:0:0:
191,159,100800,2,0,P|198:128|187:93,1,50,2|0,3:2|0:0,0:0:0:0:
155,79,101086,6,0,L|49:75,2,99.9999999999999,6|10|0,3:2|0:0|3:2,0:0:0:0:
235,3,101943,2,0,L|302:11,1,50,2|8,3:2|0:0,0:0:0:0:
334,15,102229,2,0,P|367:60|352:111,1,99.9999999999999,2|10,3:2|0:0,0:0:0:0:
313,120,102657,2,0,P|280:165|295:216,1,99.9999999999999,2|2,0:0|0:0,0:0:0:0:
330,232,103086,1,10,0:0:0:0:
257,315,103372,6,0,P|208:338|143:314,1,99.9999999999999,2|8,3:2|0:0,0:0:0:0:
78,261,103943,2,0,P|69:235|75:201,1,50,2|8,3:2|0:0,0:0:0:0:
115,190,104229,2,0,P|124:164|118:130,1,50,0|8,3:2|0:0,0:0:0:0:
84,109,104514,1,2,3:2:0:0:
164,49,104800,2,0,L|168:-9,2,50,8|8|10,0:0|3:3|3:3,0:0:0:0:
197,86,105229,2,0,P|224:101|262:93,1,50,4|8,3:3|3:2,0:0:0:0:
292,84,105514,1,4,3:3:0:0:
292,84,105657,5,0,3:2:0:0:
357,127,114800,6,0,P|320:122|294:134,1,50,6|2,3:2|0:0,0:0:0:0:
271,159,115086,2,0,P|234:164|208:152,1,50,2|2,3:2|0:0,0:0:0:0:
183,128,115372,2,0,P|121:101|65:126,1,99.9999999999999,2|2,3:2|3:2,0:0:0:0:
50,135,115800,2,0,P|27:181|42:242,1,99.9999999999999,2|0,0:0|0:0,0:0:0:0:
72,259,116229,1,2,3:2:0:0:
158,327,116514,1,2,3:2:0:0:
247,262,116800,1,2,3:2:0:0:
326,338,117086,6,0,L|436:353,2,99.9999999999999,2|0|0,3:2|3:2|3:2,0:0:0:0:
247,262,117943,1,2,3:2:0:0:
247,262,118086,2,0,P|225:209|250:157,1,99.9999999999999,2|8,0:0|0:0,0:0:0:0:
277,140,118514,1,0,3:2:0:0:
227,41,118800,2,0,P|199:35|167:42,1,50,2|4,3:2|3:3,0:0:0:0:
136,66,119086,2,0,P|124:100|131:128,1,50,2|8,3:2|0:0,0:0:0:0:
137,165,119372,6,0,L|253:171,1,99.9999999999999,6|2,3:2|3:2,0:0:0:0:
290,178,119800,1,2,0:0:0:0:
290,178,119943,1,2,3:2:0:0:
390,224,120229,1,2,3:2:0:0:
390,224,120372,2,0,P|407:280|386:328,1,99.9999999999999,2|0,0:0|0:0,0:0:0:0:
356,350,120800,1,2,3:2:0:0:
262,291,121086,1,2,3:2:0:0:
183,367,121372,1,2,3:2:0:0:
92,304,121657,6,0,P|73:256|94:207,1,99.9999999999999,2|0,3:2|3:2,0:0:0:0:
136,194,122086,2,0,P|155:146|134:97,1,99.9999999999999,2|0,0:0|0:0,0:0:0:0:
108,63,122514,1,2,3:2:0:0:
13,95,122800,2,0,P|-3:141|22:209,1,99.9999999999999,2|0,3:2|3:2,0:0:0:0:
74,264,123372,2,0,L|203:244,1,99.9999999999999,0|2,3:2|0:0,0:0:0:0:
251,325,123943,6,0,P|318:348|365:322,1,110.000003356934,6|8,3:2|0:0,0:0:0:0:
399,305,124372,1,2,3:2:0:0:
399,305,124514,1,10,0:0:0:0:
341,211,124800,2,0,P|308:203|274:216,1,55.0000016784668,10|2,0:0|3:2,0:0:0:0:
242,238,125086,2,0,P|184:258|123:223,1,110.000003356934,10|10,0:0|0:0,0:0:0:0:
108,204,125514,1,2,3:2:0:0:
108,204,125657,1,10,0:0:0:0:
185,125,125943,2,0,L|252:111,1,55.0000016784668,10|2,0:0|3:2,0:0:0:0:
294,110,126229,6,0,P|317:171|290:222,1,110.000003356934,10|10,0:0|0:0,0:0:0:0:
225,289,126800,2,0,P|256:294|300:308,1,55.0000016784668,10|0,0:0|3:2,0:0:0:0:
330,332,127086,1,8,0:0:0:0:
330,332,127229,1,2,3:2:0:0:
434,297,127514,2,0,L|509:300,2,55.0000016784668,2|10|2,3:2|0:0|3:2,0:0:0:0:
408,247,127943,2,0,P|384:232|354:234,1,55.0000016784668,8|0,0:0|3:2,0:0:0:0:
332,183,128229,2,0,P|302:173|267:182,1,55.0000016784668,8|0,0:0|3:2,0:0:0:0:
247,221,128514,6,0,P|180:244|133:218,1,110.000003356934,14|8,0:0|0:0,0:0:0:0:
105,212,128943,1,2,3:2:0:0:
105,212,129085,1,10,0:0:0:0:
44,303,129371,2,0,P|37:336|41:356,1,55.0000016784668,10|2,0:0|3:2,0:0:0:0:
94,372,129657,2,0,L|214:352,1,110.000003356934,10|10,0:0|0:0,0:0:0:0:
255,353,130085,1,2,3:2:0:0:
255,353,130228,1,10,0:0:0:0:
350,298,130514,2,0,P|358:268|349:237,1,55.0000016784668,10|2,0:0|3:2,0:0:0:0:
313,206,130800,6,0,P|290:145|317:94,1,110.000003356934,10|10,0:0|0:0,0:0:0:0:
396,44,131371,2,0,P|426:34|463:46,1,55.0000016784668,10|0,0:0|3:2,0:0:0:0:
492,79,131657,1,8,0:0:0:0:
492,79,131800,1,2,3:2:0:0:
456,183,132086,2,0,L|469:257,2,55.0000016784668,2|10|2,3:2|0:0|3:2,0:0:0:0:
405,160,132514,2,0,P|375:150|340:159,1,55.0000016784668,8|8,0:0|3:3,0:0:0:0:
330,204,132800,2,0,P|300:214|265:205,1,55.0000016784668,8|4,3:3|3:3,0:0:0:0:
236,190,133086,1,4,3:2:0:0:
49,103,141657,6,0,L|107:93,1,44.999998626709,6|0,3:3|3:2,0:0:0:0:
128,66,141943,2,0,L|186:76,1,44.999998626709,10|8,0:0|0:0,0:0:0:0:
212,104,142229,6,0,P|271:128|322:97,1,99.9999999999999,6|8,3:2|0:0,0:0:0:0:
324,71,142657,2,0,P|383:47|434:78,1,99.9999999999999,0|0,3:2|3:2,0:0:0:0:
448,95,143086,1,8,0:0:0:0:
394,191,143372,2,0,L|274:173,1,99.9999999999999,8|8,0:0|0:0,0:0:0:0:
259,211,143800,2,0,L|139:229,1,99.9999999999999,0|0,3:2|3:2,0:0:0:0:
113,205,144229,1,8,0:0:0:0:
16,257,144514,6,0,P|-3:309|13:357,1,99.9999999999999,12|8,0:0|0:0,0:0:0:0:
48,381,144943,2,0,L|155:369,1,99.9999999999999,0|0,3:2|3:2,0:0:0:0:
196,379,145372,1,8,0:0:0:0:
283,313,145657,2,0,P|302:255|283:216,1,99.9999999999999,8|8,0:0|0:0,0:0:0:0:
240,203,146086,2,0,P|221:145|240:106,1,99.9999999999999,0|0,3:2|3:2,0:0:0:0:
272,77,146514,1,8,0:0:0:0:
364,114,146800,6,0,L|347:184,1,50,12|0,0:0|3:2,0:0:0:0:
321,202,147086,2,0,L|337:272,1,50,8|0,0:0|3:2,0:0:0:0:
312,296,147372,1,8,0:0:0:0:
396,365,147657,2,0,P|456:376|498:350,1,99.9999999999999,8|8,0:0|0:0,0:0:0:0:
511,251,148229,1,8,0:0:0:0:
428,178,148514,2,0,P|398:175|369:187,1,50,8|0,0:0|3:2,0:0:0:0:
347,226,148800,1,8,0:0:0:0:
250,177,149086,1,0,3:2:0:0:
250,177,149229,6,0,P|237:142|241:96,1,50,0|0,0:0|3:2,0:0:0:0:
256,84,149514,1,2,0:0:0:0:
346,21,149800,1,4,3:2:0:0:
431,90,150086,1,4,3:2:0:0:
256,192,150229,12,2,152514,3:2:0:0:
375,106,161657,6,0,P|362:156|348:221,2,89.999997253418,2|2|2,0:0|0:0|0:0,0:0:0:0:
311,37,162514,1,2,0:0:0:0:
311,37,162657,2,0,P|256:15|213:43,1,89.999997253418,2|2,0:0|0:0,0:0:0:0:
199,58,163086,1,2,0:0:0:0:
199,58,163229,2,0,P|188:106|216:157,1,89.999997253418,2|0,0:0|0:0,0:0:0:0:
279,204,163800,1,2,0:0:0:0:
279,204,163943,6,0,L|386:191,2,89.999997253418,2|2|2,0:0|0:0|0:0,0:0:0:0:
179,294,164943,1,2,0:0:0:0:
179,294,165086,2,0,L|72:281,2,89.999997253418,2|2|2,0:0|0:0|0:0,0:0:0:0:
251,361,165943,1,2,0:0:0:0:
336,310,166229,6,0,B|358:257|323:217|313:224|270:189|293:136,1,179.999994506836,2|2,0:0|0:0,0:0:0:0:
359,76,167086,1,2,0:0:0:0:
292,2,167372,2,0,L|194:10,1,89.999997253418,2|2,0:0|0:0,0:0:0:0:
177,105,167943,2,0,L|266:112,1,89.999997253418,2|0,0:0|0:0,0:0:0:0:
352,162,168514,6,0,P|379:208|363:251,1,89.999997253418,2|2,0:0|0:0,0:0:0:0:
307,318,169086,2,0,L|255:310,1,44.999998626709,2|2,0:0|0:0,0:0:0:0:
232,276,169372,2,0,L|180:284,1,44.999998626709,2|2,0:0|0:0,0:0:0:0:
155,314,169657,2,0,P|109:328|69:301,1,89.999997253418,2|2,0:0|0:0,0:0:0:0:
44,274,170086,2,0,P|30:228|60:181,1,89.999997253418,2|0,0:0|0:0,0:0:0:0:
81,162,170514,1,2,0:0:0:0:
155,82,170800,6,0,P|217:56|273:88,1,110.000003356934,6|8,3:2|0:0,0:0:0:0:
337,143,171372,1,0,3:2:0:0:
262,223,171657,2,0,P|255:253|259:286,1,55.0000016784668,10|0,0:0|0:0,0:0:0:0:
285,324,171943,2,0,P|346:352|403:317,1,110.000003356934,2|8,3:2|0:0,0:0:0:0:
470,271,172514,1,0,3:2:0:0:
394,191,172800,2,0,P|367:188|335:182,1,55.0000016784668,10|0,0:0|0:0,0:0:0:0:
289,207,173086,6,0,P|223:222|154:251,1,110.000003356934,2|10,3:2|0:0,0:0:0:0:
132,216,173514,1,2,0:0:0:0:
47,145,173800,1,2,0:0:0:0:
123,65,174086,1,2,0:0:0:0:
123,65,174229,2,0,P|204:85|256:94,1,110.000003356934,0|8,3:2|0:0,0:0:0:0:
285,89,174657,1,0,0:0:0:0:
389,54,174943,2,0,L|397:-11,2,55.0000016784668,2|10|2,0:0|0:0|0:0,0:0:0:0:
431,89,175372,6,0,P|461:139|440:202,1,110.000003356934,2|8,3:2|0:0,0:0:0:0:
412,226,175800,2,0,P|353:244|298:208,1,110.000003356934,2|0,0:0|0:0,0:0:0:0:
267,191,176229,1,10,0:0:0:0:
199,104,176514,2,0,P|144:83|86:114,1,110.000003356934,2|8,3:2|0:0,0:0:0:0:
63,143,176943,2,0,P|41:200|76:259,1,110.000003356934,2|0,0:0|0:0,0:0:0:0:
96,282,177371,1,10,0:0:0:0:
183,348,177657,6,0,L|296:330,1,110.000003356934,2|8,3:2|0:0,0:0:0:0:
346,322,178086,1,0,0:0:0:0:
346,322,178229,2,0,P|370:259|330:209,1,110.000003356934,2|8,3:2|0:0,0:0:0:0:
279,142,178800,2,0,L|212:133,2,55.0000016784668,2|0|10,3:2|3:2|0:0,0:0:0:0:
323,109,179229,1,2,3:2:0:0:
323,109,179372,2,0,P|350:98|383:105,1,55.0000016784668,8|2,3:3|3:2,0:0:0:0:
419,133,179657,1,8,0:0:0:0:
352,224,179943,6,0,P|277:238|213:254,1,110.000003356934,4|8,3:2|0:0,0:0:0:0:
205,214,180372,1,0,0:0:0:0:
205,214,180514,2,0,P|130:200|66:184,1,110.000003356934,0|8,3:2|0:0,0:0:0:0:
51,222,180943,1,2,0:0:0:0:
51,222,181086,1,2,3:2:0:0:
117,310,181372,2,0,P|149:319|181:309,1,55.0000016784668,10|2,0:0|0:0,0:0:0:0:
214,282,181657,2,0,P|234:231|209:177,1,110.000003356934,2|10,3:2|0:0,0:0:0:0:
128,112,182229,6,0,P|118:88|124:50,1,55.0000016784668,2|2,3:2|0:0,0:0:0:0:
154,16,182514,2,0,P|178:6|216:12,1,55.0000016784668,10|2,0:0|0:0,0:0:0:0:
248,44,182800,2,0,L|331:36,2,55.0000016784668,2|2|10,3:2|0:0|0:0,0:0:0:0:
199,143,183372,2,0,L|132:136,2,55.0000016784668,2|2|10,3:2|0:0|0:0,0:0:0:0:
240,179,183800,1,2,0:0:0:0:
240,179,183943,2,0,P|298:164|320:161,1,55.0000016784668,2|2,3:2|0:0,0:0:0:0:
344,145,184229,1,10,0:0:0:0:
445,186,184514,6,0,P|475:256|447:304,1,110.000003356934,2|10,3:2|0:0,0:0:0:0:
427,325,184943,1,2,0:0:0:0:
427,325,185086,2,0,L|297:308,1,110.000003356934,2|10,3:2|0:0,0:0:0:0:
236,236,185657,2,0,L|162:241,2,55.0000016784668,2|2|10,3:2|3:2|0:0,0:0:0:0:
279,201,186086,1,2,3:2:0:0:
279,201,186229,2,0,P|302:146|268:86,1,110.000003356934,10|6,0:0|3:3,0:0:0:0:
188,49,186800,6,0,L|182:-11,2,55.0000016784668,10|2|2,0:0|3:2|3:2,0:0:0:0:
150,89,187229,1,10,3:3:0:0:
150,89,187372,2,0,P|147:120|141:156,1,55.0000016784668,6|2,3:3|3:2,0:0:0:0:
111,188,187657,1,10,0:0:0:0:
201,251,187943,2,0,L|209:317,2,55.0000016784668,2|2|2,0:0|0:0|0:0,0:0:0:0:
243,215,188372,1,2,0:0:0:0:
243,215,188514,1,2,0:0:0:0:
164,87,188943,6,0,P|110:66|42:106,1,99.9999999999999,6|2,3:2|3:2,0:0:0:0:
45,120,189371,1,10,0:0:0:0:
45,120,189514,1,2,3:2:0:0:
102,213,189800,2,0,L|200:207,1,50,2|10,3:2|0:0,0:0:0:0:
194,235,190085,2,0,P|263:246|302:258,1,99.9999999999999,6|2,3:2|3:2,0:0:0:0:
342,239,190514,1,10,0:0:0:0:
342,239,190657,2,0,P|346:213|356:179,1,50,2|8,3:2|3:3,0:0:0:0:
387,85,191085,2,0,P|358:72|322:79,1,50,10|2,0:0|0:0,0:0:0:0:
294,93,191371,6,0,P|229:112|172:135,1,99.9999999999999,6|2,3:2|3:2,0:0:0:0:
163,87,191800,1,10,0:0:0:0:
69,126,192085,2,0,P|64:155|77:181,1,50,10|2,0:0|3:2,0:0:0:0:
84,222,192371,2,0,L|79:280,2,50,10|6|10,0:0|3:2|0:0,0:0:0:0:
137,214,192800,1,10,0:0:0:0:
137,214,192943,2,0,P|189:208|258:230,1,99.9999999999999,2|0,3:2|3:2,0:0:0:0:
343,235,193514,6,0,P|372:278|345:332,1,99.9999999999999,6|2,3:2|3:2,0:0:0:0:
327,360,193943,1,10,0:0:0:0:
327,360,194085,1,2,3:2:0:0:
232,303,194371,2,0,L|221:243,1,50,2|10,3:2|0:0,0:0:0:0:
254,214,194657,2,0,P|270:188|250:117,1,99.9999999999999,6|2,3:2|3:2,0:0:0:0:
226,90,195085,1,10,0:0:0:0:
226,90,195229,2,0,P|195:84|163:97,1,50,2|8,3:2|3:3,0:0:0:0:
100,167,195657,2,0,L|105:229,1,50,10|2,0:0|0:0,0:0:0:0:
105,268,195943,6,0,P|150:292|217:255,1,99.9999999999999,6|2,3:2|3:2,0:0:0:0:
231,245,196372,1,10,0:0:0:0:
321,182,196657,2,0,P|352:169|386:180,1,50,10|2,0:0|3:2,0:0:0:0:
399,209,196943,2,0,L|394:267,2,50,10|6|10,0:0|3:2|0:0,0:0:0:0:
442,183,197372,1,10,0:0:0:0:
442,183,197514,2,0,P|459:131|429:83,1,99.9999999999999,10|8,0:0|3:3,0:0:0:0:
351,27,198085,6,0,L|289:37,1,50,6|6,3:3|3:2,0:0:0:0:
266,70,198371,2,0,L|210:66,2,50,2|2|2,0:0|3:2|0:0,0:0:0:0:
327,162,198943,2,0,L|319:226,1,50,2|2,3:2|0:0,0:0:0:0:
280,241,199228,2,0,P|260:287|290:345,1,99.9999999999999,2|10,3:2|3:3,0:0:0:0:
314,364,199657,1,6,3:3:0:0:
314,364,199800,1,10,0:0:0:0:
403,300,200085,2,0,P|406:273|412:237,1,50,0|8,3:3|0:0,0:0:0:0:
393,208,200371,1,8,0:0:0:0:
393,208,200514,5,6,3:2:0:0:
256,192,200657,12,0,202800,0:0:0:0:
