osu file format v14

[General]
AudioFilename: audio.mp3
AudioLeadIn: 0
PreviewTime: 59586
Countdown: 0
SampleSet: Soft
StackLeniency: 0.3
Mode: 0
LetterboxInBreaks: 0
WidescreenStoryboard: 1

[Editor]
DistanceSpacing: 2.5
BeatDivisor: 4
GridSize: 32
TimelineZoom: 2.2

[Metadata]
Title:UNTILL THE DAWN
TitleUnicode:UNTILL THE DAWN
Artist:PassCode
ArtistUnicode:PassCode
Creator:mrforse
Version:RESTART
Source:
Tags:japanese jrock j-rock jpop j-pop pop rock female vocals vocalist 3rd Single Ray 高嶋楓 Takashima Kaede 南菜生 Minami Nao 今田夢菜 Imada Yuna 大上陽奈子 Oogami Hinako yumerios 619 amats nemidnight
BeatmapID:3533337
BeatmapSetID:1728899

[Difficulty]
HPDrainRate:5.8
CircleSize:3.6
OverallDifficulty:9
ApproachRate:9.4
SliderMultiplier:1.92
SliderTickRate:1

[Events]
//Background and Video events
0,0,"bg.jpg",0,0
//Break Periods
//Storyboard Layer 0 (Background)
//Storyboard Layer 1 (Fail)
//Storyboard Layer 2 (Pass)
//Storyboard Layer 3 (Foreground)
//Storyboard Layer 4 (Overlay)
//Storyboard Sound Samples

[TimingPoints]
-628,285.714285714286,4,2,1,80,1,0
372,-111.111111111111,4,2,1,80,0,0
7086,-166.666666666666,4,2,1,80,0,0
7300,-166.666666666666,4,2,1,5,0,0
7372,-100,4,2,1,70,0,0
14443,-100,4,2,1,5,0,0
14514,-100,4,2,1,70,0,0
14871,-100,4,2,1,5,0,0
14942,-100,4,2,1,70,0,0
15300,-100,4,2,1,5,0,0
15371,-100,4,2,1,70,0,0
17586,-100,4,2,1,5,0,0
17657,-100,4,2,1,70,0,0
20943,-142.857142857143,4,2,1,60,0,0
28443,-142.857142857143,4,2,1,5,0,0
28514,-142.857142857143,4,2,1,60,0,0
28728,-142.857142857143,4,2,1,5,0,0
28800,-142.857142857143,4,2,1,60,0,0
29514,-200,4,2,1,60,0,0
30229,-125,4,2,1,70,0,0
32443,-125,4,2,1,5,0,0
32514,-125,4,2,1,70,0,0
35300,-125,4,2,1,5,0,0
35372,-125,4,2,1,70,0,0
36157,-125,4,2,1,5,0,0
36229,-125,4,2,1,70,0,0
39372,-166.666666666667,4,2,1,90,0,0
47943,-142.857142857143,4,2,1,90,0,0
48514,-200,4,2,1,40,0,0
55372,-111.111111111111,4,2,1,80,0,0
56372,-166.666666666667,4,2,1,80,0,0
57514,-100,4,2,1,80,0,0
59943,-83.3333333333333,4,2,1,90,0,0
60157,-83.3333333333333,4,2,1,5,0,0
60229,-83.3333333333333,4,2,1,90,0,0
60443,-83.3333333333333,4,2,1,5,0,0
60514,-83.3333333333333,4,2,1,90,0,0
61300,-83.3333333333333,4,2,1,5,0,0
61372,-83.3333333333333,4,2,1,90,0,0
61443,-83.3333333333333,4,2,1,5,0,0
61514,-83.3333333333333,4,2,1,90,0,0
62443,-83.3333333333333,4,2,1,5,0,0
62514,-83.3333333333333,4,2,1,90,0,0
62728,-83.3333333333333,4,2,1,5,0,0
62800,-83.3333333333333,4,2,1,90,0,0
63014,-83.3333333333333,4,2,1,5,0,0
63086,-83.3333333333333,4,2,1,90,0,0
63300,-83.3333333333333,4,2,1,5,0,0
63372,-83.3333333333333,4,2,1,90,0,0
63586,-83.3333333333333,4,2,1,5,0,0
63657,-83.3333333333333,4,2,1,90,0,0
63871,-83.3333333333333,4,2,1,5,0,0
63943,-83.3333333333333,4,2,1,90,0,0
64157,-83.3333333333333,4,2,1,5,0,0
64229,-166.666666666667,4,2,1,90,0,0
64443,-166.666666666667,4,2,1,5,0,0
64514,-83.3333333333333,4,2,1,90,0,0
64728,-83.3333333333333,4,2,1,5,0,0
64800,-83.3333333333333,4,2,1,90,0,0
67014,-83.3333333333333,4,2,1,5,0,0
67086,-83.3333333333333,4,2,1,90,0,0
67300,-83.3333333333333,4,2,1,5,0,0
67372,-83.3333333333333,4,2,1,90,0,0
67586,-83.3333333333333,4,2,1,5,0,0
67657,-166.666666666667,4,2,1,90,0,0
67871,-166.666666666667,4,2,1,5,0,0
67943,-83.3333333333333,4,2,1,90,0,0
69300,-83.3333333333333,4,2,1,5,0,0
69372,-83.3333333333333,4,2,1,90,0,0
69586,-83.3333333333333,4,2,1,5,0,0
69657,-83.3333333333333,4,2,1,90,0,0
69871,-83.3333333333333,4,2,1,5,0,0
69943,-83.3333333333333,4,2,1,90,0,0
70443,-83.3333333333333,4,2,1,5,0,0
70514,-83.3333333333333,4,2,1,90,0,0
70586,-83.3333333333333,4,2,1,5,0,0
70657,-83.3333333333333,4,2,1,90,0,0
71586,-83.3333333333333,4,2,1,5,0,0
71657,-83.3333333333333,4,2,1,90,0,0
71871,-83.3333333333333,4,2,1,5,0,0
71943,-83.3333333333333,4,2,1,90,0,0
72157,-83.3333333333333,4,2,1,5,0,0
72229,-83.3333333333333,4,2,1,90,0,0
72443,-83.3333333333333,4,2,1,5,0,0
72514,-83.3333333333333,4,2,1,90,0,0
72729,-83.3333333333333,4,2,1,5,0,0
72800,-83.3333333333333,4,2,1,90,0,0
73014,-83.3333333333333,4,2,1,5,0,0
73086,-83.3333333333333,4,2,1,90,0,0
73300,-83.3333333333333,4,2,1,5,0,0
73372,-166.666666666667,4,2,1,90,0,0
73586,-166.666666666667,4,2,1,5,0,0
73657,-83.3333333333333,4,2,1,90,0,0
73871,-83.3333333333333,4,2,1,5,0,0
73943,-83.3333333333333,4,2,1,90,0,0
74157,-83.3333333333333,4,2,1,5,0,0
74229,-83.3333333333333,4,2,1,90,0,0
74443,-83.3333333333333,4,2,1,5,0,0
74514,-166.666666666667,4,2,1,90,0,0
74728,-166.666666666667,4,2,1,5,0,0
74800,-83.3333333333333,4,2,1,90,0,0
75014,-83.3333333333333,4,2,1,5,0,0
75086,-83.3333333333333,4,2,1,90,0,0
75300,-83.3333333333333,4,2,1,5,0,0
75372,-83.3333333333333,4,2,1,90,0,0
75586,-83.3333333333333,4,2,1,5,0,0
75657,-166.666666666667,4,2,1,90,0,0
75871,-166.666666666667,4,2,1,5,0,0
75943,-83.3333333333333,4,2,1,90,0,0
76157,-83.3333333333333,4,2,1,5,0,0
76229,-83.3333333333333,4,2,1,90,0,0
76443,-83.3333333333333,4,2,1,5,0,0
76514,-83.3333333333333,4,2,1,90,0,0
78229,-125,4,2,1,80,0,0
80157,-125,4,2,1,5,0,0
80229,-125,4,2,1,80,0,0
82443,-125,4,2,1,5,0,0
82514,-125,4,2,1,80,0,0
85086,-250,4,2,1,60,0,0
85800,-125,4,2,1,80,0,0
87372,-100,4,2,1,80,0,0
88728,-100,4,2,1,80,0,0
88800,-100,4,2,1,80,0,0
89871,-100,4,2,1,5,0,0
89943,-100,4,2,1,80,0,0
90443,-100,4,2,1,5,0,0
90514,-100,4,2,1,80,0,0
91014,-100,4,2,1,5,0,0
91086,-100,4,2,1,80,0,0
99014,-100,4,2,1,5,0,0
99086,-100,4,2,1,80,0,0
100157,-100,4,2,1,5,0,0
100229,-100,4,2,1,80,0,0
105657,-142.857142857143,4,2,1,60,0,0
114800,-125,4,2,1,70,0,0
119372,-111.111111111111,4,2,1,70,0,0
121657,-100,4,2,1,70,0,0
122800,-90.909090909091,4,2,1,70,0,0
123657,-500,4,2,1,70,0,0
123871,-500,4,2,1,5,0,0
123943,-83.3333333333333,4,2,1,90,0,1
132514,-100,4,2,1,90,0,1
132800,-125,4,2,1,90,0,1
133086,-166.666666666667,4,2,1,80,0,0
140800,-125,4,2,1,80,0,0
142229,-90.9090909090909,4,2,1,90,0,1
149086,-83.3333333333333,4,2,1,90,0,0
149157,-83.3333333333333,4,2,1,5,0,0
149372,-83.3333333333333,4,2,1,90,0,0
149443,-83.3333333333333,4,2,1,5,0,0
149657,-83.3333333333333,4,2,1,90,0,0
150086,-250,4,2,1,90,0,0
151943,-250,4,2,1,40,0,0
152514,-250,4,2,1,40,0,0
161657,-166.666666666667,4,2,1,40,0,0
170800,-83.3333333333334,4,2,1,90,0,0
171014,-83.3333333333334,4,2,1,5,0,0
171086,-83.3333333333334,4,2,1,90,0,0
171300,-83.3333333333334,4,2,1,5,0,0
171372,-83.3333333333334,4,2,1,90,0,0
171586,-83.3333333333334,4,2,1,5,0,0
171657,-166.666666666667,4,2,1,90,0,0
171871,-166.666666666667,4,2,1,5,0,0
171943,-83.3333333333334,4,2,1,90,0,0
172157,-83.3333333333334,4,2,1,5,0,0
172229,-83.3333333333334,4,2,1,90,0,0
172443,-83.3333333333334,4,2,1,5,0,0
172514,-83.3333333333334,4,2,1,90,0,0
172728,-83.3333333333334,4,2,1,5,0,0
172800,-166.666666666667,4,2,1,90,0,0
173014,-166.666666666667,4,2,1,5,0,0
173086,-83.3333333333334,4,2,1,90,0,0
173300,-83.3333333333334,4,2,1,5,0,0
173372,-83.3333333333334,4,2,1,90,0,0
175157,-83.3333333333334,4,2,1,5,0,0
175229,-83.3333333333334,4,2,1,90,0,0
175300,-83.3333333333334,4,2,1,5,0,0
175372,-83.3333333333334,4,2,1,90,0,0
175586,-83.3333333333334,4,2,1,5,0,0
175657,-83.3333333333334,4,2,1,90,0,0
175872,-83.3333333333334,4,2,1,5,0,0
175943,-83.3333333333334,4,2,1,90,0,0
176300,-83.3333333333334,4,2,1,5,0,0
176372,-83.3333333333334,4,2,1,90,0,0
176443,-83.3333333333334,4,2,1,5,0,0
176514,-83.3333333333334,4,2,1,90,0,0
176728,-83.3333333333334,4,2,1,5,0,0
176800,-83.3333333333334,4,2,1,90,0,0
177014,-83.3333333333334,4,2,1,5,0,0
177086,-83.3333333333334,4,2,1,90,0,0
177300,-83.3333333333334,4,2,1,5,0,0
177372,-166.666666666667,4,2,1,90,0,0
177586,-166.666666666667,4,2,1,5,0,0
177657,-83.3333333333334,4,2,1,90,0,0
177871,-83.3333333333334,4,2,1,5,0,0
177943,-166.666666666667,4,2,1,90,0,0
178157,-166.666666666667,4,2,1,5,0,0
178229,-76.9230769230769,4,2,1,90,0,0
178443,-76.9230769230769,4,2,1,5,0,0
178514,-166.666666666667,4,2,1,90,0,0
178728,-166.666666666667,4,2,1,5,0,0
178800,-71.4285714285714,4,2,1,90,0,0
179229,-76.9230769230769,4,2,1,90,0,0
179514,-83.3333333333333,4,2,1,90,0,0
179943,-83.3333333333333,4,2,1,90,0,0
180157,-83.3333333333333,4,2,1,5,0,0
180229,-83.3333333333333,4,2,1,90,0,0
180443,-83.3333333333333,4,2,1,5,0,0
180514,-83.3333333333333,4,2,1,90,0,0
180728,-83.3333333333333,4,2,1,5,0,0
180800,-166.666666666667,4,2,1,90,0,0
181014,-166.666666666667,4,2,1,5,0,0
181086,-83.3333333333333,4,2,1,90,0,0
181300,-83.3333333333333,4,2,1,5,0,0
181372,-83.3333333333333,4,2,1,90,0,0
181586,-83.3333333333333,4,2,1,5,0,0
181657,-83.3333333333333,4,2,1,90,0,0
181871,-83.3333333333333,4,2,1,5,0,0
181943,-166.666666666667,4,2,1,90,0,0
182157,-166.666666666667,4,2,1,5,0,0
182229,-83.3333333333333,4,2,1,90,0,0
182443,-83.3333333333333,4,2,1,5,0,0
182514,-83.3333333333333,4,2,1,90,0,0
182728,-83.3333333333333,4,2,1,5,0,0
182800,-83.3333333333333,4,2,1,90,0,0
183086,-166.666666666667,4,2,1,90,0,0
183300,-166.666666666667,4,2,1,5,0,0
183372,-83.3333333333333,4,2,1,90,0,0
183586,-83.3333333333333,4,2,1,5,0,0
183657,-83.3333333333333,4,2,1,90,0,0
183871,-83.3333333333333,4,2,1,5,0,0
183943,-83.3333333333333,4,2,1,90,0,0
184157,-83.3333333333333,4,2,1,5,0,0
184229,-166.666666666667,4,2,1,90,0,0
184443,-166.666666666667,4,2,1,5,0,0
184514,-83.3333333333333,4,2,1,90,0,0
186514,-166.666666666667,4,2,1,90,0,0
186728,-166.666666666667,4,2,1,90,0,0
186800,-83.3333333333333,4,2,1,90,0,0
187372,-83.3333333333333,4,2,1,90,0,0
188014,-83.3333333333333,4,2,1,5,0,0
188086,-83.3333333333333,4,2,1,90,0,0
188229,-83.3333333333333,4,2,1,90,0,0
188300,-83.3333333333333,4,2,1,5,0,0
188372,-83.3333333333333,4,2,1,90,0,0
188443,-83.3333333333333,4,2,1,5,0,0
188514,-125,4,2,1,90,0,0
188943,-111.111111111111,4,2,1,90,0,0
200514,-249.999999999999,4,2,1,90,0,0
202800,-249.999999999999,4,2,1,70,0,0

[Colours]
Combo1 : 138,189,206
Combo2 : 231,152,95

[HitObjects]
56,313,372,6,0,B|108:290|148:313|131:328|178:354|242:323,1,172.799994726563,2|2,3:2|3:2,0:0:0:0:
383,223,800,1,10,0:0:0:0:
189,193,943,1,2,3:2:0:0:
320,337,1086,1,8,3:3:0:0:
320,337,1157,1,4,3:3:0:0:
320,337,1229,2,0,L|312:294,1,43.1999986816407,2|0,3:3|3:3,0:0:0:0:
289,186,1372,1,10,0:0:0:0:
452,296,1514,6,0,B|465:213|465:213|462:204|462:204|474:125,1,172.799994726563,2|2,3:2|3:2,0:0:0:0:
332,4,1943,1,10,0:0:0:0:
384,180,2086,1,2,3:2:0:0:
484,44,2229,1,8,3:3:0:0:
484,44,2300,1,4,3:3:0:0:
484,44,2372,2,0,L|432:52,1,43.1999986816407,0|0,3:3|3:3,0:0:0:0:
296,76,2514,1,10,0:0:0:0:
428,56,2657,1,2,0:0:0:0:
296,168,2800,6,0,L|210:154,1,86.3999973632813,2|8,3:2|0:0,0:0:0:0:
88,56,3086,1,2,3:2:0:0:
88,56,3157,1,0,3:2:0:0:
88,56,3229,2,0,L|100:106,1,43.1999986816407,10|0,0:0|0:0,0:0:0:0:
164,244,3372,1,0,3:2:0:0:
32,172,3514,1,10,0:0:0:0:
152,220,3657,1,2,3:2:0:0:
80,344,3800,6,0,L|64:249,1,86.3999973632813,10|2,0:0|3:2,0:0:0:0:
128,112,4086,1,10,0:0:0:0:
164,101,4157,1,8,0:0:0:0:
203,103,4228,1,10,0:0:0:0:
237,121,4300,1,8,0:0:0:0:
265,156,4372,2,0,L|256:207,1,43.1999986816407,2|0,3:2|3:2,0:0:0:0:
216,272,4514,5,8,3:3:0:0:
219,287,4586,1,8,3:3:0:0:
222,303,4657,1,0,3:2:0:0:
224,319,4729,1,0,3:2:0:0:
226,335,4800,1,10,0:0:0:0:
344,228,4943,6,0,B|411:238|411:238|431:266|431:266|501:277,1,172.799994726563,2|2,3:2|3:2,0:0:0:0:
344,316,5372,1,10,0:0:0:0:
484,184,5514,2,0,L|470:98,1,86.3999973632813,2|8,3:2|0:0,0:0:0:0:
272,40,5800,2,0,L|314:33,1,43.1999986816407,2|0,3:2|3:2,0:0:0:0:
456,16,5943,1,10,0:0:0:0:
364,171,6086,6,0,B|317:186|282:149|282:149|235:143|207:182,1,172.799994726563,6|10,3:2|0:0,0:0:0:0:
201,200,6443,1,8,0:0:0:0:
214,240,6514,1,10,0:0:0:0:
204,282,6585,1,8,0:0:0:0:
174,313,6657,2,0,L|126:319,1,43.1999986816407,2|0,3:2|3:2,0:0:0:0:
42,262,6800,5,8,3:3:0:0:
39,247,6872,1,8,3:3:0:0:
36,231,6943,1,0,3:2:0:0:
34,215,7015,1,0,3:2:0:0:
32,199,7086,2,0,P|44:163|91:139,1,86.3999973632813,12|0,0:0|0:0,0:0:0:0:
85,48,7372,6,0,P|130:59|163:93,1,96,6|2,3:2|0:0,0:0:0:0:
204,282,7657,2,0,P|190:236|204:191,1,96,10|2,0:0|0:0,0:0:0:0:
339,77,7943,1,2,3:2:0:0:
384,254,8086,1,2,0:0:0:0:
384,254,8157,1,2,0:0:0:0:
384,254,8229,2,0,L|289:238,1,96,10|2,0:0|0:0,0:0:0:0:
174,382,8514,6,0,L|268:366,1,96,2|0,3:2|0:0,0:0:0:0:
109,311,8800,1,10,0:0:0:0:
204,191,8943,1,2,0:0:0:0:
204,191,9014,1,2,0:0:0:0:
204,191,9086,2,0,L|188:96,1,96,2|2,3:2|0:0,0:0:0:0:
10,21,9372,1,10,0:0:0:0:
88,149,9514,1,2,0:0:0:0:
195,8,9657,6,0,P|149:19|116:53,1,96,2|2,3:2|0:0,0:0:0:0:
279,144,9943,2,0,P|246:109|200:98,1,96,10|2,0:0|0:0,0:0:0:0:
69,195,10229,1,2,3:2:0:0:
219,285,10372,1,2,0:0:0:0:
219,285,10443,1,2,0:0:0:0:
219,285,10515,2,0,L|203:190,1,96,10|2,0:0|0:0,0:0:0:0:
379,112,10800,6,0,L|363:207,1,96,2|0,3:2|0:0,0:0:0:0:
320,20,11086,1,10,0:0:0:0:
478,87,11229,1,2,0:0:0:0:
478,87,11300,1,2,0:0:0:0:
478,87,11372,2,0,L|462:182,1,96,2|2,3:2|0:0,0:0:0:0:
474,336,11657,1,2,3:2:0:0:
363,206,11800,1,10,0:0:0:0:
248,360,11943,5,2,3:2:0:0:
299,147,12086,1,2,0:0:0:0:
176,312,12229,1,10,0:0:0:0:
98,151,12372,1,2,0:0:0:0:
285,242,12514,1,2,3:2:0:0:
125,238,12657,1,2,0:0:0:0:
279,158,12800,1,10,0:0:0:0:
93,334,12943,6,0,B|105:254|105:254|85:227|85:227|97:150,1,192,2|2,0:0|0:0,0:0:0:0:
213,2,13372,2,0,L|228:96,1,96,10|2,0:0|0:0,0:0:0:0:
332,249,13657,6,0,L|284:241,1,48,2|0,3:2|0:0,0:0:0:0:
465,106,13872,6,0,L|513:98,1,48,2|8,0:0|0:0,0:0:0:0:
444,333,14086,6,0,L|396:325,1,48,2|0,0:0|0:0,0:0:0:0:
324,382,14229,6,0,B|301:324|301:324|333:244,1,144,2|0,3:2|0:0,0:0:0:0:
363,177,14514,1,10,0:0:0:0:
215,306,14657,2,0,B|238:248|238:248|206:168,1,144,2|0,0:0|0:0,0:0:0:0:
176,101,14942,1,2,0:0:0:0:
331,248,15086,2,0,B|308:190|308:190|340:110,1,144,10|0,0:0|0:0,0:0:0:0:
370,43,15371,1,0,3:2:0:0:
444,122,15514,5,2,0:0:0:0:
331,248,15657,2,0,L|236:232,1,96,10|2,0:0|0:0,0:0:0:0:
196,50,15943,5,2,3:2:0:0:
77,184,16086,1,10,0:0:0:0:
21,68,16229,5,2,3:2:0:0:
188,144,16372,1,10,0:0:0:0:
92,278,16514,6,0,L|76:183,1,96,6|0,3:2|0:0,0:0:0:0:
17,335,16800,1,8,0:0:0:0:
17,335,16943,1,0,0:0:0:0:
194,370,17086,2,0,L|178:275,1,96,2|0,3:2|0:0,0:0:0:0:
291,137,17372,2,0,P|354:155|353:228,1,144,8|0,0:0|0:0,0:0:0:0:
311,287,17657,1,0,3:2:0:0:
447,377,17943,5,10,0:0:0:0:
502,251,18086,1,2,0:0:0:0:
367,192,18229,1,2,3:2:0:0:
422,290,18372,1,2,0:0:0:0:
500,163,18514,1,10,0:0:0:0:
397,72,18657,2,0,L|404:119,1,48,2|2,0:0|0:0,0:0:0:0:
367,192,18800,5,2,3:2:0:0:
367,192,18872,1,0,0:0:0:0:
367,192,18943,2,0,L|272:176,1,96,2|8,0:0|0:0,0:0:0:0:
55,95,19372,6,0,L|47:48,1,48,2|0,3:2|0:0,0:0:0:0:
241,59,19586,6,0,L|249:11,1,48,2|8,0:0|0:0,0:0:0:0:
0,205,19800,6,0,L|47:197,1,48,2|0,0:0|0:0,0:0:0:0:
156,180,19943,1,0,3:2:0:0:
203,186,20014,1,8,0:0:0:0:
242,213,20085,1,8,0:0:0:0:
264,255,20157,1,8,0:0:0:0:
264,302,20228,1,8,0:0:0:0:
243,345,20300,1,8,0:0:0:0:
224,336,20372,5,0,3:2:0:0:
222,328,20443,1,0,3:2:0:0:
221,320,20514,2,0,L|213:272,3,48,8|8|0|0,3:3|3:3|3:2|3:2,0:0:0:0:
132,320,20800,1,8,0:0:0:0:
203,186,20943,6,0,B|258:194|258:194|278:218|278:218|325:225,1,134.399995898438,6|2,3:2|3:2,0:0:0:0:
394,152,21372,2,0,L|327:141,1,67.1999979492188,10|2,0:0|0:0,0:0:0:0:
274,70,21657,1,2,3:2:0:0:
274,70,21800,1,0,3:2:0:0:
327,141,21943,1,10,0:0:0:0:
439,61,22086,6,0,B|408:112|408:112|438:195,1,134.399995898438,2|2,3:2|3:2,0:0:0:0:
491,312,22514,2,0,L|502:244,1,67.1999979492188,10|2,0:0|0:0,0:0:0:0:
400,288,22800,1,2,3:2:0:0:
400,288,22943,1,0,3:2:0:0:
424,376,23086,1,10,0:0:0:0:
304,312,23229,6,0,L|171:333,1,134.399995898438,6|2,3:2|3:2,0:0:0:0:
52,272,23657,2,0,L|119:261,1,67.1999979492188,10|2,0:0|0:0,0:0:0:0:
180,184,23943,1,0,3:2:0:0:
180,184,24086,1,2,3:2:0:0:
118,261,24229,1,8,0:0:0:0:
132,115,24372,6,0,P|195:100|254:140,1,134.399995898438,6|2,3:2|3:2,0:0:0:0:
348,99,24800,2,0,L|358:32,1,67.1999979492188,10|0,0:0|0:0,0:0:0:0:
358,32,25086,1,8,3:3:0:0:
358,32,25229,1,4,3:3:0:0:
436,80,25372,1,10,0:0:0:0:
399,209,25514,6,0,B|325:230|325:230|272:195,1,134.399995898438,6|2,3:2|3:2,0:0:0:0:
204,243,25872,1,0,3:2:0:0:
204,243,25943,2,0,L|193:176,1,67.1999979492188,10|2,0:0|0:0,0:0:0:0:
236,91,26229,1,2,3:2:0:0:
236,91,26372,1,0,3:2:0:0:
193,176,26514,1,10,0:0:0:0:
119,83,26657,6,0,P|46:88|56:144,1,134.399995898438,2|2,3:2|3:2,0:0:0:0:
120,233,27086,2,0,L|53:223,1,67.1999979492188,10|2,0:0|0:0,0:0:0:0:
90,319,27372,1,2,3:2:0:0:
147,247,27514,2,0,L|180:241,1,33.5999989746094,0|0,3:2|0:0,0:0:0:0:
218,236,27657,1,10,0:0:0:0:
339,354,27800,6,0,L|317:221,1,134.399995898438,6|2,3:2|0:0,0:0:0:0:
378,100,28229,2,0,P|416:70|470:78,1,100.799996923828,6|0,3:2|0:0,0:0:0:0:
488,152,28514,2,0,P|452:181|398:175,1,100.799996923828,6|0,3:2|0:0,0:0:0:0:
378,100,28800,1,6,3:2:0:0:
488,152,28943,1,2,0:0:0:0:
480,172,29372,5,0,0:0:0:0:
441,267,29514,2,0,L|449:315,1,48
354,262,29800,2,0,L|369:356,1,96
256,200,30229,6,0,P|189:180|171:247,1,153.6,6|8,3:2|0:0,0:0:0:0:
60,368,30657,2,0,B|96:320|96:320|56:216,1,153.6,2|0,0:0|0:0,0:0:0:0:
192,112,31086,1,10,0:0:0:0:
171,247,31229,1,2,0:0:0:0:
24,140,31372,6,0,L|99:127,1,76.8,2|0,3:2|0:0,0:0:0:0:
248,32,31657,2,0,L|172:19,1,76.8,10|0,0:0|0:0,0:0:0:0:
320,188,31943,2,0,P|293:160|283:123,1,76.8,2|0,3:2|0:0,0:0:0:0:
388,0,32229,2,0,L|369:113,1,115.2,10|0,0:0|0:0,0:0:0:0:
400,144,32514,6,0,L|412:219,1,76.8,0|0,3:2|0:0,0:0:0:0:
300,340,32800,2,0,P|310:303|336:275,1,76.8,8|0,0:0|0:0,0:0:0:0:
464,352,33086,2,0,P|427:361|390:352,1,76.8,0|0,3:2|0:0,0:0:0:0:
298,254,33372,1,10,0:0:0:0:
427,279,33514,1,2,0:0:0:0:
312,162,33657,6,0,L|236:173,1,76.8,2|0,3:2|0:0,0:0:0:0:
122,319,33943,2,0,P|148:291|158:254,1,76.8,10|0,0:0|0:0,0:0:0:0:
132,104,34229,1,2,3:2:0:0:
75,247,34372,1,8,0:0:0:0:
23,100,34514,1,2,3:2:0:0:
122,182,34657,1,8,0:0:0:0:
215,34,34800,6,0,L|139:21,1,76.8,4|0,3:2|0:0,0:0:0:0:
263,233,35086,2,0,L|281:119,1,115.2,8|0,0:0|0:0,0:0:0:0:
296,83,35372,2,0,P|323:56|360:46,1,76.8,0|0,3:2|0:0,0:0:0:0:
511,106,35657,1,10,0:0:0:0:
366,137,35800,1,2,0:0:0:0:
468,293,35943,6,0,B|488:229|488:229|464:187,1,115.2,2|0,3:2|0:0,0:0:0:0:
450,166,36229,1,10,0:0:0:0:
348,265,36372,2,0,L|272:252,1,76.8,2|0,0:0|3:2,0:0:0:0:
160,111,36657,2,0,P|186:138|196:175,1,76.8,2|10,0:0|0:0,0:0:0:0:
115,311,36943,1,2,0:0:0:0:
19,189,37086,6,0,B|-5:176|-5:176|68:153|68:153|120:183,1,153.6,2|8,3:2|0:0,0:0:0:0:
261,313,37514,2,0,B|197:302|197:302|174:319|174:319|114:310,1,153.6,2|0,0:0|0:0,0:0:0:0:
244,204,37943,2,0,L|257:128,1,76.8,8|2,0:0|0:0,0:0:0:0:
132,36,38229,6,0,P|141:72|168:100,1,76.8,2|0,3:2|3:2,0:0:0:0:
340,104,38514,1,10,0:0:0:0:
216,24,38657,1,10,0:0:0:0:
216,24,38729,1,8,0:0:0:0:
216,24,38800,1,8,0:0:0:0:
244,204,38943,5,10,3:3:0:0:
336,184,39086,1,4,3:3:0:0:
428,164,39229,1,6,3:3:0:0:
492,240,39372,5,6,3:2:0:0:
492,240,39514,2,0,B|484:263|484:263|485:271|485:271|482:296,1,57.5999982421876,0|0,3:2|0:0,0:0:0:0:
383,318,39800,2,0,B|390:292|390:292|388:283|388:283|392:261,1,57.5999982421876,0|0,3:2|0:0,0:0:0:0:
299,359,40086,1,0,3:2:0:0:
299,359,40229,1,0,3:2:0:0:
194,287,40372,6,0,B|187:267|187:267|189:259|189:259|184:230,1,57.5999982421876,0|0,3:2|0:0,0:0:0:0:
80,203,40657,2,0,B|85:221|85:221|84:230|84:230|89:259,1,57.5999982421876,0|2,3:2|0:0,0:0:0:0:
149,142,40943,1,0,3:2:0:0:
241,160,41086,2,0,B|267:162|267:162|273:167|273:167|297:169,1,57.5999982421876,10|2,0:0|3:2,0:0:0:0:
384,123,41372,1,0,3:2:0:0:
328,43,41514,1,2,0:0:0:0:
250,103,41657,5,0,3:2:0:0:
250,103,41800,2,0,B|246:124|246:124|247:128|247:128|240:159,1,57.5999982421876,2|0,3:2|0:0,0:0:0:0:
337,251,42086,2,0,B|334:225|334:225|330:218|330:218|327:194,1,57.5999982421876,2|2,3:2|0:0,0:0:0:0:
241,252,42372,1,0,3:2:0:0:
241,252,42514,1,0,3:2:0:0:
324,349,42657,6,0,B|350:343|350:343|355:343|355:343|380:339,1,57.5999982421876,0|0,3:2|0:0,0:0:0:0:
483,275,42943,2,0,B|458:272|458:272|454:268|454:268|426:265,1,57.5999982421876,0|2,3:2|0:0,0:0:0:0:
352,174,43229,1,0,3:2:0:0:
368,85,43372,2,0,B|374:55|374:55|373:49|373:49|377:28,1,57.5999982421876,10|2,0:0|3:2,0:0:0:0:
274,35,43657,1,0,3:2:0:0:
208,96,43800,1,2,0:0:0:0:
146,30,43943,5,0,3:2:0:0:
146,30,44086,2,0,B|121:26|121:26|114:23|114:23|89:20,1,57.5999982421876,0|0,3:2|0:0,0:0:0:0:
29,121,44372,2,0,B|53:115|53:115|60:116|60:116|85:111,1,57.5999982421876,0|0,3:2|0:0,0:0:0:0:
153,181,44657,1,0,3:2:0:0:
153,181,44800,1,2,3:2:0:0:
60,243,44943,6,0,B|57:267|57:267|55:271|55:271|51:299,1,57.5999982421876,0|2,3:2|0:0,0:0:0:0:
162,370,45229,2,0,B|157:342|157:342|157:335|157:335|153:313,1,57.5999982421876,2|0,3:2|0:0,0:0:0:0:
230,228,45514,1,0,3:2:0:0:
321,245,45657,2,0,B|344:248|344:248|350:252|350:252|377:254,1,57.5999982421876,10|2,0:0|3:2,0:0:0:0:
463,210,45943,1,0,3:2:0:0:
431,124,46086,1,2,0:0:0:0:
340,147,46229,5,0,3:2:0:0:
340,147,46372,2,0,B|313:143|313:143|307:140|307:140|283:138,1,57.5999982421876,0|0,3:2|0:0,0:0:0:0:
238,41,46657,2,0,B|261:45|261:45|267:44|267:44|295:50,1,57.5999982421876,0|0,3:2|0:0,0:0:0:0:
190,117,46943,1,0,3:2:0:0:
190,117,47086,1,0,3:2:0:0:
92,24,47229,6,0,B|96:49|96:49|96:55|96:55|102:81,1,57.5999982421876,0|0,3:2|0:0,0:0:0:0:
30,182,47514,2,0,B|25:155|25:155|25:147|25:147|20:126,1,57.5999982421876,0|0,3:2|0:0,0:0:0:0:
122,170,47800,1,0,3:2:0:0:
104,276,47943,6,0,B|99:305|99:305|100:311|100:311|93:343,1,67.1999979492188,8|0,0:0|3:2,0:0:0:0:
256,257,48229,2,0,B|260:281|260:281|259:290|259:290|267:324,1,67.1999979492188,8|0,0:0|3:2,0:0:0:0:
237,159,48514,5,2,0:0:0:0:
237,159,48800,2,0,P|244:136|259:118,1,48,0|2,0:0|0:0,0:0:0:0:
330,81,49086,2,0,P|353:75|376:80,1,48
443,126,49372,1,2,0:0:0:0:
443,126,49657,2,0,L|436:173,1,48
482,253,49943,1,2,0:0:0:0:
482,253,50086,2,0,P|451:217|405:208,1,96,0|2,0:0|0:0,0:0:0:0:
357,297,50514,2,0,L|404:289,1,48
323,222,50800,5,2,0:0:0:0:
323,222,51086,2,0,L|315:174,1,48,0|2,0:0|0:0,0:0:0:0:
391,112,51372,2,0,L|398:159,1,48
309,86,51657,1,2,0:0:0:0:
309,86,51800,2,0,L|214:101,1,96,0|2,0:0|0:0,0:0:0:0:
158,44,52229,1,0,0:0:0:0:
158,44,52372,2,0,P|142:62|135:84,1,48
154,162,52657,1,2,0:0:0:0:
115,293,52943,5,2,0:0:0:0:
49,232,53086,1,2,0:0:0:0:
49,232,53372,2,0,L|1:239,1,48,0|2,0:0|0:0,0:0:0:0:
115,293,53657,2,0,L|162:300,1,48
246,248,53944,1,2,0:0:0:0:
246,248,54229,2,0,L|238:200,2,48,0|2|0,0:0|0:0|0:0,0:0:0:0:
320,335,54657,5,2,0:0:0:0:
372,276,54800,1,2,0:0:0:0:
364,228,54943,1,2,0:0:0:0:
345,205,55086,1,2,0:0:0:0:
329,194,55229,1,2,0:0:0:0:
319,190,55372,6,0,P|276:184|233:203,1,86.3999973632813,10|0,0:0|3:2,0:0:0:0:
135,368,55657,5,10,0:0:0:0:
63,160,55800,1,2,3:2:0:0:
204,314,55943,5,8,0:0:0:0:
274,95,56086,2,0,L|188:108,1,86.3999973632813,2|8,3:2|0:0,0:0:0:0:
19,332,56372,6,0,B|85:378|164:329|126:310|209:258|290:312,1,287.999991210938,2|0,3:2|0:0,0:0:0:0:
461,152,57514,6,0,L|437:155,3,24,0|0|0|0,3:2|0:0|3:2|0:0,0:0:0:0:
425,177,57657,6,0,L|330:161,1,96,8|0,0:0|3:2,0:0:0:0:
144,226,57943,5,8,0:0:0:0:
277,37,58086,1,0,3:2:0:0:
315,269,58229,5,8,0:0:0:0:
181,94,58372,1,0,3:2:0:0:
201,312,58514,5,8,0:0:0:0:
346,131,58657,2,0,P|391:142|424:176,1,96,0|8,3:2|0:0,0:0:0:0:
442,206,58872,1,8,0:0:0:0:
438,228,58943,1,8,0:0:0:0:
434,251,59014,1,8,0:0:0:0:
431,274,59086,2,0,L|422:321,3,48,8|8|8|8,3:2|0:0|0:0|0:0,0:0:0:0:
315,269,59372,2,0,L|306:221,3,48,8|8|8|8,3:2|0:0|0:0|0:0,0:0:0:0:
241,334,59657,6,0,P|218:326|200:311,1,48,10|8,3:2|0:0,0:0:0:0:
75,292,59800,2,0,P|97:284|115:269,1,48,10|8,0:0|0:0,0:0:0:0:
188,132,59943,6,0,B|218:96|218:96|209:151|209:151|203:158|203:158|193:225,1,172.799994726563,6|0,3:2|0:0,0:0:0:0:
62,90,60229,2,0,B|130:130|130:130|234:90,1,172.799994726563,10|0,0:0|0:0,0:0:0:0:
353,29,60514,2,0,P|402:48|409:116,1,115.199996484375,2|0,3:2|0:0,0:0:0:0:
285,248,60800,1,10,0:0:0:0:
384,290,60943,6,0,L|366:176,1,115.199996484375,2|0,0:0|3:2,0:0:0:0:
324,346,61229,2,0,P|345:365|372:374,1,57.5999982421876,2|0,0:0|0:0,0:0:0:0:
454,338,61372,2,0,P|467:312|469:283,1,57.5999982421876,10|0,0:0|0:0,0:0:0:0:
366,176,61514,2,0,B|299:155|258:210|258:210|196:229|157:184,1,230.39999296875,2|0,0:0|0:0,0:0:0:0:
201,23,61943,2,0,P|233:69|213:138,1,115.199996484375,8|2,0:0|0:0,0:0:0:0:
65,308,62229,6,0,B|76:232|76:232|60:206|60:206|71:141,1,172.799994726563,2|0,3:2|0:0,0:0:0:0:
33,49,62514,2,0,B|39:93|83:106|83:106|81:113|81:113|83:106|83:106|135:117|167:71,1,172.799994726563,10|0,0:0|0:0,0:0:0:0:
201,23,62800,2,0,B|236:-8|289:17|289:17|299:58|342:68,1,172.799994726563,2|0,3:2|0:0,0:0:0:0:
342,68,63086,1,8,0:0:0:0:
472,24,63229,2,0,L|462:80,1,57.5999982421876,2|0,0:0|0:0,0:0:0:0:
432,103,63372,6,0,B|410:143|426:182|426:182|434:187|434:187|453:226|432:268,1,172.799994726563,2|0,3:2|0:0,0:0:0:0:
480,337,63657,2,0,B|473:292|429:279|429:279|431:272|431:272|429:279|429:279|377:268|345:314,1,172.799994726563,10|0,0:0|0:0,0:0:0:0:
297,348,63943,2,0,P|217:369|159:310,1,172.799994726563,2|0,3:2|0:0,0:0:0:0:
195,236,64229,2,0,P|187:278|159:310,1,86.3999973632813,8|0,0:0|0:0,0:0:0:0:
90,380,64514,6,0,B|53:321|53:321|98:223,1,172.799994726563,4|0,3:2|0:0,0:0:0:0:
40,48,64800,1,10,0:0:0:0:
204,132,64943,1,2,0:0:0:0:
20,176,65086,1,2,3:2:0:0:
172,44,65229,2,0,P|124:80|108:136,1,115.199996484375,2|8,0:0|0:0,0:0:0:0:
208,312,65514,6,0,B|294:298|294:298|334:320|334:320|430:305,1,230.39999296875,2|0,0:0|0:0,0:0:0:0:
496,124,65943,1,10,0:0:0:0:
331,219,66086,1,2,0:0:0:0:
512,264,66229,1,2,3:2:0:0:
396,72,66372,2,0,L|414:185,1,115.199996484375,2|10,0:0|0:0,0:0:0:0:
336,356,66657,1,2,0:0:0:0:
219,204,66800,6,0,B|277:165|331:220|331:220|287:248,1,172.799994726563,2|0,3:2|0:0,0:0:0:0:
166,275,67086,2,0,P|133:191|205:118,1,172.799994726563,8|0,0:0|0:0,0:0:0:0:
252,72,67372,2,0,B|218:52|188:38|188:38|92:70,1,172.799994726563,0|0,3:2|0:0,0:0:0:0:
21,113,67657,2,0,P|8:72|19:31,1,86.3999973632813,10|0,0:0|0:0,0:0:0:0:
92,70,67943,5,2,3:2:0:0:
12,271,68086,1,0,3:2:0:0:
216,185,68229,2,0,L|102:166,1,115.199996484375,8|2,0:0|3:2,0:0:0:0:
149,344,68514,1,8,3:3:0:0:
149,344,68586,1,8,3:3:0:0:
149,344,68657,2,0,L|205:334,1,57.5999982421876,0|0,3:2|3:2,0:0:0:0:
298,310,68800,5,10,0:0:0:0:
326,289,68871,1,8,0:0:0:0:
340,258,68942,1,10,0:0:0:0:
337,224,69014,1,8,0:0:0:0:
323,191,69086,6,0,P|370:137|462:194,1,172.799994726563,6|0,3:2|0:0,0:0:0:0:
431,55,69372,2,0,P|383:108|291:51,1,172.799994726563,10|0,0:0|0:0,0:0:0:0:
243,16,69657,2,0,B|198:11|170:44|170:44|113:56|81:4,1,172.799994726563,2|0,3:2|0:0,0:0:0:0:
89,15,69943,1,10,0:0:0:0:
233,98,70086,6,0,P|240:154|212:203,1,115.199996484375,2|0,0:0|3:2,0:0:0:0:
63,286,70372,2,0,P|49:311|47:339,1,57.5999982421876,2|0,0:0|0:0,0:0:0:0:
144,291,70514,2,0,P|142:262|128:237,1,57.5999982421876,10|0,0:0|0:0,0:0:0:0:
63,176,70657,2,0,B|42:152|9:155|9:155|33:95|121:87|162:148,1,230.39999296875,2|0,0:0|0:0,0:0:0:0:
230,316,71086,2,0,L|211:202,1,115.199996484375,8|2,0:0|0:0,0:0:0:0:
252,52,71372,6,0,B|258:91|296:101|296:101|327:96|327:96|338:86|338:86|405:76,1,172.799994726563,2|0,3:2|0:0,0:0:0:0:
436,4,71657,2,0,B|405:23|416:75|416:75|409:77|409:77|416:75|416:75|429:119|473:125,1,172.799994726563,10|0,0:0|0:0,0:0:0:0:
508,216,71943,2,0,P|460:152|384:200,1,172.799994726563,2|0,3:2|0:0,0:0:0:0:
388,186,72229,1,8,0:0:0:0:
500,328,72372,2,0,L|443:337,1,57.5999982421876,2|0,0:0|0:0,0:0:0:0:
420,316,72515,6,0,B|348:303|348:303|321:318|321:318|253:306,1,172.799994726563,2|0,3:2|0:0,0:0:0:0:
176,352,72800,2,0,B|220:346|233:302|233:302|240:304|240:304|233:302|233:302|244:250|198:218,1,172.799994726563,10|0,0:0|0:0,0:0:0:0:
148,176,73086,2,0,B|33:194|33:194|87:212,1,172.799994726563,2|0,3:2|0:0,0:0:0:0:
164,84,73372,2,0,L|78:97,1,86.3999973632813,10|0,0:0|0:0,0:0:0:0:
228,4,73657,6,0,B|268:72|268:72|220:192,1,172.799994726563,6|0,3:2|0:0,0:0:0:0:
264,236,73943,2,0,B|336:288|336:288|424:228,1,172.799994726563,8|0,0:0|0:0,0:0:0:0:
471,119,74229,2,0,B|487:225|487:225|479:188|451:171,1,172.799994726563,0|0,3:2|0:0,0:0:0:0:
384,115,74514,2,0,L|370:30,1,86.3999973632813,10|0,0:0|0:0,0:0:0:0:
278,155,74800,6,0,B|261:202|214:202|214:202|132:174,1,172.799994726563,2|0,3:2|0:0,0:0:0:0:
131,173,75086,1,8,0:0:0:0:
64,36,75229,2,0,L|54:92,1,57.5999982421876
48,124,75372,2,0,B|36:191|36:191|51:218|51:218|38:290,1,172.799994726563,0|0,3:2|0:0,0:0:0:0:
116,376,75657,2,0,L|129:290,1,86.3999973632813,10|0,0:0|0:0,0:0:0:0:
255,217,75943,6,0,B|149:201|149:201|186:209|203:237,1,172.799994726563,2|0,3:2|0:0,0:0:0:0:
285,302,76229,2,0,P|342:241|325:160,1,172.799994726563,8|0,0:0|0:0,0:0:0:0:
216,21,76514,1,0,3:2:0:0:
412,108,76657,1,0,3:2:0:0:
255,217,76800,2,0,L|236:103,1,115.199996484375,10|0,0:0|0:0,0:0:0:0:
166,211,77086,5,2,3:2:0:0:
172,261,77157,1,8,0:0:0:0:
206,299,77229,1,8,0:0:0:0:
256,310,77300,1,8,0:0:0:0:
302,294,77372,2,0,L|350:263,1,57.5999982421876,10|0,0:0|0:0,0:0:0:0:
448,200,77514,1,10,0:0:0:0:
459,359,77657,5,8,0:0:0:0:
350,263,77800,1,8,3:3:0:0:
353,240,77871,1,0,3:0:0:0:
357,217,77942,1,6,3:3:0:0:
360,194,78014,1,0,3:0:0:0:
364,171,78085,1,0,3:2:0:0:
368,149,78157,1,0,3:0:0:0:
372,130,78229,6,0,P|397:102|434:92,1,76.8,6|0,3:2|0:0,0:0:0:0:
437,13,78514,2,0,P|473:21|500:48,1,76.8,2|0,3:2|0:0,0:0:0:0:
510,130,78800,1,8,0:0:0:0:
439,183,78943,6,0,L|363:170,1,76.8,2|0,3:2|0:0,0:0:0:0:
290,246,79229,2,0,L|365:258,1,76.8,2|0,3:2|0:0,0:0:0:0:
416,355,79514,2,0,L|340:342,1,76.8,2|0,3:2|0:0,0:0:0:0:
250,329,79800,1,2,3:2:0:0:
137,378,79943,2,0,P|158:325|138:273,1,115.2,10|0,0:0|0:0,0:0:0:0:
138,273,80229,1,2,0:0:0:0:
78,324,80372,1,2,0:0:0:0:
23,230,80514,6,0,L|35:154,1,76.8,2|0,3:2|0:0,0:0:0:0:
130,110,80800,2,0,L|117:185,1,76.8,2|0,3:2|0:0,0:0:0:0:
138,273,81086,1,8,0:0:0:0:
213,204,81229,6,0,P|249:192|285:202,1,76.8,2|0,3:2|0:0,0:0:0:0:
287,340,81514,2,0,P|259:314|249:277,1,76.8,2|0,3:2|0:0,0:0:0:0:
368,208,81800,2,0,P|359:244|332:271,1,76.8,2|0,3:2|0:0,0:0:0:0:
285,202,82086,1,2,3:2:0:0:
356,125,82229,2,0,P|411:133|446:178,1,115.2,10|0,0:0|0:0,0:0:0:0:
446,178,82514,1,2,0:0:0:0:
434,262,82657,1,2,0:0:0:0:
297,277,82800,6,0,L|284:200,1,76.8,2|0,3:2|0:0,0:0:0:0:
192,219,83086,2,0,L|204:142,1,76.8,2|0,3:2|0:0,0:0:0:0:
219,55,83372,1,8,0:0:0:0:
132,89,83514,6,0,L|55:76,1,76.8,2|0,3:2|0:0,0:0:0:0:
0,159,83800,2,0,L|76:171,1,76.8,2|0,3:2|0:0,0:0:0:0:
115,265,84086,2,0,L|38:252,1,76.8,2|0,3:2|0:0,0:0:0:0:
65,346,84372,1,2,3:2:0:0:
191,304,84514,6,0,P|200:267|191:229,1,76.8,10|0,0:0|3:2,0:0:0:0:
248,159,84729,1,0,3:2:0:0:
248,159,84800,2,0,L|323:171,1,76.8,14|2,0:0|0:0,0:0:0:0:
365,256,85086,6,0,L|327:262,1,38.4,2|0,3:2|0:0,0:0:0:0:
444,328,85372,2,0,L|406:334,2,38.4,2|0|0,3:2|0:0|3:2,0:0:0:0:
454,240,85800,6,0,L|466:164,1,76.8,6|0,3:2|0:0,0:0:0:0:
466,79,86086,2,0,B|428:78|405:104|405:104|354:118|324:78,1,153.6,6|0,3:2|3:2,0:0:0:0:
187,9,86514,1,8,0:0:0:0:
187,9,86586,1,8,0:0:0:0:
187,9,86657,2,0,L|197:72,1,38.4,0|0,3:2|3:2,0:0:0:0:
253,182,86800,1,8,0:0:0:0:
253,182,86872,1,8,0:0:0:0:
253,182,86943,2,0,L|263:119,1,38.4,0|0,3:2|3:2,0:0:0:0:
296,50,87086,5,8,0:0:0:0:
339,37,87157,1,8,0:0:0:0:
381,54,87228,1,8,0:0:0:0:
405,93,87300,1,8,0:0:0:0:
407,136,87372,6,0,L|391:230,1,96,4|2,3:2|0:0,0:0:0:0:
336,380,87657,1,10,0:0:0:0:
336,380,87729,1,2,0:0:0:0:
336,380,87800,1,2,0:0:0:0:
202,303,87943,2,0,L|108:319,1,96,2|2,3:2|0:0,0:0:0:0:
245,173,88229,1,2,3:2:0:0:
245,173,88300,1,2,0:0:0:0:
245,173,88372,1,10,0:0:0:0:
130,54,88514,6,0,L|152:196,1,144,2|2,3:2|0:0,0:0:0:0:
52,166,88800,1,10,0:0:0:0:
52,166,88872,1,0,0:0:0:0:
52,166,88943,2,0,L|44:118,1,48,2|2,0:0|0:0,0:0:0:0:
122,6,89086,1,2,3:2:0:0:
122,6,89158,1,0,0:0:0:0:
122,6,89229,2,0,L|129:53,1,48,2|2,0:0|0:0,0:0:0:0:
244,87,89372,2,0,P|289:99|322:133,1,96,10|2,0:0|0:0,0:0:0:0:
488,240,89657,6,0,B|477:172|477:172|480:164|480:164|469:97,1,144,2|0,3:2|0:0,0:0:0:0:
512,10,89943,1,10,0:0:0:0:
512,10,90014,1,2,0:0:0:0:
512,10,90086,1,2,0:0:0:0:
377,85,90229,2,0,B|302:113|302:113|233:82,1,144,2|0,3:2|0:0,0:0:0:0:
304,15,90514,1,2,3:2:0:0:
304,15,90586,1,2,0:0:0:0:
304,15,90657,1,10,0:0:0:0:
172,24,90800,6,0,P|152:108|194:166,1,144,2|0,3:2|0:0,0:0:0:0:
320,196,91086,1,10,0:0:0:0:
320,196,91157,1,2,0:0:0:0:
320,196,91229,2,0,L|272:203,1,48,2|2,0:0|0:0,0:0:0:0:
168,284,91372,1,2,3:2:0:0:
168,284,91443,1,2,0:0:0:0:
168,284,91515,2,0,L|215:276,1,48,2|2,0:0|0:0,0:0:0:0:
288,348,91657,1,10,0:0:0:0:
288,348,91728,1,2,0:0:0:0:
288,348,91800,2,0,L|240:355,1,48,2|2,0:0|0:0,0:0:0:0:
92,380,91943,6,0,L|76:285,1,96,6|2,3:2|0:0,0:0:0:0:
140,112,92229,1,10,0:0:0:0:
215,275,92372,1,2,0:0:0:0:
56,200,92514,2,0,L|40:105,1,96,2|2,3:2|0:0,0:0:0:0:
172,0,92800,1,2,3:2:0:0:
324,116,92943,6,0,B|244:103|244:103|213:122|213:122|139:111,1,192,10|2,0:0|0:0,0:0:0:0:
312,292,93372,2,0,P|277:259|265:213,1,96,10|2,0:0|0:0,0:0:0:0:
432,124,93657,2,0,P|420:170|387:203,1,96,2|2,3:2|0:0,0:0:0:0:
253,98,93943,1,10,0:0:0:0:
402,46,94086,1,2,0:0:0:0:
228,111,94229,6,0,L|212:205,1,96,2|2,3:2|0:0,0:0:0:0:
54,328,94514,2,0,L|38:233,1,96,8|2,0:0|0:0,0:0:0:0:
142,86,94800,1,2,3:2:0:0:
130,268,94943,1,2,0:0:0:0:
28,124,95086,1,2,3:2:0:0:
212,205,95229,6,0,B|328:232|328:232|387:186,1,192,10|2,0:0|0:0,0:0:0:0:
487,38,95657,2,0,L|471:132,1,96,10|2,0:0|0:0,0:0:0:0:
304,144,95943,2,0,L|288:49,1,96,2|2,3:2|0:0,0:0:0:0:
445,217,96229,1,2,3:2:0:0:
305,322,96372,6,0,B|252:295|199:322|226:340|166:363|116:333,1,192,10|2,0:0|0:0,0:0:0:0:
48,172,96800,1,10,0:0:0:0:
48,172,96872,1,2,0:0:0:0:
48,172,96943,1,2,0:0:0:0:
164,264,97086,1,0,3:2:0:0:
19,346,97229,2,0,L|33:251,1,96,2|2,0:0|3:2,0:0:0:0:
33,251,97443,1,2,0:0:0:0:
33,252,97514,1,10,0:0:0:0:
184,173,97657,6,0,B|225:145|225:145|175:60|83:124,1,192,2|8,3:2|0:0,0:0:0:0:
249,293,98086,1,2,0:0:0:0:
249,293,98157,1,2,0:0:0:0:
249,293,98229,2,0,L|258:233,1,48,2|0,3:2|0:0,0:0:0:0:
352,239,98372,1,2,0:0:0:0:
352,239,98443,1,2,0:0:0:0:
352,239,98514,2,0,P|339:194|303:163,1,96,8|2,0:0|0:0,0:0:0:0:
445,19,98800,6,0,B|411:74|411:74|445:163,1,144,2|0,3:2|0:0,0:0:0:0:
478,226,99086,1,8,0:0:0:0:
478,226,99157,1,2,0:0:0:0:
478,226,99229,1,2,0:0:0:0:
382,337,99372,2,0,L|287:321,1,96,0|2,3:2|0:0,0:0:0:0:
128,296,99657,1,2,3:2:0:0:
128,296,99729,1,2,0:0:0:0:
128,296,99800,1,10,0:0:0:0:
220,116,99943,6,0,B|210:176|210:176|224:195|224:195|214:253,1,144,2|0,3:2|0:0,0:0:0:0:
215,254,100229,1,10,0:0:0:0:
128,152,100372,1,2,0:0:0:0:
128,152,100443,1,0,0:0:0:0:
128,152,100514,2,0,L|139:76,1,48,2|2,3:2|0:0,0:0:0:0:
56,24,100657,1,10,0:0:0:0:
56,24,100729,1,2,0:0:0:0:
56,24,100800,2,0,L|40:118,1,96,2|0,3:2|0:0,0:0:0:0:
200,12,101086,6,0,P|233:45|246:90,1,96,6|2,3:2|0:0,0:0:0:0:
215,254,101372,1,10,0:0:0:0:
135,104,101514,1,2,0:0:0:0:
296,181,101657,2,0,L|390:165,1,96,0|2,3:2|0:0,0:0:0:0:
493,28,101943,1,2,3:2:0:0:
326,76,102086,1,8,0:0:0:0:
489,150,102229,6,0,L|473:244,1,96,2|2,3:2|0:0,0:0:0:0:
376,377,102514,1,10,0:0:0:0:
276,232,102657,2,0,B|247:183|187:195|187:195|158:235|106:225,1,192,2|2,0:0|0:0,0:0:0:0:
4,63,103086,2,0,P|50:72|81:107,1,96,10|2,0:0|0:0,0:0:0:0:
73,308,103372,5,2,3:2:0:0:
9,142,103514,1,2,0:0:0:0:
187,196,103657,2,0,L|171:290,1,96,8|2,0:0|0:0,0:0:0:0:
8,380,103943,1,2,3:2:0:0:
83,219,104086,1,8,0:0:0:0:
171,382,104229,2,0,P|216:369|250:335,1,96,0|8,3:2|0:0,0:0:0:0:
361,180,104514,6,0,L|375:274,1,96,2|0,3:2|3:2,0:0:0:0:
495,133,104800,1,8,0:0:0:0:
361,52,104943,1,8,3:3:0:0:
361,52,105014,1,8,3:3:0:0:
361,52,105086,2,0,L|313:59,1,48,10|4,3:3|3:3,0:0:0:0:
199,83,105229,1,4,3:3:0:0:
158,98,105300,1,4,3:3:0:0:
129,129,105371,1,8,3:2:0:0:
117,170,105443,1,4,3:3:0:0:
123,212,105514,1,4,3:3:0:0:
148,247,105586,1,4,3:3:0:0:
188,265,105657,6,0,P|248:239|308:265,1,134.399995898438,0|0,3:2|0:0,0:0:0:0:
379,351,106086,1,0,3:2:0:0:
436,268,106229,2,0,L|425:201,2,67.1999979492188,0|0|8,0:0|0:0|0:0,0:0:0:0:
335,236,106657,2,0,L|324:169,1,67.1999979492188
405,51,106943,2,0,L|394:117,1,67.1999979492188,0|0,0:0|3:2,0:0:0:0:
269,100,107229,1,0,0:0:0:0:
269,100,107372,2,0,P|246:124|236:156,1,67.1999979492188,0|0,0:0|3:2,0:0:0:0:
248,256,107657,1,0,0:0:0:0:
163,311,107800,1,0,3:2:0:0:
75,261,107943,6,0,B|46:210|46:210|87:123,1,134.399995898438,0|0,3:2|0:0,0:0:0:0:
167,85,108372,1,0,3:2:0:0:
86,26,108515,2,0,L|19:36,2,67.1999979492188,0|0|8,0:0|0:0|0:0,0:0:0:0:
167,85,108943,2,0,L|233:74,1,67.1999979492188
299,157,109229,2,0,L|232:167,1,67.1999979492188,0|0,0:0|3:2,0:0:0:0:
362,86,109515,1,0,0:0:0:0:
362,86,109657,2,0,P|384:110|394:142,1,67.1999979492188,0|0,0:0|3:2,0:0:0:0:
410,242,109943,1,8,0:0:0:0:
326,298,110086,1,0,3:2:0:0:
245,236,110229,6,0,B|172:215|172:215|116:247,1,134.399995898438,0|0,3:2|0:0,0:0:0:0:
62,328,110658,1,0,3:2:0:0:
167,379,110801,2,0,L|177:312,2,67.1999979492188,0|0|8,0:0|0:0|0:0,0:0:0:0:
121,243,111229,2,0,L|110:176,1,67.1999979492188
7,141,111514,2,0,L|17:207,1,67.1999979492188,0|0,0:0|3:2,0:0:0:0:
119,90,111801,1,0,0:0:0:0:
119,90,111943,2,0,P|150:100|175:122,1,67.1999979492188,0|0,0:0|3:2,0:0:0:0:
212,216,112229,1,0,0:0:0:0:
300,268,112372,1,0,3:2:0:0:
384,212,112514,6,0,B|394:148|394:148|399:141|399:141|409:74,1,134.399995898438,0|0,3:2|0:0,0:0:0:0:
340,4,112943,1,0,3:2:0:0:
276,84,113086,2,0,L|209:73,2,67.1999979492188,0|0|8,0:0|0:0|0:0,0:0:0:0:
219,167,113514,2,0,L|152:156,1,67.1999979492188
100,82,113800,5,0,3:3:0:0:
100,82,113872,1,0,0:0:0:0:
100,82,113943,1,4,3:3:0:0:
153,157,114086,1,0,3:3:0:0:
130,234,114229,1,8,3:3:0:0:
62,257,114372,1,8,3:3:0:0:
31,218,114514,1,4,3:3:0:0:
46,195,114657,1,4,3:3:0:0:
61,190,114800,6,0,L|73:265,1,76.8,6|2,3:2|0:0,0:0:0:0:
144,384,115086,1,2,3:2:0:0:
144,384,115229,1,2,0:0:0:0:
212,264,115372,2,0,B|275:253|275:253|298:270|298:270|358:261,1,153.6,2|2,3:2|3:2,0:0:0:0:
480,127,115800,2,0,L|467:202,1,76.8,2|0,0:0|3:2,0:0:0:0:
420,49,116086,1,0,0:0:0:0:
420,49,116229,2,0,P|392:75|382:112,1,76.8,2|0,3:2|0:0,0:0:0:0:
297,125,116514,2,0,P|306:161|333:188,1,76.8,2|0,3:2|0:0,0:0:0:0:
301,269,116800,2,0,P|337:279|374:269,1,76.8,2|0,3:2|0:0,0:0:0:0:
224,336,117086,6,0,B|192:280|192:280|228:184,2,153.6,2|0|0,3:2|3:2|3:2,0:0:0:0:
60,280,117943,1,2,3:2:0:0:
60,280,118086,2,0,L|47:204,1,76.8,2|0,0:0|3:2,0:0:0:0:
120,80,118372,1,8,0:0:0:0:
120,80,118443,1,8,0:0:0:0:
120,80,118514,2,0,L|157:86,1,38.4,0|0,3:2|0:0,0:0:0:0:
186,190,118657,2,0,L|148:183,2,38.4,8|8|2,3:3|3:3|3:2,0:0:0:0:
260,140,118943,1,4,3:3:0:0:
344,160,119086,1,2,3:2:0:0:
371,238,119229,1,8,0:0:0:0:
296,308,119372,6,0,L|282:222,1,86.3999973632813,6|2,3:2|0:0,0:0:0:0:
320,80,119657,1,2,3:2:0:0:
320,80,119800,1,2,0:0:0:0:
429,173,119943,2,0,L|343:159,1,86.3999973632813,2|0,3:2|0:0,0:0:0:0:
240,60,120229,1,2,3:2:0:0:
178,193,120372,6,0,B|160:82|160:82|169:117|200:134,1,172.799994726563,2|0,0:0|0:0,0:0:0:0:
134,273,120800,2,0,P|103:243|91:202,1,86.3999973632813,2|0,3:2|0:0,0:0:0:0:
183,350,121086,2,0,P|213:320|225:279,1,86.3999973632813,2|0,3:2|0:0,0:0:0:0:
315,277,121372,2,0,P|304:235|274:204,1,86.3999973632813,2|0,3:2|0:0,0:0:0:0:
209,36,121657,6,0,L|193:130,1,96,2|0,3:2|0:0,0:0:0:0:
81,114,121943,2,0,L|96:19,1,96,0|2,3:2|0:0,0:0:0:0:
0,233,122229,6,0,L|15:327,1,96,0|0,3:2|0:0,0:0:0:0:
144,306,122515,2,0,L|128:211,1,96,2|0,3:2|0:0,0:0:0:0:
253,358,122800,6,0,P|303:347|337:307,1,105.600003222656,2|0,3:2|0:0,0:0:0:0:
452,267,123086,2,0,P|441:216|401:182,1,105.600003222656,0|0,3:2|0:0,0:0:0:0:
348,56,123372,2,0,P|297:66|263:106,1,105.600003222656,0|0,3:2|0:0,0:0:0:0:
337,306,123657,2,0,L|341:277,1,28.8,2|0,0:0|0:0,0:0:0:0:
341,278,123943,6,0,B|284:298|284:298|225:276,1,115.199996484375,6|0,3:2|3:2,0:0:0:0:
81,136,124229,5,8,0:0:0:0:
173,348,124372,1,2,3:2:0:0:
212,117,124514,5,10,0:0:0:0:
95,320,124657,1,2,3:2:0:0:
132,66,124800,5,10,0:0:0:0:
232,278,124943,1,2,3:2:0:0:
332,25,125086,6,0,L|313:139,1,115.199996484375,10|0,0:0|3:2,0:0:0:0:
452,348,125372,2,0,L|433:233,1,115.199996484375,10|2,0:0|3:2,0:0:0:0:
416,27,125657,5,10,0:0:0:0:
348,246,125800,1,2,3:2:0:0:
248,34,125943,5,10,0:0:0:0:
444,148,126086,1,2,3:2:0:0:
242,254,126229,6,0,P|187:271|133:254,1,115.199996484375,10|0,0:0|3:2,0:0:0:0:
248,34,126514,2,0,P|289:72|302:127,1,115.199996484375,10|0,0:0|3:2,0:0:0:0:
55,139,126800,2,0,P|67:83|109:45,1,115.199996484375,10|0,0:0|3:2,0:0:0:0:
302,127,127086,5,8,0:0:0:0:
137,310,127229,2,0,L|118:196,1,115.199996484375,2|8,3:2|0:0,0:0:0:0:
256,6,127514,1,2,3:2:0:0:
338,243,127657,5,10,0:0:0:0:
148,86,127800,2,0,L|35:109,1,115.199996484375,2|8,3:2|0:0,0:0:0:0:
157,326,128086,1,0,3:2:0:0:
302,127,128229,5,8,0:0:0:0:
243,364,128372,1,0,3:2:0:0:
41,197,128514,6,0,L|154:215,1,115.199996484375,14|0,0:0|3:2,0:0:0:0:
354,62,128800,5,8,0:0:0:0:
229,281,128943,1,2,3:2:0:0:
261,29,129085,5,10,0:0:0:0:
365,247,129228,1,2,3:2:0:0:
182,74,129371,5,10,0:0:0:0:
424,175,129514,1,2,3:2:0:0:
194,295,129657,6,0,L|210:180,1,115.199996484375,10|0,0:0|3:2,0:0:0:0:
23,42,129943,2,0,L|39:156,1,115.199996484375,10|2,0:0|3:2,0:0:0:0:
90,364,130228,5,10,0:0:0:0:
213,155,130371,1,2,3:2:0:0:
215,382,130514,5,10,0:0:0:0:
126,140,130657,1,2,3:2:0:0:
304,320,130800,6,0,B|362:338|362:338|413:320,1,115.199996484375,10|0,0:0|3:2,0:0:0:0:
302,99,131086,2,0,B|257:140|257:140|247:193,1,115.199996484375,10|0,0:0|3:2,0:0:0:0:
494,207,131372,2,0,B|480:147|480:147|439:112,1,115.199996484375,10|0,0:0|3:2,0:0:0:0:
247,193,131657,5,8,0:0:0:0:
413,320,131800,2,0,L|394:205,1,115.199996484375,2|8,3:2|0:0,0:0:0:0:
293,18,132085,1,2,3:2:0:0:
190,268,132228,5,10,0:0:0:0:
94,59,132372,1,2,3:2:0:0:
94,59,132443,1,10,0:0:0:0:
94,59,132514,2,0,L|37:68,2,48,8|8|8,0:0|0:0|3:3,0:0:0:0:
159,189,132800,2,0,L|172:113,1,76.8,8|4,3:3|3:3,0:0:0:0:
190,268,133086,6,0,P|133:270|89:235,1,115.199996484375,4|2,3:2|0:0,0:0:0:0:
76,138,133514,1,0,3:2:0:0:
159,189,133657,2,0,L|215:179,1,57.5999982421876,10|0,0:0|3:2,0:0:0:0:
273,100,133943,2,0,L|329:109,1,57.5999982421876,2|0,0:0|3:2,0:0:0:0:
402,162,134229,6,0,B|428:110|428:110|400:48,1,115.199996484375,2|2,0:0|0:0,0:0:0:0:
282,43,134657,2,0,L|272:99,1,57.5999982421876,2|8,3:2|0:0,0:0:0:0:
323,197,134943,1,0,3:2:0:0:
323,197,135086,2,0,L|313:253,1,57.5999982421876,2|0,0:0|0:0,0:0:0:0:
424,360,135372,6,0,B|457:319|418:277|418:277|402:297,1,115.199996484375,4|2,3:2|0:0,0:0:0:0:
327,353,135800,1,0,3:2:0:0:
327,353,135943,2,0,L|213:334,1,115.199996484375,10|2,0:0|0:0,0:0:0:0:
179,240,136372,6,0,L|235:249,1,57.5999982421876,2|0,3:2|0:0,0:0:0:0:
105,317,136657,1,10,0:0:0:0:
105,317,136800,1,2,0:0:0:0:
44,226,136943,2,0,L|54:169,1,57.5999982421876,2|8,3:2|0:0,0:0:0:0:
56,45,137229,2,0,P|112:79|166:69,1,115.199996484375,0|0,3:2|0:0,0:0:0:0:
236,30,137657,5,4,3:2:0:0:
243,49,137943,2,0,P|249:76|243:104,1,57.5999982421876,2|0,0:0|3:2,0:0:0:0:
306,159,138229,2,0,P|284:178|257:186,1,57.5999982421876,10|0,0:0|0:0,0:0:0:0:
243,268,138514,2,0,P|215:259|194:240,1,57.5999982421876,2|0,0:0|3:2,0:0:0:0:
130,151,138800,6,0,B|69:132|69:132|25:159,1,115.199996484375,2|2,0:0|0:0,0:0:0:0:
79,233,139229,1,2,3:2:0:0:
79,233,139372,1,8,0:0:0:0:
142,302,139514,2,0,P|93:330|37:318,1,115.199996484375,2|0,3:2|0:0,0:0:0:0:
178,222,139943,6,0,P|221:257|230:313,1,115.199996484375,6|2,3:2|0:0,0:0:0:0:
332,364,140372,2,0,L|322:306,1,57.5999982421876,2|8,3:2|0:0,0:0:0:0:
377,224,140657,1,2,3:2:0:0:
455,322,140800,2,0,L|417:315,1,38.4,8|0,0:0|0:0,0:0:0:0:
322,307,140943,1,2,3:2:0:0:
461,239,141086,5,8,0:0:0:0:
461,239,141157,1,8,3:3:0:0:
461,239,141229,2,0,L|467:201,1,38.4,4|8,3:3|3:3,0:0:0:0:
412,108,141372,1,0,3:2:0:0:
393,111,141443,1,0,3:2:0:0:
374,114,141514,1,8,0:0:0:0:
355,117,141586,1,8,3:3:0:0:
335,120,141657,2,0,L|295:126,1,38.4,6|8,3:3|3:3,0:0:0:0:
222,213,141800,2,0,L|259:219,1,38.4,0|0,3:2|3:2,0:0:0:0:
178,87,141943,5,10,0:0:0:0:
138,90,142014,1,8,0:0:0:0:
109,113,142085,1,8,0:0:0:0:
97,150,142157,1,8,0:0:0:0:
94,189,142229,6,0,L|110:292,1,105.600003222656,6|0,3:2|3:2,0:0:0:0:
5,168,142514,1,8,0:0:0:0:
62,366,142657,6,0,P|111:381|161:365,1,105.600003222656,0|8,3:2|0:0,0:0:0:0:
306,230,142943,1,0,3:2:0:0:
94,189,143086,6,0,L|110:292,1,105.600003222656,8|0,0:0|3:2,0:0:0:0:
302,357,143372,2,0,L|318:253,1,105.600003222656,8|0,0:0|3:2,0:0:0:0:
284,33,143657,5,8,0:0:0:0:
473,228,143800,2,0,P|437:190|386:178,1,105.600003222656,0|8,3:2|0:0,0:0:0:0:
166,246,144086,1,0,3:2:0:0:
390,274,144229,5,8,0:0:0:0:
223,108,144372,1,0,3:2:0:0:
133,346,144514,6,0,L|237:329,1,105.600003222656,12|0,0:0|3:2,0:0:0:0:
386,178,144800,1,8,0:0:0:0:
138,57,144943,6,0,B|121:107|121:107|137:156,1,105.600003222656,0|8,3:2|0:0,0:0:0:0:
237,329,145229,1,0,3:2:0:0:
18,287,145372,6,0,L|34:183,1,105.600003222656,8|0,0:0|3:2,0:0:0:0:
223,108,145657,2,0,L|239:211,1,105.600003222656,8|0,0:0|3:2,0:0:0:0:
362,370,145943,5,8,0:0:0:0:
485,158,146086,2,0,P|449:195|398:207,1,105.600003222656,0|8,3:2|0:0,0:0:0:0:
197,98,146372,5,0,3:2:0:0:
419,8,146514,2,0,L|402:112,1,105.600003222656,8|0,0:0|3:2,0:0:0:0:
275,314,146800,6,0,L|258:209,1,105.600003222656,12|0,0:0|3:2,0:0:0:0:
71,69,147086,5,8,0:0:0:0:
160,294,147229,1,0,3:2:0:0:
272,42,147372,5,8,0:0:0:0:
72,199,147514,1,0,3:2:0:0:
275,314,147657,6,0,B|325:330|325:330|375:313,1,105.600003222656,8|0,0:0|3:2,0:0:0:0:
485,101,147943,5,8,0:0:0:0:
258,209,148086,1,0,3:2:0:0:
479,294,148229,5,8,0:0:0:0:
395,39,148372,1,0,3:2:0:0:
326,328,148514,5,8,0:0:0:0:
211,35,148657,1,0,3:2:0:0:
182,344,148800,5,8,0:0:0:0:
302,78,148943,1,0,0:0:0:0:
382,336,149086,6,0,L|325:327,1,57.5999982421876,0|0,3:2|0:0,0:0:0:0:
104,137,149372,6,0,L|161:146,1,57.5999982421876,0|0,3:2|0:0,0:0:0:0:
442,187,149657,5,8,0:0:0:0:
244,383,149800,2,0,L|226:269,1,115.199996484375,4|0,3:2|0:0,0:0:0:0:
178,61,150086,6,0,B|123:60|100:14|100:14|19:-5|-36:71|-29:142|18:205|41:177|98:245|51:326,1,499.2,4|2,3:2|0:0,0:0:0:0:
51,325,152229,1,0,0:0:0:0:
72,300,152372,1,0,0:0:0:0:
154,319,152514,5,2,3:2:0:0:
452,294,154800,5,2,0:0:0:0:
202,42,155943,5,2,0:0:0:0:
283,75,156229,1,2,0:0:0:0:
364,108,156514,1,2,0:0:0:0:
364,108,156800,1,2,0:0:0:0:
462,89,157086,5,2,0:0:0:0:
492,167,157372,1,2,0:0:0:0:
444,236,157657,1,2,0:0:0:0:
364,206,157943,1,0,0:0:0:0:
278,258,158229,5,2,0:0:0:0:
44,202,158800,1,2,0:0:0:0:
235,55,159372,5,2,0:0:0:0:
129,262,159943,2,0,L|132:280,7,19.2,2|2|2|2|2|2|2|2,0:0|0:0|0:0|0:0|0:0|0:0|0:0|0:0,0:0:0:0:
181,196,160514,6,0,B|157:171|115:177|115:177|206:128|201:223|319:181,1,268.8,2|2,0:0|0:0,0:0:0:0:
341,103,161657,6,0,P|383:140|393:195,1,115.199996484375,2|2,0:0|0:0,0:0:0:0:
482,184,162086,2,0,P|471:239|428:276,1,115.199996484375,2|2,0:0|0:0,0:0:0:0:
339,266,162514,1,2,0:0:0:0:
339,266,163086,6,0,L|282:275,1,57.5999982421876,2|2,0:0|0:0,0:0:0:0:
286,190,163372,2,0,L|229:199,1,57.5999982421876,2|0,0:0|0:0,0:0:0:0:
44,99,163943,6,0,P|80:55|136:45,1,115.199996484375,2|2,0:0|0:0,0:0:0:0:
123,237,164372,2,0,P|103:183|122:130,1,115.199996484375,2|2,0:0|0:0,0:0:0:0:
210,104,164800,1,0,0:0:0:0:
210,104,165372,6,0,L|266:113,1,57.5999982421876,2|0,0:0|0:0,0:0:0:0:
262,25,165657,2,0,L|318:34,1,57.5999982421876,2|0,0:0|0:0,0:0:0:0:
410,45,165943,1,2,0:0:0:0:
372,231,166229,6,0,L|353:117,1,115.199996484375,2|2,0:0|0:0,0:0:0:0:
447,129,166657,2,0,L|456:185,1,57.5999982421876,2|2,0:0|0:0,0:0:0:0:
384,324,167086,6,0,P|328:313|291:270,2,115.199996484375,2|2|2,0:0|0:0|0:0,0:0:0:0:
485,360,167943,2,0,L|466:246,1,115.199996484375,2|0,0:0|0:0,0:0:0:0:
466,246,168514,1,2,0:0:0:0:
256,192,168586,12,2,169657,0:0:0:0:
35,356,170800,6,0,B|58:317|108:318|108:318|142:358|202:340,1,172.799994726563,6|0,3:2|0:0,0:0:0:0:
283,300,171086,2,0,P|249:233|166:276,1,172.799994726563,8|0,0:0|0:0,0:0:0:0:
210,137,171372,2,0,P|244:204|327:161,1,172.799994726563,0|0,3:2|0:0,0:0:0:0:
394,127,171657,2,0,P|407:167|399:211,1,86.3999973632813,10|0,0:0|0:0,0:0:0:0:
467,21,171943,6,0,B|362:-5|362:-5|308:38,1,172.799994726563,2|0,3:2|0:0,0:0:0:0:
210,137,172229,2,0,B|258:129|258:129|274:132|274:132|320:120|320:120|288:124|262:105,1,172.799994726563,8|0,0:0|0:0,0:0:0:0:
146,66,172514,2,0,P|108:139|148:212,1,172.799994726563,0|0,3:2|0:0,0:0:0:0:
234,231,172800,2,0,L|319:217,1,86.3999973632813,10|0,0:0|0:0,0:0:0:0:
416,340,173086,6,0,B|404:268|404:268|424:241|424:241|412:166,1,172.799994726563,2|0,3:2|0:0,0:0:0:0:
403,94,173372,1,10,0:0:0:0:
319,216,173514,2,0,B|261:227|261:227|213:196,1,115.199996484375,2|0,0:0|3:2,0:0:0:0:
150,49,173800,2,0,B|208:38|208:38|256:69,1,115.199996484375,2|8,0:0|0:0,0:0:0:0:
74,251,174086,2,0,B|114:195|89:136|89:136|35:96|53:24,1,230.39999296875,2|0,0:0|0:0,0:0:0:0:
255,68,174514,5,8,0:0:0:0:
126,152,174657,1,0,0:0:0:0:
253,205,174800,1,0,3:2:0:0:
159,267,174943,1,2,0:0:0:0:
308,142,175086,6,0,P|326:163|335:190,1,57.5999982421876,10|0,0:0|0:0,0:0:0:0:
420,211,175229,2,0,P|410:238|391:259,1,57.5999982421876,2|0,0:0|0:0,0:0:0:0:
361,359,175372,2,0,P|309:311|211:334,1,172.799994726563,2|0,3:2|0:0,0:0:0:0:
150,384,175657,1,8,0:0:0:0:
31,310,175800,2,0,L|40:253,1,57.5999982421876,2|0,0:0|0:0,0:0:0:0:
70,261,175943,2,0,L|88:147,1,115.199996484375,0|0,3:2|0:0,0:0:0:0:
198,31,176229,6,0,P|225:39|246:58,1,57.5999982421876,10|0,0:0|0:0,0:0:0:0:
265,142,176372,2,0,P|292:133|313:114,1,57.5999982421876,2|0,0:0|0:0,0:0:0:0:
433,24,176514,2,0,B|397:84|397:84|453:202,1,172.799994726563,2|0,3:2|0:0,0:0:0:0:
479,252,176800,1,8,0:0:0:0:
367,350,176943,2,0,L|310:340,1,57.5999982421876,2|0,0:0|0:0,0:0:0:0:
328,304,177086,2,0,B|248:291|248:291|239:298|239:298|159:285,1,172.799994726563,0|0,3:2|0:0,0:0:0:0:
64,308,177372,2,0,L|77:222,1,86.3999973632813,10|0,0:0|0:0,0:0:0:0:
36,136,177657,6,0,B|83:109|132:128|116:141|155:168|213:140,1,172.799994726563,2|0,3:2|0:0,0:0:0:0:
241,23,177943,2,0,P|199:31|172:64,1,86.3999973632813,8|0,0:0|0:0,0:0:0:0:
301,106,178229,2,0,B|347:171|347:171|291:291,1,187.199991430664,2|0,3:2|0:0,0:0:0:0:
350,375,178514,2,0,L|388:293,1,86.3999973632813,8|0,0:0|0:0,0:0:0:0:
433,215,178800,5,2,3:2:0:0:
301,268,178943,1,0,3:2:0:0:
399,76,179086,1,10,0:0:0:0:
215,211,179229,6,0,B|194:270|194:270|216:327,1,124.79999428711,2|8,3:2|3:3,0:0:0:0:
89,272,179443,1,8,3:3:0:0:
89,272,179514,2,0,B|109:217|109:217|90:162,1,115.199996484375,2|8,3:2|0:0,0:0:0:0:
66,116,179729,1,8,0:0:0:0:
80,66,179800,1,10,0:0:0:0:
129,49,179872,1,8,0:0:0:0:
172,67,179943,6,0,B|215:77|251:41|251:41|299:35|323:76,1,172.799994726563,4|0,3:2|0:0,0:0:0:0:
405,23,180229,2,0,B|416:94|416:94|404:120|404:120|416:192,1,172.799994726563,8|0,0:0|0:0,0:0:0:0:
396,320,180514,2,0,B|384:248|384:248|396:222|396:222|385:151,1,172.799994726563,0|0,3:2|0:0,0:0:0:0:
492,356,180800,2,0,L|478:270,1,86.3999973632813,8|0,0:0|0:0,0:0:0:0:
385,151,181086,6,0,B|289:183|289:183|221:143,1,172.799994726563,2|0,3:2|0:0,0:0:0:0:
125,154,181372,2,0,B|167:160|194:121|194:121|200:125|200:125|194:121|194:121|215:75|183:31,1,172.799994726563,10|0,0:0|0:0,0:0:0:0:
124,6,181657,2,0,B|81:0|54:38|54:38|48:34|48:34|54:38|54:38|33:84|65:128,1,172.799994726563,2|0,3:2|0:0,0:0:0:0:
125,154,181943,2,0,P|135:195|124:237,1,86.3999973632813,10|0,0:0|0:0,0:0:0:0:
37,310,182229,6,0,B|43:349|81:359|81:359|112:354|112:354|123:344|123:344|190:334,1,172.799994726563,2|0,3:2|0:0,0:0:0:0:
262,381,182514,2,0,B|220:373|207:328|207:328|200:329|200:329|207:328|207:328|202:277|247:246,1,172.799994726563,10|0,0:0|0:0,0:0:0:0:
280,187,182800,2,0,P|308:189|333:203,1,57.5999982421876,2|0,3:2|0:0,0:0:0:0:
428,242,182943,1,2,0:0:0:0:
428,242,183014,1,2,0:0:0:0:
428,242,183086,2,0,L|415:156,1,86.3999973632813,10|0,0:0|0:0,0:0:0:0:
440,333,183372,6,0,B|397:343|361:307|361:307|311:302|289:342,1,172.799994726563,2|0,3:2|0:0,0:0:0:0:
184,380,183657,2,0,B|197:297|197:297|190:287|190:287|203:208,1,172.799994726563,10|0,0:0|0:0,0:0:0:0:
112,104,183943,2,0,B|98:186|98:186|105:196|105:196|92:275,1,172.799994726563,2|0,3:2|0:0,0:0:0:0:
8,168,184229,2,0,L|21:82,1,86.3999973632813,10|0,0:0|0:0,0:0:0:0:
100,8,184514,5,2,3:2:0:0:
205,125,184657,1,2,0:0:0:0:
205,125,184729,2,0,L|261:115,1,57.5999982421876,2|10,0:0|0:0,0:0:0:0:
444,101,184943,5,2,0:0:0:0:
324,229,185086,1,2,3:2:0:0:
324,229,185158,2,0,L|267:219,1,57.5999982421876,2|2,0:0|0:0,0:0:0:0:
65,193,185372,5,10,0:0:0:0:
206,327,185515,1,2,0:0:0:0:
206,327,185587,2,0,L|262:317,1,57.5999982421876,2|2,0:0|3:2,0:0:0:0:
384,166,185800,5,2,3:2:0:0:
134,269,185943,1,10,0:0:0:0:
392,373,186086,1,2,3:2:0:0:
323,111,186229,5,10,0:0:0:0:
291,72,186300,1,8,0:0:0:0:
243,56,186371,1,10,3:3:0:0:
193,69,186443,1,14,3:3:0:0:
162,106,186514,2,0,L|175:191,1,86.3999973632813,6|0,3:3|3:2,0:0:0:0:
51,36,186800,6,0,L|67:150,1,115.199996484375,10|2,0:0|3:2,0:0:0:0:
40,374,187086,1,2,3:2:0:0:
270,300,187229,1,10,3:3:0:0:
253,298,187300,1,8,3:3:0:0:
236,296,187372,2,0,L|179:286,1,57.5999982421876,6|4,3:3|3:3,0:0:0:0:
0,189,187514,2,0,L|57:179,1,57.5999982421876,2|0,3:2|3:2,0:0:0:0:
293,137,187657,5,10,0:0:0:0:
51,36,187800,1,2,3:2:0:0:
217,211,187943,6,0,L|207:154,1,57.5999982421876,2|0,0:0|0:0,0:0:0:0:
321,0,188086,1,2,0:0:0:0:
321,0,188157,1,2,0:0:0:0:
321,0,188229,2,0,L|331:57,1,57.5999982421876,2|0,0:0|0:0,0:0:0:0:
405,229,188372,2,0,L|348:219,1,57.5999982421876,2|0,0:0|0:0,0:0:0:0:
470,162,188514,6,0,L|457:86,1,76.8,2|2,0:0|0:0,0:0:0:0:
473,185,188800,1,2,0:0:0:0:
443,323,188943,6,0,B|348:355|348:355|280:306,1,172.799994726563,6|2,3:2|3:2,0:0:0:0:
160,207,189371,1,10,0:0:0:0:
339,191,189514,1,2,3:2:0:0:
199,330,189657,1,8,0:0:0:0:
199,330,189728,1,0,0:0:0:0:
199,330,189800,2,0,L|207:287,1,43.1999986816407,2|0,3:2|0:0,0:0:0:0:
229,155,189943,1,10,0:0:0:0:
60,296,190085,6,0,B|47:213|47:213|50:204|50:204|38:125,1,172.799994726563,6|2,3:2|3:2,0:0:0:0:
180,4,190514,1,10,0:0:0:0:
128,180,190657,1,2,3:2:0:0:
28,44,190800,1,8,3:3:0:0:
28,44,190871,1,0,0:0:0:0:
28,44,190943,2,0,L|80:52,1,43.1999986816407,0|0,3:2|3:2,0:0:0:0:
216,76,191085,1,10,0:0:0:0:
92,56,191228,1,2,0:0:0:0:
216,168,191371,6,0,L|302:154,1,86.3999973632813,6|8,3:2|0:0,0:0:0:0:
424,56,191657,1,2,3:2:0:0:
424,56,191728,1,0,3:2:0:0:
424,56,191800,2,0,L|412:106,1,43.1999986816407,10|0,0:0|0:0,0:0:0:0:
348,244,191943,1,0,3:2:0:0:
480,172,192085,1,10,0:0:0:0:
360,220,192228,1,2,3:2:0:0:
438,358,192371,6,0,L|454:263,1,86.3999973632813,10|6,0:0|3:2,0:0:0:0:
384,112,192657,1,10,0:0:0:0:
348,101,192728,1,8,0:0:0:0:
309,103,192799,1,10,0:0:0:0:
275,121,192871,1,8,0:0:0:0:
247,156,192943,2,0,L|256:207,1,43.1999986816407,2|0,3:2|3:2,0:0:0:0:
296,272,193085,5,8,3:3:0:0:
293,287,193157,1,8,3:3:0:0:
290,303,193228,1,0,3:2:0:0:
288,319,193300,1,0,3:2:0:0:
286,335,193371,1,10,0:0:0:0:
168,228,193514,6,0,B|101:238|101:238|81:266|81:266|11:277,1,172.799994726563,6|2,3:2|3:2,0:0:0:0:
168,316,193943,1,10,0:0:0:0:
28,184,194085,2,0,L|42:98,1,86.3999973632813,2|8,3:2|0:0,0:0:0:0:
240,40,194371,2,0,L|198:33,1,43.1999986816407,2|0,3:2|3:2,0:0:0:0:
56,16,194514,1,10,0:0:0:0:
148,171,194657,6,0,B|195:186|230:149|230:149|277:143|305:182,1,172.799994726563,6|2,3:2|3:2,0:0:0:0:
311,211,195014,1,0,0:0:0:0:
298,251,195085,1,10,0:0:0:0:
308,293,195156,1,8,0:0:0:0:
338,324,195228,2,0,L|386:330,1,43.1999986816407,2|0,3:2|3:2,0:0:0:0:
470,262,195371,5,8,3:3:0:0:
473,247,195443,1,8,3:3:0:0:
476,231,195514,1,0,3:3:0:0:
478,215,195586,1,0,3:3:0:0:
480,199,195657,2,0,P|468:163|421:139,1,86.3999973632813,10|2,0:0|0:0,0:0:0:0:
321,22,195943,6,0,L|335:108,1,86.3999973632813,6|8,3:2|0:0,0:0:0:0:
223,211,196229,1,2,3:2:0:0:
223,211,196300,1,0,3:2:0:0:
223,211,196372,2,0,L|235:161,1,43.1999986816407,10|0,0:0|0:0,0:0:0:0:
178,61,196515,1,0,3:2:0:0:
133,211,196657,1,10,0:0:0:0:
186,40,196800,1,2,3:2:0:0:
29,100,196943,6,0,L|43:185,1,86.3999973632813,10|6,0:0|3:2,0:0:0:0:
118,349,197229,1,10,0:0:0:0:
118,349,197300,1,8,0:0:0:0:
118,349,197371,1,10,0:0:0:0:
223,211,197514,5,10,0:0:0:0:
320,239,197657,1,8,3:3:0:0:
291,336,197800,1,8,3:3:0:0:
194,307,197943,1,6,3:3:0:0:
223,211,198085,1,6,3:3:0:0:
363,167,198228,6,0,P|394:195|404:238,1,86.3999973632813,6|2,3:2|0:0,0:0:0:0:
400,83,198514,2,0,B|358:62|307:78|331:94|283:121|226:94,1,172.799994726563,2|8,3:2|0:0,0:0:0:0:
99,11,198943,6,0,P|130:39|140:82,1,86.3999973632813,2|2,3:2|0:0,0:0:0:0:
8,157,199228,2,0,P|17:115|49:86,1,86.3999973632813,2|8,3:2|0:0,0:0:0:0:
139,171,199443,1,8,0:0:0:0:
139,171,199514,2,0,L|96:164,1,43.1999986816407,10|8,3:3|3:3,0:0:0:0:
44,283,199657,1,6,3:3:0:0:
44,283,199728,1,4,3:3:0:0:
44,283,199800,2,0,L|87:276,1,43.1999986816407,10|8,0:0|3:3,0:0:0:0:
200,257,199943,5,8,3:3:0:0:
243,252,200014,1,8,3:3:0:0:
287,265,200085,1,0,3:3:0:0:
328,282,200157,1,0,3:3:0:0:
371,273,200228,5,8,0:0:0:0:
410,238,200300,1,8,0:0:0:0:
413,186,200371,1,8,0:0:0:0:
389,139,200443,1,8,0:0:0:0:
344,128,200514,6,0,B|281:154|238:106|238:106|149:126|127:215|127:215|19:175|43:74|77:17|77:17|53:61|80:113,1,614.4,6|0,3:2|0:0,0:0:0:0:
