osu file format v14

[General]
AudioFilename: audio.mp3
AudioLeadIn: 0
PreviewTime: 175693
Countdown: 0
SampleSet: Soft
StackLeniency: 0.7
Mode: 0
LetterboxInBreaks: 0
WidescreenStoryboard: 0

[Editor]
Bookmarks: 408,5597,15975,26353,36732,41921,47110,49543,59921,71759,75953,88753,95153,107953,111153,113585,123963,134504,144882,155261,165639,173423,173747,174071,174396,174720,175044,175369,175693,176017,187693,192720,200504,213639,223855,236828,239585
DistanceSpacing: 1.9
BeatDivisor: 4
GridSize: 32
TimelineZoom: 1.9

[Metadata]
Title:STARRY SKY
TitleUnicode:STARRY SKY
Artist:PassCode
ArtistUnicode:PassCode
Creator:Akitoshi
Version:Starfall
Source:隕石家族
Tags:Corinn -Laura- Inseki Kazoku Tokai Toukai TV Television Drama Japanese Pop Rock 高嶋楓 Takashima Kaede 南菜生 Minami Nao 今田夢菜 Imada Yuna 大上陽奈子 Oogami Hinako
BeatmapID:2498021
BeatmapSetID:1199549

[Difficulty]
HPDrainRate:6
CircleSize:4
OverallDifficulty:9.3
ApproachRate:9.5
SliderMultiplier:1.7
SliderTickRate:2

[Events]
//Background and Video events
0,0,"000000.jpg",0,0
//Break Periods
2,16175,24855
2,88953,93028
2,165839,172898
//Storyboard Layer 0 (Background)
//Storyboard Layer 1 (Fail)
//Storyboard Layer 2 (Pass)
//Storyboard Layer 3 (Foreground)
//Storyboard Layer 4 (Overlay)
//Storyboard Sound Samples

[TimingPoints]
408,324.324324324324,4,2,5,40,1,0
408,-200,4,2,5,40,0,0
3002,-166.666666666667,4,2,5,40,0,0
3651,-100,4,2,5,60,0,0
4218,-100,4,2,5,5,0,0
4299,-333.333333333333,4,2,5,40,0,0
5597,-100,4,2,5,70,0,0
5840,-100,4,2,5,5,0,0
5921,-100,4,2,5,70,0,0
11029,-100,4,2,5,5,0,0
11110,-100,4,2,5,70,0,0
15975,-250,4,2,5,70,0,0
25380,-166.666666666667,4,2,5,50,0,0
25786,-166.666666666667,4,2,5,5,0,0
25867,-166.666666666667,4,2,5,50,0,0
26272,-166.666666666667,4,2,5,5,0,0
26353,-111.111111111111,4,2,5,60,0,0
28867,-111.111111111111,4,2,5,5,0,0
28948,-111.111111111111,4,2,5,60,0,0
31462,-111.111111111111,4,2,5,5,0,0
31543,-111.111111111111,4,2,5,60,0,0
36732,-125,4,2,5,60,0,0
41921,-142.857142857143,4,2,5,60,0,0
43218,-125,4,2,5,60,0,0
44191,-100,4,2,5,60,0,0
44435,-100,4,2,5,5,0,0
44516,-200,4,2,5,40,0,0
46462,-111.111111111111,4,2,5,70,0,0
47110,-100,4,2,5,70,0,0
49543,-90.9090909090909,4,2,5,80,0,0
70137,-66.6666666666667,4,2,5,80,0,0
70380,-66.6666666666667,4,2,5,5,0,0
70462,-90.9090909090909,4,2,5,80,0,0
71759,-125,4,2,5,80,0,0
73056,-100,4,2,5,80,0,0
74272,-100,4,2,5,5,0,0
74353,400,4,2,5,70,1,0
75853,-100,4,2,5,5,0,0
75953,-100,4,2,5,70,0,0
88753,-125,4,2,5,60,0,0
93553,-66.6666666666667,4,2,5,60,0,0
93753,-66.6666666666667,4,2,5,5,0,0
93853,-66.6666666666667,4,2,5,60,0,0
94053,-66.6666666666667,4,2,5,5,0,0
94153,-66.6666666666667,4,2,5,60,0,0
95153,-111.111111111111,4,2,5,70,0,0
101853,-111.111111111111,4,2,5,5,0,0
101953,-111.111111111111,4,2,5,70,0,0
102653,-111.111111111111,4,2,5,5,0,0
102753,-111.111111111111,4,2,5,70,0,0
103453,-111.111111111111,4,2,5,5,0,0
103553,-111.111111111111,4,2,5,70,0,0
104353,-76.9230769230769,4,2,5,70,0,0
104653,-76.9230769230769,4,2,5,5,0,0
104753,-111.111111111111,4,2,5,70,0,0
105453,-111.111111111111,4,2,5,5,0,0
105553,-111.111111111111,4,2,5,70,0,0
106253,-111.111111111111,4,2,5,5,0,0
106353,-111.111111111111,4,2,5,70,0,0
107953,-66.6666666666667,4,2,5,70,0,0
108153,-66.6666666666667,4,2,5,5,0,0
108253,-66.6666666666667,4,2,5,70,0,0
108453,-66.6666666666667,4,2,5,5,0,0
108553,-66.6666666666667,4,2,5,70,0,0
108653,-66.6666666666667,4,2,5,5,0,0
108753,-66.6666666666667,4,2,5,70,0,0
108953,-66.6666666666667,4,2,5,5,0,0
109053,-66.6666666666667,4,2,5,70,0,0
109253,-66.6666666666667,4,2,5,5,0,0
109353,-66.6666666666667,4,2,5,70,0,0
109453,-66.6666666666667,4,2,5,5,0,0
109553,-66.6666666666667,4,2,5,70,0,0
109753,-66.6666666666667,4,2,5,5,0,0
109853,-66.6666666666667,4,2,5,70,0,0
110053,-66.6666666666667,4,2,5,5,0,0
110153,-66.6666666666667,4,2,5,70,0,0
110253,-66.6666666666667,4,2,5,5,0,0
110353,-66.6666666666667,4,2,5,70,0,0
110553,-66.6666666666667,4,2,5,5,0,0
110653,-66.6666666666667,4,2,5,70,0,0
110853,-66.6666666666667,4,2,5,5,0,0
110953,-66.6666666666667,4,2,5,70,0,0
111053,-66.6666666666667,4,2,5,5,0,0
111153,324.324324324324,4,2,5,60,1,0
111153,-125,4,2,5,60,0,0
112450,-111.111111111111,4,2,5,60,0,0
113098,-100,4,2,5,70,0,0
113585,-90.9090909090909,4,2,5,80,0,0
134504,-111.111111111111,4,2,5,70,0,0
144882,-100,4,2,5,70,0,0
153639,-66.6666666666667,4,2,5,70,0,0
154125,-1000,4,2,5,70,0,0
154936,-100,4,2,5,40,0,0
155098,-100,4,2,5,60,0,0
155261,-83.3333333333333,4,2,5,80,0,1
155504,-83.3333333333333,4,2,5,5,0,1
155585,-83.3333333333333,4,2,5,80,0,1
156801,-83.3333333333333,4,2,5,5,0,1
156882,-83.3333333333333,4,2,5,80,0,1
158098,-83.3333333333333,4,2,5,5,0,1
158180,-83.3333333333333,4,2,5,80,0,1
160693,-83.3333333333333,4,2,5,5,0,1
160774,-83.3333333333333,4,2,5,80,0,1
161990,-83.3333333333333,4,2,5,5,0,1
162071,-83.3333333333333,4,2,5,80,0,1
165639,-200,4,2,5,60,0,0
187693,-111.111111111111,4,2,5,70,0,0
190125,-100,4,2,5,70,0,0
191585,-90.9090909090909,4,2,5,70,0,0
192234,-66.6666666666667,4,2,5,70,0,0
192315,-66.6666666666667,4,2,5,5,0,0
192396,-166.666666666667,4,2,5,70,0,0
192639,-166.666666666667,4,2,5,5,0,0
192720,-83.3333333333333,4,2,5,85,0,1
200504,-80,4,2,5,85,0,1
211044,-333.333333333334,4,2,2,50,0,0
212666,-333.333333333334,4,2,5,5,0,0
213639,-83.3333333333333,4,2,5,80,0,1
221342,-83.3333333333333,4,2,5,5,0,1
221423,-83.3333333333333,4,2,5,80,0,1
234234,-142.857142857143,4,2,5,60,0,0
235693,-90.9090909090909,4,2,5,70,0,0
236828,-192.307692307692,4,2,5,70,0,0
236990,-192.307692307692,4,2,2,50,0,0
239585,-192.307692307692,4,2,2,5,0,0

[Colours]
Combo1 : 21,234,154
Combo2 : 0,255,255
Combo3 : 159,159,208
Combo4 : 255,255,26

[HitObjects]
119,137,408,6,0,B|146:151|146:151|214:131,1,85,0|0,3:0|1:0,0:0:0:0:
352,166,1056,1,0,3:0:0:0:
352,166,1218,2,0,P|355:193|357:216,1,42.5,0|0,1:0|0:0,0:0:0:0:
431,226,1543,6,0,P|432:204|435:183,1,42.5,0|0,3:0|0:0,0:0:0:0:
445,107,1867,2,0,P|481:103|497:99,1,42.5,0|0,1:0|0:0,0:0:0:0:
417,33,2191,1,0,1:0:0:0:
351,72,2353,2,0,P|315:68|299:64,1,42.5,0|0,3:0|0:0,0:0:0:0:
241,30,2678,2,0,P|205:34|189:38,1,42.5,0|0,1:0|0:0,0:0:0:0:
131,97,3002,6,0,P|142:124|147:162,1,50.9999984436036,0|0,3:0|0:0,0:0:0:0:
229,219,3326,2,0,P|234:194|244:170,1,50.9999984436036,0|0,1:0|0:0,0:0:0:0:
350,98,3651,1,2,0:0:0:0:
414,245,3813,6,0,B|372:269|331:266|331:266|301:295|301:295|253:293|214:310,1,212.5,6|0,3:2|0:0,0:0:0:0:
195,320,4299,6,0,P|188:347|181:376,2,50.9999984436036,4|4|2,0:3|0:3|0:0,0:0:0:0:
195,320,5597,6,0,B|121:335|121:335|99:326|75:297,1,127.5,6|0,3:2|0:0,0:0:0:0:
44,235,5921,2,0,P|54:197|68:152,1,85,8|2,0:0|0:0,0:0:0:0:
249,81,6245,1,0,3:0:0:0:
145,246,6407,1,0,3:0:0:0:
126,50,6570,1,8,0:0:0:0:
258,206,6732,1,2,0:0:0:0:
258,206,6813,1,2,0:0:0:0:
258,206,6894,6,0,P|300:216|361:194,1,85,0|0,3:0|0:0,0:0:0:0:
504,100,7218,2,0,P|449:91|408:85,1,85,8|2,0:0|0:0,0:0:0:0:
225,59,7543,1,0,3:0:0:0:
363,196,7705,1,0,3:0:0:0:
337,2,7867,1,8,0:0:0:0:
242,182,8029,1,2,0:0:0:0:
108,64,8191,6,0,P|57:64|20:84,1,85,0|2,3:0|0:0,0:0:0:0:
175,224,8516,2,0,P|246:208|269:203,1,85,8|0,0:0|0:0,0:0:0:0:
431,305,8840,1,0,3:0:0:0:
256,356,9002,1,0,3:0:0:0:
256,356,9083,1,0,3:0:0:0:
256,356,9164,2,0,P|215:347|174:338,1,85,8|2,0:0|0:0,0:0:0:0:
72,178,9489,5,0,3:0:0:0:
260,185,9651,2,0,P|265:146|274:94,1,85,10|0,0:0|3:0,0:0:0:0:
458,9,9975,2,0,P|468:51|477:95,1,85,10|0,0:0|3:0,0:0:0:0:
380,275,10299,1,10,0:0:0:0:
380,275,10380,1,10,0:0:0:0:
380,275,10462,2,0,L|318:266,1,42.5,8|8,0:0|0:0,0:0:0:0:
217,191,10624,2,0,L|259:184,1,42.5,8|8,0:0|0:0,0:0:0:0:
326,54,10786,6,0,B|255:38|255:38|230:58|200:60,1,127.5,6|0,3:2|0:0,0:0:0:0:
129,57,11110,2,0,P|112:100|119:145,1,85,8|2,0:0|0:0,0:0:0:0:
157,329,11435,1,0,3:0:0:0:
285,181,11597,1,0,3:0:0:0:
82,244,11759,1,8,0:0:0:0:
268,302,11921,1,2,0:0:0:0:
268,302,12002,1,2,0:0:0:0:
268,302,12083,6,0,P|319:291|358:284,1,85,0|0,3:0|0:0,0:0:0:0:
501,159,12407,1,8,0:0:0:0:
290,121,12570,1,2,0:0:0:0:
457,264,12732,1,0,3:0:0:0:
442,60,12894,1,0,3:0:0:0:
290,209,13056,1,8,0:0:0:0:
155,122,13218,1,2,0:0:0:0:
155,122,13299,1,2,0:0:0:0:
155,122,13380,6,0,L|92:113,1,42.5,0|2,3:0|0:0,0:0:0:0:
38,38,13543,2,0,L|101:29,1,42.5,2|2,0:0|0:0,0:0:0:0:
213,8,13705,2,0,P|251:28|307:16,1,85,8|2,0:0|0:0,0:0:0:0:
379,13,13948,1,2,0:0:0:0:
379,13,14029,6,0,L|388:71,1,42.5,6|8,3:2|0:0,0:0:0:0:
491,119,14191,2,0,L|482:177,1,42.5,8|8,0:2|0:0,0:0:0:0:
418,264,14353,1,8,0:0:0:0:
387,235,14435,1,8,0:0:0:0:
348,217,14516,1,8,0:0:0:0:
306,214,14597,1,8,0:0:0:0:
265,225,14678,1,0,3:0:0:0:
175,360,14840,6,0,P|211:353|276:344,1,85,6|0,3:2|0:0,0:0:0:0:
120,197,15164,2,0,P|77:190|36:183,1,85,6|0,3:2|0:0,0:0:0:0:
208,29,15489,1,8,0:0:0:0:
265,225,15651,1,4,3:0:0:0:
377,54,15813,1,4,3:0:0:0:
188,133,15975,5,6,3:2:0:0:
171,134,25380,5,6,0:0:0:0:
264,205,25543,1,8,0:0:0:0:
264,205,25624,2,0,P|274:172|272:141,1,50.9999984436036,8|0,0:0|0:0,0:0:0:0:
276,132,25867,1,0,3:0:0:0:
140,213,26029,2,0,P|90:206|59:202,1,76.4999976654053,8|0,0:0|0:0,0:0:0:0:
37,200,26353,6,0,B|23:238|23:238|30:275,1,76.4999976654053,6|0,3:2|0:0,0:0:0:0:
88,114,26678,2,0,P|78:54|75:31,1,76.4999976654053,8|0,0:0|0:0,0:0:0:0:
196,15,27002,2,0,B|228:51|228:51|339:26,1,152.999995330811,0|2,3:0|0:0,0:0:0:0:
444,73,27489,1,8,0:0:0:0:
352,152,27651,5,2,0:0:0:0:
352,152,27813,2,0,P|308:164|267:159,1,76.4999976654053,0|8,3:0|0:0,0:0:0:0:
210,264,28137,2,0,P|248:262|284:273,1,76.4999976654053,2|0,0:0|3:0,0:0:0:0:
379,352,28462,1,0,3:0:0:0:
481,284,28624,2,0,B|492:206|489:210|498:157,1,114.749996498108,8|0,0:0|0:0,0:0:0:0:
499,143,28948,5,6,3:2:0:0:
375,166,29110,1,2,0:0:0:0:
398,46,29272,2,0,P|436:32|482:31,1,76.4999976654053,8|0,0:0|0:0,0:0:0:0:
352,152,29597,1,0,3:0:0:0:
277,55,29759,2,0,P|238:52|203:38,1,76.4999976654053,0|2,3:0|0:0,0:0:0:0:
53,9,30083,6,0,P|44:62|40:90,1,76.4999976654053,8|0,0:0|0:0,0:0:0:0:
86,198,30407,1,0,3:0:0:0:
203,159,30570,2,0,P|238:145|276:142,1,76.4999976654053,8|2,0:0|0:0,0:0:0:0:
376,212,30894,1,0,3:0:0:0:
262,257,31056,1,0,3:0:0:0:
348,342,31218,2,0,B|419:332|405:335|464:328,1,114.749996498108,8|0,0:0|0:0,0:0:0:0:
488,325,31543,6,0,B|496:286|496:286|486:251,1,76.4999976654053,6|0,3:2|0:0,0:0:0:0:
395,138,31867,2,0,P|384:182|375:219,1,76.4999976654053,8|0,0:0|0:0,0:0:0:0:
277,284,32191,1,2,0:0:0:0:
171,221,32353,2,0,P|132:225|87:254,1,76.4999976654053,0|0,3:0|0:0,0:0:0:0:
192,322,32678,1,8,0:0:0:0:
260,185,32840,6,0,P|255:145|249:104,1,76.4999976654053,2|0,0:0|3:0,0:0:0:0:
145,19,33164,2,0,P|139:56|134:94,1,76.4999976654053,8|0,0:0|0:0,0:0:0:0:
38,171,33489,1,0,3:0:0:0:
46,48,33651,1,0,3:0:0:0:
127,186,33813,1,8,0:0:0:0:
249,86,33975,6,0,P|292:86|328:99,1,76.4999976654053,2|0,0:0|3:0,0:0:0:0:
396,194,34299,1,0,3:0:0:0:
251,175,34462,1,10,0:0:0:0:
324,273,34624,1,0,3:0:0:0:
408,110,34786,2,0,P|402:71|396:20,1,76.4999976654053,10|0,0:0|3:0,0:0:0:0:
278,5,35110,1,0,3:0:0:0:
187,118,35272,6,0,B|248:127|248:127|268:153|268:153|337:162,1,152.999995330811,10|0,0:0|3:0,0:0:0:0:
154,229,35759,1,8,0:0:0:0:
103,62,35921,1,8,0:0:0:0:
103,62,36002,1,8,0:0:0:0:
103,62,36083,5,8,0:0:0:0:
30,187,36245,1,8,3:0:0:0:
166,137,36407,1,4,3:0:0:0:
23,105,36570,1,4,3:0:0:0:
185,19,36732,6,0,P|220:23|268:29,1,68,6|0,3:2|3:0,0:0:0:0:
348,78,37056,1,0,3:0:0:0:
256,137,37218,1,0,3:0:0:0:
342,202,37380,2,0,B|447:175|447:175|420:219,1,136,12|0,0:0|0:0,0:0:0:0:
377,293,37867,1,0,3:0:0:0:
241,288,38029,6,0,P|228:248|228:215,1,68,6|0,3:2|3:0,0:0:0:0:
157,139,38353,1,0,3:0:0:0:
131,245,38516,1,0,3:0:0:0:
35,192,38678,2,0,B|14:108|14:108|27:92|35:56,1,136,12|0,0:0|0:0,0:0:0:0:
131,15,39164,1,2,0:0:0:0:
223,124,39326,6,0,P|186:136|144:139,1,68,6|0,3:2|3:0,0:0:0:0:
272,32,39651,1,0,3:0:0:0:
328,124,39813,1,0,3:0:0:0:
423,72,39975,2,0,B|454:152|454:152|445:171|418:188,1,136,12|0,0:0|0:0,0:0:0:0:
317,226,40462,1,0,3:0:0:0:
428,304,40624,6,0,P|475:296|521:288,1,68,6|0,3:2|3:0,0:0:0:0:
340,241,40948,1,0,3:0:0:0:
319,347,41110,1,0,3:0:0:0:
200,280,41272,1,12,0:0:0:0:
169,284,41353,1,0,3:0:0:0:
139,288,41435,1,0,3:0:0:0:
109,292,41516,1,0,3:0:0:0:
78,296,41597,2,0,P|68:253|76:213,1,68,12|0,0:0|0:0,0:0:0:0:
180,138,41921,6,0,P|174:170|169:205,1,59.4999981842042,6|0,3:2|0:0,0:0:0:0:
267,140,42245,2,0,P|262:110|257:81,1,59.4999981842042,0|0,3:2|0:0,0:0:0:0:
323,20,42570,2,0,P|358:19|384:28,1,59.4999981842042,0|0,3:0|0:0,0:0:0:0:
423,104,42894,2,0,P|394:112|364:110,1,59.4999981842042,0|0,3:0|0:0,0:0:0:0:
267,140,43218,6,0,P|264:172|258:224,1,68,0|2,3:0|0:0,0:0:0:0:
113,124,43543,2,0,P|109:90|106:56,1,68,0|2,3:0|0:0,0:0:0:0:
29,279,43867,1,0,3:0:0:0:
212,373,44029,1,2,0:0:0:0:
212,373,44110,1,2,0:0:0:0:
212,373,44191,2,0,P|245:333|331:336,1,127.5,0|0,3:0|0:0,0:0:0:0:
323,357,44516,5,2,0:0:0:0:
323,357,46462,5,8,0:0:0:0:
327,322,46543,1,0,3:0:0:0:
332,288,46624,1,0,3:0:0:0:
336,254,46705,1,0,3:0:0:0:
360,230,46786,5,4,3:0:0:0:
356,203,46867,1,4,3:0:0:0:
352,176,46948,1,4,3:0:0:0:
349,150,47029,1,4,3:0:0:0:
345,123,47110,6,0,B|302:137|302:137|248:123,1,85,6|0,3:2|3:0,0:0:0:0:
90,78,47435,1,0,3:0:0:0:
226,229,47597,1,8,0:0:0:0:
193,27,47759,1,0,3:0:0:0:
76,243,47921,5,8,0:0:0:0:
8,6,48083,1,8,0:0:0:0:
235,119,48245,1,10,0:0:0:0:
235,119,49543,6,0,B|334:151|334:151|382:127|366:73,1,187.000005706787,6|0,3:2|3:0,0:0:0:0:
147,6,50029,1,8,0:0:0:0:
222,227,50191,1,2,0:0:0:0:
288,22,50353,1,0,3:0:0:0:
107,137,50516,1,0,3:0:0:0:
327,179,50678,2,0,P|321:229|313:285,1,93.5000028533936,8|2,0:0|0:0,0:0:0:0:
134,369,51002,5,0,3:0:0:0:
205,206,51164,1,0,3:0:0:0:
13,248,51326,2,0,P|3:294|14:352,1,93.5000028533936,8|0,0:0|0:0,0:0:0:0:
181,194,51651,1,2,0:0:0:0:
0,149,51813,1,0,3:0:0:0:
114,352,51975,1,8,0:0:0:0:
305,218,52137,6,0,B|378:230|378:230|404:263|404:263|477:278,1,187.000005706787,6|0,3:2|3:0,0:0:0:0:
338,97,52624,1,8,0:0:0:0:
251,293,52786,1,2,0:0:0:0:
193,115,52948,1,0,3:0:0:0:
397,207,53110,1,0,3:0:0:0:
286,11,53272,2,0,P|240:7|190:26,1,93.5000028533936,8|2,0:0|0:0,0:0:0:0:
22,166,53597,5,0,3:0:0:0:
214,205,53759,1,0,3:0:0:0:
98,12,53921,2,0,P|47:19|6:24,1,93.5000028533936,8|2,0:0|0:0,0:0:0:0:
116,218,54245,1,0,3:0:0:0:
196,22,54407,1,0,3:0:0:0:
15,140,54570,1,8,0:0:0:0:
242,194,54732,6,0,B|296:184|361:168|361:168|383:191|427:203,1,187.000005706787,6|0,3:2|3:0,0:0:0:0:
240,367,55218,2,0,P|187:371|135:347,1,93.5000028533936,10|0,0:0|0:0,0:0:0:0:
22,166,55543,1,2,3:2:0:0:
214,205,55705,1,0,3:0:0:0:
115,35,55867,2,0,P|62:21|19:32,1,93.5000028533936,10|0,0:0|0:0,0:0:0:0:
190,217,56191,5,2,3:2:0:0:
263,7,56353,1,0,3:0:0:0:
387,195,56516,2,0,P|373:250|366:291,1,93.5000028533936,10|0,0:0|0:0,0:0:0:0:
244,98,56840,1,2,0:2:0:0:
429,77,57002,1,0,3:0:0:0:
281,219,57164,2,0,P|231:228|179:212,1,93.5000028533936,10|0,0:0|0:0,0:0:0:0:
3,74,57489,5,6,3:2:0:0:
58,271,57651,1,0,3:0:0:0:
160,61,57813,1,8,0:0:0:0:
283,248,57975,2,0,B|412:269|412:269|392:251|367:214,1,187.000005706787,6|0,3:2|3:0,0:0:0:0:
249,28,58462,1,8,0:0:0:0:
91,187,58624,6,0,B|73:246|73:246|98:300|98:300|74:367,1,187.000005706787,6|0,3:2|3:0,0:0:0:0:
5,100,59110,1,10,0:0:0:0:
187,245,59272,1,0,3:0:0:0:
324,54,59435,1,10,0:0:0:0:
365,32,59516,1,8,0:0:0:0:
411,28,59597,1,8,0:0:0:0:
455,43,59678,1,8,0:0:0:0:
489,75,59759,1,8,0:0:0:0:
508,117,59840,1,8,0:0:0:0:
509,163,59921,6,0,B|407:199|407:199|363:189|354:135,1,187.000005706787,4|0,3:0|3:0,0:0:0:0:
264,126,60326,1,0,3:0:0:0:
264,126,60407,2,0,B|219:141|219:141|168:131,1,93.5000028533936,12|2,0:0|0:0,0:0:0:0:
411,28,60732,1,0,3:0:0:0:
310,238,60894,1,0,3:0:0:0:
209,27,61056,2,0,P|158:35|104:44,1,93.5000028533936,8|2,0:0|0:0,0:0:0:0:
192,252,61380,5,0,3:0:0:0:
356,144,61543,1,0,3:0:0:0:
148,128,61705,2,0,P|99:140|59:173,1,93.5000028533936,8|0,0:0|0:0,0:0:0:0:
239,334,62029,1,2,0:0:0:0:
258,129,62191,1,0,3:0:0:0:
98,299,62353,1,8,0:0:0:0:
326,245,62516,6,0,B|441:218|441:218|457:248|502:266,1,187.000005706787,6|0,3:2|3:0,0:0:0:0:
265,347,63002,1,8,0:0:0:0:
284,133,63164,2,0,P|324:114|383:116,1,93.5000028533936,2|0,0:0|0:0,0:0:0:0:
188,259,63489,1,0,3:0:0:0:
235,30,63651,1,8,0:0:0:0:
43,164,63813,6,0,B|75:285|75:285|54:259|24:249,1,187.000005706787,6|0,3:2|3:0,0:0:0:0:
115,14,64299,1,8,0:0:0:0:
263,157,64462,1,0,3:0:0:0:
58,140,64624,1,2,0:0:0:0:
256,16,64786,1,0,3:0:0:0:
174,234,64948,1,8,0:0:0:0:
380,124,65110,6,0,B|440:137|440:137|419:264,1,187.000005706787,6|0,3:2|3:0,0:0:0:0:
189,215,65597,2,0,P|226:190|279:188,1,93.5000028533936,12|0,0:0|0:0,0:0:0:0:
401,347,65921,1,2,3:2:0:0:
199,307,66083,1,0,3:0:0:0:
371,149,66245,1,8,0:0:0:0:
181,70,66407,6,0,P|134:77|84:86,1,93.5000028533936,2|0,0:0|3:0,0:0:0:0:
274,212,66732,1,0,3:0:0:0:
375,12,66894,2,0,P|421:20|467:27,1,93.5000028533936,10|0,0:0|0:0,0:0:0:0:
394,248,67218,1,2,3:2:0:0:
270,60,67380,1,0,3:0:0:0:
492,161,67543,1,10,0:0:0:0:
254,231,67705,6,0,B|192:227|130:211|130:211|155:232|175:265,1,187.000005706787,6|0,3:2|3:0,0:0:0:0:
365,129,68191,1,10,0:0:0:0:
256,335,68353,1,0,3:0:0:0:
186,110,68516,5,10,0:0:0:0:
365,259,68678,1,0,3:0:0:0:
289,38,68840,1,10,0:0:0:0:
111,189,69002,1,0,3:0:0:0:
289,344,69164,5,8,0:0:0:0:
325,365,69245,1,8,0:0:0:0:
366,373,69326,1,8,0:0:0:0:
407,366,69407,1,8,0:0:0:0:
443,345,69489,2,0,L|448:295,1,46.7500014266968,0|0,3:0|3:0,0:0:0:0:
416,166,69651,5,0,3:0:0:0:
385,194,69732,1,0,3:0:0:0:
345,206,69813,1,0,3:0:0:0:
304,198,69894,1,0,3:0:0:0:
272,172,69975,1,0,3:0:0:0:
255,133,70056,1,0,3:0:0:0:
261,91,70137,6,0,B|221:84|195:67|195:67|151:90|151:90|110:77|66:106,1,191.250007295609,12|0,0:0|0:0,0:0:0:0:
22,187,70462,5,6,3:2:0:0:
17,229,70543,1,8,0:0:0:0:
29,269,70624,1,8,0:0:0:0:
51,303,70705,1,8,0:0:0:0:
86,325,70786,2,0,L|146:317,1,46.7500014266968,8|8,0:0|0:0,0:0:0:0:
276,288,70948,5,4,3:0:0:0:
293,249,71029,1,8,0:0:0:0:
294,207,71110,1,8,0:0:0:0:
280,168,71191,1,8,0:0:0:0:
252,137,71272,2,0,L|262:80,1,46.7500014266968,8|8,0:0|0:0,0:0:0:0:
369,4,71435,6,0,P|408:72|507:66,1,187.000005706787,4|2,3:0|3:2,0:0:0:0:
499,92,72083,5,2,3:2:0:0:
492,118,72407,5,2,3:2:0:0:
485,144,72732,5,2,3:2:0:0:
478,168,73056,6,0,L|427:178,1,42.5,6|0,3:2|0:0,0:0:0:0:
324,69,73218,1,8,0:0:0:0:
324,69,73299,1,8,0:0:0:0:
324,69,73380,2,0,L|365:77,1,42.5,8|8,0:2|0:0,0:0:0:0:
405,262,73543,5,4,3:0:0:0:
375,286,73624,1,8,0:0:0:0:
339,296,73705,1,8,0:0:0:0:
301,289,73786,1,8,0:0:0:0:
270,268,73867,2,0,L|261:216,1,42.5,8|8,0:0|0:0,0:0:0:0:
172,63,74029,2,0,P|106:41|41:78,1,127.5,4|0,3:0|0:0,0:0:0:0:
11,132,74353,6,0,P|26:174|32:214,1,85,8|0,0:0|3:0,0:0:0:0:
135,326,74753,2,0,P|141:284|155:244,1,85,4|0,3:0|3:0,0:0:0:0:
243,118,75153,5,0,3:0:0:0:
276,115,75253,1,0,3:0:0:0:
310,112,75353,1,0,3:0:0:0:
344,109,75453,1,0,3:0:0:0:
378,106,75553,2,0,B|365:205|365:205|392:225,1,127.5,14|0,0:2|0:0,0:0:0:0:
457,263,75953,6,0,P|393:252|342:292,1,127.5,6|10,3:2|0:0,0:0:0:0:
297,351,76353,1,0,3:0:0:0:
244,198,76553,1,10,0:0:0:0:
139,320,76753,2,0,P|78:330|44:316,1,85,0|2,3:0|0:0,0:0:0:0:
57,246,77053,1,8,0:0:0:0:
57,246,77153,2,0,P|118:236|152:250,1,85,0|10,3:0|0:0,0:0:0:0:
334,256,77553,6,0,B|419:272|419:272|470:234,1,127.5,0|10,3:0|0:0,0:0:0:0:
507,189,77953,1,0,3:0:0:0:
485,349,78153,1,10,0:0:0:0:
392,177,78353,2,0,P|387:133|381:89,1,85,0|2,3:0|0:0,0:0:0:0:
307,72,78653,1,8,0:0:0:0:
307,72,78753,2,0,P|301:114|296:156,1,85,0|10,3:0|0:0,0:0:0:0:
161,245,79153,5,0,3:0:0:0:
129,95,79353,1,2,0:0:0:0:
129,95,79453,1,8,0:0:0:0:
129,95,79553,1,0,3:0:0:0:
268,175,79753,1,10,0:0:0:0:
81,190,79953,2,0,P|66:235|70:291,1,85,0|2,3:0|0:0,0:0:0:0:
87,355,80253,1,8,0:0:0:0:
87,355,80353,2,0,P|132:340|188:344,1,85,0|10,3:0|0:0,0:0:0:0:
330,354,80753,5,0,3:0:0:0:
280,210,80953,1,2,0:0:0:0:
280,210,81053,1,8,0:0:0:0:
280,210,81153,1,0,3:0:0:0:
434,257,81353,1,8,0:0:0:0:
376,106,81553,6,0,L|325:102,1,42.5,2|0,3:2|0:0,0:0:0:0:
210,23,81753,1,8,0:0:0:0:
176,28,81853,1,8,0:0:0:0:
142,34,81953,1,8,0:0:0:0:
109,40,82053,1,8,0:0:0:0:
75,46,82153,1,8,0:0:0:0:
42,51,82253,1,8,0:0:0:0:
8,57,82353,6,0,B|35:77|35:77|20:175,1,127.5,6|10,3:2|0:0,0:0:0:0:
5,249,82753,1,0,3:0:0:0:
151,180,82953,1,10,0:0:0:0:
171,340,83153,2,0,P|212:355|258:348,1,85,0|0,3:0|0:0,0:0:0:0:
324,310,83453,1,10,0:0:0:0:
324,310,83553,2,0,P|365:295|411:302,1,85,0|10,3:0|0:0,0:0:0:0:
495,165,83953,6,0,B|512:89|512:89|481:80|455:50,1,127.5,0|10,3:0|0:0,0:0:0:0:
406,14,84353,1,0,3:0:0:0:
341,162,84553,1,10,0:0:0:0:
211,65,84753,2,0,P|152:72|120:82,1,85,0|0,3:0|0:0,0:0:0:0:
92,154,85053,1,10,0:0:0:0:
92,154,85153,2,0,P|133:164|175:168,1,85,0|10,3:0|0:0,0:0:0:0:
332,131,85553,5,0,3:2:0:0:
369,126,85653,1,0,1:0:0:0:
406,135,85753,1,0,1:0:0:0:
439,155,85853,1,0,1:0:0:0:
463,184,85953,1,8,0:0:0:0:
476,220,86053,1,8,0:0:0:0:
476,258,86153,1,8,0:0:0:0:
464,294,86253,1,8,0:0:0:0:
441,325,86353,5,8,0:0:0:0:
410,303,86453,1,8,0:0:0:0:
385,274,86553,1,8,0:0:0:0:
366,241,86653,1,8,0:0:0:0:
355,204,86753,1,8,0:0:0:0:
353,166,86853,1,8,0:0:0:0:
358,129,86953,1,8,0:0:0:0:
372,93,87053,1,8,0:0:0:0:
394,61,87153,6,0,L|387:8,1,42.5,10|8,0:0|0:0,0:0:0:0:
260,19,87353,1,8,0:0:0:0:
260,19,87453,2,0,L|254:61,1,42.5,2|8,3:2|0:0,0:0:0:0:
143,130,87653,1,8,0:0:0:0:
143,130,87753,6,0,L|137:87,1,42.5,2|8,3:2|0:0,0:0:0:0:
232,213,87953,1,8,0:0:0:0:
232,213,88053,2,0,L|226:255,1,42.5,2|8,3:2|0:0,0:0:0:0:
218,352,88253,1,8,0:0:0:0:
218,352,88353,1,2,3:2:0:0:
326,199,88553,1,0,3:0:0:0:
135,248,88753,5,6,3:2:0:0:
142,99,93553,6,0,B|169:124|169:124|134:224,1,127.500004863739,4|0,3:2|0:0,0:0:0:0:
204,311,93853,1,8,0:0:0:0:
204,311,93953,2,0,P|253:299|288:303,1,63.7500024318696,0|0,3:0|0:0,0:0:0:0:
379,315,94153,2,0,B|384:263|383:274|390:180,1,127.500004863739,8|4,0:0|0:3,0:0:0:0:
236,55,94553,5,0,3:0:0:0:
236,55,94619,1,0,3:0:0:0:
236,55,94686,1,0,3:0:0:0:
236,55,94753,2,0,B|128:86|128:86|96:47|36:42,1,191.250007295609,12|0,3:2|0:0,0:0:0:0:
45,151,95153,5,6,3:2:0:0:
200,214,95353,1,2,0:0:0:0:
200,214,95453,1,0,3:0:0:0:
200,214,95553,2,0,P|253:180|320:191,1,114.749996498108,8|8,0:0|0:0,0:0:0:0:
387,211,95953,1,2,0:0:0:0:
387,211,96053,2,0,P|382:171|374:114,1,76.4999976654053,0|0,3:0|3:0,0:0:0:0:
308,86,96353,2,0,P|313:46|321:-11,1,76.4999976654053,8|2,0:0|0:0,0:0:0:0:
168,87,96753,5,0,3:0:0:0:
282,228,96953,1,2,0:0:0:0:
282,228,97053,1,0,3:0:0:0:
282,228,97153,2,0,P|342:237|391:207,1,114.749996498108,8|8,0:0|0:0,0:0:0:0:
473,197,97553,1,2,0:0:0:0:
473,197,97653,2,0,P|492:236|481:293,1,76.4999976654053,0|0,3:0|3:0,0:0:0:0:
443,337,97953,2,0,P|409:319|371:318,1,76.4999976654053,8|2,0:0|0:0,0:0:0:0:
205,351,98353,5,0,3:0:0:0:
115,220,98553,1,2,0:0:0:0:
115,220,98653,1,0,3:0:0:0:
115,220,98753,2,0,P|121:168|132:98,1,114.749996498108,8|8,0:0|0:0,0:0:0:0:
200,59,99153,1,2,0:0:0:0:
200,59,99253,2,0,P|218:102|221:144,1,76.4999976654053,0|0,3:0|3:0,0:0:0:0:
302,153,99553,2,0,P|307:115|323:80,1,76.4999976654053,8|2,0:0|0:0,0:0:0:0:
486,38,99953,6,0,P|475:106|470:159,1,114.749996498108,0|0,3:0|3:0,0:0:0:0:
408,208,100353,2,0,P|415:246|423:285,1,76.4999976654053,8|2,0:0|0:0,0:0:0:0:
267,351,100753,5,0,3:0:0:0:
235,363,100853,1,8,0:0:0:0:
200,364,100953,1,8,0:0:0:0:
168,354,101053,1,8,0:0:0:0:
140,333,101153,1,8,0:0:0:0:
151,300,101253,1,8,0:0:0:0:
173,274,101353,1,8,0:0:0:0:
203,258,101453,1,8,0:0:0:0:
237,254,101553,6,0,B|216:216|216:216|234:129,1,114.749996498108,6|0,3:2|0:0,0:0:0:0:
244,63,101953,2,0,P|204:52|169:56,1,76.4999976654053,8|0,0:0|0:0,0:0:0:0:
50,175,102353,2,0,B|64:244|64:244|43:282,1,114.749996498108,2|0,3:2|0:0,0:0:0:0:
2,357,102753,2,0,P|42:367|94:351,1,76.4999976654053,8|0,0:0|0:0,0:0:0:0:
225,283,103153,6,0,B|275:288|270:289|346:298,1,114.749996498108,2|0,3:2|0:0,0:0:0:0:
402,351,103553,2,0,P|443:341|481:335,1,76.4999976654053,8|0,0:0|0:0,0:0:0:0:
504,169,103953,1,0,3:0:0:0:
346,190,104153,5,0,3:0:0:0:
346,190,104219,1,0,3:0:0:0:
346,190,104286,1,0,3:0:0:0:
346,190,104353,2,0,B|288:187|226:206|226:206|246:187|266:157,1,165.749992412568,12|0,0:0|0:0,0:0:0:0:
282,92,104753,6,0,P|243:73|204:73,1,76.4999976654053,6|0,3:2|0:0,0:0:0:0:
58,144,105153,2,0,P|73:192|84:262,1,114.749996498108,8|0,0:0|0:0,0:0:0:0:
90,339,105553,2,0,P|127:336|161:318,1,76.4999976654053,2|0,3:2|0:0,0:0:0:0:
293,212,105953,2,0,P|341:227|411:238,1,114.749996498108,8|0,0:0|0:0,0:0:0:0:
488,240,106353,6,0,P|497:288|487:329,1,76.4999976654053,2|0,3:2|0:0,0:0:0:0:
419,138,106753,2,0,P|414:100|423:63,1,76.4999976654053,8|0,0:2|0:0,0:0:0:0:
241,6,107153,5,0,3:0:0:0:
218,32,107253,1,8,0:0:0:0:
189,49,107353,1,8,0:0:0:0:
155,57,107453,1,8,0:0:0:0:
121,53,107553,5,8,3:0:0:0:
124,80,107653,1,4,3:0:0:0:
127,106,107753,1,4,3:0:0:0:
130,133,107853,1,4,3:0:0:0:
134,160,107953,6,0,B|210:145|210:145|225:162|262:175,1,127.500004863739,12|0,3:2|0:0,0:0:0:0:
351,241,108253,2,0,P|321:296|345:354,1,127.500004863739,12|0,0:0|0:0,0:0:0:0:
454,300,108553,2,0,L|446:226,1,63.7500024318696,12|0,0:0|0:0,0:0:0:0:
367,126,108753,6,0,B|316:139|316:139|301:158|301:158|239:174,1,127.500004863739,6|0,3:2|0:0,0:0:0:0:
160,249,109053,2,0,B|181:286|181:286|152:383,1,127.500004863739,6|0,3:2|0:0,0:0:0:0:
34,367,109353,2,0,L|23:282,1,63.7500024318696,6|0,3:2|0:0,0:0:0:0:
6,145,109553,6,0,B|82:128|82:128|105:134|132:162,1,127.500004863739,12|0,3:2|0:0,0:0:0:0:
237,199,109853,2,0,B|252:158|252:158|238:121|238:121|252:73,1,127.500004863739,12|0,3:2|0:0,0:0:0:0:
360,25,110153,2,0,P|396:46|428:50,1,63.7500024318696,12|0,3:2|0:0,0:0:0:0:
503,183,110353,6,0,B|458:176|406:195|406:195|386:224,1,127.500004863739,12|0,3:2|0:0,0:0:0:0:
301,301,110653,2,0,B|252:293|252:293|226:305|226:305|156:294,1,127.500004863739,12|0,3:2|0:0,0:0:0:0:
55,289,110953,2,0,B|49:259|49:259|60:220,1,63.7500024318696,12|0,3:2|0:0,0:0:0:0:
119,79,111153,6,0,P|182:68|257:49,2,136,2|0|0,3:2|3:0|3:0,0:0:0:0:
55,289,112125,1,0,3:0:0:0:
169,274,112288,1,0,3:0:0:0:
169,274,112369,1,0,3:0:0:0:
169,274,112450,6,0,L|177:225,1,38.2499988327027,0|0,3:0|0:0,0:0:0:0:
262,135,112612,1,2,0:0:0:0:
282,151,112693,1,2,0:0:0:0:
307,161,112774,1,2,0:0:0:0:
333,164,112855,1,2,0:0:0:0:
360,158,112936,1,2,0:0:0:0:
383,145,113017,1,2,0:0:0:0:
401,126,113098,5,8,3:0:0:0:
396,164,113180,1,8,3:0:0:0:
391,202,113261,1,8,3:0:0:0:
386,240,113342,1,8,3:0:0:0:
382,278,113423,2,0,L|391:328,1,42.5,4|0,3:0|0:0,0:0:0:0:
507,139,113585,6,0,B|455:135|401:126|401:126|372:161|333:164,1,187.000005706787,6|0,3:2|3:0,0:0:0:0:
102,128,114071,1,8,0:0:0:0:
315,54,114234,1,2,0:0:0:0:
191,229,114396,1,0,3:0:0:0:
136,21,114558,1,0,3:0:0:0:
3,211,114720,2,0,P|17:255|28:305,1,93.5000028533936,8|2,0:0|0:0,0:0:0:0:
249,372,115044,5,0,3:0:0:0:
107,208,115207,1,0,3:0:0:0:
338,239,115369,2,0,P|386:228|439:217,1,93.5000028533936,8|0,0:0|0:0,0:0:0:0:
208,144,115693,1,2,0:0:0:0:
267,350,115855,1,0,3:0:0:0:
350,131,116017,1,8,0:0:0:0:
173,285,116180,6,0,B|114:289|63:307|63:307|25:291|14:246,1,187.000005706787,6|0,3:2|3:0,0:0:0:0:
139,54,116666,1,8,0:0:0:0:
248,238,116828,1,2,0:0:0:0:
47,137,116990,1,0,3:0:0:0:
259,61,117153,1,0,3:0:0:0:
173,285,117315,2,0,P|182:331|191:377,1,93.5000028533936,8|2,0:0|0:0,0:0:0:0:
326,142,117639,5,0,3:0:0:0:
109,198,117801,1,0,3:0:0:0:
312,312,117963,2,0,P|357:317|404:300,1,93.5000028533936,8|2,0:0|0:0,0:0:0:0:
434,87,118288,1,0,3:0:0:0:
265,219,118450,1,0,3:0:0:0:
498,230,118612,1,8,0:0:0:0:
303,54,118774,6,0,B|246:65|195:83|195:83|151:67|157:19,1,187.000005706787,6|0,3:2|3:0,0:0:0:0:
276,193,119261,2,0,P|328:198|375:203,1,93.5000028533936,10|0,0:0|0:0,0:0:0:0:
221,371,119585,1,2,3:2:0:0:
151,185,119747,1,0,3:0:0:0:
334,329,119909,2,0,P|379:335|429:320,1,93.5000028533936,10|0,0:0|0:0,0:0:0:0:
508,102,120234,5,2,3:2:0:0:
371,228,120396,1,0,3:0:0:0:
290,18,120558,2,0,P|244:26|198:38,1,93.5000028533936,10|0,0:0|0:0,0:0:0:0:
104,231,120882,1,2,0:2:0:0:
307,162,121044,1,0,3:0:0:0:
95,60,121207,2,0,P|49:48|3:39,1,93.5000028533936,10|0,0:0|0:0,0:0:0:0:
214,224,121531,5,6,3:2:0:0:
290,18,121693,1,0,3:0:0:0:
72,145,121855,1,8,0:0:0:0:
327,143,122017,2,0,B|388:133|442:116|442:116|488:141|479:186,1,187.000005706787,6|0,3:2|3:0,0:0:0:0:
372,378,122504,1,8,0:0:0:0:
194,204,122666,6,0,B|168:186|151:170|151:170|65:175|41:239,1,187.000005706787,6|0,3:2|3:0,0:0:0:0:
287,297,123152,1,10,0:0:0:0:
245,65,123315,1,0,3:0:0:0:
460,154,123477,1,10,0:0:0:0:
492,187,123558,1,8,0:0:0:0:
509,230,123639,1,8,0:0:0:0:
510,276,123720,1,8,0:0:0:0:
494,320,123801,1,8,0:0:0:0:
462,354,123882,1,8,0:0:0:0:
417,366,123963,6,0,B|302:338|302:338|280:369|238:382,1,187.000005706787,4|0,3:0|3:0,0:0:0:0:
154,363,124369,1,0,3:0:0:0:
154,363,124450,2,0,B|141:319|141:319|158:260,1,93.5000028533936,12|2,0:0|0:0,0:0:0:0:
228,71,124774,1,0,3:0:0:0:
375,227,124936,1,0,3:0:0:0:
150,163,125098,2,0,P|99:171|45:180,1,93.5000028533936,8|2,0:0|0:0,0:0:0:0:
282,246,125423,5,0,3:0:0:0:
317,34,125585,1,0,3:0:0:0:
491,189,125747,2,0,P|498:241|481:294,1,93.5000028533936,8|0,0:0|0:0,0:0:0:0:
269,362,126071,1,2,0:0:0:0:
312,150,126234,1,0,3:0:0:0:
402,365,126396,1,8,0:0:0:0:
168,296,126558,6,0,B|61:331|61:331|13:318|10:269,1,187.000005706787,6|0,3:2|3:0,0:0:0:0:
123,76,127044,1,8,0:0:0:0:
282,246,127207,2,0,P|272:288|261:343,1,93.5000028533936,2|0,0:0|0:0,0:0:0:0:
401,150,127531,1,0,3:0:0:0:
169,179,127693,1,8,0:0:0:0:
379,280,127855,6,0,B|509:256|509:256|488:281|480:302,1,187.000005706787,6|0,3:2|3:0,0:0:0:0:
254,368,128342,1,8,0:0:0:0:
317,162,128504,1,0,3:0:0:0:
409,376,128666,1,2,0:0:0:0:
203,265,128828,1,0,3:0:0:0:
426,169,128990,1,8,0:0:0:0:
212,54,129152,6,0,B|146:42|146:42|103:76|103:76|26:60,1,187.000005706787,6|0,3:2|3:0,0:0:0:0:
1,294,129639,2,0,B|47:306|47:306|97:291,1,93.5000028533936,12|0,0:0|0:0,0:0:0:0:
237,135,129963,1,2,3:2:0:0:
31,197,130125,1,0,3:0:0:0:
205,354,130288,1,8,0:0:0:0:
343,165,130450,6,0,P|346:119|325:70,1,93.5000028533936,2|0,0:0|3:0,0:0:0:0:
176,240,130774,1,0,3:0:0:0:
401,299,130936,2,0,P|447:291|493:284,1,93.5000028533936,10|0,0:0|0:0,0:0:0:0:
493,46,131261,1,8,3:0:0:0:
451,26,131342,1,8,3:0:0:0:
404,24,131423,1,8,3:0:0:0:
361,42,131504,1,8,3:0:0:0:
329,75,131585,2,0,L|267:64,1,46.7500014266968,8|0,0:0|0:0,0:0:0:0:
80,34,131747,6,0,B|28:155|28:155|79:210,1,187.000005706787,6|0,3:2|3:0,0:0:0:0:
239,357,132234,1,10,0:0:0:0:
206,125,132396,1,0,3:0:0:0:
396,276,132558,5,10,0:0:0:0:
363,44,132720,1,0,3:0:0:0:
271,258,132882,1,10,0:0:0:0:
496,197,133044,1,8,0:0:0:0:
496,197,133125,1,8,0:0:0:0:
496,197,133207,5,10,0:0:0:0:
287,91,133369,1,8,3:0:0:0:
322,321,133531,1,2,0:0:0:0:
421,109,133693,1,0,3:0:0:0:
158,207,133855,5,8,0:0:0:0:
429,276,134017,1,2,3:2:0:0:
429,276,134504,6,0,P|417:313|407:364,1,76.4999976654053,6|0,3:2|3:0,0:0:0:0:
319,198,134828,1,0,3:0:0:0:
457,155,134990,1,0,3:0:0:0:
355,50,135152,2,0,P|308:55|273:47,1,76.4999976654053,8|0,0:0|3:0,0:0:0:0:
140,3,135477,1,0,3:0:0:0:
33,101,135639,6,0,B|54:198|45:152|70:270,1,152.999995330811,0|0,3:0|3:0,0:0:0:0:
175,345,136125,1,0,3:0:0:0:
191,199,136288,1,0,3:0:0:0:
301,294,136450,2,0,P|338:299|388:278,1,76.4999976654053,8|0,0:0|3:0,0:0:0:0:
217,208,136774,1,0,3:0:0:0:
201,354,136936,1,0,3:0:0:0:
100,240,137098,6,0,P|42:251|19:255,1,76.4999976654053,0|0,3:0|3:0,0:0:0:0:
141,101,137423,2,0,P|178:107|216:115,1,76.4999976654053,0|0,3:0|3:0,0:0:0:0:
366,144,137747,2,0,P|377:108|371:59,1,76.4999976654053,8|0,0:0|3:0,0:0:0:0:
235,25,138071,1,0,3:0:0:0:
299,189,138234,6,0,P|354:176|459:160,1,152.999995330811,0|0,3:0|3:0,0:0:0:0:
359,312,138720,1,0,3:0:0:0:
269,196,138882,1,0,3:0:0:0:
197,322,139044,2,0,P|146:327|95:310,1,76.4999976654053,8|0,0:0|3:0,0:0:0:0:
0,239,139369,1,0,3:0:0:0:
35,379,139531,1,0,3:0:0:0:
112,221,139693,6,0,P|101:168|95:138,1,76.4999976654053,6|0,3:2|3:0,0:0:0:0:
148,10,140017,1,0,3:0:0:0:
231,129,140180,1,0,3:0:0:0:
331,23,140342,2,0,P|368:22|410:40,1,76.4999976654053,8|0,0:0|3:0,0:0:0:0:
511,134,140666,1,0,3:0:0:0:
384,206,140828,6,0,B|295:195|328:243|230:228,1,152.999995330811,0|0,3:0|3:0,0:0:0:0:
102,170,141315,1,0,3:0:0:0:
231,103,141477,1,0,3:0:0:0:
99,44,141639,2,0,P|61:49|23:55,1,76.4999976654053,8|0,0:0|3:0,0:0:0:0:
211,119,141963,1,0,3:0:0:0:
298,3,142125,1,0,3:0:0:0:
395,111,142288,6,0,P|381:149|375:188,1,76.4999976654053,0|0,3:0|3:0,0:0:0:0:
431,318,142612,1,0,3:0:0:0:
478,180,142774,1,0,3:0:0:0:
345,270,142936,2,0,P|307:263|271:250,1,76.4999976654053,8|0,0:0|3:0,0:0:0:0:
133,201,143261,1,0,3:0:0:0:
275,175,143423,6,0,P|258:240|242:329,1,152.999995330811,0|0,3:0|3:0,0:0:0:0:
107,376,143909,2,0,P|84:330|81:292,1,76.4999976654053,0|0,3:0|0:0,0:0:0:0:
77,113,144234,5,8,0:0:0:0:
114,107,144315,1,0,3:0:0:0:
152,101,144396,1,0,3:0:0:0:
190,94,144477,1,0,3:0:0:0:
220,71,144558,5,4,3:0:0:0:
246,75,144639,1,4,3:0:0:0:
273,79,144720,1,4,3:0:0:0:
299,82,144801,1,4,3:0:0:0:
326,86,144882,6,0,B|366:73|366:73|416:83,1,85,6|0,3:2|3:0,0:0:0:0:
478,264,145207,1,0,3:0:0:0:
300,182,145369,5,10,0:0:0:0:
493,153,145531,1,0,3:0:0:0:
350,286,145693,1,0,3:0:0:0:
313,64,145855,5,10,0:0:0:0:
145,180,146017,2,0,P|153:221|159:266,1,85,0|0,3:0|3:0,0:0:0:0:
25,75,146342,5,10,0:0:0:0:
217,109,146504,1,0,3:0:0:0:
40,192,146666,1,0,3:0:0:0:
164,19,146828,6,0,P|203:5|245:9,1,85,10|0,0:0|3:0,0:0:0:0:
411,142,147152,1,10,0:0:0:0:
217,109,147315,1,0,3:0:0:0:
378,247,147477,6,0,B|485:274|485:274|513:220,1,170,12|0,0:0|3:0,0:0:0:0:
384,51,147963,2,0,P|325:69|317:183,1,170,10|0,0:0|3:0,0:0:0:0:
409,352,148450,2,0,P|357:361|312:373,1,85,10|0,0:0|0:0,0:0:0:0:
113,380,148774,5,6,3:2:0:0:
85,348,148855,1,0,3:0:0:0:
74,307,148936,1,8,0:0:0:0:
82,266,149017,1,8,0:0:0:0:
108,233,149098,2,0,L|155:240,1,42.5,0|0,3:0|3:0,0:0:0:0:
335,254,149261,5,8,3:0:0:0:
366,226,149342,1,8,3:0:0:0:
386,188,149423,1,8,3:0:0:0:
391,146,149504,1,8,3:0:0:0:
381,105,149585,1,0,3:0:0:0:
356,71,149666,1,0,3:0:0:0:
321,47,149747,5,4,3:0:0:0:
317,76,149828,1,4,3:0:0:0:
313,106,149909,1,4,3:0:0:0:
309,135,149990,1,4,3:0:0:0:
305,165,150071,6,0,B|263:173|263:173|217:159,1,85,6|0,3:2|3:0,0:0:0:0:
32,110,150396,1,0,3:0:0:0:
234,45,150558,1,12,0:0:0:0:
120,204,150720,1,0,3:0:0:0:
97,9,150882,1,0,3:0:0:0:
317,76,151044,5,12,0:0:0:0:
260,264,151207,1,0,3:0:0:0:
143,107,151369,1,0,3:0:0:0:
398,169,151531,2,0,B|435:210|435:210|387:345,1,170,12|0,0:0|3:0,0:0:0:0:
171,362,152017,5,12,0:0:0:0:
272,167,152180,1,0,3:0:0:0:
41,202,152342,2,0,B|24:164|24:164|36:117,1,85,12|0,0:0|0:0,0:0:0:0:
236,12,152666,5,6,3:2:0:0:
278,16,152747,1,8,0:0:0:0:
320,21,152828,1,8,0:0:0:0:
362,26,152909,1,8,0:0:0:0:
404,31,152990,2,0,L|461:21,1,42.5,8|8,0:0|0:0,0:0:0:0:
482,179,153152,5,6,3:2:0:0:
440,174,153234,1,8,0:0:0:0:
398,169,153315,1,8,0:0:0:0:
356,164,153396,1,8,0:0:0:0:
313,159,153477,2,0,L|256:169,1,42.5,8|8,0:0|0:0,0:0:0:0:
57,210,153639,6,0,B|48:241|48:241|57:273,1,63.7500024318696,6|0,3:2|0:0,0:0:0:0:
281,345,153801,2,0,B|289:314|289:314|280:283,1,63.7500024318696,6|0,3:2|0:0,0:0:0:0:
281,284,154936,6,2,L|318:279,5,28.3333333333333
340,275,155261,6,0,B|348:226|353:185|353:185|326:170|310:131,1,152.999995330811,6|0,3:2|0:0,0:0:0:0:
274,66,155585,2,0,P|217:62|170:84,1,101.999996887207,10|0,0:0|0:0,0:0:0:0:
21,240,155909,1,0,3:2:0:0:
243,209,156071,1,0,3:0:0:0:
29,108,156234,2,0,P|36:38|40:1,1,101.999996887207,10|0,0:0|0:0,0:0:0:0:
211,207,156558,6,0,B|228:286|228:280|246:368,1,152.999995330811,0|0,3:2|0:0,0:0:0:0:
321,381,156882,2,0,P|344:328|331:271,1,101.999996887207,10|0,0:0|0:0,0:0:0:0:
229,87,157207,1,0,3:0:0:0:
124,285,157369,1,0,3:0:0:0:
352,171,157531,2,0,P|402:178|472:186,1,101.999996887207,10|0,0:0|0:0,0:0:0:0:
246,312,157855,6,0,P|177:334|124:285,1,152.999995330811,0|0,3:2|0:0,0:0:0:0:
160,211,158180,2,0,P|210:205|261:197,1,101.999996887207,10|0,0:0|0:0,0:0:0:0:
435,57,158504,1,0,3:0:0:0:
210,64,158666,1,0,3:0:0:0:
398,185,158828,2,0,P|418:235|412:288,1,101.999996887207,10|0,0:0|0:0,0:0:0:0:
175,371,159152,5,0,3:0:0:0:
139,117,159315,1,10,0:0:0:0:
327,288,159477,1,0,3:0:0:0:
118,99,159639,1,10,0:0:0:0:
0,323,159801,5,0,3:0:0:0:
243,192,159963,1,8,0:0:0:0:
283,195,160044,1,8,0:0:0:0:
324,199,160125,1,8,0:0:0:0:
364,203,160207,1,8,0:0:0:0:
405,207,160288,1,8,0:0:0:0:
446,211,160369,1,8,0:0:0:0:
485,213,160450,6,0,B|508:115|508:115|466:73,1,152.999995330811,6|0,3:2|0:0,0:0:0:0:
405,29,160774,2,0,P|356:20|293:44,1,101.999996887207,10|0,0:0|0:0,0:0:0:0:
157,201,161098,1,0,3:0:0:0:
361,127,161261,1,0,3:0:0:0:
149,51,161423,2,0,P|84:66|28:83,1,101.999996887207,10|0,0:0|0:0,0:0:0:0:
3,295,161747,6,0,P|74:285|136:348,1,152.999995330811,0|0,3:0|0:0,0:0:0:0:
207,365,162071,2,0,P|243:328|297:319,1,101.999996887207,10|0,0:0|0:0,0:0:0:0:
464,174,162396,1,0,3:0:0:0:
244,129,162558,1,0,3:0:0:0:
412,276,162720,2,0,P|403:322|394:379,1,101.999996887207,10|0,0:0|0:0,0:0:0:0:
251,161,163044,6,0,P|292:96|424:111,1,203.999993774414,0|10,3:0|0:0,0:0:0:0:
287,302,163531,1,2,0:0:0:0:
287,302,163612,1,2,0:0:0:0:
287,302,163693,1,0,3:0:0:0:
162,91,163855,1,0,3:0:0:0:
12,244,164017,2,0,P|22:290|35:346,1,101.999996887207,10|0,0:0|0:0,0:0:0:0:
287,383,164342,5,6,3:2:0:0:
287,383,164450,2,8,P|300:340|297:309,1,67.9999979248048
399,258,164666,5,8,0:2:0:0:
399,258,164774,2,8,P|368:225|339:212,1,67.9999979248048
233,201,164990,5,8,3:0:0:0:
192,205,165098,1,8,3:0:0:0:
151,209,165207,1,8,3:0:0:0:
121,237,165315,5,4,3:0:0:0:
81,233,165423,1,4,3:0:0:0:
40,229,165531,1,4,3:0:0:0:
8,252,165639,5,6,3:2:0:0:
256,192,173423,12,2,175044,0:0:0:0:
206,158,175207,5,8,0:0:0:0:
206,158,175288,1,8,0:0:0:0:
206,158,175369,1,8,0:0:0:0:
225,236,175531,1,8,3:0:0:0:
284,140,175693,1,4,3:0:0:0:
303,218,175855,1,4,3:0:0:0:
206,158,176017,6,0,B|154:168|154:168|117:147,1,85,6|0,3:2|3:0,0:0:0:0:
53,128,176504,1,2,0:0:0:0:
53,128,176666,1,0,3:0:0:0:
3,191,176828,2,0,P|17:230|28:278,1,85,2|2,0:0|0:0,0:0:0:0:
92,320,177315,6,0,P|135:304|179:308,1,85,0|0,3:0|3:0,0:0:0:0:
252,324,177801,2,0,P|265:355|271:376,2,42.5,2|0|2,0:0|3:0|0:0,0:0:0:0:
276,246,178288,1,0,3:0:0:0:
356,255,178450,6,0,B|380:272|380:272|452:253,1,85,2|2,0:0|0:0,0:0:0:0:
484,195,178936,2,0,P|477:173|470:142,1,42.5,0|2,3:0|0:0,0:0:0:0:
406,106,179261,2,0,P|412:84|420:53,1,42.5,0|2,3:0|0:0,0:0:0:0:
364,11,179585,1,0,3:0:0:0:
364,11,179747,1,2,0:0:0:0:
297,55,179909,6,0,P|255:66|214:46,1,85,0|0,3:0|3:0,0:0:0:0:
142,20,180396,2,0,P|130:52|127:69,1,42.5,2|0,0:0|3:0,0:0:0:0:
74,119,180720,2,0,P|86:151|89:168,2,42.5,2|0|2,0:0|3:0|0:0,0:0:0:0:
20,276,181207,5,6,3:2:0:0:
36,294,181531,2,0,P|65:286|81:282,1,42.5,0|2,3:0|0:0,0:0:0:0:
150,316,181855,2,0,P|157:286|162:271,1,42.5,0|2,3:0|0:0,0:0:0:0:
231,234,182180,2,0,P|209:212|198:201,1,42.5,0|2,3:0|0:0,0:0:0:0:
208,123,182504,6,0,P|257:128|292:101,1,85,0|0,3:0|3:0,0:0:0:0:
293,29,182990,2,0,P|268:32|245:36,2,42.5,2|0|2,0:0|3:0|0:0,0:0:0:0:
376,19,183477,1,0,3:0:0:0:
376,19,183639,1,2,0:0:0:0:
435,73,183801,6,0,B|419:93|419:93|441:159,1,85,0|0,3:0|3:0,0:0:0:0:
455,228,184288,2,0,P|489:232|501:235,2,42.5,2|0|2,0:0|3:0|0:0,0:0:0:0:
375,243,184774,1,0,3:0:0:0:
299,272,184936,6,0,P|253:262|209:251,1,85,2|2,0:0|0:0,0:0:0:0:
191,175,185423,2,0,P|230:155|277:153,2,85,0|0|0,3:0|3:0|3:0,0:0:0:0:
139,237,186234,1,2,0:0:0:0:
64,206,186396,6,0,P|53:154|43:116,1,85,0|0,3:0|3:0,0:0:0:0:
117,87,186882,2,0,P|139:84|164:77,2,42.5,2|0|2,0:0|3:0|0:0,0:0:0:0:
193,6,187369,2,0,P|215:9|240:16,1,42.5,0|2,3:0|0:0,0:0:0:0:
392,91,187693,6,0,P|404:153|411:186,1,76.4999976654053,12|0,0:0|0:0,0:0:0:0:
479,223,187936,1,8,3:0:0:0:
479,223,188017,2,0,L|470:272,1,38.2499988327027,0|0,3:0|3:0,0:0:0:0:
317,181,188180,2,0,L|310:143,1,38.2499988327027,12|0,0:0|0:0,0:0:0:0:
158,78,188342,5,8,3:0:0:0:
133,89,188423,1,8,3:0:0:0:
107,90,188504,1,4,3:0:0:0:
81,83,188585,1,4,3:0:0:0:
59,67,188666,5,8,0:0:0:0:
65,108,188747,1,8,0:0:0:0:
71,150,188828,1,8,0:0:0:0:
77,191,188909,1,8,0:0:0:0:
83,233,188990,6,2,B|138:249|138:249|154:284|154:284|232:306,1,152.999995330811,6|2,3:2|0:1,0:1:0:0:
431,355,189477,1,6,3:2:0:0:
256,192,190125,5,6,3:2:0:0:
256,192,191585,5,6,3:2:0:0:
163,332,191747,1,8,0:0:0:0:
116,331,191828,1,8,0:0:0:0:
72,315,191909,1,8,0:0:0:0:
36,286,191990,1,8,0:0:0:0:
11,247,192071,1,8,0:0:0:0:
0,202,192152,1,8,0:0:0:0:
6,155,192234,6,0,L|95:137,1,63.7500024318696,6|0,3:2|0:0,0:0:0:0:
195,35,192396,6,0,P|144:24|107:18,1,76.4999976654053,6|0,3:2|0:0,0:0:0:0:
199,66,192720,6,0,B|271:55|319:18|319:18|366:29|375:84,1,203.999993774414,6|0,3:2|3:0,0:0:0:0:
350,331,193207,1,8,0:0:0:0:
157,148,193369,1,2,0:0:0:0:
420,170,193531,1,0,3:0:0:0:
210,332,193693,1,0,3:0:0:0:
199,66,193855,1,8,0:0:0:0:
1,242,194017,1,2,0:0:0:0:
266,223,194180,5,0,3:0:0:0:
33,95,194342,1,0,3:0:0:0:
283,8,194504,2,0,P|333:15|397:27,1,101.999996887207,8|2,0:0|0:0,0:0:0:0:
471,274,194828,1,0,3:0:0:0:
246,134,194990,1,0,3:0:0:0:
508,100,195152,1,8,0:0:0:0:
305,303,195315,6,0,B|265:318|226:318|226:318|201:346|201:346|157:348|107:367,1,203.999993774414,6|0,3:2|3:0,0:0:0:0:
13,119,195801,2,0,P|58:95|119:95,1,101.999996887207,10|0,0:0|0:0,0:0:0:0:
310,210,196125,1,2,3:2:0:0:
88,290,196288,1,0,3:0:0:0:
237,109,196450,2,0,P|226:59|216:9,1,101.999996887207,10|0,0:0|0:0,0:0:0:0:
407,177,196774,5,2,3:2:0:0:
186,216,196936,1,0,3:0:0:0:
397,338,197098,2,0,P|459:341|500:318,1,101.999996887207,10|0,0:0|3:0,0:0:0:0:
511,67,197423,5,8,0:0:0:0:
467,55,197504,1,8,0:0:0:0:
421,54,197585,1,8,0:0:0:0:
379,70,197666,1,8,0:0:0:0:
342,98,197747,1,8,3:0:0:0:
306,126,197828,1,8,3:0:0:0:
262,137,197909,1,8,3:0:0:0:
217,129,197990,1,8,3:0:0:0:
174,111,198071,6,0,L|186:51,1,50.9999984436036,6|0,3:2|0:0,0:0:0:0:
49,166,198234,1,0,3:0:0:0:
49,166,198315,1,8,3:0:0:0:
49,166,198396,2,0,L|59:216,1,50.9999984436036,4|0,3:0|3:0,0:0:0:0:
222,342,198558,6,0,L|232:291,1,50.9999984436036,6|0,3:2|0:0,0:0:0:0:
262,137,198720,1,0,3:0:0:0:
304,119,198801,1,0,3:0:0:0:
349,116,198882,1,0,3:0:0:0:
393,130,198963,1,0,3:0:0:0:
429,157,199044,6,0,L|438:211,1,50.9999984436036,12|0,0:2|0:0,0:0:0:0:
305,357,199207,2,0,B|253:342|232:292|232:292|185:325|123:302,1,203.999993774414,2|8,3:2|0:0,0:0:0:0:
90,224,199612,1,8,0:0:0:0:
90,224,199693,2,0,L|145:212,1,50.9999984436036,8|8,0:0|0:0,0:0:0:0:
312,148,199855,2,0,L|262:137,1,50.9999984436036,0|0,3:0|3:0,0:0:0:0:
86,84,200017,5,8,0:0:0:0:
114,48,200098,1,8,0:0:0:0:
152,23,200180,1,8,0:0:0:0:
196,10,200261,1,8,0:0:0:0:
242,11,200342,1,8,0:0:0:0:
285,27,200423,1,8,0:0:0:0:
321,54,200504,6,0,B|336:111|363:166|363:166|316:203|310:262,1,212.5,6|0,3:2|3:0,0:0:0:0:
21,313,200990,1,10,0:0:0:0:
152,23,201152,1,0,3:0:0:0:
278,340,201315,5,10,0:0:0:0:
24,158,201477,1,0,3:0:0:0:
335,153,201639,1,10,0:0:0:0:
132,381,201801,1,0,3:0:0:0:
445,277,201963,5,10,0:0:0:0:
154,158,202125,1,0,3:0:0:0:
441,64,202288,1,10,0:0:0:0:
296,359,202450,1,0,3:0:0:0:
250,16,202612,5,10,0:0:0:0:
120,264,202774,1,0,3:0:0:0:
420,186,202936,1,10,0:0:0:0:
122,40,203098,2,0,B|48:24|48:24|6:47,1,106.25,6|0,3:2|0:0,0:0:0:0:
1,283,203423,5,8,0:0:0:0:
34,316,203504,1,8,0:0:0:0:
76,339,203585,1,8,0:0:0:0:
123,349,203666,1,8,0:0:0:0:
170,345,203747,1,8,0:0:0:0:
214,327,203828,1,8,0:0:0:0:
252,298,203909,1,8,0:0:0:0:
279,259,203990,1,8,0:0:0:0:
294,213,204071,5,8,3:0:0:0:
262,218,204152,1,8,3:0:0:0:
231,223,204234,1,4,3:0:0:0:
199,227,204315,1,4,3:0:0:0:
166,231,204396,6,0,B|148:166|148:166|172:120,1,106.25,6|0,3:2|0:0,0:0:0:0:
403,14,204720,1,8,0:0:0:0:
441,41,204801,1,8,0:0:0:0:
468,80,204882,1,8,0:0:0:0:
481,126,204963,1,8,0:0:0:0:
477,173,205044,1,8,0:0:0:0:
457,217,205125,1,8,0:0:0:0:
422,250,205207,5,8,3:0:0:0:
387,237,205288,1,8,3:0:0:0:
356,215,205369,1,8,3:0:0:0:
333,187,205450,1,8,3:0:0:0:
319,153,205531,1,4,3:0:0:0:
314,116,205612,1,4,3:0:0:0:
319,79,205693,6,0,B|274:70|230:85|230:85|212:111|212:111|171:133|112:114,1,212.5,2|0,3:2|3:0,0:0:0:0:
5,356,206180,2,0,B|74:372|74:372|120:350,1,106.25,12|0,0:0|0:0,0:0:0:0:
348,250,206504,1,2,3:2:0:0:
84,215,206666,1,0,3:0:0:0:
290,382,206828,1,8,0:0:0:0:
419,150,206990,6,0,P|407:95|393:25,1,106.25,2|0,0:0|3:0,0:0:0:0:
183,205,207315,1,0,3:0:0:0:
409,342,207477,2,0,P|466:344|514:322,1,106.25,10|0,0:0|0:0,0:0:0:0:
314,116,207801,1,2,0:0:0:0:
202,357,207963,1,0,3:0:0:0:
442,239,208125,1,10,0:0:0:0:
170,180,208288,6,0,B|22:215|22:215|79:170,1,212.5,6|0,3:2|3:0,0:0:0:0:
326,7,208774,1,10,0:0:0:0:
285,308,208936,1,0,3:0:0:0:
126,11,209098,5,10,0:0:0:0:
418,135,209261,1,0,3:0:0:0:
145,282,209423,1,10,0:0:0:0:
294,14,209585,1,0,3:0:0:0:
496,223,209747,5,8,0:0:0:0:
505,269,209828,1,8,0:0:0:0:
491,314,209909,1,0,3:0:0:0:
459,349,209990,1,0,3:0:0:0:
414,364,210071,2,0,L|404:298,1,53.125,0|0,3:0|3:0,0:0:0:0:
275,201,210234,5,8,0:0:0:0:
246,239,210315,1,8,0:0:0:0:
205,263,210396,1,8,0:0:0:0:
158,270,210477,1,8,0:0:0:0:
113,257,210558,1,0,3:0:0:0:
75,228,210639,1,0,3:0:0:0:
52,186,210720,2,0,L|66:128,1,53.125,8|8,0:0|0:0,0:0:0:0:
241,12,210882,2,0,L|253:63,1,53.125,8|8,0:0|0:0,0:0:0:0:
275,201,211044,6,2,B|325:211|325:211|344:245|344:245|419:259|419:259|450:238|450:238|506:248,1,254.999992218018,2|0,0:0|0:0,0:0:0:0:
500,247,213639,6,0,B|481:285|481:285|505:352,1,101.999996887207,6|0,3:2|0:0,0:0:0:0:
275,201,213963,2,0,L|292:77,1,101.999996887207,8|0,0:0|0:0,0:0:0:0:
357,357,214288,1,0,3:2:0:0:
160,229,214450,1,0,3:0:0:0:
392,199,214612,1,8,0:0:0:0:
199,349,214774,6,0,P|146:354|97:338,2,101.999996887207,2|0|0,0:0|3:0|0:0,0:0:0:0:
286,129,215261,2,0,P|200:114|173:110,1,101.999996887207,8|0,0:0|0:0,0:0:0:0:
431,46,215585,1,0,3:0:0:0:
286,230,215747,1,0,3:0:0:0:
234,1,215909,1,8,0:0:0:0:
412,183,216071,6,0,B|387:249|387:249|416:302|416:302|381:391,1,203.999993774414,6|0,3:2|3:0,0:0:0:0:
170,235,216558,2,0,P|217:212|278:215,1,101.999996887207,8|0,0:0|0:0,0:0:0:0:
56,357,216882,1,0,3:0:0:0:
86,114,217044,1,0,3:0:0:0:
198,344,217207,2,0,B|256:327|242:331|300:316,1,101.999996887207,8|0,0:0|0:0,0:0:0:0:
504,170,217531,5,0,3:0:0:0:
280,98,217693,1,0,3:0:0:0:
401,298,217855,2,0,P|451:308|518:286,1,101.999996887207,8|0,0:0|0:0,0:0:0:0:
421,41,218180,1,0,3:0:0:0:
286,230,218342,1,0,3:0:0:0:
195,3,218504,1,8,0:0:0:0:
50,212,218666,6,0,B|91:347|91:347|66:327|28:315,1,203.999993774414,6|0,3:2|3:0,0:0:0:0:
5,64,219152,2,0,P|58:57|121:77,1,101.999996887207,8|0,0:0|0:0,0:0:0:0:
287,216,219477,1,0,3:0:0:0:
50,212,219639,1,0,3:0:0:0:
260,68,219801,2,0,P|309:56|359:63,1,101.999996887207,8|0,0:0|0:0,0:0:0:0:
404,293,220125,5,0,3:0:0:0:
212,155,220288,1,0,3:0:0:0:
463,116,220450,2,0,P|456:68|448:5,1,101.999996887207,8|0,0:0|0:0,0:0:0:0:
230,64,220774,1,0,3:0:0:0:
404,204,220936,1,0,3:0:0:0:
187,261,221098,2,0,B|110:248|115:250|25:236,1,152.999995330811,12|0,0:0|0:0,0:0:0:0:
10,233,221423,5,6,3:2:0:0:
212,155,221585,1,0,3:0:0:0:
77,347,221747,1,8,0:0:0:0:
313,286,221909,2,0,B|429:328|429:328|474:308|473:256,1,203.999993774414,6|0,3:2|3:0,0:0:0:0:
366,66,222396,1,8,0:0:0:0:
192,237,222558,6,0,B|142:234|65:211|65:211|43:248|2:261,1,203.999993774414,6|0,3:2|3:0,0:0:0:0:
196,100,223044,1,8,0:0:0:0:
229,343,223207,1,4,3:2:0:0:
473,266,223369,1,8,0:0:0:0:
499,229,223450,1,8,0:0:0:0:
512,185,223531,1,8,0:0:0:0:
509,139,223612,1,8,3:0:0:0:
490,98,223693,1,8,3:0:0:0:
458,65,223774,1,8,3:0:0:0:
417,45,223855,6,0,B|368:80|321:64|321:64|288:23|223:22,1,203.999993774414,4|0,3:0|3:0,0:0:0:0:
160,59,224261,1,0,3:0:0:0:
160,59,224342,2,0,P|174:123|186:180,1,101.999996887207,12|0,0:0|0:0,0:0:0:0:
294,364,224666,1,2,3:2:0:0:
410,160,224828,1,0,3:0:0:0:
174,280,224990,1,8,0:0:0:0:
413,361,225152,6,0,P|463:372|512:358,1,101.999996887207,2|0,0:0|3:0,0:0:0:0:
308,171,225477,1,0,3:0:0:0:
128,366,225639,2,0,B|70:351|70:351|106:205,1,203.999993774414,10|0,0:0|3:0,0:0:0:0:
284,61,226125,1,0,3:0:0:0:
340,290,226288,1,10,0:0:0:0:
163,92,226450,6,0,B|89:50|12:92|12:92|55:133,1,203.999993774414,6|0,3:2|3:0,0:0:0:0:
240,310,226936,2,0,P|293:299|353:288,1,101.999996887207,10|0,0:0|0:0,0:0:0:0:
443,78,227261,1,0,3:0:0:0:
230,176,227423,1,0,3:0:0:0:
480,223,227585,2,0,P|501:273|494:335,1,101.999996887207,10|0,0:0|0:0,0:0:0:0:
244,339,227909,5,10,0:0:0:0:
198,332,227990,1,0,3:0:0:0:
153,325,228071,1,0,3:0:0:0:
107,318,228152,1,0,3:0:0:0:
61,310,228234,2,0,L|49:244,1,50.9999984436036,8|0,0:0|0:0,0:0:0:0:
33,108,228396,2,0,P|76:88|143:98,1,101.999996887207,10|0,0:0|0:0,0:0:0:0:
343,187,228720,1,0,3:0:0:0:
153,325,228882,1,10,0:0:0:0:
258,60,229044,6,0,B|330:48|316:50|377:33|377:33|427:44|445:78,1,203.999993774414,6|0,3:2|3:0,0:0:0:0:
223,249,229531,2,0,P|208:206|214:150,1,101.999996887207,10|0,0:0|0:0,0:0:0:0:
328,379,229855,1,0,3:0:0:0:
121,321,230017,1,0,3:0:0:0:
343,187,230180,2,0,P|403:196|449:208,1,101.999996887207,10|0,0:0|0:0,0:0:0:0:
231,279,230504,5,2,0:0:0:0:
287,56,230666,1,0,3:0:0:0:
387,301,230828,1,10,0:0:0:0:
443,78,230990,1,0,3:0:0:0:
185,174,231152,5,8,3:0:0:0:
144,195,231234,1,8,3:0:0:0:
99,200,231315,1,8,3:0:0:0:
55,188,231396,1,8,3:0:0:0:
20,161,231477,2,0,P|30:102|39:60,1,101.999996887207,10|0,0:0|3:0,0:0:0:0:
313,39,231801,5,12,0:0:0:0:
236,313,231963,1,0,3:0:0:0:
135,46,232125,1,0,3:0:0:0:
419,186,232288,5,12,0:0:0:0:
138,237,232450,1,0,3:0:0:0:
341,36,232612,1,0,3:0:0:0:
257,330,232774,6,0,B|136:370|136:370|93:357|81:312,1,203.999993774414,12|0,0:0|3:0,0:0:0:0:
128,20,233261,2,0,B|186:33|243:50|243:50|273:23|330:19,1,203.999993774414,12|0,0:0|3:0,0:0:0:0:
512,298,233747,5,10,0:0:0:0:
183,193,233909,1,10,0:0:0:0:
509,87,234071,1,10,0:0:0:0:
301,371,234234,5,6,3:2:0:0:
301,371,235693,5,2,3:2:0:0:
301,371,235801,2,0,P|305:331|298:298,1,62.3333352355958,8|8,0:0|0:0,0:0:0:0:
421,253,236017,5,8,3:0:0:0:
421,253,236125,2,0,P|388:229|356:219,1,62.3333352355958,8|8,3:0|3:0,0:0:0:0:
229,226,236342,5,4,3:0:0:0:
185,231,236450,1,4,3:0:0:0:
142,237,236558,1,4,3:0:0:0:
99,243,236666,2,0,L|107:180,1,46.7500014266968,8|0,0:0|0:0,0:0:0:0:
222,138,236828,6,0,B|226:214|226:214|281:152|281:152|359:159|359:159|312:100|312:100|345:29|345:29|271:57|271:57|217:2|217:2|216:79|216:79|139:104|139:104|194:126,1,751.399995413818,6|0,3:2|0:0,0:0:0:0:
