osu file format v14

[General]
AudioFilename: audio.mp3
AudioLeadIn: 0
PreviewTime: 175693
Countdown: 0
SampleSet: Soft
StackLeniency: 0.7
Mode: 0
LetterboxInBreaks: 0
WidescreenStoryboard: 1

[Editor]
Bookmarks: 408,5597,15975,26353,36732,41921,47110,49543,59921,71759,75953,88753,95153,107953,111153,113585,123963,134504,144882,155261,165639,173423,173747,174071,174396,174720,175044,175369,175693,176017,187693,192720,200504,213639,223855,236828,239585
DistanceSpacing: 1
BeatDivisor: 4
GridSize: 32
TimelineZoom: 0.9999999

[Metadata]
Title:STARRY SKY
TitleUnicode:STARRY SKY
Artist:PassCode
ArtistUnicode:PassCode
Creator:Akitoshi
Version:Normal
Source:隕石家族
Tags:Corinn -Laura- Inseki Kazoku Tokai Toukai TV Television Drama Japanese Pop Rock 高嶋楓 Takashima Kaede 南菜生 Minami Nao 今田夢菜 Imada Yuna 大上陽奈子 Oogami Hinako
BeatmapID:2807130
BeatmapSetID:1199549

[Difficulty]
HPDrainRate:3
CircleSize:3
OverallDifficulty:4
ApproachRate:6
SliderMultiplier:0.999999999999999
SliderTickRate:1

[Events]
//Background and Video events
0,0,"000000.jpg",0,0
//Break Periods
2,16175,25228
2,88953,94028
2,165839,172298
//Storyboard Layer 0 (Background)
//Storyboard Layer 1 (Fail)
//Storyboard Layer 2 (Pass)
//Storyboard Layer 3 (Foreground)
//Storyboard Layer 4 (Overlay)
//Storyboard Sound Samples

[TimingPoints]
408,324.324324324324,4,2,5,40,1,0
408,-100,4,2,5,40,0,0
3002,-100,4,2,5,40,0,0
3651,-100,4,2,5,60,0,0
4218,-100,4,2,5,5,0,0
4299,-100,4,2,5,40,0,0
5597,-100,4,2,5,70,0,0
11029,-100,4,2,5,5,0,0
11110,-100,4,2,5,70,0,0
15975,-100,4,2,5,70,0,0
25380,-100,4,2,5,50,0,0
26272,-100,4,2,5,5,0,0
26353,-100,4,2,5,60,0,0
28867,-100,4,2,5,5,0,0
28948,-100,4,2,5,60,0,0
31462,-100,4,2,5,5,0,0
31543,-100,4,2,5,60,0,0
36732,-100,4,2,5,60,0,0
41921,-100,4,2,5,60,0,0
43218,-100,4,2,5,60,0,0
44191,-100,4,2,5,60,0,0
44435,-100,4,2,5,5,0,0
44516,-100,4,2,5,40,0,0
46462,-100,4,2,5,70,0,0
47110,-100,4,2,5,70,0,0
49543,-95.2380952380952,4,2,5,80,0,0
70137,-100,4,2,5,80,0,0
70380,-100,4,2,5,5,0,0
70462,-100,4,2,5,80,0,0
71759,-100,4,2,5,80,0,0
73056,-100,4,2,5,80,0,0
74272,-100,4,2,5,5,0,0
74353,400,4,2,5,70,1,0
75853,-100,4,2,5,5,0,0
75953,-100,4,2,5,70,0,0
88753,-100,4,2,5,60,0,0
93553,-100,4,2,5,60,0,0
93753,-100,4,2,5,5,0,0
93853,-100,4,2,5,60,0,0
94053,-100,4,2,5,5,0,0
94153,-100,4,2,5,60,0,0
95153,-100,4,2,5,70,0,0
101853,-100,4,2,5,5,0,0
101953,-100,4,2,5,70,0,0
102653,-100,4,2,5,5,0,0
102753,-100,4,2,5,70,0,0
103453,-100,4,2,5,5,0,0
103553,-100,4,2,5,70,0,0
104353,-100,4,2,5,70,0,0
104653,-100,4,2,5,5,0,0
104753,-100,4,2,5,70,0,0
105453,-100,4,2,5,5,0,0
105553,-100,4,2,5,70,0,0
106253,-100,4,2,5,5,0,0
106353,-100,4,2,5,70,0,0
107953,-100,4,2,5,70,0,0
108153,-100,4,2,5,5,0,0
108253,-100,4,2,5,70,0,0
108453,-100,4,2,5,5,0,0
108553,-100,4,2,5,70,0,0
108653,-100,4,2,5,5,0,0
108753,-100,4,2,5,70,0,0
108953,-100,4,2,5,5,0,0
109053,-100,4,2,5,70,0,0
109253,-100,4,2,5,5,0,0
109353,-100,4,2,5,70,0,0
109453,-100,4,2,5,5,0,0
109553,-100,4,2,5,70,0,0
109753,-100,4,2,5,5,0,0
109853,-100,4,2,5,70,0,0
110053,-100,4,2,5,5,0,0
110153,-100,4,2,5,70,0,0
110253,-100,4,2,5,5,0,0
110353,-100,4,2,5,70,0,0
110553,-100,4,2,5,5,0,0
110653,-100,4,2,5,70,0,0
110853,-100,4,2,5,5,0,0
110953,-100,4,2,5,70,0,0
111053,-100,4,2,5,5,0,0
111153,324.324324324324,4,2,5,60,1,0
111153,-100,4,2,5,60,0,0
112450,-100,4,2,5,60,0,0
113098,-100,4,2,5,70,0,0
113585,-95.2380952380952,4,2,5,80,0,0
134504,-100,4,2,5,70,0,0
144882,-100,4,2,5,70,0,0
153639,-100,4,2,5,70,0,0
154125,-100,4,2,5,70,0,0
154936,-100,4,2,5,40,0,0
155098,-100,4,2,5,60,0,0
155261,-95.2380952380952,4,2,5,80,0,1
155504,-95.2380952380952,4,2,5,5,0,1
155585,-95.2380952380952,4,2,5,80,0,1
156801,-95.2380952380952,4,2,5,5,0,1
156882,-95.2380952380952,4,2,5,80,0,1
158098,-95.2380952380952,4,2,5,5,0,1
158180,-95.2380952380952,4,2,5,80,0,1
160693,-95.2380952380952,4,2,5,5,0,1
160774,-95.2380952380952,4,2,5,80,0,1
161990,-95.2380952380952,4,2,5,5,0,1
162071,-95.2380952380952,4,2,5,80,0,1
165639,-100,4,2,5,60,0,0
176017,-111.111111111111,4,2,5,60,0,0
187693,-100,4,2,5,70,0,0
190125,-100,4,2,5,70,0,0
191585,-100,4,2,5,70,0,0
192234,-100,4,2,5,70,0,0
192315,-100,4,2,5,5,0,0
192396,-100,4,2,5,70,0,0
192639,-100,4,2,5,5,0,0
192720,-95.2380952380952,4,2,5,85,0,1
200504,-95.2380952380952,4,2,5,85,0,1
211044,-166.666666666667,4,2,2,50,0,0
212666,-166.666666666667,4,2,5,5,0,0
213639,-95.2380952380952,4,2,5,80,0,1
221342,-95.2380952380952,4,2,5,5,0,1
221423,-95.2380952380952,4,2,5,80,0,1
234234,-100,4,2,5,60,0,0
235693,-100,4,2,5,70,0,0
236828,-100,4,2,5,70,0,0
236990,-100,4,2,5,50,0,0
239585,-100,4,2,2,5,0,0

[Colours]
Combo1 : 21,234,154
Combo2 : 0,255,255
Combo3 : 159,159,208
Combo4 : 255,255,26

[HitObjects]
39,82,3813,6,0,B|130:54|130:54|176:88,1,150,6|4,3:2|0:3,0:0:0:0:
174,86,5597,6,0,B|162:125|162:125|184:203,1,99.9999999999999,6|8,3:2|0:0,0:0:0:0:
208,277,6245,1,0,3:0:0:0:
308,277,6570,1,8,0:0:0:0:
384,213,6894,2,0,P|396:172|377:113,1,99.9999999999999,0|8,3:0|0:0,0:0:0:0:
307,50,7543,2,0,L|245:62,1,50,0|0,3:0|3:0,0:0:0:0:
223,95,7867,2,0,L|161:83,1,50,8|2,0:0|0:0,0:0:0:0:
125,75,8191,6,0,P|98:116|97:165,1,99.9999999999999,0|8,3:0|0:0,0:0:0:0:
126,261,8840,1,0,3:0:0:0:
218,299,9164,1,8,0:0:0:0:
314,265,9489,1,0,3:0:0:0:
314,265,9651,2,0,P|319:215|324:157,1,99.9999999999999,10|10,0:0|0:0,0:0:0:0:
391,92,10299,2,0,P|388:67|385:38,2,50,10|8|8,0:0|0:0|0:0,0:0:0:0:
426,127,10786,6,0,B|445:171|445:171|430:225,1,99.9999999999999,6|8,3:2|0:0,0:0:0:0:
402,317,11435,1,0,3:0:0:0:
308,351,11759,1,8,0:0:0:0:
218,307,12083,2,0,P|164:327|115:317,1,99.9999999999999,0|8,3:0|0:0,0:0:0:0:
81,303,12570,1,2,0:0:0:0:
81,303,12732,2,0,L|68:242,1,50,0|0,3:0|3:0,0:0:0:0:
59,205,13056,1,8,0:0:0:0:
107,117,13380,6,0,P|150:124|218:135,1,99.9999999999999,0|8,3:0|0:0,0:0:0:0:
267,211,14029,2,0,P|310:204|378:193,2,99.9999999999999,6|8|0,3:2|0:0|3:0,0:0:0:0:
218,223,14840,1,6,3:2:0:0:
149,295,15164,1,6,3:2:0:0:
228,356,15489,2,0,B|279:368|279:368|339:349,1,99.9999999999999,8|4,0:0|3:0,0:0:0:0:
369,331,15975,1,6,3:2:0:0:
167,39,26353,6,0,B|147:71|147:71|165:134,1,99.9999999999999,6|8,3:2|0:0,0:0:0:0:
191,227,27002,2,0,P|247:236|289:222,1,99.9999999999999,0|2,3:0|0:0,0:0:0:0:
352,147,27651,2,0,P|397:154|462:166,1,99.9999999999999,2|8,0:0|0:0,0:0:0:0:
499,176,28137,2,0,P|515:229|501:279,1,99.9999999999999,2|0,0:0|3:0,0:0:0:0:
473,310,28624,1,8,0:0:0:0:
385,358,28948,6,0,P|336:340|277:347,1,99.9999999999999,6|8,3:2|0:0,0:0:0:0:
196,304,29597,2,0,P|147:322|88:315,1,99.9999999999999,0|2,3:0|0:0,0:0:0:0:
51,305,30083,1,8,0:0:0:0:
12,212,30407,1,0,3:0:0:0:
70,130,30732,2,0,P|120:137|181:145,1,99.9999999999999,2|0,0:0|3:0,0:0:0:0:
218,151,31218,1,8,0:0:0:0:
294,215,31543,6,0,P|344:208|405:200,1,99.9999999999999,6|8,3:2|0:0,0:0:0:0:
492,187,32191,2,0,P|501:137|479:88,1,99.9999999999999,2|0,0:0|0:0,0:0:0:0:
404,30,32840,1,2,0:0:0:0:
304,30,33164,1,8,0:0:0:0:
241,108,33489,2,0,P|191:101|141:94,1,99.9999999999999,0|8,3:0|0:0,0:0:0:0:
91,93,33975,6,0,P|68:133|74:199,1,99.9999999999999,2|0,0:0|3:0,0:0:0:0:
82,233,34462,1,10,0:0:0:0:
157,298,34786,2,0,L|218:287,1,50,10|0,0:0|3:0,0:0:0:0:
259,283,35110,1,0,3:0:0:0:
259,283,35272,2,0,P|297:259|366:263,1,99.9999999999999,10|0,0:0|3:0,0:0:0:0:
398,274,35759,1,8,0:0:0:0:
484,224,36083,2,0,P|488:196|490:169,1,50,8|8,0:0|3:0,0:0:0:0:
491,124,36407,1,4,3:0:0:0:
405,71,36732,6,0,B|360:90|360:90|294:77,1,99.9999999999999,6|0,3:2|3:0,0:0:0:0:
211,64,37380,2,0,B|166:45|166:45|100:58,1,99.9999999999999,12|0,0:0|0:0,0:0:0:0:
72,75,37867,1,0,3:0:0:0:
72,75,38029,2,0,P|60:130|73:177,1,99.9999999999999,6|0,3:2|3:0,0:0:0:0:
132,250,38678,2,0,P|187:238|234:251,1,99.9999999999999,12|0,0:0|0:0,0:0:0:0:
279,269,39164,1,2,0:0:0:0:
279,269,39326,6,0,P|293:198|300:160,1,99.9999999999999,6|0,3:2|3:0,0:0:0:0:
398,170,39975,2,0,P|407:219|417:268,1,99.9999999999999,12|0,0:0|0:0,0:0:0:0:
423,322,40462,1,0,3:0:0:0:
423,322,40624,2,0,P|377:347|328:351,1,99.9999999999999,6|0,3:2|3:0,0:0:0:0:
230,348,41272,2,0,P|197:353|174:357,1,50,12|0,0:0|3:0,0:0:0:0:
131,363,41597,1,12,0:0:0:0:
44,313,41921,6,0,P|28:254|43:206,2,99.9999999999999,6|0|0,3:2|3:2|3:0,0:0:0:0:
127,257,42894,1,0,3:0:0:0:
211,203,43218,2,0,P|267:212|320:220,1,99.9999999999999,0|0,3:0|3:0,0:0:0:0:
408,233,43867,1,0,3:0:0:0:
485,170,44191,2,0,B|501:121|501:121|484:70,1,99.9999999999999,0|2,3:0|0:0,0:0:0:0:
485,75,46462,6,0,L|423:83,1,50,8|0,0:0|3:0,0:0:0:0:
395,112,46786,2,0,L|333:104,1,50,4|4,3:0|3:0,0:0:0:0:
296,98,47110,6,0,P|273:156|268:202,1,99.9999999999999,6|0,3:2|3:0,0:0:0:0:
263,243,47597,1,8,0:0:0:0:
188,309,47921,1,8,0:0:0:0:
88,303,48245,1,10,0:0:0:0:
88,303,49543,6,0,B|72:269|72:269|90:186,1,104.999996795654,6|0,3:2|3:0,0:0:0:0:
101,152,50029,1,8,0:0:0:0:
176,79,50353,2,0,P|200:83|234:88,1,52.4999983978271,0|0,3:0|3:0,0:0:0:0:
255,132,50678,2,0,P|279:126|313:119,1,52.4999983978271,8|2,0:0|0:0,0:0:0:0:
356,104,51002,2,0,P|388:86|462:95,1,104.999996795654,0|8,3:0|0:0,0:0:0:0:
505,183,51651,2,0,P|489:234|476:292,1,104.999996795654,2|8,0:0|0:0,0:0:0:0:
460,333,52137,6,0,P|427:315|354:318,1,104.999996795654,6|0,3:2|3:0,0:0:0:0:
311,336,52624,1,8,0:0:0:0:
235,266,52948,2,0,P|242:230|249:198,1,52.4999983978271,0|0,3:0|3:0,0:0:0:0:
280,175,53272,2,0,P|272:138|268:106,1,52.4999983978271,8|2,0:0|0:0,0:0:0:0:
257,72,53597,2,0,P|204:88|148:67,1,104.999996795654,0|8,3:0|0:0,0:0:0:0:
55,50,54245,2,0,P|41:117|34:164,1,104.999996795654,0|8,3:0|0:0,0:0:0:0:
4,195,54732,6,0,P|17:262|23:310,1,104.999996795654,6|0,3:2|3:0,0:0:0:0:
31,349,55218,1,10,0:0:0:0:
133,371,55543,1,2,3:2:0:0:
223,318,55867,1,10,0:0:0:0:
234,213,56191,2,0,P|274:197|332:214,1,104.999996795654,2|10,3:2|0:0,0:0:0:0:
373,310,56840,2,0,P|413:325|471:308,1,104.999996795654,2|10,0:2|0:0,0:0:0:0:
507,210,57489,6,0,P|501:177|497:154,1,52.4999983978271,6|0,3:2|3:0,0:0:0:0:
494,110,57813,1,8,0:0:0:0:
494,110,57975,2,0,P|442:102|389:94,1,104.999996795654,6|0,3:2|3:0,0:0:0:0:
341,93,58462,1,8,0:0:0:0:
341,93,58624,2,0,P|351:148|328:195,1,104.999996795654,6|0,3:2|3:0,0:0:0:0:
293,227,59110,1,10,0:0:0:0:
195,267,59435,2,0,P|199:294|204:325,2,52.4999983978271,10|8|8,0:0|0:0|0:0,0:0:0:0:
154,233,59921,6,0,P|161:181|170:122,1,104.999996795654,4|0,3:0|3:0,0:0:0:0:
180,77,60407,1,12,0:0:0:0:
271,24,60732,2,0,P|306:25|331:34,1,52.4999983978271,0|0,3:0|3:0,0:0:0:0:
358,68,61056,2,0,P|393:66|418:57,1,52.4999983978271,8|2,0:0|0:0,0:0:0:0:
459,43,61380,2,0,P|466:92|477:158,1,104.999996795654,0|8,3:0|0:0,0:0:0:0:
440,246,62029,2,0,P|390:238|340:266,1,104.999996795654,2|8,0:0|0:0,0:0:0:0:
301,294,62516,6,0,P|230:279|188:271,1,104.999996795654,6|0,3:2|3:0,0:0:0:0:
151,263,63002,1,8,0:0:0:0:
151,263,63164,2,0,P|116:229|61:224,1,104.999996795654,2|0,0:0|3:0,0:0:0:0:
13,224,63651,1,8,0:0:0:0:
13,224,63813,2,0,P|28:153|36:111,1,104.999996795654,6|0,3:2|3:0,0:0:0:0:
47,70,64299,1,8,0:0:0:0:
142,24,64624,2,0,P|177:58|232:63,1,104.999996795654,2|8,0:0|0:0,0:0:0:0:
282,56,65110,6,0,P|291:105|306:176,1,104.999996795654,6|0,3:2|3:0,0:0:0:0:
311,210,65597,1,12,0:0:0:0:
329,313,65921,2,0,P|380:324|433:309,1,104.999996795654,2|8,3:2|0:0,0:0:0:0:
468,287,66407,2,0,P|478:238|488:184,1,104.999996795654,2|0,0:0|3:0,0:0:0:0:
500,132,66894,1,10,0:0:0:0:
441,44,67218,2,0,P|401:51|375:56,1,52.4999983978271,2|0,3:2|3:0,0:0:0:0:
340,62,67543,1,10,0:0:0:0:
340,62,67705,6,0,P|289:38|237:46,1,104.999996795654,6|0,3:2|3:0,0:0:0:0:
194,66,68191,1,10,0:0:0:0:
147,160,68516,1,10,0:0:0:0:
211,243,68840,1,10,0:0:0:0:
306,198,69164,2,0,P|361:206|414:213,1,104.999996795654,8|0,0:0|3:0,0:0:0:0:
461,221,69651,2,0,P|478:267|469:320,1,104.999996795654,0|0,3:0|3:0,0:0:0:0:
438,360,70137,1,12,0:0:0:0:
343,327,70462,6,0,B|297:346|297:346|243:335,1,99.9999999999999,6|8,3:2|0:0,0:0:0:0:
200,319,70948,2,0,B|154:300|154:300|100:311,1,99.9999999999999,4|8,3:0|0:0,0:0:0:0:
56,323,71435,1,4,3:0:0:0:
56,323,73056,6,0,B|37:277|37:277|48:223,1,99.9999999999999,6|8,3:2|0:2,0:0:0:0:
64,180,73542,2,0,B|83:134|83:134|72:80,1,99.9999999999999,4|8,3:0|0:0,0:0:0:0:
64,35,74029,1,4,3:0:0:0:
167,15,74353,6,0,P|214:24|266:33,1,99.9999999999999,8|4,0:0|3:0,0:0:0:0:
355,75,75153,2,0,P|375:68|416:60,2,50,0|0|14,3:0|3:0|0:2,0:0:0:0:
285,146,75953,6,0,P|267:197|281:251,1,99.9999999999999,6|0,3:2|3:0,0:0:0:0:
251,338,76753,2,0,P|200:356|146:342,1,99.9999999999999,0|0,3:0|3:0,0:0:0:0:
82,279,77553,2,0,P|45:286|6:294,2,74.9999999999999,0|10|10,3:0|0:0|0:0,0:0:0:0:
122,249,78353,2,0,P|127:191|134:130,1,99.9999999999999,0|0,3:0|3:0,0:0:0:0:
145,50,79153,5,0,3:0:0:0:
239,18,79553,1,0,3:0:0:0:
313,84,79953,2,0,P|366:93|419:68,1,99.9999999999999,0|0,3:0|3:0,0:0:0:0:
455,55,80553,1,10,0:0:0:0:
455,55,80753,2,0,P|465:125|473:174,1,99.9999999999999,0|0,3:0|3:0,0:0:0:0:
412,236,81553,2,0,P|377:242|356:246,1,50,2|8,3:2|0:0,0:0:0:0:
321,272,81953,2,0,P|286:266|265:262,1,50,8|8,0:0|0:0,0:0:0:0:
222,251,82353,6,0,B|233:213|233:213|219:144,1,99.9999999999999,6|0,3:2|3:0,0:0:0:0:
206,54,83153,1,0,3:0:0:0:
113,14,83553,1,0,3:0:0:0:
28,66,83953,2,0,P|11:117|27:170,1,99.9999999999999,0|0,3:0|3:0,0:0:0:0:
44,205,84553,1,10,0:0:0:0:
123,265,84953,2,0,P|172:258|222:251,1,99.9999999999999,2|10,0:0|0:0,0:0:0:0:
271,240,85553,6,0,P|276:190|282:135,1,99.9999999999999,0|8,3:2|0:0,0:0:0:0:
290,91,86153,2,0,P|327:108|395:99,1,99.9999999999999,8|8,0:0|0:0,0:0:0:0:
431,83,86753,1,8,0:0:0:0:
494,161,87153,2,0,B|477:211|477:211|491:249|491:249|470:313,2,150,10|2|2,0:0|3:2|3:2,0:0:0:0:
431,83,88753,1,6,3:2:0:0:
284,269,95153,6,0,B|254:286|254:286|185:277,1,99.9999999999999,6|8,3:2|0:0,0:0:0:0:
90,260,95953,1,2,0:0:0:0:
54,166,96353,1,8,0:0:0:0:
103,79,96753,2,0,P|175:66|216:81,1,99.9999999999999,0|8,3:0|0:0,0:0:0:0:
281,130,97553,2,0,P|353:143|394:128,1,99.9999999999999,2|8,0:0|0:0,0:0:0:0:
463,84,98353,5,0,3:0:0:0:
502,175,98753,2,0,P|493:228|484:294,1,99.9999999999999,8|2,0:0|0:0,0:0:0:0:
463,371,99553,1,8,0:0:0:0:
380,313,99953,2,0,P|320:305|270:327,1,99.9999999999999,0|8,3:0|0:0,0:0:0:0:
192,359,100753,2,0,L|136:350,1,50,0|8,3:0|0:0,0:0:0:0:
102,320,101153,2,0,L|46:329,1,50,8|8,0:0|0:0,0:0:0:0:
2,331,101553,6,0,P|10:278|20:222,1,99.9999999999999,6|8,3:2|0:0,0:0:0:0:
43,135,102353,1,2,3:2:0:0:
126,80,102753,1,8,0:0:0:0:
215,125,103153,2,0,P|269:137|324:116,1,99.9999999999999,2|8,3:2|0:0,0:0:0:0:
393,68,103953,2,0,B|459:56|459:56|503:78,1,99.9999999999999,0|12,3:0|0:0,0:0:0:0:
507,168,104753,5,6,3:2:0:0:
450,250,105153,2,0,P|397:244|335:236,1,99.9999999999999,8|2,0:0|3:2,0:0:0:0:
251,227,105953,1,8,0:0:0:0:
194,144,106353,2,0,P|143:127|85:142,1,99.9999999999999,2|8,3:2|0:2,0:0:0:0:
8,177,107153,2,0,P|14:208|19:233,1,50,0|8,3:0|0:0,0:0:0:0:
28,274,107553,1,8,3:0:0:0:
98,344,107953,6,0,B|143:337|167:315|167:315|199:329|244:324,1,150,12|12,3:2|0:0,0:0:0:0:
288,312,108753,2,0,B|277:254|277:254|290:224|290:224|279:157,1,150,6|6,3:2|3:2,0:0:0:0:
270,117,109553,2,0,B|358:140|358:140|374:115|417:89,1,150,12|12,3:2|3:2,0:0:0:0:
446,78,110353,2,0,B|483:158|483:158|475:187|448:212,1,150,12|12,3:2|3:2,0:0:0:0:
413,243,111153,6,0,B|421:295|419:284|430:346,2,99.9999999999999,2|0|0,3:2|3:0|3:0,0:0:0:0:
321,202,112125,1,0,3:0:0:0:
248,271,112450,2,0,P|182:287|142:271,1,99.9999999999999,0|2,3:0|0:0,0:0:0:0:
67,226,113098,2,0,P|36:230|17:233,2,50,8|8|4,3:0|3:0|3:0,0:0:0:0:
102,186,113585,6,0,B|83:148|83:148|98:81,1,104.999996795654,6|0,3:2|3:0,0:0:0:0:
114,37,114071,1,8,0:0:0:0:
217,18,114396,2,0,P|257:24|276:27,1,52.4999983978271,0|0,3:0|3:0,0:0:0:0:
310,58,114720,2,0,P|350:52|369:49,1,52.4999983978271,8|2,0:0|0:0,0:0:0:0:
414,49,115044,2,0,P|405:96|397:164,1,104.999996795654,0|8,3:0|0:0,0:0:0:0:
309,209,115693,2,0,P|318:256|326:324,1,104.999996795654,2|8,0:0|0:0,0:0:0:0:
331,365,116180,6,0,P|283:342|220:350,1,104.999996795654,6|0,3:2|3:0,0:0:0:0:
182,360,116666,1,8,0:0:0:0:
78,344,116990,2,0,P|70:311|64:277,1,52.4999983978271,0|0,3:0|3:0,0:0:0:0:
29,254,117315,2,0,P|36:221|43:187,1,52.4999983978271,8|2,0:0|0:0,0:0:0:0:
48,150,117639,2,0,P|99:144|156:137,1,104.999996795654,0|8,3:0|0:0,0:0:0:0:
256,128,118287,2,0,P|277:182|268:240,1,104.999996795654,0|8,3:0|0:0,0:0:0:0:
258,278,118774,6,0,P|305:298|357:294,1,104.999996795654,6|0,3:2|3:0,0:0:0:0:
406,275,119260,1,10,0:0:0:0:
486,207,119585,1,2,3:2:0:0:
476,102,119909,1,10,0:0:0:0:
407,25,120233,2,0,P|350:33|297:44,1,104.999996795654,2|10,3:2|0:0,0:0:0:0:
214,98,120882,2,0,P|157:89|104:79,1,104.999996795654,2|10,0:2|0:0,0:0:0:0:
23,140,121531,6,0,P|27:165|32:191,1,52.4999983978271,6|0,3:2|3:0,0:0:0:0:
44,247,121855,1,8,0:0:0:0:
44,247,122017,2,0,P|93:240|147:262,1,104.999996795654,6|0,3:2|3:0,0:0:0:0:
190,294,122504,1,8,0:0:0:0:
190,294,122666,2,0,P|242:288|304:279,1,104.999996795654,6|0,3:2|3:0,0:0:0:0:
345,272,123152,1,10,0:0:0:0:
428,208,123477,2,0,P|455:211|490:217,2,52.4999983978271,10|8|8,0:0|0:0|0:0,0:0:0:0:
395,166,123963,6,0,P|412:116|391:62,1,104.999996795654,4|0,3:0|3:0,0:0:0:0:
363,27,124449,1,12,0:0:0:0:
259,45,124774,2,0,P|254:74|249:105,1,52.4999983978271,0|0,3:0|3:0,0:0:0:0:
209,129,125098,2,0,P|214:158|219:189,1,52.4999983978271,8|2,0:0|0:0,0:0:0:0:
227,232,125422,2,0,P|184:253|117:243,1,104.999996795654,0|8,3:0|0:0,0:0:0:0:
38,193,126071,2,0,P|17:150|27:83,1,104.999996795654,2|8,0:0|0:0,0:0:0:0:
42,46,126558,6,0,P|99:53|157:61,1,104.999996795654,6|0,3:2|3:0,0:0:0:0:
191,95,127044,1,8,0:0:0:0:
191,95,127207,2,0,P|243:87|295:81,1,104.999996795654,2|0,0:0|3:0,0:0:0:0:
351,79,127693,1,8,0:0:0:0:
351,79,127855,2,0,P|334:133|354:185,1,104.999996795654,6|0,3:2|3:0,0:0:0:0:
369,225,128341,1,8,0:0:0:0:
298,302,128666,2,0,P|244:285|192:305,1,104.999996795654,2|8,0:0|0:0,0:0:0:0:
158,332,129152,6,0,P|109:323|38:308,1,104.999996795654,6|0,3:2|3:0,0:0:0:0:
3,299,129639,1,12,0:0:0:0:
7,194,129963,2,0,P|54:177|111:190,1,104.999996795654,2|8,3:2|0:0,0:0:0:0:
150,216,130450,2,0,P|199:207|270:192,1,104.999996795654,2|0,0:0|3:0,0:0:0:0:
304,184,130936,1,10,0:0:0:0:
400,143,131260,2,0,P|397:106|388:77,1,52.4999983978271,8|8,3:0|3:0,0:0:0:0:
373,48,131585,1,8,0:0:0:0:
373,48,131747,6,0,B|325:69|325:69|271:64,1,104.999996795654,6|0,3:2|3:0,0:0:0:0:
220,56,132233,1,10,0:0:0:0:
141,126,132558,1,10,0:0:0:0:
191,217,132882,2,0,P|186:250|182:277,1,52.4999983978271,10|8,0:0|0:0,0:0:0:0:
171,320,133207,2,0,P|120:329|61:308,1,104.999996795654,10|2,0:0|0:0,0:0:0:0:
5,238,133855,1,8,0:0:0:0:
5,238,134017,1,2,3:2:0:0:
78,107,134504,6,0,B|126:119|126:119|178:105,1,99.9999999999999,6|0,3:2|3:0,0:0:0:0:
271,80,135152,2,0,P|259:159|253:201,1,99.9999999999999,8|0,0:0|3:0,0:0:0:0:
212,204,135639,2,0,P|224:283|230:325,1,99.9999999999999,0|0,3:0|3:0,0:0:0:0:
235,352,136125,1,0,3:0:0:0:
332,373,136450,2,0,P|373:349|436:351,1,99.9999999999999,8|0,0:0|3:0,0:0:0:0:
477,361,136936,1,0,3:0:0:0:
477,361,137098,6,0,P|484:299|490:255,1,99.9999999999999,0|0,3:0|3:0,0:0:0:0:
505,162,137747,1,8,0:0:0:0:
438,87,138071,1,0,3:0:0:0:
344,122,138396,2,0,P|279:119|239:95,1,99.9999999999999,2|0,0:0|3:0,0:0:0:0:
163,50,139044,2,0,P|98:53|58:77,1,99.9999999999999,8|0,0:0|3:0,0:0:0:0:
8,149,139693,5,6,3:2:0:0:
61,233,140017,1,0,3:0:0:0:
158,209,140342,2,0,P|208:214|261:220,1,99.9999999999999,8|0,0:0|3:0,0:0:0:0:
296,251,140828,2,0,P|346:246|399:240,1,99.9999999999999,0|0,3:0|3:0,0:0:0:0:
445,233,141315,1,0,3:0:0:0:
495,146,141639,2,0,P|503:95|483:46,1,99.9999999999999,8|0,0:0|3:0,0:0:0:0:
393,13,142288,5,0,3:0:0:0:
301,54,142612,1,0,3:0:0:0:
301,153,142936,2,0,P|252:163|198:149,1,99.9999999999999,8|0,0:0|3:0,0:0:0:0:
165,130,143423,1,0,3:0:0:0:
165,130,143585,2,0,P|155:184|146:244,1,99.9999999999999,2|0,0:0|3:0,0:0:0:0:
125,326,144234,2,0,P|91:319|64:313,2,50,8|0|4,0:0|3:0|3:0,0:0:0:0:
213,372,144882,6,0,P|256:346|317:352,1,99.9999999999999,6|0,3:2|3:0,0:0:0:0:
340,312,145369,2,0,P|383:338|444:332,1,99.9999999999999,10|0,0:0|3:0,0:0:0:0:
476,314,145855,1,10,0:0:0:0:
510,222,146180,1,0,3:0:0:0:
510,222,146342,2,0,P|499:168|487:114,1,99.9999999999999,10|0,0:0|3:0,0:0:0:0:
476,75,146828,1,10,0:0:0:0:
386,30,147152,1,10,0:0:0:0:
309,94,147477,6,0,B|272:105|272:105|204:94,1,99.9999999999999,12|0,0:0|3:0,0:0:0:0:
162,87,147963,2,0,P|114:113|55:107,1,99.9999999999999,10|0,0:0|3:0,0:0:0:0:
20,101,148450,1,10,0:0:0:0:
5,199,148774,2,0,P|16:239|31:308,1,99.9999999999999,6|0,3:2|3:0,0:0:0:0:
40,344,149261,1,8,3:0:0:0:
138,361,149585,2,0,P|175:337|230:333,1,99.9999999999999,0|4,3:0|3:0,0:0:0:0:
279,339,150071,6,0,P|284:289|290:238,1,99.9999999999999,6|0,3:2|3:0,0:0:0:0:
316,196,150558,2,0,P|311:146|305:95,1,99.9999999999999,12|0,0:0|3:0,0:0:0:0:
299,46,151044,1,12,0:0:0:0:
399,23,151369,1,0,3:0:0:0:
399,23,151531,2,0,P|430:55|443:121,1,99.9999999999999,12|0,0:0|3:0,0:0:0:0:
444,157,152017,1,12,0:0:0:0:
397,245,152342,1,12,0:0:0:0:
303,280,152666,6,0,P|251:269|191:260,1,99.9999999999999,6|8,3:2|0:0,0:0:0:0:
166,229,153152,2,0,P|114:240|54:249,1,99.9999999999999,6|8,3:2|0:0,0:0:0:0:
21,254,153639,1,6,3:2:0:0:
21,254,153801,1,6,3:2:0:0:
21,254,155261,6,0,P|31:192|41:140,1,104.999996795654,6|10,3:2|0:0,0:0:0:0:
109,72,155909,2,0,P|144:66|167:61,1,52.4999983978271,0|0,3:2|3:0,0:0:0:0:
212,51,156234,1,10,0:0:0:0:
279,131,156558,2,0,P|265:182|283:250,1,104.999996795654,0|10,3:2|0:0,0:0:0:0:
347,307,157207,2,0,P|382:313|405:318,1,52.4999983978271,0|0,3:0|3:0,0:0:0:0:
450,328,157532,1,10,0:0:0:0:
501,237,157855,6,0,P|488:178|474:117,1,104.999996795654,0|10,3:2|0:0,0:0:0:0:
394,70,158504,2,0,P|400:43|407:14,2,52.4999983978271,0|0|10,3:0|3:0|0:0,0:0:0:0:
314,138,159152,1,0,3:0:0:0:
314,138,159315,2,0,P|242:160|199:136,1,104.999996795654,10|10,0:0|0:0,0:0:0:0:
129,104,159963,1,8,0:0:0:0:
129,104,160125,2,0,L|72:113,1,52.4999983978271,8|8,0:0|0:0,0:0:0:0:
25,120,160450,6,0,P|13:167|27:227,1,104.999996795654,6|10,3:2|0:0,0:0:0:0:
84,307,161098,2,0,L|135:298,1,52.4999983978271,0|0,3:0|3:0,0:0:0:0:
187,289,161423,1,10,0:0:0:0:
265,219,161747,2,0,P|270:166|277:102,1,104.999996795654,0|10,3:0|0:0,0:0:0:0:
354,45,162396,2,0,L|405:53,1,52.4999983978271,0|0,3:0|3:0,0:0:0:0:
457,63,162721,1,10,0:0:0:0:
511,152,163044,6,0,P|479:202|478:258,1,104.999996795654,0|10,3:0|0:0,0:0:0:0:
403,322,163693,2,0,L|339:333,1,52.4999983978271,0|0,3:0|3:0,0:0:0:0:
303,352,164017,2,0,L|239:341,1,52.4999983978271,10|0,0:0|0:0,0:0:0:0:
199,331,164342,2,0,P|210:279|189:224,1,104.999996795654,6|8,3:2|0:2,0:0:0:0:
94,198,164990,2,0,P|83:146|104:91,1,104.999996795654,8|4,3:0|3:0,0:0:0:0:
166,23,165639,5,6,3:2:0:0:
256,192,173423,12,8,175369,0:0:0:0:
154,178,176017,6,0,B|255:169|227:227|327:216,1,179.999994506836,6|0,3:2|3:0,0:0:0:0:
407,179,176990,1,0,3:0:0:0:
386,91,177315,2,0,P|308:48|219:65,1,179.999994506836,0|0,3:0|3:0,0:0:0:0:
154,178,178450,6,0,P|143:263|137:318,1,134.999995880127,2|0,0:0|3:0,0:0:0:0:
214,359,179261,2,0,P|255:340|310:344,1,89.999997253418,0|0,3:0|3:0,0:0:0:0:
355,270,179909,2,0,P|412:299|491:270,2,134.999995880127,0|2|0,3:0|0:0|3:0,0:0:0:0:
303,195,181207,5,6,3:2:0:0:
358,123,181531,2,0,P|352:64|348:22,2,89.999997253418,0|0|0,3:0|3:0|3:0,0:0:0:0:
303,195,182504,2,0,P|246:166|167:195,2,134.999995880127,0|2|0,3:0|0:0|3:0,0:0:0:0:
355,270,183801,6,0,B|409:264|409:264|430:251|430:251|493:244,2,134.999995880127,0|2|0,3:0|0:0|3:0,0:0:0:0:
265,280,185098,1,0,3:0:0:0:
175,290,185423,2,0,P|140:255|18:293,1,179.999994506836,0|0,3:0|3:0,0:0:0:0:
97,335,186396,6,0,P|109:244|123:145,1,179.999994506836,0|0,3:0|3:0,0:0:0:0:
136,67,187369,1,0,3:0:0:0:
229,32,187693,2,0,P|275:55|338:46,1,99.9999999999999,12|0,0:0|3:0,0:0:0:0:
371,44,188180,2,0,P|417:21|480:30,1,99.9999999999999,12|4,0:0|3:0,0:0:0:0:
509,46,188666,1,8,0:0:0:0:
492,144,188990,6,2,B|446:148|407:165|407:165|378:166|344:143,1,150,6|6,3:2|3:2,0:1:0:0:
194,19,190125,1,6,3:2:0:0:
194,19,191585,6,0,P|186:71|177:124,1,99.9999999999999,6|8,3:2|0:0,0:0:0:0:
160,219,192234,1,6,3:2:0:0:
160,219,192396,1,6,3:2:0:0:
219,305,192720,6,0,B|247:318|247:318|323:307,1,104.999996795654,6|0,3:2|3:0,0:0:0:0:
372,298,193207,1,8,0:0:0:0:
455,234,193531,2,0,P|448:203|443:176,1,52.4999983978271,0|0,3:0|3:0,0:0:0:0:
408,144,193855,2,0,P|415:113|420:86,1,52.4999983978271,8|2,0:0|0:0,0:0:0:0:
430,41,194180,2,0,P|381:63|321:55,1,104.999996795654,0|8,3:0|0:0,0:0:0:0:
227,43,194828,2,0,P|178:21|118:29,1,104.999996795654,0|8,3:0|0:0,0:0:0:0:
82,52,195315,6,0,B|98:91|98:91|79:166,1,104.999996795654,6|0,3:2|3:0,0:0:0:0:
66,201,195801,1,10,0:0:0:0:
117,292,196125,1,2,3:2:0:0:
222,295,196450,1,10,0:0:0:0:
298,222,196774,2,0,P|342:219|397:247,1,104.999996795654,2|10,3:2|0:0,0:0:0:0:
474,315,197423,2,0,P|467:349|462:380,2,52.4999983978271,8|8|8,0:0|0:0|3:0,0:0:0:0:
505,214,198071,6,0,P|494:145|485:98,1,104.999996795654,6|4,3:2|3:0,0:0:0:0:
477,58,198558,2,0,P|415:78|375:67,1,104.999996795654,6|0,3:2|3:0,0:0:0:0:
334,50,199044,1,12,0:2:0:0:
334,50,199207,2,0,P|272:30|232:41,1,104.999996795654,2|8,3:2|0:0,0:0:0:0:
188,63,199693,1,8,0:0:0:0:
225,160,200017,2,0,P|218:187|211:228,1,52.4999983978271,8|8,0:0|0:0,0:0:0:0:
210,267,200342,1,8,0:0:0:0:
210,267,200504,6,0,B|182:257|182:257|102:268,1,104.999996795654,6|0,3:2|3:0,0:0:0:0:
55,275,200990,1,10,0:0:0:0:
1,184,201315,1,10,0:0:0:0:
51,92,201639,2,0,P|79:95|110:98,1,52.4999983978271,10|0,0:0|3:0,0:0:0:0:
155,104,201963,2,0,P|193:80|267:83,1,104.999996795654,10|10,0:0|0:0,0:0:0:0:
304,102,202450,1,0,3:0:0:0:
304,102,202612,2,0,P|357:94|415:85,1,104.999996795654,10|10,0:0|0:0,0:0:0:0:
459,77,203098,5,6,3:2:0:0:
510,168,203423,2,0,P|497:223|487:274,1,104.999996795654,8|8,0:0|0:0,0:0:0:0:
424,354,204071,1,8,3:0:0:0:
318,354,204396,1,6,3:2:0:0:
244,279,204720,2,0,P|181:267|130:294,1,104.999996795654,8|8,0:0|0:0,0:0:0:0:
96,303,205207,2,0,P|95:251|67:207,1,104.999996795654,8|4,3:0|3:0,0:0:0:0:
19,187,205693,6,0,P|28:140|41:77,1,104.999996795654,2|0,3:2|3:0,0:0:0:0:
55,33,206180,1,12,0:0:0:0:
159,21,206504,2,0,P|200:45|272:36,1,104.999996795654,2|8,3:2|0:0,0:0:0:0:
307,32,206990,2,0,P|317:83|327:134,1,104.999996795654,2|0,0:0|3:0,0:0:0:0:
334,187,207477,1,10,0:0:0:0:
433,218,207801,2,0,P|422:269|412:320,1,104.999996795654,2|10,0:0|0:0,0:0:0:0:
395,371,208288,6,0,B|360:354|360:354|282:367,1,104.999996795654,6|0,3:2|3:0,0:0:0:0:
243,375,208774,1,10,0:0:0:0:
157,313,209098,1,10,0:0:0:0:
204,219,209423,1,10,0:0:0:0:
308,226,209747,2,0,P|315:176|326:117,1,104.999996795654,8|0,0:0|3:0,0:0:0:0:
329,69,210234,2,0,P|273:89|223:76,1,104.999996795654,8|0,0:0|3:0,0:0:0:0:
182,57,210720,2,0,L|117:67,1,52.4999983978271,8|8,0:0|0:0,0:0:0:0:
84,70,211044,6,2,B|51:122|51:122|71:206|71:206|79:213|79:213|98:291|98:291|68:345,1,299.999990844727,2|0,0:0|0:0,0:0:0:0:
68,344,213639,6,0,B|100:358|100:358|175:343,1,104.999996795654,6|8,3:2|0:0,0:0:0:0:
254,283,214288,2,0,L|317:295,1,52.4999983978271,0|0,3:2|3:0,0:0:0:0:
356,306,214612,1,8,0:0:0:0:
441,245,214936,2,0,P|455:196|444:144,1,104.999996795654,0|8,3:0|0:0,0:0:0:0:
358,84,215585,2,0,L|295:96,1,52.4999983978271,0|0,3:0|3:0,0:0:0:0:
258,104,215909,1,8,0:0:0:0:
258,104,216071,6,0,P|211:79|158:83,1,104.999996795654,6|0,3:2|3:0,0:0:0:0:
109,96,216558,1,8,0:0:0:0:
34,169,216882,2,0,P|43:231|49:274,1,104.999996795654,0|8,3:0|0:0,0:0:0:0:
110,357,217531,1,0,3:0:0:0:
213,342,217855,1,8,0:0:0:0:
253,247,218180,1,0,3:0:0:0:
253,247,218342,2,0,L|321:254,1,52.4999983978271,0|8,3:0|0:0,0:0:0:0:
357,254,218666,6,0,P|392:229|467:228,1,104.999996795654,6|0,3:2|3:0,0:0:0:0:
503,235,219152,1,8,0:0:0:0:
510,130,219477,1,0,3:0:0:0:
432,59,219801,1,8,0:0:0:0:
338,106,220125,2,0,P|279:97|226:91,1,104.999996795654,0|8,3:0|0:0,0:0:0:0:
145,34,220774,2,0,P|115:38|89:41,1,52.4999983978271,0|0,3:0|3:0,0:0:0:0:
41,49,221098,1,12,0:0:0:0:
15,151,221423,6,0,B|33:184|33:184|17:254,1,104.999996795654,6|8,3:2|0:0,0:0:0:0:
6,300,221909,2,0,P|50:295|106:329,1,104.999996795654,6|0,3:2|3:0,0:0:0:0:
142,364,222396,1,8,0:0:0:0:
142,364,222558,2,0,P|186:336|237:340,1,104.999996795654,6|0,3:2|3:0,0:0:0:0:
285,360,223044,1,8,0:0:0:0:
347,275,223369,2,0,P|339:223|326:153,1,104.999996795654,8|8,0:0|3:0,0:0:0:0:
320,119,223855,6,0,B|360:128|360:128|424:109,1,104.999996795654,4|0,3:0|3:0,0:0:0:0:
471,94,224342,1,12,0:0:0:0:
506,192,224666,2,0,P|475:238|475:297,1,104.999996795654,2|8,3:2|0:0,0:0:0:0:
475,338,225152,2,0,P|424:328|375:346,1,104.999996795654,2|0,0:0|3:0,0:0:0:0:
329,371,225639,1,10,0:0:0:0:
249,302,225963,2,0,L|254:237,1,52.4999983978271,0|0,3:0|3:0,0:0:0:0:
258,200,226288,1,10,0:0:0:0:
258,200,226450,6,0,B|217:224|217:224|145:212,1,104.999996795654,6|0,3:2|3:0,0:0:0:0:
108,205,226936,1,10,0:0:0:0:
23,142,227261,2,0,P|16:94|37:41,1,104.999996795654,0|10,3:0|0:0,0:0:0:0:
138,22,227909,2,0,P|186:29|253:41,1,104.999996795654,10|8,0:0|0:0,0:0:0:0:
280,74,228396,2,0,P|328:66|395:55,1,104.999996795654,10|0,0:0|3:0,0:0:0:0:
440,57,228882,1,10,0:0:0:0:
440,57,229044,6,0,P|420:118|438:162,1,104.999996795654,6|0,3:2|3:0,0:0:0:0:
455,202,229531,1,10,0:0:0:0:
370,263,229855,2,0,P|309:243|265:261,1,104.999996795654,0|10,3:0|0:0,0:0:0:0:
191,322,230504,2,0,P|130:342|86:324,1,104.999996795654,2|10,0:0|0:0,0:0:0:0:
60,295,230990,1,0,3:0:0:0:
60,295,231152,2,0,L|66:231,1,52.4999983978271,8|8,3:0|3:0,0:0:0:0:
73,190,231477,1,10,0:0:0:0:
150,119,231801,6,0,B|186:132|186:132|266:116,1,104.999996795654,12|0,0:0|3:0,0:0:0:0:
303,107,232288,2,0,B|290:143|290:143|306:223,1,104.999996795654,12|0,0:0|3:0,0:0:0:0:
312,260,232774,1,12,0:0:0:0:
419,279,233098,1,0,3:0:0:0:
419,279,233261,2,0,P|445:232|434:177,1,104.999996795654,12|0,0:0|3:0,0:0:0:0:
410,138,233747,2,0,L|417:81,1,52.4999983978271,10|10,0:0|0:0,0:0:0:0:
427,37,234071,1,10,0:0:0:0:
427,37,234234,1,6,3:2:0:0:
427,37,235693,6,0,P|380:57|330:60,1,99.9999999999999,2|8,3:2|3:0,0:0:0:0:
253,122,236342,2,0,P|206:102|156:99,1,99.9999999999999,4|8,3:0|0:0,0:0:0:0:
108,106,236828,1,6,3:2:0:0:
256,192,236990,12,0,239585,0:0:0:0:
