osu file format v14

[General]
AudioFilename: audio.mp3
AudioLeadIn: 0
PreviewTime: 175693
Countdown: 0
SampleSet: Soft
StackLeniency: 0.7
Mode: 0
LetterboxInBreaks: 0
WidescreenStoryboard: 1

[Editor]
Bookmarks: 408,5597,15975,26353,36732,41921,47110,49543,59921,71759,75953,88753,95153,107953,111153,113585,123963,134504,144882,155261,165639,173423,173747,174071,174396,174720,175044,175369,175693,176017,187693,192720,200504,213639,223855,236828,239585
DistanceSpacing: 0.8
BeatDivisor: 4
GridSize: 32
TimelineZoom: 1.7

[Metadata]
Title:STARRY SKY
TitleUnicode:STARRY SKY
Artist:PassCode
ArtistUnicode:PassCode
Creator:Akitoshi
Version:Insane
Source:隕石家族
Tags:Corinn -Laura- Inseki Kazoku Tokai Toukai TV Television Drama Japanese Pop Rock 高嶋楓 Takashima Kaede 南菜生 Minami Nao 今田夢菜 Imada Yuna 大上陽奈子 Oogami Hinako
BeatmapID:2806422
BeatmapSetID:1199549

[Difficulty]
HPDrainRate:5.5
CircleSize:3.8
OverallDifficulty:8
ApproachRate:9
SliderMultiplier:1.5
SliderTickRate:2

[Events]
//Background and Video events
0,0,"000000.jpg",0,0
//Break Periods
2,16175,24780
2,88953,92953
2,165839,172823
//Storyboard Layer 0 (Background)
//Storyboard Layer 1 (Fail)
//Storyboard Layer 2 (Pass)
//Storyboard Layer 3 (Foreground)
//Storyboard Layer 4 (Overlay)
//Storyboard Sound Samples

[TimingPoints]
408,324.324324324324,4,2,5,40,1,0
408,-200,4,2,5,40,0,0
3002,-166.666666666667,4,2,5,40,0,0
3651,-100,4,2,5,60,0,0
4218,-100,4,2,5,5,0,0
4299,-200,4,2,5,40,0,0
5597,-100,4,2,5,70,0,0
5840,-100,4,2,5,5,0,0
5921,-100,4,2,5,70,0,0
11029,-100,4,2,5,5,0,0
11110,-100,4,2,5,70,0,0
15975,-250,4,2,5,70,0,0
25380,-166.666666666667,4,2,5,50,0,0
26272,-166.666666666667,4,2,5,5,0,0
26353,-111.111111111111,4,2,5,60,0,0
28867,-111.111111111111,4,2,5,5,0,0
28948,-111.111111111111,4,2,5,60,0,0
31462,-111.111111111111,4,2,5,5,0,0
31543,-111.111111111111,4,2,5,60,0,0
36732,-125,4,2,5,60,0,0
41921,-142.857142857143,4,2,5,60,0,0
43218,-125,4,2,5,60,0,0
44191,-100,4,2,5,60,0,0
44435,-100,4,2,5,5,0,0
44516,-200,4,2,5,40,0,0
46462,-111.111111111111,4,2,5,70,0,0
47110,-100,4,2,5,70,0,0
49543,-90.9090909090909,4,2,5,80,0,0
70137,-66.6666666666667,4,2,5,80,0,0
70380,-66.6666666666667,4,2,5,5,0,0
70462,-90.9090909090909,4,2,5,80,0,0
71759,-125,4,2,5,80,0,0
73056,-100,4,2,5,80,0,0
74272,-100,4,2,5,5,0,0
74353,400,4,2,5,70,1,0
75853,-100,4,2,5,5,0,0
75953,-100,4,2,5,70,0,0
87153,-90.9090909090909,4,2,5,70,0,0
88753,-125,4,2,5,60,0,0
93553,-83.3333333333333,4,2,5,60,0,0
93753,-83.3333333333333,4,2,5,5,0,0
93853,-83.3333333333333,4,2,5,60,0,0
94053,-83.3333333333333,4,2,5,5,0,0
94153,-83.3333333333333,4,2,5,60,0,0
95153,-111.111111111111,4,2,5,70,0,0
101853,-111.111111111111,4,2,5,5,0,0
101953,-111.111111111111,4,2,5,70,0,0
102653,-111.111111111111,4,2,5,5,0,0
102753,-111.111111111111,4,2,5,70,0,0
103453,-111.111111111111,4,2,5,5,0,0
103553,-111.111111111111,4,2,5,70,0,0
104353,-76.9230769230769,4,2,5,70,0,0
104653,-76.9230769230769,4,2,5,5,0,0
104753,-111.111111111111,4,2,5,70,0,0
105453,-111.111111111111,4,2,5,5,0,0
105553,-111.111111111111,4,2,5,70,0,0
106253,-111.111111111111,4,2,5,5,0,0
106353,-111.111111111111,4,2,5,70,0,0
107953,-83.3333333333333,4,2,5,70,0,0
108153,-83.3333333333333,4,2,5,5,0,0
108253,-83.3333333333333,4,2,5,70,0,0
108453,-83.3333333333333,4,2,5,5,0,0
108553,-83.3333333333333,4,2,5,70,0,0
108653,-83.3333333333333,4,2,5,5,0,0
108753,-83.3333333333333,4,2,5,70,0,0
108953,-83.3333333333333,4,2,5,5,0,0
109053,-83.3333333333333,4,2,5,70,0,0
109253,-83.3333333333333,4,2,5,5,0,0
109353,-83.3333333333333,4,2,5,70,0,0
109453,-83.3333333333333,4,2,5,5,0,0
109553,-83.3333333333333,4,2,5,70,0,0
109753,-83.3333333333333,4,2,5,5,0,0
109853,-83.3333333333333,4,2,5,70,0,0
110053,-83.3333333333333,4,2,5,5,0,0
110153,-83.3333333333333,4,2,5,70,0,0
110253,-83.3333333333333,4,2,5,5,0,0
110353,-83.3333333333333,4,2,5,70,0,0
110553,-83.3333333333333,4,2,5,5,0,0
110653,-83.3333333333333,4,2,5,70,0,0
110853,-83.3333333333333,4,2,5,5,0,0
110953,-83.3333333333333,4,2,5,70,0,0
111053,-83.3333333333333,4,2,5,5,0,0
111153,324.324324324324,4,2,5,60,1,0
111153,-125,4,2,5,60,0,0
112450,-111.111111111111,4,2,5,60,0,0
113098,-100,4,2,5,70,0,0
113585,-90.9090909090909,4,2,5,80,0,0
134504,-111.111111111111,4,2,5,70,0,0
144882,-100,4,2,5,70,0,0
153639,-66.6666666666667,4,2,5,70,0,0
154125,-1000,4,2,5,70,0,0
154936,-100,4,2,5,40,0,0
155098,-100,4,2,5,60,0,0
155261,-83.3333333333333,4,2,5,80,0,1
155504,-83.3333333333333,4,2,5,5,0,1
155585,-83.3333333333333,4,2,5,80,0,1
156801,-83.3333333333333,4,2,5,5,0,1
156882,-83.3333333333333,4,2,5,80,0,1
158098,-83.3333333333333,4,2,5,5,0,1
158180,-83.3333333333333,4,2,5,80,0,1
160693,-83.3333333333333,4,2,5,5,0,1
160774,-83.3333333333333,4,2,5,80,0,1
161990,-83.3333333333333,4,2,5,5,0,1
162071,-83.3333333333333,4,2,5,80,0,1
165639,-142.857142857143,4,2,5,60,0,0
187693,-111.111111111111,4,2,5,70,0,0
190125,-100,4,2,5,70,0,0
191585,-90.9090909090909,4,2,5,70,0,0
192234,-58.8235294117647,4,2,5,70,0,0
192639,-166.666666666667,4,2,5,5,0,0
192720,-83.3333333333333,4,2,5,85,0,1
200504,-83.3333333333333,4,2,5,85,0,1
211044,-250.000000000001,4,2,2,50,0,0
212666,-250.000000000001,4,2,5,5,0,0
213639,-83.3333333333333,4,2,5,80,0,1
221342,-83.3333333333333,4,2,5,5,0,1
221423,-83.3333333333333,4,2,5,80,0,1
234234,-142.857142857143,4,2,5,60,0,0
235693,-90.9090909090909,4,2,5,70,0,0
236828,-192.307692307692,4,2,5,70,0,0
236990,-192.307692307692,4,2,2,50,0,0
239585,-192.307692307692,4,2,2,5,0,0

[Colours]
Combo1 : 21,234,154
Combo2 : 0,255,255
Combo3 : 159,159,208
Combo4 : 255,255,26

[HitObjects]
69,104,408,6,0,P|131:85|156:87,1,75,0|0,3:0|1:0,0:0:0:0:
285,130,1056,1,0,3:0:0:0:
285,130,1218,2,0,P|275:165|272:182,1,37.5,0|0,1:0|0:0,0:0:0:0:
205,211,1543,6,0,P|215:246|218:263,1,37.5,0|0,3:0|0:0,0:0:0:0:
276,302,1867,2,0,P|308:283|345:280,1,75,0|0,1:0|1:0,0:0:0:0:
426,290,2353,2,0,P|434:258|435:242,1,37.5,0|0,3:0|0:0,0:0:0:0:
504,208,2678,2,0,P|480:185|466:176,1,37.5,0|0,1:0|0:0,0:0:0:0:
391,153,3002,6,0,P|383:108|377:55,1,89.9999972534181,0|0,3:0|1:0,0:0:0:0:
236,12,3651,1,2,0:0:0:0:
155,67,3813,6,0,B|180:108|180:108|159:144|149:204|149:204|112:169,1,187.5,6|0,3:2|0:0,0:0:0:0:
101,158,4299,6,0,P|65:177|30:175,2,75,4|4|2,0:3|0:3|0:0,0:0:0:0:
101,158,5597,6,0,B|86:86|86:86|126:67,1,112.5,6|0,3:2|0:0,0:0:0:0:
158,69,5921,2,0,P|183:101|190:148,1,75,8|2,0:0|0:0,0:0:0:0:
192,261,6245,1,0,3:0:0:0:
307,207,6407,1,0,3:0:0:0:
281,332,6570,1,8,0:0:0:0:
403,284,6732,1,2,0:0:0:0:
403,284,6813,1,2,0:0:0:0:
403,284,6894,6,0,P|450:268|475:268,1,75,0|0,3:0|0:0,0:0:0:0:
503,146,7218,2,0,P|462:143|424:128,1,75,8|2,0:0|0:0,0:0:0:0:
327,68,7543,1,0,3:0:0:0:
288,189,7705,1,0,3:0:0:0:
185,117,7867,2,0,P|144:120|106:135,1,75,8|2,0:0|0:0,0:0:0:0:
27,216,8191,5,0,3:0:0:0:
108,304,8353,1,2,0:0:0:0:
207,235,8516,2,0,P|242:240|289:247,1,75,8|0,0:0|0:0,0:0:0:0:
400,261,8840,1,0,3:0:0:0:
342,155,9002,1,0,3:0:0:0:
459,131,9164,2,0,P|472:92|465:56,1,75,8|2,0:0|0:0,0:0:0:0:
358,6,9489,5,0,3:0:0:0:
244,44,9651,2,0,B|251:85|251:85|241:116,1,75,10|0,0:0|3:0,0:0:0:0:
134,210,9975,2,0,B|126:168|126:168|136:137,1,75,10|0,0:0|3:0,0:0:0:0:
233,264,10299,1,10,0:0:0:0:
233,264,10380,1,10,0:0:0:0:
233,264,10462,2,0,L|221:312,3,37.5,8|8|8|8,0:0|0:0|0:0|0:0,0:0:0:0:
159,345,10786,6,0,B|117:347|89:362|89:362|44:332,1,112.5,6|0,3:2|0:0,0:0:0:0:
30,312,11110,2,0,P|25:277|19:237,1,75,8|2,0:0|0:0,0:0:0:0:
1,118,11435,1,0,3:0:0:0:
100,184,11597,1,0,3:0:0:0:
175,91,11759,1,8,0:0:0:0:
216,213,11921,1,2,0:0:0:0:
216,213,12002,1,2,0:0:0:0:
216,213,12083,6,0,P|255:224|300:211,1,75,0|0,3:0|0:0,0:0:0:0:
336,107,12407,2,0,P|299:100|263:111,1,75,8|2,0:0|0:0,0:0:0:0:
380,188,12732,1,0,3:0:0:0:
438,83,12894,1,0,3:0:0:0:
499,186,13056,2,0,P|490:242|483:284,1,75,8|2,0:0|0:0,0:0:0:0:
417,291,13299,1,0,0:0:0:0:
417,291,13380,6,0,L|425:344,3,37.5,0|2|2|2,3:0|0:0|0:0|0:0,0:0:0:0:
424,358,13705,2,0,P|387:370|344:356,1,75,8|2,0:0|0:0,0:0:0:0:
243,312,14029,5,6,3:2:0:0:
220,314,14110,1,8,0:0:0:0:
198,317,14191,1,8,0:0:0:0:
176,320,14272,1,8,0:0:0:0:
153,323,14353,2,0,L|114:318,3,37.5,8|8|8|8,0:2|0:0|0:2|0:0,0:0:0:0:
85,314,14678,1,0,3:0:0:0:
21,222,14840,6,0,B|9:201|9:201|24:142,1,75,6|0,3:2|0:0,0:0:0:0:
127,68,15164,2,0,B|139:117|139:117|127:138,1,75,6|0,3:2|0:0,0:0:0:0:
221,236,15489,1,8,0:0:0:0:
256,129,15651,1,4,3:0:0:0:
317,204,15813,1,4,3:0:0:0:
192,232,15975,5,6,3:2:0:0:
270,85,25380,5,6,0:0:0:0:
225,161,25543,1,8,0:0:0:0:
225,161,25624,2,0,P|186:154|149:147,1,67.4999979400635,2|0,0:0|3:0,0:0:0:0:
61,191,26029,2,0,P|47:227|56:264,1,67.4999979400635,8|0,0:0|0:0,0:0:0:0:
62,286,26353,6,0,P|102:279|135:274,1,67.4999979400635,6|0,3:2|0:0,0:0:0:0:
225,337,26678,2,0,P|188:354|156:351,1,67.4999979400635,8|0,0:0|0:0,0:0:0:0:
281,263,27002,2,0,B|356:288|356:288|373:271|414:251,1,134.999995880127,0|2,3:0|0:0,0:0:0:0:
492,208,27489,1,8,0:0:0:0:
421,143,27651,5,2,0:0:0:0:
421,143,27813,2,0,P|376:142|339:159,1,67.4999979400635,0|8,3:0|0:0,0:0:0:0:
441,54,28137,2,0,P|473:62|506:60,1,67.4999979400635,2|0,0:0|3:0,0:0:0:0:
359,9,28462,1,0,3:0:0:0:
290,83,28624,2,0,P|240:72|177:60,1,101.249996910095,8|0,0:0|0:0,0:0:0:0:
157,59,28948,6,0,B|164:109|164:109|152:138,1,67.4999979400635,6|2,3:2|0:0,0:0:0:0:
72,179,29272,2,0,P|58:148|61:110,1,67.4999979400635,8|0,0:0|0:0,0:0:0:0:
161,224,29597,1,0,3:0:0:0:
72,275,29759,2,0,P|38:270|7:250,1,67.4999979400635,0|2,3:0|0:0,0:0:0:0:
112,360,30083,6,0,P|151:352|190:344,1,67.4999979400635,8|0,0:0|0:0,0:0:0:0:
276,322,30407,1,0,3:0:0:0:
324,232,30570,2,0,P|317:201|322:157,1,67.4999979400635,8|2,0:0|0:0,0:0:0:0:
366,78,30894,1,0,3:0:0:0:
366,78,31056,1,0,3:0:0:0:
456,123,31218,2,0,P|446:173|434:244,1,101.249996910095,8|0,0:0|0:0,0:0:0:0:
418,251,31543,6,0,P|428:293|434:321,1,67.4999979400635,6|0,3:2|0:2,0:2:0:0:
341,359,31867,2,0,P|307:346|275:343,1,67.4999979400635,8|0,0:2|0:2,0:2:0:0:
175,357,32191,1,2,0:0:0:0:
222,267,32353,2,0,P|217:231|194:198,1,67.4999979400635,0|0,3:0|0:0,0:0:0:0:
107,165,32678,1,8,0:0:0:0:
178,93,32840,6,0,P|211:97|244:102,1,67.4999979400635,2|0,0:0|3:0,0:0:0:0:
337,14,33164,2,0,P|298:9|264:25,1,67.4999979400635,8|0,0:0|0:0,0:0:0:0:
363,110,33489,1,0,3:0:0:0:
438,42,33651,1,0,3:0:0:0:
470,137,33813,1,8,0:0:0:0:
395,205,33975,6,0,P|364:198|307:192,1,67.4999979400635,2|0,0:0|3:0,0:0:0:0:
247,253,34299,1,0,3:0:0:0:
148,227,34462,2,0,P|133:194|142:142,1,67.4999979400635,10|0,0:0|3:0,0:0:0:0:
155,64,34786,1,10,0:0:0:0:
54,57,34948,2,0,P|46:98|38:145,1,67.4999979400635,0|0,3:0|3:0,0:0:0:0:
11,261,35272,6,0,B|88:286|88:286|104:270|142:250,1,134.999995880127,10|0,0:0|3:0,0:0:0:0:
228,223,35759,1,8,0:0:0:0:
335,248,35921,1,8,0:0:0:0:
335,248,36002,1,8,0:0:0:0:
335,248,36083,6,0,P|356:296|352:325,1,67.4999979400635,8|8,0:0|0:3,0:0:0:0:
455,331,36407,2,0,P|423:373|396:384,1,67.4999979400635,4|4,3:0|3:3,0:0:0:0:
430,222,36732,6,0,P|465:217|512:210,1,60,6|0,3:2|3:0,0:0:0:0:
361,162,37056,1,0,3:0:0:0:
335,248,37218,1,0,3:0:0:0:
229,190,37380,2,0,B|194:191|172:206|172:206|150:209|97:188,1,120,12|0,0:0|0:0,0:0:0:0:
40,141,37867,1,0,3:0:0:0:
147,88,38029,6,0,P|155:59|165:30,1,60,6|0,3:2|3:0,0:0:0:0:
252,10,38353,1,0,3:0:0:0:
279,96,38516,1,0,3:0:0:0:
384,39,38678,2,0,B|458:25|458:25|486:38|495:66,1,120,12|0,0:0|0:0,0:0:0:0:
475,143,39164,1,2,0:0:0:0:
358,171,39326,6,0,P|363:204|368:244,1,60,6|0,3:2|3:0,0:0:0:0:
301,293,39651,1,0,3:0:0:0:
269,208,39813,1,0,3:0:0:0:
182,291,39975,2,0,B|159:289|139:276|139:276|100:301|59:293,1,120,12|0,0:0|0:0,0:0:0:0:
5,229,40462,1,0,3:0:0:0:
109,170,40624,6,0,P|103:140|94:89,1,60,6|0,3:2|3:0,0:0:0:0:
149,37,40948,1,0,3:0:0:0:
197,112,41110,1,0,3:0:0:0:
278,24,41272,1,12,0:0:0:0:
308,27,41353,1,0,3:0:0:0:
337,31,41435,1,0,3:0:0:0:
367,34,41516,1,0,3:0:0:0:
396,38,41597,2,0,P|386:73|381:107,1,60,12|0,0:0|0:0,0:0:0:0:
361,199,41921,6,0,P|313:204|264:254,2,104.999996795654,6|0|0,3:2|3:2|3:0,0:0:0:0:
350,356,42894,1,0,3:0:0:0:
181,293,43218,6,0,P|177:257|172:208,1,60,0|2,3:0|0:0,0:0:0:0:
92,171,43543,2,0,P|88:200|85:230,1,60,0|2,3:0|0:0,0:0:0:0:
8,116,43867,1,0,3:0:0:0:
155,89,44029,1,2,0:0:0:0:
155,89,44110,1,2,0:0:0:0:
155,89,44191,2,0,P|207:104|270:76,1,112.5,0|0,3:0|0:0,0:0:0:0:
270,77,44516,5,2,0:0:0:0:
270,77,46462,5,8,0:0:0:0:
296,70,46543,1,0,3:0:0:0:
322,65,46624,1,0,3:0:0:0:
348,59,46705,1,0,3:0:0:0:
374,55,46786,2,0,L|422:64,3,33.7499989700318,4|4|4|4,3:0|3:0|3:0|3:0,3:0:0:0:
484,77,47110,6,0,B|491:105|491:105|475:161,1,75,6|0,3:2|3:0,0:0:0:0:
434,277,47435,1,0,3:0:0:0:
364,161,47597,1,8,0:0:0:0:
303,281,47759,1,0,3:0:0:0:
239,145,47921,5,8,0:0:0:0:
384,182,48083,1,8,0:0:0:0:
207,245,48245,1,10,0:0:0:0:
207,245,49543,6,0,B|306:229|306:229|327:253|363:268,1,165.000005035401,6|0,3:2|3:0,0:0:0:0:
480,196,50029,2,0,P|488:155|472:109,1,82.5000025177003,8|2,0:0|0:0,0:0:0:0:
377,18,50353,1,0,3:0:0:0:
380,158,50516,1,0,3:0:0:0:
270,71,50678,2,0,P|234:89|182:97,1,82.5000025177003,8|2,0:0|0:0,0:0:0:0:
52,90,51002,5,0,3:0:0:0:
165,7,51164,1,0,3:0:0:0:
117,164,51326,2,0,P|127:207|137:265,1,82.5000025177003,8|0,0:0|0:0,0:0:0:0:
246,297,51651,2,0,P|253:256|262:216,1,82.5000025177003,2|0,0:0|3:0,0:0:0:0:
330,339,51975,1,8,0:0:0:0:
166,356,52137,6,0,B|108:346|71:371|71:371|35:370|7:329,1,165.000005035401,6|0,3:2|3:0,0:0:0:0:
7,198,52624,2,0,P|51:191|113:182,1,82.5000025177003,8|2,0:0|0:0,0:0:0:0:
213,123,52948,1,0,3:0:0:0:
80,77,53110,1,0,3:0:0:0:
206,16,53272,2,0,P|254:13|300:33,1,82.5000025177003,8|2,0:0|0:0,0:0:0:0:
369,137,53597,5,0,3:0:0:0:
434,12,53759,1,0,3:0:0:0:
499,135,53921,2,0,P|490:177|482:219,1,82.5000025177003,8|2,0:0|0:0,0:0:0:0:
380,311,54245,2,0,P|370:271|390:226,1,82.5000025177003,0|0,3:0|3:0,0:0:0:0:
471,363,54570,1,8,0:0:0:0:
277,322,54732,6,0,B|241:324|215:314|215:314|183:333|183:333|154:321|114:324,1,165.000005035401,6|0,3:2|3:0,0:0:0:0:
24,220,55218,2,0,P|16:177|33:133,1,82.5000025177003,10|0,0:0|0:0,0:0:0:0:
101,21,55543,1,2,3:2:0:0:
148,152,55705,1,0,3:0:0:0:
222,33,55867,2,0,P|274:42|323:51,1,82.5000025177003,10|0,0:0|0:0,0:0:0:0:
388,158,56191,5,2,3:2:0:0:
248,174,56353,1,0,3:0:0:0:
354,266,56516,2,0,B|405:270|448:280|448:280|483:263|486:223,1,165.000005035401,10|2,0:0|0:2,0:0:0:0:
360,163,57002,1,0,3:0:0:0:
256,269,57164,2,0,P|249:308|241:362,1,82.5000025177003,10|0,0:0|0:0,0:0:0:0:
64,262,57489,6,0,B|93:253|93:253|155:262,1,82.5000025177003,6|0,3:2|3:0,0:2:0:0:
0,340,57813,1,8,0:0:0:0:
19,168,57975,2,0,B|116:139|116:139|140:162|179:167,1,165.000005035401,6|0,3:2|3:0,3:0:0:0:
291,130,58462,1,8,0:0:0:0:
373,272,58624,6,0,B|424:275|467:291|467:291|504:282|519:222,1,165.000005035401,6|0,3:2|3:0,0:0:0:0:
373,170,59110,1,10,0:0:0:0:
277,272,59272,1,0,3:0:0:0:
201,192,59435,1,8,0:0:0:0:
201,192,59516,1,8,0:0:0:0:
201,192,59597,1,8,0:0:0:0:
201,192,59678,1,8,0:0:0:0:
201,192,59759,1,8,0:0:0:0:
201,192,59840,1,8,0:0:0:0:
201,192,59921,6,0,B|208:130|226:81|226:81|202:71|168:34,1,165.000005035401,4|0,3:0|3:0,0:0:0:0:
106,47,60326,1,0,3:0:0:0:
105,46,60407,2,0,B|79:78|79:78|93:131,1,82.5000025177003,12|2,0:0|0:0,0:0:0:0:
125,254,60732,1,0,3:0:0:0:
8,180,60894,1,0,3:0:0:0:
201,192,61056,2,0,P|239:184|287:176,1,82.5000025177003,8|2,0:0|0:0,0:0:0:0:
421,159,61380,5,0,3:0:0:0:
298,88,61543,1,0,3:0:0:0:
360,249,61705,2,0,P|350:292|337:347,1,82.5000025177003,8|0,0:0|0:0,0:0:0:0:
220,273,62029,2,0,P|210:232|201:192,1,82.5000025177003,2|0,0:0|3:0,0:0:0:0:
169,56,62353,1,8,0:0:0:0:
56,178,62516,6,0,B|55:223|36:268|36:268|65:305|113:291,1,165.000005035401,6|0,3:2|3:0,0:0:0:0:
201,192,63002,1,8,0:0:0:0:
313,274,63164,2,0,P|323:334|302:383,1,82.5000025177003,2|0,0:0|0:0,0:0:0:0:
203,287,63489,1,0,3:0:0:0:
324,175,63651,1,8,0:0:0:0:
183,88,63813,6,0,B|129:97|88:121|88:121|55:111|40:68,1,165.000005035401,6|0,3:2|3:0,0:0:0:0:
244,2,64299,1,8,0:0:0:0:
301,157,64462,1,0,3:0:0:0:
417,95,64624,2,0,P|424:47|409:4,1,82.5000025177003,2|0,0:0|3:0,0:0:0:0:
273,80,64948,1,8,0:0:0:0:
399,185,65110,6,0,B|362:286|362:286|388:303|408:346,1,165.000005035401,6|0,3:2|3:0,0:0:0:0:
236,359,65597,2,0,B|272:373|272:373|325:356,1,82.5000025177003,12|0,0:0|0:0,0:0:0:0:
222,253,65921,1,2,3:2:0:0:
127,344,66083,1,0,3:0:0:0:
129,212,66245,1,8,0:0:0:0:
20,287,66407,6,0,P|28:328|34:368,1,82.5000025177003,2|0,0:0|3:0,0:0:0:0:
134,236,66732,1,0,3:0:0:0:
20,168,66894,2,0,P|27:127|34:86,1,82.5000025177003,10|0,0:0|0:0,0:0:0:0:
138,5,67218,1,2,3:2:0:0:
133,136,67380,1,0,3:0:0:0:
41,0,67543,1,10,0:0:0:0:
207,71,67705,6,0,B|230:79|260:97|260:97|317:94|366:54,1,165.000005035401,6|0,3:2|3:0,0:0:0:0:
484,189,68191,2,0,P|417:187|388:201,1,82.5000025177003,10|0,0:0|3:0,0:0:0:0:
325,338,68516,2,0,P|360:280|362:248,1,82.5000025177003,10|0,0:0|3:0,0:0:0:0:
276,126,68840,2,0,P|307:185|334:203,1,82.5000025177003,10|0,0:0|3:0,0:0:0:0:
463,297,69164,5,8,0:0:0:0:
463,297,69245,1,8,0:0:0:0:
463,297,69326,1,8,0:0:0:0:
463,297,69407,1,8,0:0:0:0:
463,297,69489,2,0,L|531:284,1,41.2500012588501,0|0,3:0|3:0,0:0:0:0:
512,210,69651,5,0,3:0:0:0:
512,210,69732,1,0,3:0:0:0:
512,210,69813,2,0,L|471:202,3,41.2500012588501,0|0|0|0,3:0|3:0|3:0|3:0,0:0:0:0:
409,136,70137,6,0,B|365:120|322:129|322:129|302:146|302:146|278:151|232:136,1,168.750006437302,12|0,0:0|0:0,0:0:0:0:
176,99,70462,5,6,3:2:0:0:
105,222,70624,1,8,0:0:0:0:
105,222,70705,1,8,0:0:0:0:
105,222,70786,2,0,L|118:276,1,41.2500012588501,8|8,0:0|0:0,0:0:0:0:
200,303,70948,6,0,P|201:282|207:262,3,41.2500012588501,4|8|8|8,3:0|0:0|0:0|0:0,0:0:0:0:
291,218,71272,2,0,P|298:245|294:282,1,41.2500012588501,8|8,0:0|0:0,0:0:0:0:
306,353,71435,6,0,B|401:327|378:383|485:354,1,165.000005035401,4|2,3:0|3:2,0:0:0:0:
495,117,72083,5,2,3:2:0:0:
495,117,72407,5,2,3:2:0:0:
495,117,72732,5,2,3:2:0:0:
495,117,73056,5,6,3:2:0:0:
378,151,73218,1,8,0:0:0:0:
378,151,73299,1,8,0:0:0:0:
378,151,73380,2,0,L|367:205,1,37.5,8|8,0:2|0:0,0:0:0:0:
284,203,73543,6,0,L|273:149,3,37.5,4|8|8|8,3:0|0:0|0:0|0:0,0:0:0:0:
193,144,73867,2,0,L|182:198,1,37.5,8|8,0:0|0:0,0:0:0:0:
157,262,74029,2,0,P|100:252|39:242,1,112.5,4|0,3:0|0:0,0:0:0:0:
19,238,74353,6,0,P|9:277|16:313,1,75,8|0,0:0|3:0,0:0:0:0:
78,157,74753,2,0,P|83:120|74:84,1,75,0|0,3:0|3:0,0:0:0:0:
183,39,75153,5,0,3:0:0:0:
183,39,75253,1,0,3:0:0:0:
183,39,75353,1,0,3:0:0:0:
183,39,75453,1,0,3:0:0:0:
183,39,75553,2,0,B|221:58|221:58|302:40,1,112.5,14|0,0:2|0:0,0:0:0:0:
358,11,75953,6,0,P|325:59|351:115,1,112.5,6|10,3:2|0:0,0:0:0:0:
365,129,76353,2,0,P|419:114|443:110,1,75,0|10,3:0|0:0,0:0:0:0:
503,211,76753,1,0,3:0:0:0:
398,262,76953,1,2,0:0:0:0:
398,262,77053,1,8,0:0:0:0:
398,262,77153,2,0,P|344:247|320:243,1,75,0|10,3:0|0:0,0:0:0:0:
206,225,77553,6,0,P|219:282|181:339,1,112.5,0|10,3:0|0:0,0:0:0:0:
170,350,77953,2,0,P|131:339|97:336,1,75,0|10,3:0|0:0,0:0:0:0:
1,261,78353,1,0,3:0:0:0:
105,197,78553,1,2,0:0:0:0:
105,197,78653,1,8,0:0:0:0:
104,197,78753,2,0,P|115:160|122:124,1,75,0|10,3:0|0:0,0:0:0:0:
199,31,79153,5,0,3:0:0:0:
239,153,79353,1,2,0:0:0:0:
239,153,79453,1,8,0:0:0:0:
239,153,79553,1,0,3:0:0:0:
327,72,79753,1,10,0:0:0:0:
363,187,79953,2,0,P|353:228|342:269,1,75,0|2,3:0|0:0,0:0:0:0:
314,274,80253,1,8,0:0:0:0:
314,274,80353,2,0,P|324:315|335:356,1,75,0|10,3:0|0:0,0:0:0:0:
216,379,80753,5,0,3:0:0:0:
129,312,80953,1,2,0:0:0:0:
129,312,81053,1,8,0:0:0:0:
129,312,81153,2,0,P|58:331|32:322,1,75,0|8,3:0|0:0,0:0:0:0:
5,223,81553,5,2,3:2:0:0:
112,164,81753,1,8,0:0:0:0:
112,164,81853,1,8,0:0:0:0:
112,164,81953,2,0,L|163:171,3,37.5,8|8|8|8,0:0|0:0|0:0|0:0,0:0:0:0:
234,180,82353,6,0,B|214:252|214:252|246:296,1,112.5,6|10,3:2|0:0,0:0:0:0:
256,309,82753,2,0,P|301:303|332:299,1,75,0|10,3:0|0:0,3:0:0:0:
449,280,83153,1,0,3:0:0:0:
382,193,83353,1,2,0:0:0:0:
382,193,83453,1,10,0:0:0:0:
382,193,83553,2,0,P|388:148|392:117,1,75,0|10,3:0|0:0,3:0:0:0:
265,37,83953,6,0,B|231:38|207:26|207:26|193:48|162:66,1,112.5,0|10,3:0|0:0,0:0:0:0:
139,78,84353,2,0,P|93:60|63:60,1,75,0|10,3:0|0:0,0:0:0:0:
4,162,84753,1,0,3:0:0:0:
114,230,84953,1,2,0:0:0:0:
114,230,85053,1,10,0:0:0:0:
114,230,85153,2,0,P|160:212|190:212,1,75,0|10,3:0|0:0,0:0:0:0:
298,252,85553,6,0,L|309:306,3,37.5,0|0|0|0,3:2|1:0|1:0|1:0,0:0:0:0:
385,324,85953,2,0,L|392:287,3,37.5,8|0|0|0,0:2|1:0|1:0|1:0,0:0:0:0:
457,229,86353,5,8,0:0:0:0:
454,210,86453,1,8,0:0:0:0:
451,191,86553,1,8,0:0:0:0:
448,173,86653,1,8,0:0:0:0:
445,154,86753,2,8,L|452:112,3,37.5
384,61,87153,6,0,P|328:75|279:62,1,82.5000025177003,10|8,0:0|0:0,0:0:0:0:
225,46,87453,2,0,P|212:81|205:137,1,82.5000025177003,2|8,3:2|0:0,0:0:0:0:
144,181,87753,6,0,P|93:188|35:202,1,82.5000025177003,2|8,3:2|0:0,0:0:0:0:
35,273,88053,2,0,P|71:280|123:287,1,82.5000025177003,2|8,3:2|0:0,0:0:0:0:
173,349,88353,2,0,P|209:341|255:336,1,82.5000025177003,2|0,3:2|3:0,0:0:0:0:
415,342,88753,5,6,3:2:0:0:
48,95,93553,6,0,L|61:205,1,89.9999972534181,4|0,3:2|0:0,0:0:0:0:
66,274,93853,2,0,P|123:250|172:261,1,89.9999972534181,8|0,0:0|0:0,0:0:0:0:
222,199,94153,2,0,P|279:223|328:212,1,89.9999972534181,8|0,0:0|0:0,0:0:0:0:
479,169,94553,6,0,L|516:178,2,29.9999990844727,0|0|0,3:0|3:0|3:0,3:0:0:0:
456,176,94753,2,0,B|472:102|472:102|450:74|420:72,1,134.999995880127,12|0,3:2|0:0,0:0:0:0:
341,79,95153,5,6,3:2:0:0:
201,153,95353,1,2,0:0:0:0:
201,153,95453,1,0,3:0:0:0:
201,153,95553,2,0,P|151:169|97:143,1,101.249996910095,8|8,0:0|0:0,0:0:0:0:
62,221,95953,1,2,0:0:0:0:
62,221,96053,2,0,P|72:260|78:298,1,67.4999979400635,0|0,3:0|3:0,0:0:0:0:
151,319,96353,2,0,P|157:282|166:246,1,67.4999979400635,8|2,0:0|0:0,0:0:0:0:
226,147,96753,5,0,3:0:0:0:
312,246,96953,1,2,0:0:0:0:
312,246,97053,1,0,3:0:0:0:
312,246,97153,2,0,P|366:256|417:223,1,101.249996910095,8|8,0:0|0:0,0:0:0:0:
466,180,97553,1,2,0:0:0:0:
466,180,97653,2,0,P|458:136|451:97,1,67.4999979400635,0|0,3:0|3:0,0:0:0:0:
372,104,97953,2,0,P|378:70|384:37,1,67.4999979400635,8|2,0:0|0:0,0:0:0:0:
266,10,98353,5,0,3:0:0:0:
191,107,98553,1,2,0:0:0:0:
191,107,98653,1,0,3:0:0:0:
191,107,98753,2,0,P|210:156|189:207,1,101.249996910095,8|8,0:0|0:0,0:0:0:0:
137,257,99153,1,2,0:0:0:0:
137,257,99253,2,0,P|100:265|49:277,1,67.4999979400635,0|0,3:0|3:0,0:0:0:0:
33,343,99553,2,0,P|65:350|98:357,1,67.4999979400635,8|2,0:0|0:0,0:0:0:0:
259,378,99953,6,0,B|298:366|298:366|311:353|311:353|352:343,1,101.249996910095,0|0,3:0|0:0,0:0:0:0:
429,318,100353,2,0,P|430:286|418:252,1,67.4999979400635,8|2,0:0|0:0,0:0:0:0:
312,192,100753,5,0,3:0:0:0:
295,195,100853,1,8,0:0:0:0:
278,198,100953,1,8,0:0:0:0:
262,201,101053,1,8,0:0:0:0:
245,204,101153,2,8,L|196:197,3,33.7499989700318
131,189,101553,6,0,B|130:151|146:129|146:129|123:75,1,101.249996910095,6|0,3:2|0:0,0:0:0:0:
49,93,101953,2,0,P|39:137|52:170,1,67.4999979400635,8|0,0:0|0:0,0:0:0:0:
130,295,102353,2,0,B|190:308|190:308|214:303|238:276,1,101.249996910095,2|0,3:2|0:0,0:0:0:0:
304,276,102753,2,0,P|319:319|315:355,1,67.4999979400635,8|0,0:0|0:0,0:0:0:0:
476,375,103153,6,0,B|489:316|487:320|498:262,1,101.249996910095,2|0,3:2|0:0,0:0:0:0:
436,219,103553,2,0,P|400:229|358:222,1,67.4999979400635,8|0,0:0|0:0,0:0:0:0:
252,175,103953,1,0,3:0:0:0:
149,98,104153,6,0,L|155:55,2,22.4999993133545,0|0|0,3:0|3:0|3:0,3:0:0:0:
122,110,104353,2,0,B|126:140|132:161|132:161|112:195|112:195|122:214|130:249,1,146.249993305207,12|0,0:0|0:0,0:0:0:0:
148,326,104753,6,0,P|179:328|216:318,1,67.4999979400635,6|0,3:2|0:0,0:0:0:0:
346,223,105153,2,0,P|296:212|247:200,1,101.249996910095,8|0,0:0|0:0,0:0:0:0:
166,191,105553,2,0,P|159:157|152:124,1,67.4999979400635,2|0,3:2|0:0,0:0:0:0:
254,46,105953,2,0,P|290:71|347:58,1,101.249996910095,8|0,0:0|0:0,0:0:0:0:
425,67,106353,6,0,P|413:119|408:144,1,67.4999979400635,2|0,3:2|0:0,0:0:0:0:
361,288,106753,2,0,P|352:255|345:222,1,67.4999979400635,8|0,0:2|0:0,0:0:0:0:
224,161,107153,5,0,3:0:0:0:
205,171,107253,1,8,0:0:0:0:
185,176,107353,1,8,0:0:0:0:
165,173,107453,1,8,0:0:0:0:
145,165,107553,2,0,L|140:129,3,33.7499989700318,8|4|4|4,3:0|3:0|3:0|3:0,0:0:0:0:
71,88,107953,6,0,B|44:162|44:162|62:182|69:221,2,134.999995880127,14|6|6,3:2|3:2|3:2,0:0:0:0:
223,33,108753,2,0,B|263:35|301:58|301:58|329:53|358:32,2,134.999995880127,6|6|6,3:2|3:2|3:2,0:0:0:0:
170,187,109553,6,0,B|215:197|215:197|272:179,1,89.9999972534181,12|0,3:2|0:0,0:0:0:0:
328,144,109853,2,0,B|293:184|293:184|327:288,1,134.999995880127,12|12,3:2|3:2,0:0:0:0:
187,357,110353,2,0,B|142:367|142:367|85:349,1,89.9999972534181,12|0,3:2|0:0,0:0:0:0:
22,329,110653,2,0,B|30:274|30:274|22:252|22:252|32:185,1,134.999995880127,12|12,3:2|3:2,0:0:0:0:
176,138,111153,6,0,P|161:70|149:14,2,120,2|0|0,3:2|3:0|3:0,0:0:0:0:
223,336,112125,1,0,3:0:0:0:
318,298,112288,6,0,L|352:304,2,30,0|0|0,3:0|3:0|3:0,3:0:0:0:
230,241,112612,1,2,0:0:0:0:
230,241,112693,1,2,0:0:0:0:
230,241,112774,2,0,L|174:248,3,33.7499989700318,2|2|2|2,0:0|0:0|0:0|0:0,0:0:0:0:
128,298,113098,5,8,3:0:0:0:
99,294,113180,1,8,3:0:0:0:
71,289,113261,1,8,3:0:0:0:
42,284,113342,1,8,3:0:0:0:
14,280,113423,2,0,L|6:220,1,37.5,8|0,3:0|0:0,0:0:0:0:
3,148,113585,6,0,B|48:139|93:167|93:167|128:156|139:100,1,165.000005035401,6|0,3:2|3:0,0:0:0:0:
250,34,114071,2,0,P|259:73|268:135,1,82.5000025177003,8|2,0:0|0:0,0:0:0:0:
296,252,114396,1,0,3:0:0:0:
385,144,114558,1,0,3:0:0:0:
453,265,114720,2,0,P|445:311|435:368,1,82.5000025177003,8|2,0:0|0:0,0:0:0:0:
303,382,115044,5,0,3:0:0:0:
319,241,115207,1,0,3:0:0:0:
198,312,115369,2,0,P|155:320|109:307,1,82.5000025177003,8|0,0:0|0:0,0:0:0:0:
30,202,115693,2,0,P|70:193|110:201,1,82.5000025177003,2|0,0:0|3:0,0:0:0:0:
213,296,116017,1,8,0:0:0:0:
307,149,116180,6,0,B|341:93|297:32|297:32|273:49|257:85,1,165.000005035401,6|0,3:2|3:0,0:0:0:0:
272,233,116666,2,0,P|311:240|371:213,1,82.5000025177003,8|2,0:0|0:0,0:0:0:0:
213,155,116990,1,0,3:0:0:0:
213,296,117153,1,0,3:0:0:0:
106,204,117315,2,0,P|111:166|119:118,1,82.5000025177003,8|2,0:0|0:0,0:0:0:0:
203,11,117639,5,0,3:0:0:0:
298,113,117801,1,0,3:0:0:0:
400,17,117963,2,0,P|439:10|501:33,1,82.5000025177003,8|2,0:0|0:0,0:0:0:0:
480,160,118288,2,0,P|440:169|399:162,1,82.5000025177003,0|0,3:0|3:0,0:0:0:0:
274,99,118612,1,8,0:0:0:0:
185,237,118774,6,0,B|134:236|91:258|91:258|56:248|44:208,1,165.000005035401,6|0,3:2|3:0,0:0:0:0:
95,71,119261,2,0,P|114:111|111:167,1,82.5000025177003,10|0,0:0|0:0,0:0:0:0:
207,254,119585,1,2,3:2:0:0:
263,125,119747,1,0,3:0:0:0:
344,239,119909,2,0,P|388:242|435:220,1,82.5000025177003,10|0,0:0|0:0,0:0:0:0:
509,117,120234,5,2,3:2:0:0:
371,143,120396,1,0,3:0:0:0:
280,36,120558,2,0,B|234:48|201:25|201:25|157:16|101:55,1,165.000005035401,10|2,0:0|0:2,0:0:0:0:
17,134,121044,1,0,3:0:0:0:
145,191,121207,2,0,P|139:229|132:286,1,82.5000025177003,10|0,0:0|0:0,0:0:0:0:
306,259,121531,6,0,B|265:247|265:247|216:267,1,82.5000025177003,6|0,3:2|3:2,3:2:0:0:
361,372,121855,1,8,0:0:0:0:
485,251,122017,2,0,B|507:149|507:149|440:133,1,165.000005035401,6|0,3:2|3:0,0:0:0:0:
308,111,122504,1,8,0:0:0:0:
228,262,122666,6,0,B|161:251|161:251|139:225|139:225|68:212,1,165.000005035401,6|0,3:2|3:0,0:0:0:0:
218,146,123152,1,10,0:0:0:0:
326,235,123315,1,0,3:0:0:0:
449,160,123477,1,10,0:0:0:0:
449,160,123558,1,8,0:0:0:0:
449,160,123639,1,8,0:0:0:0:
449,160,123720,1,8,0:0:0:0:
449,160,123801,1,8,0:0:0:0:
449,160,123882,1,8,0:0:0:0:
449,160,123963,6,0,B|477:57|477:57|421:43,1,165.000005035401,4|0,3:0|3:0,0:0:0:0:
341,34,124369,1,0,3:0:0:0:
341,34,124450,2,0,B|319:71|319:71|331:126,1,82.5000025177003,12|2,0:0|0:0,0:0:0:0:
351,247,124774,1,0,3:0:0:0:
235,167,124936,1,0,3:0:0:0:
259,305,125098,2,0,P|210:317|168:305,1,82.5000025177003,8|2,0:0|0:0,0:0:0:0:
42,275,125423,5,0,3:0:0:0:
156,194,125585,1,0,3:0:0:0:
24,145,125747,2,0,P|32:106|46:40,1,82.5000025177003,8|0,0:0|0:0,0:0:0:0:
176,28,126071,2,0,P|184:68|192:108,1,82.5000025177003,2|0,0:0|3:0,0:0:0:0:
292,208,126396,1,8,0:0:0:0:
373,74,126558,6,0,B|469:57|469:57|508:75|507:127,1,165.000005035401,6|0,3:2|3:0,0:0:0:0:
500,249,127044,1,8,0:0:0:0:
371,191,127207,2,0,P|330:191|292:207,1,82.5000025177003,2|0,0:0|0:0,0:0:0:0:
213,323,127531,1,0,3:0:0:0:
351,302,127693,1,8,0:0:0:0:
188,222,127855,6,0,B|175:173|158:125|158:125|186:112|217:75,1,165.000005035401,6|0,3:2|3:0,0:0:0:0:
344,50,128342,1,8,0:0:0:0:
292,180,128504,1,0,3:0:0:0:
429,145,128666,2,0,P|470:149|509:162,1,82.5000025177003,2|0,0:0|3:0,0:0:0:0:
435,281,128990,1,8,0:0:0:0:
287,207,129152,6,0,B|237:207|196:187|196:187|149:212|163:254,1,165.000005035401,6|0,3:2|3:0,0:0:0:0:
23,336,129639,2,0,B|7:310|7:310|22:231,1,82.5000025177003,12|0,0:0|0:0,0:0:0:0:
74,131,129963,1,2,3:2:0:0:
160,242,130125,1,0,3:0:0:0:
222,115,130288,1,8,0:0:0:0:
308,226,130450,6,0,P|348:231|399:210,1,82.5000025177003,2|0,0:0|3:0,0:0:0:0:
482,115,130774,1,0,3:0:0:0:
507,252,130936,2,0,P|498:292|489:332,1,82.5000025177003,10|0,0:0|0:0,0:0:0:0:
354,374,131261,1,8,3:0:0:0:
329,369,131342,1,8,3:0:0:0:
305,365,131423,1,8,3:0:0:0:
280,360,131504,1,8,3:0:0:0:
256,356,131585,2,0,L|199:365,1,41.2500012588501,8|0,0:0|0:0,0:0:0:0:
133,371,131747,6,0,B|98:325|105:272|105:272|130:253|146:210,1,165.000005035401,6|0,3:2|3:0,0:0:0:0:
225,102,132234,2,0,P|250:146|249:189,1,82.5000025177003,10|0,0:2|3:0,0:0:0:0:
349,288,132558,2,0,P|353:247|375:213,1,82.5000025177003,10|0,0:2|3:0,0:0:0:0:
414,381,132882,1,10,0:0:0:0:
259,328,133044,1,8,0:0:0:0:
259,328,133125,1,8,0:0:0:0:
259,328,133207,6,0,P|213:335|171:343,1,82.5000025177003,10|8,0:0|3:0,0:0:0:0:
67,255,133531,1,2,0:0:0:0:
204,229,133693,1,0,3:0:0:0:
73,354,133855,5,8,0:0:0:0:
125,171,134017,1,2,3:2:0:0:
125,171,134504,6,0,P|131:137|135:104,1,67.4999979400635,6|0,3:2|3:0,0:0:0:0:
202,29,134828,1,0,3:0:0:0:
239,122,134990,1,0,3:0:0:0:
306,47,135152,2,0,P|339:55|380:50,1,67.4999979400635,8|0,0:0|3:0,0:0:0:0:
470,24,135477,1,0,3:0:0:0:
495,121,135639,6,0,B|482:213|485:189|472:280,1,134.999995880127,0|0,3:0|3:0,0:0:0:0:
422,340,136125,1,0,3:0:0:0:
372,250,136288,1,0,3:0:0:0:
319,336,136450,2,0,P|283:336|229:315,1,67.4999979400635,8|0,0:0|3:0,0:0:0:0:
164,278,136774,1,0,3:0:0:0:
255,234,136936,1,0,3:0:0:0:
170,178,137098,6,0,P|134:184|86:193,1,67.4999979400635,0|0,3:0|3:0,0:0:0:0:
170,87,137423,2,0,P|203:93|236:98,1,67.4999979400635,0|0,3:0|3:0,0:0:0:0:
337,88,137747,2,0,P|345:51|358:19,1,67.4999979400635,8|0,0:0|3:0,0:0:0:0:
437,83,138071,1,0,3:0:0:0:
408,180,138234,6,0,B|336:174|347:209|265:204,1,134.999995880127,0|0,3:0|3:0,0:0:0:0:
178,181,138720,1,0,3:0:0:0:
219,273,138882,1,0,3:0:0:0:
118,260,139044,2,0,P|114:293|126:338,1,67.4999979400635,8|0,0:0|3:0,0:0:0:0:
210,373,139369,1,0,3:0:0:0:
219,273,139531,1,0,3:0:0:0:
338,334,139693,6,0,B|372:337|372:337|403:324,1,67.4999979400635,6|0,3:2|3:0,0:0:0:0:
487,268,140017,1,0,3:0:0:0:
391,232,140180,1,0,3:0:0:0:
475,176,140342,2,0,P|472:142|456:113,1,67.4999979400635,8|0,0:0|3:0,0:0:0:0:
370,59,140666,1,0,3:0:0:0:
320,147,140828,6,0,P|258:131|167:118,1,134.999995880127,0|0,3:0|3:0,0:0:0:0:
103,177,141315,1,0,3:0:0:0:
190,228,141477,1,0,3:0:0:0:
106,286,141639,2,0,P|66:290|24:277,1,67.4999979400635,8|0,0:0|3:0,0:0:0:0:
1,190,141963,1,0,3:0:0:0:
103,177,142125,1,0,3:0:0:0:
40,96,142288,6,0,P|41:48|61:11,1,67.4999979400635,0|0,3:0|3:0,0:0:0:0:
144,0,142612,1,0,3:0:0:0:
186,91,142774,1,0,3:0:0:0:
261,23,142936,2,0,P|294:31|327:35,1,67.4999979400635,8|0,0:0|3:0,0:0:0:0:
428,44,143261,1,0,3:0:0:0:
491,122,143423,6,0,P|462:183|450:255,1,134.999995880127,0|0,3:0|3:0,0:0:0:0:
362,299,143909,2,0,P|356:266|339:230,1,67.4999979400635,0|0,3:0|0:0,0:0:0:0:
211,199,144234,5,8,0:0:0:0:
184,203,144315,1,0,3:0:0:0:
156,206,144396,1,0,3:0:0:0:
129,211,144477,1,0,3:0:0:0:
102,212,144558,2,0,L|59:203,3,33.7499989700318,4|4|4|4,3:0|3:0|3:0|3:0,0:0:0:0:
18,144,144882,6,0,B|3:45|3:45|61:35,1,150,6|0,3:2|3:0,0:0:0:0:
179,25,145369,2,0,B|211:58|211:58|263:77|325:48,1,150,10|0,0:0|3:0,0:0:0:0:
431,8,145855,5,10,0:0:0:0:
489,121,146017,2,0,P|475:159|460:203,1,75,0|0,3:0|3:0,0:0:0:0:
423,313,146342,5,10,0:0:0:0:
331,223,146504,2,0,P|294:229|257:238,1,75,0|0,3:0|3:0,0:0:0:0:
175,336,146828,5,10,0:0:0:0:
301,318,146990,1,0,3:0:0:0:
164,239,147152,2,0,P|127:230|90:223,1,75,10|0,0:0|3:0,0:0:0:0:
2,91,147477,6,0,B|89:64|89:64|119:77|128:113,1,150,12|0,0:0|3:0,0:0:0:0:
238,167,147963,2,0,P|306:181|359:119,1,150,10|0,0:0|3:0,0:0:0:0:
479,88,148450,2,0,P|468:127|462:166,1,75,10|0,0:0|0:0,0:0:0:0:
413,302,148774,6,0,L|359:310,3,37.5,6|0|8|8,3:2|3:0|0:0|0:0,3:0:0:0:
312,353,149098,2,0,L|262:346,1,37.5,0|0,3:0|3:0,0:0:0:0:
195,341,149261,6,0,P|187:300|187:289,3,37.5,8|8|8|8,3:0|3:0|3:0|3:0,3:0:0:0:
248,254,149585,1,0,3:0:0:0:
248,254,149666,1,0,3:0:0:0:
248,254,149747,2,0,P|256:213|256:202,3,37.5,4|4|4|4,3:0|3:0|3:0|3:0,3:0:0:0:
198,163,150071,6,0,B|154:164|113:188|113:188|83:177|72:135,1,150,6|0,3:2|3:0,0:0:0:0:
149,39,150558,2,0,B|210:50|210:50|230:74|230:74|288:87,1,150,12|0,0:0|3:0,0:0:0:0:
379,172,151044,2,0,B|362:206|362:206|372:250,1,75,12|0,0:0|3:0,0:0:0:0:
393,368,151369,5,0,3:0:0:0:
274,321,151531,2,0,B|184:302|184:302|163:330|127:339,1,150,12|0,0:0|3:0,0:0:0:0:
11,319,152017,1,12,0:0:0:0:
104,231,152180,1,0,3:0:0:0:
0,156,152342,2,0,P|5:120|14:71,1,75,12|0,0:0|0:0,0:0:0:0:
150,24,152666,6,0,L|195:32,3,37.5,6|8|8|8,3:2|0:0|0:0|0:0,0:0:0:0:
237,96,152990,2,0,L|282:88,1,37.5,8|8,0:2|0:0,0:0:0:0:
366,77,153152,6,0,L|374:122,3,37.5,6|8|8|8,3:2|0:0|0:0|0:0,0:0:0:0:
438,164,153477,2,0,L|430:209,1,37.5,8|8,0:2|0:0,0:0:0:0:
409,289,153639,5,6,3:2:0:0:
269,194,153801,1,6,3:2:0:0:
269,194,154936,6,2,L|228:198,5,25
217,203,155261,6,0,B|191:244|191:244|103:232,1,134.999995880127,6|0,3:2|0:0,0:0:0:0:
24,224,155585,2,0,P|15:176|30:128,1,89.9999972534181,10|0,0:0|0:0,0:0:0:0:
89,8,155909,1,0,3:2:0:0:
180,119,156071,1,0,3:0:0:0:
277,12,156234,2,0,P|328:17|383:27,1,89.9999972534181,10|0,0:0|0:0,0:0:0:0:
482,108,156558,6,0,P|414:108|367:169,1,134.999995880127,0|0,3:2|0:0,0:0:0:0:
339,229,156882,2,0,P|294:246|238:228,1,89.9999972534181,10|0,0:0|0:0,0:0:0:0:
117,191,157207,1,0,3:0:0:0:
252,141,157369,1,0,3:0:0:0:
161,274,157531,2,0,P|169:318|178:362,1,89.9999972534181,10|0,0:0|0:0,0:0:0:0:
357,379,157855,6,0,B|323:354|323:354|343:245,1,134.999995880127,0|0,3:2|0:0,0:0:0:0:
406,215,158180,2,0,P|452:227|504:211,1,89.9999972534181,10|0,0:0|0:0,0:0:0:0:
438,84,158504,1,0,3:0:0:0:
318,163,158666,1,0,3:0:0:0:
189,97,158828,2,0,P|197:54|206:6,1,89.9999972534181,10|0,0:0|0:0,0:0:0:0:
336,67,159152,5,0,3:0:0:0:
216,190,159315,2,0,B|190:200|190:200|124:187,1,89.9999972534181,10|0,0:0|3:0,0:0:0:0:
14,289,159639,2,0,B|74:276|74:276|100:286,1,89.9999972534181,10|0,0:0|3:0,0:0:0:0:
262,359,159963,5,8,0:0:0:0:
262,359,160044,1,8,0:0:0:0:
262,359,160125,1,8,0:0:0:0:
262,359,160207,1,8,0:0:0:0:
262,359,160288,1,8,0:0:0:0:
262,359,160369,1,8,0:0:0:0:
262,359,160450,6,0,B|305:357|342:369|342:369|362:360|379:320,1,134.999995880127,6|0,3:2|0:0,0:0:0:0:
395,249,160774,2,0,P|384:202|368:142,1,89.9999972534181,10|0,0:0|0:0,0:0:0:0:
254,81,161098,1,0,3:0:0:0:
227,223,161261,1,0,3:0:0:0:
107,143,161423,2,0,P|59:146|14:178,1,89.9999972534181,10|0,0:0|0:0,0:0:0:0:
13,310,161747,6,0,B|91:298|63:305|150:291,1,134.999995880127,0|0,3:0|0:0,0:0:0:0:
211,243,162071,2,0,P|261:251|313:258,1,89.9999972534181,10|0,0:0|0:0,0:0:0:0:
442,279,162396,1,0,3:0:0:0:
316,348,162558,1,0,3:0:0:0:
379,199,162720,2,0,P|372:153|363:100,1,89.9999972534181,10|0,0:0|0:0,0:0:0:0:
210,17,163044,6,0,B|102:6|147:82|17:56,1,179.999994506836,0|10,3:0|0:0,0:0:0:0:
11,226,163531,1,2,0:0:0:0:
11,226,163612,1,2,0:0:0:0:
11,226,163693,2,0,P|30:274|30:320,1,89.9999972534181,0|0,3:0|3:0,0:0:0:0:
182,370,164017,2,0,P|184:325|202:284,1,89.9999972534181,10|0,0:0|0:0,0:0:0:0:
309,161,164342,6,0,P|300:126|292:88,2,59.9999981689454,6|8|8,3:2|0:0|0:0,0:0:0:0:
378,209,164666,2,0,P|368:244|360:282,2,59.9999981689454,8|8|8,0:2|0:0|0:0,0:0:0:0:
451,165,164990,5,8,3:0:0:0:
451,165,165098,2,8,P|453:132|441:100,1,59.9999981689454,8|8,3:0|3:0,3:0:0:0:
503,46,165315,1,4,3:0:0:0:
503,46,165423,2,4,P|475:27|441:22,1,59.9999981689454,4|4,3:0|3:0,3:0:0:0:
373,59,165639,5,6,3:2:0:0:
256,192,173423,12,2,175044,0:0:0:0:
256,192,175207,5,8,0:0:0:0:
256,192,175288,1,8,0:0:0:0:
256,192,175369,2,0,P|250:224|245:254,1,52.4999983978272,0|8,3:0|3:0,3:0:0:0:
163,256,175693,2,0,P|159:237|152:192,1,52.4999983978272,4|4,3:0|3:0,3:0:0:0:
135,122,176017,6,0,B|100:130|82:141|82:141|55:137|35:108,2,104.999996795654,6|0|0,3:2|3:0|3:0,0:0:0:0:
297,77,176990,2,0,P|323:82|350:88,1,52.4999983978272,0|2,3:0|0:0,0:0:0:0:
420,131,177315,6,0,B|405:163|388:186|388:186|420:228,1,104.999996795654,0|0,3:0|3:0,0:0:0:0:
483,264,177801,2,0,P|449:258|393:300,1,104.999996795654,2|2,0:0|0:0,0:0:0:0:
342,363,178288,1,0,3:0:0:0:
275,311,178450,6,0,B|237:314|210:329|210:329|164:302,1,104.999996795654,2|2,0:0|0:0,0:0:0:0:
122,247,178936,2,0,P|93:308|107:356,2,104.999996795654,0|0|0,3:0|3:0|3:0,0:0:0:0:
191,198,179747,1,2,0:0:0:0:
191,198,179909,6,0,B|181:143|183:154|172:88,1,104.999996795654,0|0,3:0|3:0,0:0:0:0:
236,38,180396,2,0,P|262:47|301:51,1,52.4999983978272,2|0,0:0|3:0,0:0:0:0:
355,98,180720,2,0,P|319:154|318:197,1,104.999996795654,2|2,0:0|0:0,0:0:0:0:
411,267,181207,5,6,3:2:0:0:
272,362,181531,2,0,P|205:345|161:336,2,104.999996795654,0|0|0,3:0|3:0|3:0,0:0:0:0:
411,267,182504,6,0,P|433:224|412:166,1,104.999996795654,0|0,3:0|3:0,0:0:0:0:
342,135,182990,2,0,P|325:202|318:247,1,104.999996795654,2|2,0:0|0:0,0:0:0:0:
243,270,183477,1,0,3:0:0:0:
243,270,183639,1,2,0:0:0:0:
172,223,183801,6,0,P|118:225|63:272,1,104.999996795654,0|0,3:0|3:0,0:0:0:0:
14,195,184288,2,0,P|27:145|37:86,1,104.999996795654,2|2,0:0|0:0,0:0:0:0:
101,39,184774,1,0,3:0:0:0:
162,96,184936,6,0,P|208:80|273:68,1,104.999996795654,2|2,0:0|0:0,0:0:0:0:
330,120,185423,2,0,P|350:156|344:219,2,104.999996795654,0|0|0,3:0|3:0|3:0,0:0:0:0:
263,69,186234,1,2,0:0:0:0:
190,110,186396,6,0,P|198:159|205:222,1,104.999996795654,0|0,3:0|3:0,0:0:0:0:
209,297,186882,2,0,P|257:298|304:331,1,104.999996795654,2|2,0:0|0:0,0:0:0:0:
377,369,187369,2,0,P|397:369|441:354,1,52.4999983978272,0|2,3:0|0:0,0:0:0:0:
483,268,187693,6,0,B|495:238|495:238|481:187,1,67.4999979400635,12|0,0:0|0:0,0:0:0:0:
475,176,187936,1,8,3:0:0:0:
475,176,188017,2,0,L|429:168,1,33.7499989700318,0|0,3:0|3:0,0:0:0:0:
375,122,188180,2,0,L|329:130,1,33.7499989700318,6|0,3:2|3:0,0:0:0:0:
261,140,188342,6,0,L|253:103,3,33.7499989700318,8|8|4|4,3:0|3:0|3:0|3:0,0:0:0:0:
240,27,188666,1,8,0:0:0:0:
213,33,188747,1,8,0:0:0:0:
187,38,188828,1,8,0:0:0:0:
162,44,188909,1,8,0:0:0:0:
137,50,188990,6,2,B|121:101|121:101|130:127|130:127|112:186,1,134.999995880127,6|2,3:2|0:1,0:1:0:0:
81,303,189477,1,6,3:2:0:0:
261,140,190125,5,6,3:2:0:0:
261,140,191585,5,6,3:2:0:0:
369,207,191747,1,8,0:0:0:0:
364,231,191828,1,8,0:0:0:0:
360,255,191909,1,8,0:0:0:0:
356,280,191990,1,8,0:0:0:0:
352,304,192071,1,8,0:0:0:0:
348,329,192152,1,8,0:0:0:0:
345,352,192234,6,0,B|392:342|392:342|419:353|419:353|480:338,1,127.50000243187,6|6,3:2|3:2,0:0:0:0:
467,340,192720,6,0,B|502:228|502:228|476:213|450:175,1,179.999994506836,6|0,3:2|3:2,3:2:0:0:
305,159,193207,2,0,P|262:164|208:141,1,89.9999972534181,8|2,0:0|0:0,0:0:0:0:
87,70,193531,1,0,3:0:0:0:
238,49,193693,1,0,3:0:0:0:
119,171,193855,2,0,P|125:217|133:277,1,89.9999972534181,8|2,0:0|0:0,0:0:0:0:
231,376,194180,5,0,3:0:0:0:
320,251,194342,1,0,3:0:0:0:
470,275,194504,2,0,P|457:326|444:384,1,89.9999972534181,8|2,0:0|0:0,0:0:0:0:
341,229,194828,2,0,P|328:178|315:120,1,89.9999972534181,0|0,3:0|3:0,0:0:0:0:
225,21,195152,1,8,0:0:0:0:
130,175,195315,6,0,B|11:202|11:202|54:145,1,179.999994506836,6|0,3:2|3:0,0:0:0:0:
193,258,195801,2,0,P|150:277|94:272,1,89.9999972534181,10|0,0:0|0:0,0:0:0:0:
240,155,196125,1,2,3:2:0:0:
295,298,196288,1,0,3:0:0:0:
418,207,196450,2,0,P|413:168|405:116,1,89.9999972534181,10|0,0:0|0:0,0:0:0:0:
295,12,196774,5,2,3:2:0:0:
240,155,196936,1,0,3:0:0:0:
145,35,197098,2,0,P|97:36|44:65,1,89.9999972534181,10|0,0:0|3:0,0:0:0:0:
3,195,197423,5,8,0:0:0:0:
9,225,197504,1,8,0:0:0:0:
15,256,197585,1,8,0:0:0:0:
21,287,197666,1,8,0:0:0:0:
28,318,197747,2,8,L|87:333,3,44.999998626709,8|8|8|8,3:0|3:0|3:0|3:0,3:0:0:0:
155,345,198071,6,0,L|167:286,1,44.999998626709,6|0,3:2|0:0,0:0:0:0:
236,254,198234,2,0,L|224:195,3,44.999998626709,0|8|4|0,3:2|3:0|3:0|3:0,0:0:0:0:
151,170,198558,6,0,L|163:111,1,44.999998626709,6|0,3:2|0:0,0:0:0:0:
232,79,198720,2,0,L|220:20,3,44.999998626709,0|0|0|0,3:2|3:0|3:0|3:0,0:0:0:0:
310,19,199044,6,0,P|335:27|377:24,1,44.999998626709,12|0,0:2|0:0,0:0:0:0:
429,100,199207,2,0,B|380:116|321:124|321:124|299:156|322:191,1,179.999994506836,2|8,3:2|0:0,0:0:0:0:
375,260,199612,1,8,0:0:0:0:
375,260,199693,2,0,L|364:325,3,44.999998626709,8|8|0|0,0:0|0:0|3:0|3:0,0:0:0:0:
300,357,200017,5,8,0:0:0:0:
269,364,200098,1,8,0:0:0:0:
237,365,200180,1,8,0:0:0:0:
206,360,200261,1,8,0:0:0:0:
177,349,200342,1,8,0:0:0:0:
150,333,200423,1,8,0:0:0:0:
130,308,200504,6,0,B|175:265|175:265|160:225|160:225|157:218|127:141,1,179.999994506836,6|0,3:2|3:0,0:0:0:0:
264,33,200990,2,0,P|255:91|250:129,1,89.9999972534181,10|0,0:0|3:0,0:0:0:0:
329,284,201315,5,10,0:0:0:0:
393,116,201477,1,0,3:0:0:0:
482,271,201639,2,0,P|473:329|468:367,1,89.9999972534181,10|0,0:0|3:0,0:0:0:0:
307,281,201963,5,10,0:0:0:0:
483,247,202125,1,0,3:0:0:0:
319,168,202288,2,0,P|270:152|223:159,1,89.9999972534181,10|0,0:0|3:0,0:0:0:0:
57,198,202612,5,10,0:0:0:0:
220,271,202774,1,0,3:0:0:0:
66,310,202936,1,10,0:0:0:0:
138,143,203098,2,0,B|131:91|131:91|152:54,1,89.9999972534181,6|0,3:2|0:0,0:0:0:0:
326,21,203423,5,8,0:0:0:0:
357,25,203504,1,8,0:0:0:0:
388,29,203585,1,8,0:0:0:0:
419,33,203666,1,8,0:0:0:0:
450,37,203747,2,8,L|463:95,3,44.999998626709
507,152,204071,2,0,L|493:207,3,44.999998626709,8|8|4|4,3:0|3:0|3:0|3:0,0:0:0:0:
429,251,204396,6,0,B|384:238|384:238|320:257,1,89.9999972534181,6|0,3:2|0:0,0:0:0:0:
183,313,204720,1,8,0:0:0:0:
183,313,204801,1,8,0:0:0:0:
183,313,204882,2,8,L|129:308,3,44.999998626709
76,247,205207,2,8,L|22:252,3,44.999998626709,8|8|8|8,3:0|3:0|3:0|3:0,3:0:0:0:
1,170,205531,2,0,L|16:128,1,44.999998626709,4|4,3:0|3:0,0:0:0:0:
90,86,205693,6,0,B|129:123|168:122|168:122|203:90|259:88,1,179.999994506836,2|0,3:2|3:0,0:0:0:0:
377,231,206180,2,0,B|332:247|332:247|275:229,1,89.9999972534181,12|0,0:0|0:0,0:0:0:0:
443,155,206504,1,2,3:2:0:0:
445,307,206666,1,0,3:0:0:0:
330,150,206828,1,8,0:0:0:0:
205,238,206990,6,0,P|212:282|220:326,1,89.9999972534181,2|0,0:0|3:0,0:0:0:0:
70,292,207315,1,0,3:0:0:0:
148,160,207477,2,0,P|193:141|245:149,1,89.9999972534181,10|0,0:0|0:0,0:0:0:0:
352,240,207801,1,2,0:0:0:0:
332,91,207963,1,0,3:0:0:0:
234,246,208125,1,10,0:0:0:0:
442,186,208288,6,0,B|424:114|424:114|441:83|441:83|423:13,1,179.999994506836,6|0,3:2|3:0,0:0:0:0:
242,54,208774,2,0,P|236:99|232:144,1,89.9999972534181,10|0,0:0|3:0,0:0:0:0:
216,323,209098,5,10,0:0:0:0:
96,187,209261,1,0,3:0:0:0:
263,244,209423,2,0,P|307:248|352:240,1,89.9999972534181,10|0,0:0|3:0,0:0:0:0:
499,137,209747,5,8,0:0:0:0:
494,105,209828,1,8,0:0:0:0:
490,74,209909,1,0,3:0:0:0:
486,43,209990,1,0,3:0:0:0:
482,12,210071,2,0,L|425:23,1,44.999998626709,0|0,3:0|3:0,0:0:0:0:
374,76,210234,5,8,0:0:0:0:
374,76,210315,1,8,0:0:0:0:
374,76,210396,2,0,L|311:66,3,44.999998626709,8|0|0|0,0:0|3:0|3:0|3:0,3:0:0:0:
256,24,210720,1,8,0:0:0:0:
224,28,210801,1,8,0:0:0:0:
193,33,210882,1,8,0:0:0:0:
162,38,210963,1,8,0:0:0:0:
131,43,211044,6,2,B|112:86|85:102|85:102|77:137|94:174|94:174|94:193|94:193|112:217|134:230|134:230|166:222|179:200|186:168,1,300,2|0,0:0|0:0,0:0:0:0:
184,178,213639,6,0,B|166:210|166:210|185:280,1,89.9999972534181,6|0,3:2|0:0,0:0:0:0:
320,323,213963,2,0,P|326:278|336:222,1,89.9999972534181,8|0,0:0|0:0,0:0:0:0:
360,82,214288,1,0,3:2:0:0:
431,217,214450,1,0,3:0:0:0:
280,136,214612,1,8,0:0:0:0:
450,120,214774,6,0,P|455:77|437:22,2,89.9999972534181,2|0|0,0:0|3:0|0:0,0:0:0:0:
280,136,215261,2,0,P|234:129|175:120,1,89.9999972534181,8|0,0:0|0:0,0:0:0:0:
39,100,215585,1,0,3:0:0:0:
137,217,215747,1,0,3:0:0:0:
125,37,215909,1,8,0:0:0:0:
44,198,216071,6,0,B|16:300|16:300|37:333|94:330,1,179.999994506836,6|0,3:2|3:0,0:0:0:0:
232,310,216558,2,0,P|272:300|331:284,1,89.9999972534181,8|0,0:0|0:0,0:0:0:0:
467,250,216882,1,0,3:0:0:0:
367,365,217044,1,0,3:0:0:0:
338,186,217207,2,0,P|334:142|350:95,1,89.9999972534181,8|0,0:0|0:0,0:0:0:0:
470,7,217531,5,0,3:0:0:0:
455,159,217693,1,0,3:0:0:0:
360,6,217855,2,0,P|299:18|243:30,1,89.9999972534181,8|0,0:0|0:0,0:0:0:0:
120,50,218180,1,0,3:0:0:0:
242,141,218342,2,0,P|234:182|224:242,1,89.9999972534181,0|8,3:0|0:0,0:0:0:0:
12,197,218666,6,0,B|65:146|137:180|137:180|100:207,1,179.999994506836,6|0,3:2|3:0,0:0:0:0:
3,88,219152,2,0,P|48:71|98:70,1,89.9999972534181,8|0,0:0|0:0,0:0:0:0:
232,122,219477,1,0,3:0:0:0:
101,206,219639,1,0,3:0:0:0:
245,261,219801,2,0,P|294:251|345:240,1,89.9999972534181,8|0,0:0|0:0,0:0:0:0:
482,212,220125,5,0,3:0:0:0:
378,325,220288,1,0,3:0:0:0:
393,154,220450,2,0,P|389:106|365:67,1,89.9999972534181,8|0,0:0|0:0,0:0:0:0:
231,1,220774,1,0,3:0:0:0:
290,141,220936,1,0,3:0:0:0:
155,71,221098,2,0,P|75:89|7:105,1,134.999995880127,12|0,0:0|0:0,0:0:0:0:
5,181,221423,6,0,B|43:187|43:187|98:196,1,89.9999972534181,6|0,3:2|3:0,0:0:0:0:
244,222,221747,1,8,0:0:0:0:
119,351,221909,2,0,B|77:380|20:371|-9:333|-9:333|38:312,1,179.999994506836,6|0,3:2|3:0,0:0:0:0:
161,245,222396,1,8,0:0:0:0:
307,332,222558,6,0,B|354:294|354:294|314:160,1,179.999994506836,6|0,3:2|3:0,0:0:0:0:
275,33,223044,1,8,0:0:0:0:
176,150,223207,1,4,3:2:0:0:
100,28,223369,1,8,0:0:0:0:
100,28,223450,1,8,0:0:0:0:
100,28,223531,2,0,L|45:39,3,44.999998626709,8|8|8|8,0:0|3:0|3:0|3:0,3:0:0:0:
15,107,223855,6,0,B|26:133|49:151|49:151|17:186|13:233|38:275,1,179.999994506836,4|0,3:0|3:0,3:0:0:0:
83,337,224261,1,0,3:0:0:0:
83,337,224342,2,0,B|127:344|127:344|184:319,1,89.9999972534181,12|0,0:0|0:0,0:0:0:0:
302,251,224666,1,2,3:2:0:0:
150,228,224828,1,0,3:0:0:0:
272,346,224990,1,8,0:0:0:0:
404,237,225152,6,0,P|394:188|386:148,1,89.9999972534181,2|0,0:0|3:0,0:0:0:0:
304,18,225477,1,0,3:0:0:0:
214,141,225639,2,0,B|175:148|143:138|143:138|111:154|111:154|78:137|19:148,1,179.999994506836,10|0,0:0|3:0,0:0:0:0:
183,52,226125,1,0,3:0:0:0:
246,231,226288,1,10,0:0:0:0:
410,138,226450,6,0,B|457:176|457:176|412:294,1,179.999994506836,6|0,3:2|3:0,0:0:0:0:
272,346,226936,2,0,P|214:349|169:327,1,89.9999972534181,10|0,0:0|0:0,0:0:0:0:
66,240,227261,1,0,3:0:0:0:
107,383,227423,1,0,3:0:0:0:
158,229,227585,2,0,P|147:187|132:125,1,89.9999972534181,10|0,0:0|0:0,0:0:0:0:
251,28,227909,5,10,0:0:0:0:
282,32,227990,1,0,3:0:0:0:
313,37,228071,1,0,3:0:0:0:
344,41,228152,1,0,3:0:0:0:
375,46,228234,2,0,L|433:37,1,44.999998626709,8|0,0:0|0:0,0:0:0:0:
476,96,228396,2,0,P|488:138|477:182,1,89.9999972534181,10|0,0:0|0:0,0:0:0:0:
384,303,228720,1,0,3:0:0:0:
332,159,228882,1,10,0:0:0:0:
217,297,229044,6,0,B|157:289|110:319|110:319|74:311|54:260,1,179.999994506836,6|0,3:2|3:0,0:0:0:0:
49,121,229531,2,0,P|92:112|149:100,1,89.9999972534181,10|0,0:0|0:0,0:0:0:0:
287,73,229855,1,0,3:0:0:0:
145,14,230017,1,0,3:0:0:0:
221,178,230180,2,0,P|263:185|323:167,1,89.9999972534181,10|0,0:0|0:0,0:0:0:0:
442,100,230504,5,2,0:0:0:0:
495,242,230666,1,0,3:0:0:0:
365,322,230828,2,0,P|321:313|255:302,1,89.9999972534181,10|0,0:0|3:0,3:0:0:0:
142,231,231152,5,8,3:0:0:0:
109,236,231234,1,8,3:0:0:0:
77,240,231315,1,8,3:0:0:0:
45,244,231396,1,8,3:0:0:0:
13,249,231477,2,0,P|21:204|29:153,1,89.9999972534181,10|0,0:0|3:0,0:0:0:0:
183,53,231801,6,0,B|223:70|223:70|291:57,1,89.9999972534181,12|0,0:0|3:0,3:0:0:0:
412,18,232125,1,0,3:0:0:0:
480,195,232288,6,0,B|440:212|440:212|372:199,1,89.9999972534181,12|0,0:0|3:0,3:0:0:0:
244,172,232612,1,0,3:0:0:0:
338,335,232774,6,0,B|402:327|459:307|459:307|433:334|422:370,1,179.999994506836,12|0,0:0|3:0,0:0:0:0:
229,354,233261,2,0,B|187:246|187:246|210:224|235:181,1,179.999994506836,12|0,0:0|3:0,0:0:0:0:
178,3,233747,5,10,0:0:0:0:
80,174,233909,1,10,0:0:0:0:
260,93,234071,1,10,0:0:0:0:
65,58,234234,5,6,3:2:0:0:
65,58,235693,6,0,P|35:51|5:48,2,55.0000016784668,2|8|8,3:2|0:0|0:0,0:0:0:0:
138,115,236017,2,0,P|168:108|198:105,2,55.0000016784668,8|8|8,3:0|3:0|3:0,0:0:0:0:
73,184,236342,5,4,3:0:0:0:
73,184,236450,2,0,L|92:256,1,55.0000016784668,4|4,3:0|3:0,3:0:0:0:
104,329,236666,1,8,0:0:0:0:
209,246,236828,6,0,B|188:218|188:218|261:233|261:233|307:181|307:181|312:252|312:252|374:279|374:279|310:305|310:305|305:372|305:372|258:319|258:319|191:333|191:333|228:274,1,662.999995953369,6|0,3:2|0:0,0:0:0:0:
