osu file format v14

[General]
AudioFilename: audio.mp3
AudioLeadIn: 0
PreviewTime: 175693
Countdown: 0
SampleSet: Soft
StackLeniency: 0.6
Mode: 0
LetterboxInBreaks: 0
WidescreenStoryboard: 1

[Editor]
Bookmarks: 408,5597,15975,26353,36732,41921,47110,49543,59921,71759,75953,88753,95153,107953,111153,113585,123963,134504,144882,155261,165639,173423,173747,174071,174396,174720,175044,175369,175693,176017,187693,192720,200504,213639,223855,236828,239585
DistanceSpacing: 1.9
BeatDivisor: 4
GridSize: 32
TimelineZoom: 1.2

[Metadata]
Title:STARRY SKY
TitleUnicode:STARRY SKY
Artist:PassCode
ArtistUnicode:PassCode
Creator:Akitoshi
Version:Hard
Source:隕石家族
Tags:Corinn -Laura- Inseki Kazoku Tokai Toukai TV Television Drama Japanese Pop Rock 高嶋楓 Takashima Kaede 南菜生 Minami Nao 今田夢菜 Imada Yuna 大上陽奈子 Oogami Hinako
BeatmapID:2807986
BeatmapSetID:1199549

[Difficulty]
HPDrainRate:4.2
CircleSize:3.5
OverallDifficulty:6
ApproachRate:8
SliderMultiplier:1.4
SliderTickRate:1

[Events]
//Background and Video events
0,0,"000000.jpg",0,0
//Break Periods
2,16175,25603
2,88953,92803
2,165839,172673
//Storyboard Layer 0 (Background)
//Storyboard Layer 1 (Fail)
//Storyboard Layer 2 (Pass)
//Storyboard Layer 3 (Foreground)
//Storyboard Layer 4 (Overlay)
//Storyboard Sound Samples

[TimingPoints]
408,324.324324324324,4,2,5,40,1,0
408,-100,4,2,5,40,0,0
3002,-100,4,2,5,40,0,0
3651,-100,4,2,5,60,0,0
4218,-100,4,2,5,5,0,0
4299,-100,4,2,5,40,0,0
5597,-100,4,2,5,70,0,0
11029,-100,4,2,5,5,0,0
11110,-100,4,2,5,70,0,0
15975,-100,4,2,5,70,0,0
25380,-100,4,2,5,50,0,0
26272,-100,4,2,5,5,0,0
26353,-100,4,2,5,60,0,0
28867,-100,4,2,5,5,0,0
28948,-100,4,2,5,60,0,0
31462,-100,4,2,5,5,0,0
31543,-100,4,2,5,60,0,0
36732,-111.111111111111,4,2,5,60,0,0
41921,-125,4,2,5,60,0,0
43218,-111.111111111111,4,2,5,60,0,0
44191,-100,4,2,5,60,0,0
44435,-100,4,2,5,5,0,0
44516,-100,4,2,5,40,0,0
46462,-100,4,2,5,70,0,0
47110,-100,4,2,5,70,0,0
49543,-90.9090909090909,4,2,5,80,0,0
70137,-100,4,2,5,80,0,0
70380,-100,4,2,5,5,0,0
70462,-100,4,2,5,80,0,0
71759,-100,4,2,5,80,0,0
73056,-100,4,2,5,80,0,0
74272,-100,4,2,5,5,0,0
74353,400,4,2,5,70,1,0
75853,-100,4,2,5,5,0,0
75953,-100,4,2,5,70,0,0
88753,-100,4,2,5,60,0,0
93553,-100,4,2,5,60,0,0
93753,-100,4,2,5,5,0,0
93853,-100,4,2,5,60,0,0
94053,-100,4,2,5,5,0,0
94153,-100,4,2,5,60,0,0
95153,-100,4,2,5,70,0,0
101853,-100,4,2,5,5,0,0
101953,-100,4,2,5,70,0,0
102653,-100,4,2,5,5,0,0
102753,-100,4,2,5,70,0,0
103453,-100,4,2,5,5,0,0
103553,-100,4,2,5,70,0,0
104353,-100,4,2,5,70,0,0
104653,-100,4,2,5,5,0,0
104753,-100,4,2,5,70,0,0
105453,-100,4,2,5,5,0,0
105553,-100,4,2,5,70,0,0
106253,-100,4,2,5,5,0,0
106353,-100,4,2,5,70,0,0
107953,-100,4,2,5,70,0,0
108153,-100,4,2,5,5,0,0
108253,-100,4,2,5,70,0,0
108453,-100,4,2,5,5,0,0
108553,-100,4,2,5,70,0,0
108653,-100,4,2,5,5,0,0
108753,-100,4,2,5,70,0,0
108953,-100,4,2,5,5,0,0
109053,-100,4,2,5,70,0,0
109253,-100,4,2,5,5,0,0
109353,-100,4,2,5,70,0,0
109453,-100,4,2,5,5,0,0
109553,-100,4,2,5,70,0,0
109753,-100,4,2,5,5,0,0
109853,-100,4,2,5,70,0,0
110053,-100,4,2,5,5,0,0
110153,-100,4,2,5,70,0,0
110253,-100,4,2,5,5,0,0
110353,-100,4,2,5,70,0,0
110553,-100,4,2,5,5,0,0
110653,-100,4,2,5,70,0,0
110853,-100,4,2,5,5,0,0
110953,-100,4,2,5,70,0,0
111053,-100,4,2,5,5,0,0
111153,324.324324324324,4,2,5,60,1,0
111153,-100,4,2,5,60,0,0
112450,-100,4,2,5,60,0,0
113098,-100,4,2,5,70,0,0
113585,-90.9090909090909,4,2,5,80,0,0
134504,-100,4,2,5,70,0,0
144882,-100,4,2,5,70,0,0
153639,-100,4,2,5,70,0,0
154125,-100,4,2,5,70,0,0
154936,-100,4,2,5,40,0,0
155098,-100,4,2,5,60,0,0
155261,-90.9090909090909,4,2,5,80,0,1
155504,-90.9090909090909,4,2,5,5,0,1
155585,-90.9090909090909,4,2,5,80,0,1
156801,-90.9090909090909,4,2,5,5,0,1
156882,-90.9090909090909,4,2,5,80,0,1
158098,-90.9090909090909,4,2,5,5,0,1
158180,-90.9090909090909,4,2,5,80,0,1
160693,-90.9090909090909,4,2,5,5,0,1
160774,-90.9090909090909,4,2,5,80,0,1
161990,-90.9090909090909,4,2,5,5,0,1
162071,-90.9090909090909,4,2,5,80,0,1
165639,-100,4,2,5,60,0,0
176017,-142.857142857143,4,2,5,60,0,0
187693,-100,4,2,5,70,0,0
190125,-100,4,2,5,70,0,0
191585,-100,4,2,5,70,0,0
192234,-71.4285714285714,4,2,5,70,0,0
192315,-71.4285714285714,4,2,5,5,0,0
192396,-71.4285714285714,4,2,5,70,0,0
192639,-71.4285714285714,4,2,5,5,0,0
192720,-90.9090909090909,4,2,5,85,0,1
200504,-90.9090909090909,4,2,5,85,0,1
211044,-200,4,2,2,50,0,0
212666,-200,4,2,5,5,0,0
213639,-90.9090909090909,4,2,5,80,0,1
221342,-90.9090909090909,4,2,5,5,0,1
221423,-90.9090909090909,4,2,5,80,0,1
234234,-100,4,2,5,60,0,0
235693,-100,4,2,5,70,0,0
236828,-100,4,2,5,70,0,0
236990,-100,4,2,2,70,0,0
239585,-100,4,2,2,5,0,0

[Colours]
Combo1 : 21,234,154
Combo2 : 0,255,255
Combo3 : 159,159,208
Combo4 : 255,255,26

[HitObjects]
81,178,3813,6,0,B|46:219|50:277|92:314|92:314|139:271,1,210,6|4,3:2|0:3,0:0:0:0:
242,191,4624,1,4,0:3:0:0:
237,189,5597,6,0,B|226:223|226:223|240:270,1,70,6|0,3:2|0:0,0:0:0:0:
325,272,5921,2,0,P|329:237|335:195,1,70,8|2,0:0|0:0,0:0:0:0:
348,116,6245,1,0,3:0:0:0:
348,116,6407,1,0,3:0:0:0:
271,65,6570,2,0,P|233:76|188:73,1,70,8|2,0:0|0:0,0:0:0:0:
113,59,6894,6,0,P|103:94|92:140,1,70,0|0,3:0|0:0,0:0:0:0:
22,181,7218,2,0,P|32:216|43:262,1,70,8|2,0:0|0:0,0:0:0:0:
63,341,7543,1,0,3:0:0:0:
63,341,7705,1,0,3:0:0:0:
144,299,7867,2,0,P|191:297|218:309,1,70,8|2,0:0|0:0,0:0:0:0:
287,355,8191,5,0,3:0:0:0:
369,312,8353,1,2,0:0:0:0:
369,312,8516,2,0,P|363:257|360:234,1,70,8|0,0:0|0:0,0:0:0:0:
351,156,8840,1,0,3:0:0:0:
351,156,9002,1,0,3:0:0:0:
263,128,9164,2,0,P|231:141|197:143,1,70,8|2,0:0|0:0,0:0:0:0:
128,83,9489,5,0,3:0:0:0:
192,19,9651,2,0,P|226:24|260:31,1,70,10|0,0:0|3:0,0:0:0:0:
343,68,9975,2,0,P|377:62|411:55,1,70,10|0,0:0|3:0,0:0:0:0:
486,107,10299,1,10,0:0:0:0:
492,114,10380,1,10,0:0:0:0:
498,122,10462,2,0,L|489:175,3,35,8|8|8|8,0:0|0:0|0:0|0:0,0:0:0:0:
469,182,10786,6,0,B|482:216|482:216|474:248,1,70,6|0,3:2|0:0,0:0:0:0:
392,287,11110,2,0,P|385:251|377:214,1,70,8|2,0:0|0:0,0:0:0:0:
310,164,11435,1,0,3:0:0:0:
310,164,11597,1,0,3:0:0:0:
232,212,11759,2,0,P|195:219|153:208,1,70,8|2,0:0|0:0,0:0:0:0:
85,166,12083,6,0,P|72:235|63:311,1,140,0|8,3:0|0:0,0:0:0:0:
139,355,12570,2,0,P|172:339|209:337,1,70,2|0,0:0|3:0,0:0:0:0:
292,304,12894,1,0,3:0:0:0:
292,304,13056,2,0,P|325:320|362:322,1,70,8|2,0:0|0:0,0:0:0:0:
442,289,13380,6,0,P|447:238|452:200,1,70,0|2,3:0|0:0,0:0:0:0:
507,148,13705,2,0,P|502:97|497:59,1,70,8|2,0:0|0:0,0:0:0:0:
422,30,14029,2,0,L|385:38,3,35,6|8|8|8,3:2|0:0|0:2|0:0,0:0:0:0:
359,58,14353,2,0,L|322:50,3,35,8|8|8|8,0:0|0:0|0:0|0:0,0:0:0:0:
290,42,14678,5,0,3:0:0:0:
215,93,14840,2,0,P|239:131|221:223,2,140,6|6|8,3:2|3:2|0:0,0:0:0:0:
140,40,15651,1,4,3:0:0:0:
107,124,15813,1,4,3:0:0:0:
19,147,15975,5,6,3:2:0:0:
182,189,26353,6,0,P|229:181|262:193,1,70,6|0,3:2|0:0,0:0:0:0:
304,113,26678,2,0,P|334:149|340:184,1,70,8|0,0:0|0:0,0:0:0:0:
342,261,27002,2,0,B|258:280|271:276|198:293,1,140,0|2,3:0|0:0,0:0:0:0:
115,310,27489,1,8,0:0:0:0:
57,246,27651,5,2,0:0:0:0:
57,246,27813,2,0,P|56:207|47:172,1,70,0|8,3:0|0:0,0:0:0:0:
1,99,28137,2,0,P|2:60|11:25,1,70,2|0,0:0|3:0,0:0:0:0:
104,30,28462,1,0,3:0:0:0:
104,30,28624,2,0,P|111:64|112:99,1,70,8|0,0:0|0:0,0:0:0:0:
176,163,28948,6,0,P|208:155|258:146,1,70,6|2,3:2|0:0,0:0:0:0:
315,91,29272,2,0,P|347:99|397:108,1,70,8|0,0:0|0:0,0:0:0:0:
476,130,29597,1,0,3:0:0:0:
476,130,29759,2,0,P|458:168|458:204,1,70,0|2,3:0|0:0,0:0:0:0:
509,269,30083,6,0,P|453:230|379:255,1,140,8|0,0:0|3:0,0:0:0:0:
328,316,30570,2,0,P|256:305|177:294,1,140,8|0,0:0|3:0,0:0:0:0:
134,229,31056,1,0,3:0:0:0:
134,229,31218,2,0,P|91:236|56:242,1,70,8|0,0:0|0:0,0:0:0:0:
6,170,31543,6,0,B|34:133|34:133|21:35,2,140,6|8|2,3:2|0:0|0:0,0:0:0:0:
64,240,32353,2,0,P|57:276|53:309,1,70,0|0,3:0|0:0,0:0:0:0:
134,360,32678,1,8,0:0:0:0:
134,360,32840,6,0,P|182:334|216:337,1,70,2|0,0:0|3:0,0:0:0:0:
224,246,33164,2,0,P|270:274|284:305,1,70,8|0,0:0|0:0,0:0:0:0:
334,358,33489,2,0,P|391:317|460:324,1,140,0|8,3:0|0:0,0:0:0:0:
511,249,33975,6,0,P|502:193|486:105,1,140,2|0,0:0|3:0,0:0:0:0:
416,53,34462,2,0,P|397:87|397:130,1,70,10|0,0:0|3:0,0:0:0:0:
310,142,34786,1,10,0:0:0:0:
310,142,34948,2,0,P|306:107|288:77,1,70,0|0,3:0|3:0,0:0:0:0:
208,35,35272,6,0,B|122:41|156:72|65:82,1,140,10|0,0:0|3:0,0:0:0:0:
8,140,35759,1,8,0:0:0:0:
89,201,35921,1,8,0:0:0:0:
96,207,36002,1,8,0:0:0:0:
103,214,36083,2,0,P|107:249|113:297,1,70,8|8,0:0|3:0,0:0:0:0:
196,313,36407,2,0,P|200:278|204:243,1,70,4|4,3:0|3:0,0:0:0:0:
270,193,36732,6,0,B|301:219|301:219|391:202,1,125.999996154785,6|0,3:2|3:0,0:0:0:0:
468,189,37218,1,0,3:0:0:0:
468,189,37380,2,0,P|492:127|458:68,1,125.999996154785,12|0,0:0|0:0,0:0:0:0:
396,47,37867,1,0,3:0:0:0:
396,47,38029,6,0,B|347:60|347:60|333:77|333:77|264:93,1,125.999996154785,6|0,3:2|3:0,0:0:0:0:
203,104,38516,1,0,3:0:0:0:
203,104,38678,2,0,P|158:72|70:94,1,125.999996154785,12|0,0:0|0:0,0:0:0:0:
25,229,39326,6,0,B|4:311|4:311|43:337,1,125.999996154785,6|0,3:2|3:0,0:0:0:0:
116,376,39813,1,0,3:0:0:0:
116,376,39975,2,0,P|156:330|235:337,1,125.999996154785,12|0,0:0|0:0,0:0:0:0:
301,352,40462,1,0,3:0:0:0:
301,352,40624,6,0,B|310:303|310:303|302:278|302:278|313:222,1,125.999996154785,6|0,3:2|3:0,0:0:0:0:
347,157,41110,1,0,3:0:0:0:
347,157,41272,2,0,L|339:116,3,31.4999990386963,12|0|0|0,0:0|3:0|3:0|3:0,0:0:0:0:
334,94,41597,2,0,P|299:95|249:83,1,62.9999980773926,12|0,0:0|0:0,0:0:0:0:
193,60,41921,6,0,P|180:117|166:189,1,112,6|0,3:2|3:2,0:0:0:0:
56,262,42570,2,0,P|45:207|32:152,1,112,0|0,3:0|3:0,0:0:0:0:
193,60,43218,5,0,3:0:0:0:
295,188,43543,1,0,3:0:0:0:
351,34,43867,1,0,3:0:0:0:
451,166,44191,2,0,P|424:215|408:266,1,105,0|2,3:0|0:0,0:0:0:0:
402,296,44516,5,2,0:0:0:0:
402,296,46462,6,0,L|352:307,3,35,8|0|0|0,0:0|3:0|3:0|3:0,0:0:0:0:
336,319,46786,2,0,L|286:308,3,35,4|4|4|4,3:0|3:0|3:0|3:0,0:0:0:0:
268,302,47110,6,0,B|239:215|239:215|291:198,1,140,6|0,3:2|3:0,0:0:0:0:
374,180,47597,2,0,P|380:143|366:100,1,70,8|0,0:0|3:0,0:0:0:0:
313,42,47921,1,8,0:0:0:0:
257,113,48083,1,8,0:0:0:0:
198,44,48245,1,10,0:0:0:0:
198,44,49543,6,0,B|136:54|136:54|115:75|115:75|50:86,1,154.000004699707,6|0,3:2|3:0,0:0:0:0:
3,171,50029,2,0,P|21:204|24:258,1,77.0000023498536,8|2,0:0|0:0,0:0:0:0:
102,314,50353,1,0,3:0:0:0:
102,314,50516,1,0,3:0:0:0:
182,254,50678,2,0,P|219:258|253:277,1,77.0000023498536,8|2,0:0|0:0,0:0:0:0:
322,356,51002,5,0,3:0:0:0:
322,356,51164,1,0,3:0:0:0:
406,302,51326,2,0,P|410:264|417:219,1,77.0000023498536,8|0,0:0|0:0,0:0:0:0:
496,166,51651,2,0,P|492:128|485:83,1,77.0000023498536,2|0,0:0|3:0,0:0:0:0:
411,23,51975,1,8,0:0:0:0:
335,88,52137,6,0,B|278:96|249:108|249:108|220:99|200:61,1,154.000004699707,6|0,3:2|3:0,0:0:0:0:
102,49,52624,2,0,P|89:90|96:139,1,77.0000023498536,8|2,0:0|0:0,0:0:0:0:
132,220,52948,1,0,3:0:0:0:
132,220,53110,1,0,3:0:0:0:
228,194,53272,2,0,P|282:203|321:212,1,77.0000023498536,8|2,0:0|0:0,0:0:0:0:
405,235,53597,5,0,3:0:0:0:
405,235,53759,1,0,3:0:0:0:
369,328,53921,2,0,P|327:345|278:338,1,77.0000023498536,8|2,0:0|0:0,0:0:0:0:
196,332,54245,2,0,P|154:315|105:322,1,77.0000023498536,0|0,3:0|3:0,0:0:0:0:
33,363,54570,1,8,0:0:0:0:
2,267,54732,6,0,B|34:223|34:223|11:125,1,154.000004699707,6|0,3:2|3:0,0:0:0:0:
96,73,55218,2,0,P|137:82|180:73,1,77.0000023498536,10|0,0:0|0:0,0:0:0:0:
259,26,55543,1,2,3:2:0:0:
259,26,55705,1,0,3:0:0:0:
345,76,55867,2,0,P|336:123|331:157,1,77.0000023498536,10|0,0:0|0:0,0:0:0:0:
311,252,56191,5,2,3:2:0:0:
311,252,56353,1,0,3:0:0:0:
221,206,56516,2,0,P|144:197|90:268,1,154.000004699707,10|2,0:0|0:2,0:0:0:0:
104,351,57002,1,0,3:0:0:0:
104,351,57164,2,0,P|147:342|186:338,1,77.0000023498536,10|0,0:0|0:0,0:0:0:0:
280,336,57489,6,0,B|328:347|328:347|368:337,1,77.0000023498536,6|0,3:2|3:0,0:0:0:0:
451,313,57813,1,8,0:0:0:0:
394,230,57975,2,0,B|407:145|404:154|419:60,1,154.000004699707,6|0,3:2|3:0,0:0:0:0:
344,7,58462,1,8,0:0:0:0:
261,63,58624,6,0,B|212:56|173:48|173:48|148:71|97:75,1,154.000004699707,6|0,3:2|3:0,0:0:0:0:
14,60,59110,2,0,P|1:97|8:133,1,77.0000023498536,10|0,0:0|3:0,0:0:0:0:
64,217,59435,1,10,0:0:0:0:
73,222,59516,1,8,0:0:0:0:
83,227,59597,2,0,L|75:274,3,38.5000011749268,8|8|8|8,0:0|0:0|0:0|0:0,0:0:0:0:
70,302,59921,6,0,B|157:295|142:338|233:328,1,154.000004699707,4|0,3:0|3:0,0:0:0:0:
304,276,60407,2,0,B|319:240|319:240|308:197,1,77.0000023498536,12|2,0:0|0:0,0:0:0:0:
283,111,60732,1,0,3:0:0:0:
283,111,60894,1,0,3:0:0:0:
358,45,61056,2,0,P|405:44|441:57,1,77.0000023498536,8|2,0:0|0:0,0:0:0:0:
500,133,61380,5,0,3:0:0:0:
500,133,61543,1,0,3:0:0:0:
428,202,61705,2,0,P|423:241|417:285,1,77.0000023498536,8|0,0:0|0:0,0:0:0:0:
326,318,62029,2,0,P|320:279|315:241,1,77.0000023498536,2|0,0:0|3:0,0:0:0:0:
232,185,62353,1,8,0:0:0:0:
152,246,62516,6,0,B|106:248|59:262|59:262|27:249|17:216,1,154.000004699707,6|0,3:2|3:0,0:0:0:0:
14,125,63002,1,8,0:0:0:0:
14,125,63164,2,0,P|54:122|93:100,1,77.0000023498536,2|0,0:0|0:0,0:0:0:0:
160,37,63489,1,0,3:0:0:0:
160,37,63651,1,8,0:0:0:0:
257,61,63813,6,0,B|245:104|245:104|262:158|262:158|246:221,1,154.000004699707,6|0,3:2|3:0,0:0:0:0:
233,307,64299,1,8,0:0:0:0:
233,307,64462,1,0,3:0:0:0:
318,359,64624,2,0,P|369:319|465:332,1,154.000004699707,2|8,0:0|0:0,0:0:0:0:
507,241,65110,6,0,B|491:151|491:160|478:82,1,154.000004699707,6|0,3:2|3:0,0:0:0:0:
410,16,65597,2,0,P|373:30|325:33,1,77.0000023498536,12|0,0:0|0:0,0:0:0:0:
280,116,65921,2,0,P|318:119|354:133,1,77.0000023498536,2|0,3:2|3:0,0:0:0:0:
403,220,66245,1,8,0:0:0:0:
335,293,66407,6,0,P|268:280|174:265,1,154.000004699707,2|0,0:0|3:0,0:0:0:0:
84,248,66894,2,0,P|72:200|79:168,1,77.0000023498536,10|0,0:0|0:0,0:0:0:0:
176,101,67218,2,0,P|180:138|168:175,1,77.0000023498536,2|0,3:2|3:0,0:0:0:0:
86,83,67543,1,10,0:0:0:0:
154,10,67705,6,0,B|219:21|219:21|243:38|243:38|316:48,1,154.000004699707,6|0,3:2|3:0,0:0:0:0:
391,88,68191,2,0,P|405:124|400:167,1,77.0000023498536,10|0,0:0|3:0,0:0:0:0:
256,183,68516,2,0,P|280:152|319:135,1,77.0000023498536,10|0,0:0|3:0,0:0:0:0:
406,250,68840,2,0,P|367:244|333:218,1,77.0000023498536,10|0,0:0|3:0,0:0:0:0:
243,186,69164,5,8,0:0:0:0:
232,189,69245,1,8,0:0:0:0:
221,192,69326,2,0,P|184:186|140:178,1,77.0000023498536,8|0,0:0|3:0,0:0:0:0:
46,161,69651,1,0,3:0:0:0:
39,170,69732,1,0,3:0:0:0:
32,179,69813,2,0,P|19:226|30:259,1,77.0000023498536,0|0,3:0|3:0,0:0:0:0:
79,325,70137,2,0,B|136:343|136:343|191:315,1,105,12|0,0:0|0:0,0:0:0:0:
204,301,70462,6,0,B|258:310|258:310|290:298|290:298|355:310,1,140,6|8,3:2|0:0,0:0:0:0:
424,273,70948,2,0,B|449:221|442:174|442:174|402:135,1,140,4|8,3:0|0:0,0:0:0:0:
326,124,71435,2,0,P|256:146|189:98,1,140,4|2,3:0|3:2,0:0:0:0:
200,115,73056,6,0,B|184:172|184:172|194:191|194:191|175:257,1,140,6|8,3:2|0:2,0:0:0:0:
158,337,73543,2,0,B|71:356|71:356|40:310,1,140,4|8,3:0|0:0,0:0:0:0:
16,226,74029,2,0,P|36:194|24:127,1,105,4|0,3:0|0:0,0:0:0:0:
14,95,74353,6,0,P|56:58|145:71,1,140,8|4,0:0|3:0,0:0:0:0:
287,165,75153,2,0,L|273:221,3,35,0|0|0|0,3:0|3:0|3:0|3:0,0:0:0:0:
250,221,75553,2,0,P|261:271|271:329,1,105,14|0,0:2|0:0,0:0:0:0:
276,358,75953,6,0,P|315:327|413:335,1,140,6|0,3:2|3:0,0:0:0:0:
476,275,76553,1,10,0:0:0:0:
476,275,76753,2,0,B|486:204|481:218|492:141,1,105,0|10,3:0|0:0,0:0:0:0:
506,145,77153,2,0,P|500:110|493:68,1,70,0|10,3:0|0:0,0:0:0:0:
405,99,77553,6,0,P|341:113|291:89,2,105,0|10|10,3:0|0:0|0:0,0:0:0:0:
355,22,78353,1,0,3:0:0:0:
272,17,78553,1,2,0:0:0:0:
262,21,78653,1,8,0:0:0:0:
252,25,78753,2,0,P|211:20|170:15,1,70,0|10,3:0|0:0,0:0:0:0:
101,58,79153,6,0,P|122:94|112:164,1,105,0|10,3:0|0:0,0:0:0:0:
89,170,79553,2,0,P|80:225|77:248,1,70,0|10,3:0|0:0,0:0:0:0:
67,333,79953,1,0,3:0:0:0:
155,313,80153,1,2,0:0:0:0:
164,310,80253,1,10,0:0:0:0:
174,307,80353,2,0,P|211:319|241:317,1,70,0|10,3:0|0:0,0:0:0:0:
293,242,80753,6,0,P|284:202|263:96,1,140,0|0,3:0|3:0,0:0:0:0:
317,31,81353,2,0,P|354:22|390:29,1,70,8|2,0:0|3:2,0:0:0:0:
465,76,81753,1,8,0:0:0:0:
472,83,81853,1,8,0:0:0:0:
479,90,81953,2,0,L|468:144,3,35,8|8|8|8,0:0|0:0|0:0|0:0,0:0:0:0:
443,143,82353,6,0,B|459:239|457:225|470:298,1,140,6|0,3:2|3:0,0:0:0:0:
417,358,82953,1,10,0:0:0:0:
376,276,83153,1,0,3:0:0:0:
302,330,83353,1,2,0:0:0:0:
291,330,83453,1,10,0:0:0:0:
280,331,83553,2,0,P|241:338|194:324,1,70,0|10,3:0|0:0,0:0:0:0:
146,268,83953,6,0,B|64:254|64:254|38:272|10:276,1,140,0|0,3:0|3:0,0:0:0:0:
4,184,84553,2,0,P|1:148|29:102,1,70,10|0,0:0|3:0,0:0:0:0:
99,85,84953,1,2,0:0:0:0:
106,91,85053,1,10,0:0:0:0:
114,97,85153,2,0,L|190:88,1,70,0|10,3:0|0:0,0:0:0:0:
261,136,85553,6,0,B|250:231|254:189|244:286,1,140,0|8,3:2|0:0,0:0:0:0:
304,344,86153,1,8,0:0:0:0:
312,349,86253,1,8,0:0:0:0:
321,353,86353,2,8,L|374:345,3,35
380,328,86753,2,0,L|429:335,3,35,8|8|0|0,0:0|0:0|0:0|0:0,0:0:0:0:
444,342,87153,6,0,B|434:279|434:279|455:238,1,105,10|2,0:0|3:2,0:0:0:0:
352,120,87753,2,0,B|362:183|362:183|343:219,1,105,2|2,3:2|3:2,0:0:0:0:
222,283,88353,2,0,P|187:276|153:268,1,70,2|0,3:2|3:0,0:0:0:0:
247,173,88753,5,6,3:2:0:0:
210,152,93553,6,0,B|249:166|249:166|323:146,1,105,4|8,3:2|0:0,0:0:0:0:
444,122,94153,2,0,P|418:186|401:271,1,140,8|0,0:0|3:0,0:0:0:0:
336,318,94753,2,0,P|295:294|233:311,1,105,12|0,3:2|0:0,0:0:0:0:
212,324,95153,6,0,B|155:317|155:317|134:328|134:328|69:319,1,140,6|8,3:2|0:0,0:0:0:0:
11,149,95953,2,0,B|69:140|69:140|90:151|90:151|147:144,1,140,2|8,0:0|0:0,0:0:0:0:
241,135,96553,1,2,0:0:0:0:
241,135,96753,6,0,P|265:102|365:104,1,140,0|8,3:0|0:0,0:0:0:0:
433,157,97353,1,2,0:0:0:0:
433,157,97553,2,0,P|426:205|417:275,1,105,2|0,0:0|3:0,0:0:0:0:
386,273,97953,2,0,P|390:301|395:344,1,70,8|2,0:0|0:0,0:0:0:0:
307,367,98353,6,0,P|261:326|177:338,1,140,0|8,3:0|0:0,0:0:0:0:
35,230,99153,2,0,P|102:237|155:194,1,140,2|8,0:0|0:0,0:0:0:0:
191,110,99753,1,2,0:0:0:0:
272,150,99953,6,0,P|323:141|354:136,1,70,0|2,3:0|0:0,0:0:0:0:
381,55,100353,2,0,P|432:64|463:69,1,70,8|2,0:0|0:0,0:0:0:0:
510,135,100753,2,0,L|502:170,3,35,0|8|8|8,3:0|0:0|0:0|0:0,0:0:0:0:
476,193,101153,2,0,L|484:228,3,35,8|8|8|8,0:0|0:0|0:0|0:0,0:0:0:0:
490,261,101553,6,0,P|431:253|361:317,1,140,6|8,3:2|0:0,0:0:0:0:
187,318,102353,2,0,P|240:361|308:355,1,140,2|8,3:2|0:0,0:0:0:0:
271,276,102953,1,2,0:0:0:0:
271,276,103153,6,0,P|284:210|301:137,1,140,2|8,3:2|0:0,0:0:0:0:
146,41,103953,2,0,P|161:109|175:177,1,140,0|12,3:0|0:0,0:0:0:0:
147,267,104553,1,2,0:0:0:0:
147,267,104753,6,0,P|82:262|18:306,1,140,6|8,3:2|0:0,0:0:0:0:
190,367,105553,2,0,P|258:371|315:332,1,140,2|8,3:2|0:0,0:0:0:0:
355,250,106153,1,2,0:0:0:0:
288,187,106353,6,0,P|294:149|303:102,1,70,2|0,3:2|0:0,0:0:0:0:
383,80,106753,2,0,P|389:114|394:149,1,70,8|0,0:2|0:0,0:0:0:0:
465,205,107153,2,0,P|461:222|459:239,3,35,0|8|8|8,3:0|0:0|0:0|0:0,0:0:0:0:
435,265,107553,2,0,P|438:282|440:299,3,35,8|4|4|4,3:0|3:0|3:0|3:0,0:0:0:0:
421,328,107953,6,0,B|492:343|492:343|511:369,2,105,12|12|12,3:2|0:0|0:0,0:0:0:0:
338,289,108753,2,0,B|267:304|267:304|247:330,2,105,6|6|6,3:2|3:2|3:2,0:0:0:0:
377,206,109553,6,0,B|385:174|385:174|360:119,1,70,12|0,3:2|0:0,0:0:0:0:
353,109,109853,2,0,B|317:133|317:133|233:114,1,105,12|12,3:2|3:2,0:0:0:0:
167,137,110353,2,0,B|150:165|150:165|160:225,1,70,12|0,3:2|0:0,0:0:0:0:
159,237,110653,2,0,B|113:251|113:251|104:262|104:262|55:277,1,105,12|12,3:2|3:2,0:0:0:0:
153,341,111153,6,0,P|203:361|277:324,2,140,2|0|0,3:2|3:0|3:0,0:0:0:0:
46,193,112125,1,0,3:0:0:0:
203,101,112450,2,0,P|276:112|355:124,1,140,0|2,3:0|0:0,0:0:0:0:
383,208,112936,1,2,0:0:0:0:
383,208,113098,2,0,P|365:243|366:276,1,70,8|8,3:0|3:0,0:0:0:0:
402,356,113423,1,4,3:0:0:0:
494,317,113585,6,0,B|512:212|512:212|490:202|468:184,1,154.000004699707,6|0,3:2|3:0,0:0:0:0:
428,96,114071,2,0,P|468:89|508:84,1,77.0000023498536,8|2,0:0|0:0,0:0:0:0:
382,11,114396,1,0,3:0:0:0:
382,11,114558,1,0,3:0:0:0:
314,85,114720,2,0,P|274:78|234:73,1,77.0000023498536,8|2,0:0|0:0,0:0:0:0:
142,66,115044,5,0,3:0:0:0:
142,66,115207,1,0,3:0:0:0:
102,157,115369,2,0,P|116:190|121:232,1,77.0000023498536,8|0,0:0|0:0,0:0:0:0:
202,288,115693,2,0,P|206:249|221:214,1,77.0000023498536,2|0,0:0|3:0,0:0:0:0:
311,173,116017,1,8,0:0:0:0:
376,248,116180,6,0,B|426:251|469:265|469:265|493:250|510:214,1,154.000004699707,6|0,3:2|3:0,0:0:0:0:
469,127,116666,2,0,P|435:116|387:126,1,77.0000023498536,8|2,0:0|0:0,0:0:0:0:
311,173,116990,1,0,3:0:0:0:
311,173,117153,1,0,3:0:0:0:
220,129,117315,2,0,P|214:92|205:41,1,77.0000023498536,8|2,0:0|0:0,0:0:0:0:
123,8,117639,5,0,3:0:0:0:
123,8,117801,1,0,3:0:0:0:
34,55,117963,2,0,P|23:92|31:139,1,77.0000023498536,8|2,0:0|0:0,0:0:0:0:
117,174,118288,2,0,P|128:137|120:90,1,77.0000023498536,0|0,3:0|3:0,0:0:0:0:
36,216,118612,1,8,0:0:0:0:
121,267,118774,6,0,B|174:256|174:256|213:273|213:273|273:259,1,154.000004699707,6|0,3:2|3:0,0:0:0:0:
367,239,119261,2,0,P|357:281|351:323,1,77.0000023498536,10|0,0:0|0:0,0:0:0:0:
435,379,119585,1,2,3:2:0:0:
435,379,119747,1,0,3:0:0:0:
511,314,119909,2,0,P|505:275|495:238,1,77.0000023498536,10|0,0:0|0:0,0:0:0:0:
435,165,120234,5,2,3:2:0:0:
435,165,120396,1,0,3:0:0:0:
367,239,120558,2,0,B|280:223|301:275|206:253,1,154.000004699707,10|2,0:0|0:2,0:0:0:0:
137,204,121044,1,0,3:0:0:0:
137,204,121207,2,0,P|96:211|55:218,1,77.0000023498536,10|0,0:0|0:0,0:0:0:0:
8,131,121531,6,0,B|0:100|0:100|15:50,1,77.0000023498536,6|0,3:2|3:0,0:0:0:0:
102,12,121855,1,8,0:0:0:0:
166,88,122017,2,0,B|203:77|229:82|229:82|254:65|254:65|283:72|321:61,1,154.000004699707,6|0,3:2|3:0,0:0:0:0:
413,49,122504,1,8,0:0:0:0:
466,133,122666,6,0,B|428:224|428:224|463:269,1,154.000004699707,6|0,3:2|3:0,0:0:0:0:
413,355,123152,2,0,P|365:361|332:351,1,77.0000023498536,10|0,0:0|3:0,0:0:0:0:
246,311,123477,1,10,0:0:0:0:
236,304,123558,1,8,0:0:0:0:
227,297,123639,2,0,L|237:249,3,38.5000011749268,8|8|8|8,0:0|0:0|0:0|0:0,0:0:0:0:
238,220,123963,6,0,B|153:250|153:250|119:242|98:217,1,154.000004699707,4|0,3:0|3:0,0:0:0:0:
122,120,124450,2,0,P|162:125|204:131,1,77.0000023498536,12|2,0:0|0:0,0:0:0:0:
301,147,124774,1,0,3:0:0:0:
301,147,124936,1,0,3:0:0:0:
360,66,125098,2,0,P|416:61|451:73,1,77.0000023498536,8|2,0:0|0:0,0:0:0:0:
507,143,125423,5,0,3:0:0:0:
507,143,125585,1,0,3:0:0:0:
451,225,125747,2,0,P|411:219|366:213,1,77.0000023498536,8|0,0:0|0:0,0:0:0:0:
301,147,126071,2,0,P|261:152|216:159,1,77.0000023498536,2|0,0:0|3:0,0:0:0:0:
125,176,126396,1,8,0:0:0:0:
151,272,126558,6,0,B|244:297|244:297|260:272|289:249,1,154.000004699707,6|0,3:2|3:0,0:0:0:0:
375,214,127044,1,8,0:0:0:0:
375,214,127207,2,0,P|383:258|390:293,1,77.0000023498536,2|0,0:0|0:0,0:0:0:0:
484,252,127531,1,0,3:0:0:0:
484,252,127693,1,8,0:0:0:0:
448,158,127855,6,0,B|405:163|364:183|364:183|330:172|321:132,1,154.000004699707,6|0,3:2|3:0,0:0:0:0:
323,39,128342,1,8,0:0:0:0:
323,39,128504,1,0,3:0:0:0:
232,82,128666,2,0,P|183:102|94:50,1,154.000004699707,2|8,0:0|0:0,0:0:0:0:
17,117,129152,6,0,B|34:204|30:184|48:278,1,154.000004699707,6|0,3:2|3:0,0:0:0:0:
133,317,129639,2,0,B|148:284|148:284|153:238,1,77.0000023498536,12|0,0:0|0:0,0:0:0:0:
244,205,129963,2,0,B|248:245|248:245|263:278,1,77.0000023498536,2|0,3:2|3:0,0:0:0:0:
325,358,130288,1,8,0:0:0:0:
423,340,130450,6,0,P|453:261|411:201,1,154.000004699707,2|0,0:0|3:0,0:0:0:0:
320,190,130936,2,0,P|282:197|244:204,1,77.0000023498536,10|0,0:0|0:0,0:0:0:0:
152,244,131261,2,0,L|113:236,2,38.5000011749268,8|8|8,3:0|3:0|3:0,0:0:0:0:
232,303,131585,1,8,0:0:0:0:
144,351,131747,6,0,B|94:357|50:368|50:368|29:346|21:312,1,154.000004699707,6|0,3:2|3:0,0:0:0:0:
14,216,132234,2,0,P|19:177|26:140,1,77.0000023498536,10|0,0:0|3:0,0:0:0:0:
107,81,132558,2,0,P|113:118|119:156,1,77.0000023498536,10|0,0:0|3:0,0:0:0:0:
189,228,132882,1,10,0:0:0:0:
258,155,133044,1,8,0:0:0:0:
266,147,133125,1,8,0:0:0:0:
276,139,133207,5,8,0:0:0:0:
365,184,133369,2,0,B|337:282|337:282|348:305|370:339,1,154.000004699707,8|0,3:0|3:0,0:0:0:0:
469,371,133855,1,8,0:0:0:0:
498,258,134017,1,2,3:2:0:0:
498,258,134504,6,0,B|463:253|463:253|431:267,1,70,6|0,3:2|3:0,0:0:0:0:
362,327,134828,2,0,P|326:320|286:312,1,70,0|0,3:0|3:0,0:0:0:0:
224,254,135152,2,0,B|166:260|166:260|152:275|152:275|91:282,1,140,8|0,0:0|3:0,0:0:0:0:
24,219,135639,6,0,P|4:145|37:80,1,140,0|0,3:0|3:0,0:0:0:0:
100,33,136125,1,0,3:0:0:0:
100,33,136288,1,0,3:0:0:0:
161,100,136450,2,0,P|153:134|148:168,1,70,8|0,0:0|3:0,0:0:0:0:
207,237,136774,1,0,3:0:0:0:
271,172,136936,6,0,B|358:159|331:202|429:183,1,140,0|0,3:0|3:0,0:0:0:0:
498,174,137423,2,0,P|488:226|484:249,1,70,0|0,3:0|3:0,0:0:0:0:
412,297,137747,2,0,P|422:349|426:372,1,70,8|0,0:0|3:0,0:0:0:0:
335,380,138071,1,0,3:0:0:0:
335,380,138234,6,0,P|272:334|203:350,1,140,0|0,3:0|3:0,0:0:0:0:
129,374,138720,2,0,P|84:366|49:361,1,70,0|0,3:0|3:0,0:0:0:0:
14,289,139044,1,8,0:0:0:0:
14,289,139207,1,0,3:0:0:0:
82,227,139369,2,0,P|83:182|71:156,1,70,0|0,3:0|3:0,0:0:0:0:
27,81,139693,5,6,3:2:0:0:
27,81,139855,1,0,3:0:0:0:
104,33,140017,2,0,P|141:38|190:44,1,70,0|0,3:0|3:0,0:0:0:0:
229,114,140342,2,0,B|310:98|287:104|379:87,1,140,8|0,0:0|3:0,0:0:0:0:
437,146,140828,6,0,P|401:212|419:280,1,140,0|0,3:0|3:0,0:0:0:0:
478,344,141315,1,0,3:0:0:0:
478,344,141477,1,0,3:0:0:0:
391,371,141639,2,0,P|349:365|314:359,1,70,8|0,0:0|3:0,0:0:0:0:
249,304,141963,2,0,P|207:310|172:316,1,70,0|0,3:0|3:0,0:0:0:0:
92,325,142288,5,0,3:0:0:0:
92,325,142450,1,0,3:0:0:0:
24,264,142612,2,0,P|15:225|23:185,1,70,0|0,3:0|3:0,0:0:0:0:
108,179,142936,2,0,P|117:140|109:100,1,70,8|0,0:0|3:0,0:0:0:0:
45,57,143261,1,0,3:0:0:0:
45,57,143423,6,0,P|108:74|173:32,1,140,0|0,3:0|3:0,0:0:0:0:
258,21,143909,2,0,P|298:29|335:38,1,70,0|0,3:0|0:0,0:0:0:0:
415,58,144234,2,0,L|422:101,3,35,8|0|0|0,0:0|3:0|3:0|3:0,0:0:0:0:
441,120,144558,2,0,L|434:163,3,35,4|4|4|4,3:0|3:0|3:0|3:0,0:0:0:0:
428,188,144882,6,0,B|381:184|352:170|352:170|316:179|306:209,1,140,6|0,3:2|3:0,0:0:0:0:
254,282,145369,2,0,B|200:269|200:269|181:248|181:248|117:235,1,140,10|0,0:0|3:0,0:0:0:0:
65,169,145855,1,10,0:0:0:0:
147,129,146017,6,0,P|156:97|164:57,1,70,0|0,3:0|3:0,0:0:0:0:
251,37,146342,2,0,P|292:84|364:71,1,140,10|0,0:0|3:0,0:0:0:0:
450,49,146828,2,0,P|456:83|466:116,1,70,10|0,0:0|3:0,0:0:0:0:
493,208,147152,1,10,0:0:0:0:
493,208,147315,1,0,3:0:0:0:
419,260,147477,6,0,B|328:243|328:243|313:261|281:274,1,140,12|0,0:0|3:0,0:0:0:0:
216,216,147963,2,0,P|250:253|218:347,1,140,10|0,0:0|3:0,0:0:0:0:
146,361,148450,2,0,P|92:351|65:348,1,70,10|0,0:0|0:0,0:0:0:0:
23,275,148774,5,6,3:2:0:0:
18,265,148855,1,0,3:0:0:0:
13,255,148936,2,0,P|25:218|26:184,1,70,8|0,0:0|3:0,0:0:0:0:
100,133,149261,1,8,3:0:0:0:
110,128,149342,1,8,3:0:0:0:
120,123,149423,2,0,P|157:135|191:136,1,70,8|0,3:0|3:0,0:0:0:0:
277,118,149747,2,0,L|282:78,3,35,4|4|4|4,3:0|3:0|3:0|3:0,0:0:0:0:
286,48,150071,6,0,B|329:48|363:68|363:68|390:63|418:23,1,140,6|0,3:2|3:0,0:0:0:0:
496,62,150558,2,0,B|455:142|455:142|475:158|493:200,1,140,12|0,0:0|3:0,0:0:0:0:
452,267,151044,2,0,P|409:273|369:256,1,70,12|0,0:0|3:0,0:0:0:0:
298,232,151369,5,0,3:0:0:0:
244,158,151531,2,0,B|166:174|180:172|94:191,1,140,12|0,0:0|3:0,0:0:0:0:
46,255,152017,1,12,0:0:0:0:
46,255,152180,1,0,3:0:0:0:
111,317,152342,2,0,P|148:324|189:318,1,70,12|0,0:0|0:0,0:0:0:0:
263,285,152666,5,6,3:2:0:0:
272,289,152747,1,8,0:0:0:0:
280,294,152828,2,0,P|289:333|299:376,1,70,8|8,0:0|0:0,0:0:0:0:
386,373,153153,1,6,3:2:0:0:
395,369,153234,1,8,0:0:0:0:
403,364,153315,2,0,P|412:325|422:282,1,70,8|8,0:0|0:0,0:0:0:0:
443,186,153639,5,6,3:2:0:0:
348,232,153801,1,6,3:2:0:0:
348,232,155261,6,0,P|296:197|214:210,1,115.50000352478,6|0,3:2|0:0,0:0:0:0:
207,206,155585,2,0,P|195:255|188:287,1,77.0000023498536,10|0,0:0|0:0,0:0:0:0:
118,351,155909,1,0,3:2:0:0:
118,351,156071,1,0,3:0:0:0:
45,281,156234,2,0,P|36:243|27:206,1,77.0000023498536,10|0,0:0|0:0,0:0:0:0:
45,107,156558,6,0,P|100:115|157:80,1,115.50000352478,0|0,3:2|0:0,0:0:0:0:
177,59,156882,2,0,P|228:69|257:75,1,77.0000023498536,10|0,0:0|0:0,0:0:0:0:
353,103,157207,1,0,3:0:0:0:
353,103,157369,1,0,3:0:0:0:
285,177,157531,2,0,P|298:235|302:259,1,77.0000023498536,10|0,0:0|0:0,0:0:0:0:
327,348,157855,6,0,P|390:362|443:326,1,115.50000352478,0|0,3:2|0:0,0:0:0:0:
471,337,158180,2,0,P|487:302|485:251,1,77.0000023498536,10|0,0:0|0:0,0:0:0:0:
435,185,158504,1,0,3:0:0:0:
435,185,158666,1,0,3:0:0:0:
376,265,158828,2,0,P|332:257|279:249,1,77.0000023498536,10|0,0:0|0:0,0:0:0:0:
200,242,159152,5,0,3:0:0:0:
120,180,159315,2,0,P|81:186|39:169,1,77.0000023498536,10|0,0:0|3:0,0:0:0:0:
46,74,159639,2,0,P|82:61|119:68,1,77.0000023498536,10|0,0:0|3:0,0:0:0:0:
203,122,159963,1,8,0:0:0:0:
210,130,160044,1,8,0:0:0:0:
218,137,160125,2,0,L|277:128,3,38.5000011749268,8|8|8|8,0:0|0:0|0:0|0:0,0:0:0:0:
294,129,160450,6,0,B|270:199|270:199|301:243,1,115.50000352478,6|0,3:2|0:0,0:0:0:0:
319,261,160774,2,0,P|365:253|402:248,1,77.0000023498536,10|0,0:0|0:0,0:0:0:0:
497,239,161098,1,0,3:0:0:0:
497,239,161261,1,0,3:0:0:0:
464,144,161423,2,0,P|429:122|372:123,1,77.0000023498536,10|0,0:0|0:0,0:0:0:0:
294,129,161747,6,0,B|259:156|259:156|163:137,1,115.50000352478,0|0,3:0|0:0,0:0:0:0:
158,118,162071,2,0,P|115:126|75:134,1,77.0000023498536,10|0,0:0|0:0,0:0:0:0:
13,205,162396,1,0,3:0:0:0:
13,205,162558,1,0,3:0:0:0:
63,291,162720,2,0,P|115:295|144:280,1,77.0000023498536,10|0,0:0|0:0,0:0:0:0:
227,243,163044,6,0,B|314:235|289:269|384:258,1,154.000004699707,0|10,3:0|0:0,0:0:0:0:
454,192,163531,1,2,0:0:0:0:
463,186,163612,1,2,0:0:0:0:
471,178,163693,2,0,P|466:125|454:105,1,77.0000023498536,0|0,3:0|3:0,0:0:0:0:
373,45,164017,2,0,P|356:79|356:117,1,77.0000023498536,10|0,0:0|0:0,0:0:0:0:
264,157,164342,6,0,L|207:148,2,51.3333348999024,6|8|8,3:2|0:0|0:0,0:0:0:0:
192,116,164666,2,0,L|135:125,2,51.3333348999024,8|8|8,0:2|0:0|0:0,0:0:0:0:
114,141,164990,6,0,P|103:177|106:201,2,51.3333348999024,8|8|8,3:0|3:0|3:0,0:0:0:0:
75,214,165315,2,0,P|86:250|83:274,2,51.3333348999024,4|4|4,3:0|3:0|3:0,0:0:0:0:
65,287,165639,5,6,3:2:0:0:
256,192,173423,12,8,175369,0:0:0:0:
234,158,176017,6,0,P|245:209|252:263,1,97.9999970092774,6|0,3:2|3:0,0:0:0:0:
321,309,176504,1,2,0:0:0:0:
321,309,176666,2,0,P|360:284|430:296,1,97.9999970092774,0|0,3:0|3:0,0:0:0:0:
498,143,177315,6,0,P|449:145|408:119,1,97.9999970092774,0|0,3:0|3:0,0:0:0:0:
353,57,177801,2,0,P|302:67|252:76,1,97.9999970092774,2|2,0:0|0:0,0:0:0:0:
210,146,178288,1,0,3:0:0:0:
210,146,178450,6,0,P|161:137|113:127,1,97.9999970092774,2|2,0:0|0:0,0:0:0:0:
45,175,178936,2,0,P|61:213|65:235,1,48.9999985046387,0|2,3:0|0:0,0:0:0:0:
133,265,179261,2,0,P|139:241|150:219,1,48.9999985046387,0|2,3:0|0:0,0:0:0:0:
226,255,179585,2,0,P|242:293|246:315,1,48.9999985046387,0|2,3:0|0:0,0:0:0:0:
304,356,179909,6,0,P|339:324|408:321,1,97.9999970092774,0|0,3:0|3:0,0:0:0:0:
470,323,180396,2,0,P|476:284|481:264,1,48.9999985046387,2|0,0:0|3:0,0:0:0:0:
412,224,180720,2,0,P|406:169|396:123,1,97.9999970092774,2|2,0:0|0:0,0:0:0:0:
371,47,181207,5,6,3:2:0:0:
216,108,181531,2,0,P|174:102|157:98,1,48.9999985046387,0|2,3:0|0:0,0:0:0:0:
113,163,181855,2,0,P|128:202|133:219,1,48.9999985046387,0|2,3:0|0:0,0:0:0:0:
213,224,182180,2,0,P|239:190|251:177,1,48.9999985046387,0|2,3:0|0:0,0:0:0:0:
325,169,182504,6,0,P|360:195|417:188,1,97.9999970092774,0|0,3:0|3:0,0:0:0:0:
490,161,182990,2,0,P|464:196|471:253,1,97.9999970092774,2|2,0:0|0:0,0:0:0:0:
510,326,183477,1,0,3:0:0:0:
510,326,183639,1,2,0:0:0:0:
433,358,183801,6,0,P|380:342|317:337,1,97.9999970092774,0|0,3:0|3:0,0:0:0:0:
270,287,184288,2,0,P|217:303|154:308,1,97.9999970092774,2|2,0:0|0:0,0:0:0:0:
92,296,184774,1,0,3:0:0:0:
92,296,184936,6,0,B|97:241|98:262|106:186,1,97.9999970092774,2|2,0:0|0:0,0:0:0:0:
119,116,185423,2,0,P|67:116|30:88,2,97.9999970092774,0|0|0,3:0|3:0|3:0,0:0:0:0:
281,79,186396,6,0,B|287:142|288:121|293:176,1,97.9999970092774,0|0,3:0|3:0,0:0:0:0:
352,235,186882,2,0,P|396:213|443:219,1,97.9999970092774,2|2,0:0|0:0,0:0:0:0:
500,279,187369,2,0,P|492:311|485:344,1,48.9999985046387,0|2,3:0|0:0,0:0:0:0:
409,370,187693,6,0,B|372:355|352:331|352:331|323:345|280:339,1,140,12|0,0:0|3:0,0:0:0:0:
193,320,188180,2,0,B|206:273|206:273|186:228|186:228|202:158,1,140,12|4,0:0|3:0,0:0:0:0:
254,118,188666,2,0,L|243:75,3,35,8|8|8|8,0:0|0:0|0:0|0:0,0:0:0:0:
237,50,188990,6,2,B|188:56|162:79|162:79|137:78|98:58,1,140,6|2,3:2|0:1,0:1:0:0:
25,19,189477,1,6,3:2:0:0:
196,187,190125,5,6,3:2:0:0:
196,187,191585,5,6,3:2:0:0:
268,132,191747,1,8,0:0:0:0:
276,126,191828,1,8,0:0:0:0:
285,121,191909,2,0,L|335:127,3,35,8|8|8|8,0:0|0:0|0:0|0:0,0:0:0:0:
337,148,192234,6,0,B|373:143|373:143|395:151|395:151|445:141,1,97.9999970092774,6|6,3:2|3:2,0:0:0:0:
432,143,192720,6,0,B|456:232|456:232|439:257|402:259,1,154.000004699707,6|0,3:2|3:0,0:0:0:0:
302,247,193207,2,0,P|297:282|290:328,1,77.0000023498536,8|2,0:0|0:0,0:0:0:0:
201,364,193531,1,0,3:0:0:0:
201,364,193693,1,0,3:0:0:0:
134,289,193855,2,0,P|97:295|44:280,1,77.0000023498536,8|2,0:0|0:0,0:0:0:0:
4,208,194180,5,0,3:0:0:0:
4,208,194342,1,0,3:0:0:0:
79,142,194504,2,0,P|85:103|94:52,1,77.0000023498536,8|2,0:0|0:0,0:0:0:0:
183,26,194828,2,0,P|189:63|195:101,1,77.0000023498536,0|0,3:0|3:0,0:0:0:0:
210,200,195152,1,8,0:0:0:0:
303,163,195315,6,0,B|366:175|366:175|383:195|383:195|449:209,1,154.000004699707,6|0,3:2|3:0,0:0:0:0:
493,295,195801,2,0,P|456:307|408:300,1,77.0000023498536,10|0,0:0|0:0,0:0:0:0:
327,274,196125,1,2,3:2:0:0:
327,274,196288,1,0,3:0:0:0:
241,325,196450,2,0,P|204:313|156:320,1,77.0000023498536,10|0,0:0|0:0,0:0:0:0:
73,352,196774,5,2,3:2:0:0:
73,352,196936,1,0,3:0:0:0:
15,269,197098,2,0,P|21:230|27:187,1,77.0000023498536,10|0,0:0|3:0,0:0:0:0:
88,113,197423,2,0,L|132:105,3,38.5000011749268,8|8|8|8,0:0|0:0|0:0|0:0,0:0:0:0:
160,89,197747,2,0,L|204:97,3,38.5000011749268,8|8|8|8,3:0|3:0|3:0|3:0,0:0:0:0:
235,105,198071,6,0,B|202:190|202:190|217:221|247:231,1,154.000004699707,6|4,3:2|3:0,0:0:0:0:
339,270,198558,2,0,P|260:270|208:329,1,154.000004699707,6|0,3:2|3:0,0:0:0:0:
300,359,199044,1,12,0:2:0:0:
398,337,199207,6,0,B|366:296|366:296|396:181,1,154.000004699707,2|8,3:2|0:0,0:0:0:0:
424,176,199612,1,8,0:0:0:0:
424,176,199693,2,0,P|410:125|404:100,1,77.0000023498536,8|0,0:0|3:0,0:0:0:0:
321,45,200017,1,8,0:0:0:0:
312,53,200098,1,8,0:0:0:0:
304,62,200180,2,0,L|252:57,3,38.5000011749268,8|8|8|8,0:0|0:0|0:0|0:0,0:0:0:0:
234,35,200504,6,0,B|177:47|177:47|156:70|156:70|91:85,1,154.000004699707,6|0,3:2|3:0,0:0:0:0:
23,156,200990,2,0,P|43:190|50:241,1,77.0000023498536,10|0,0:0|3:0,0:0:0:0:
116,309,201315,1,10,0:0:0:0:
116,309,201477,1,0,3:0:0:0:
172,226,201639,2,0,P|179:188|199:155,1,77.0000023498536,10|0,0:0|3:0,0:0:0:0:
287,105,201963,5,10,0:0:0:0:
287,105,202125,1,0,3:0:0:0:
352,181,202288,2,0,P|392:171|429:164,1,77.0000023498536,10|0,0:0|3:0,0:0:0:0:
461,70,202612,2,0,P|423:62|385:53,1,77.0000023498536,10|0,0:0|3:0,0:0:0:0:
294,12,202936,1,10,0:0:0:0:
207,61,203098,6,0,B|192:97|192:97|206:141,1,77.0000023498536,6|0,3:2|0:0,0:0:0:0:
239,227,203423,2,0,L|230:273,3,38.5000011749268,8|8|8|8,0:0|0:0|0:0|0:0,0:0:0:0:
211,297,203747,2,0,L|166:312,3,38.5000011749268,8|8|8|8,0:0|0:0|0:0|0:0,0:0:0:0:
136,313,204071,2,0,P|85:302|55:296,1,77.0000023498536,8|4,3:0|3:0,3:0:0:0:
8,211,204396,6,0,B|-1:172|-1:172|20:122,1,77.0000023498536,6|0,3:2|0:0,0:0:0:0:
75,59,204720,1,8,0:0:0:0:
83,51,204801,1,8,0:0:0:0:
92,44,204882,2,0,L|144:48,3,38.5000011749268,8|8|8|8,0:0|0:0|0:0|0:0,0:0:0:0:
158,74,205207,2,0,P|189:57|234:50,1,77.0000023498536,8|8,3:0|3:0,0:0:0:0:
319,94,205531,1,4,3:0:0:0:
307,193,205693,6,0,B|225:182|246:229|146:217,1,154.000004699707,2|0,3:2|3:0,0:0:0:0:
75,276,206180,2,0,P|64:311|70:353,1,77.0000023498536,12|0,0:0|0:0,0:0:0:0:
165,322,206504,2,0,P|189:349|229:364,1,77.0000023498536,2|0,3:2|3:0,0:0:0:0:
326,364,206828,1,8,0:0:0:0:
411,312,206990,6,0,B|399:225|402:236|388:141,1,154.000004699707,2|0,0:0|3:0,0:0:0:0:
331,78,207477,2,0,P|286:86|246:75,1,77.0000023498536,10|0,0:0|0:0,0:0:0:0:
167,33,207801,2,0,P|122:25|82:36,1,77.0000023498536,2|0,0:0|3:0,0:0:0:0:
5,81,208125,1,10,0:0:0:0:
79,148,208288,6,0,B|64:208|64:208|80:234|80:234|62:309,1,154.000004699707,6|0,3:2|3:0,0:0:0:0:
139,361,208774,2,0,P|179:360|219:344,1,77.0000023498536,10|0,0:0|3:0,0:0:0:0:
309,374,209098,2,0,P|328:338|334:296,1,77.0000023498536,10|0,0:0|3:0,0:0:0:0:
421,251,209423,2,0,P|400:216|366:190,1,77.0000023498536,10|0,0:0|3:0,0:0:0:0:
273,173,209747,5,8,0:0:0:0:
264,180,209828,1,8,0:0:0:0:
256,188,209909,2,0,P|202:178|167:172,1,77.0000023498536,0|0,3:0|3:0,0:0:0:0:
166,74,210234,1,8,0:0:0:0:
175,67,210315,1,8,0:0:0:0:
183,59,210396,2,0,P|237:69|272:75,1,77.0000023498536,8|0,0:0|3:0,0:0:0:0:
357,91,210720,2,0,L|398:82,3,38.5000011749268,8|8|8|8,0:0|0:0|0:0|0:0,0:0:0:0:
427,76,211044,6,2,B|401:124|410:172|452:172|470:237|433:287|433:287|387:284|360:233|385:194,1,350,2|0,0:0|0:0,0:0:0:0:
384,194,213639,6,0,B|347:204|347:204|310:194,1,77.0000023498536,6|0,3:2|0:0,0:0:0:0:
223,144,213963,2,0,P|180:152|131:161,1,77.0000023498536,8|0,0:0|0:0,0:0:0:0:
92,242,214288,2,0,P|129:248|167:256,1,77.0000023498536,0|0,3:2|3:0,0:0:0:0:
265,275,214612,1,8,0:0:0:0:
197,348,214774,6,0,P|132:364|53:316,1,154.000004699707,2|0,0:0|0:0,0:0:0:0:
0,242,215261,2,0,P|8:201|16:152,1,77.0000023498536,8|0,0:0|0:0,0:0:0:0:
112,148,215585,2,0,P|104:110|98:72,1,77.0000023498536,0|0,3:0|3:0,0:0:0:0:
177,11,215909,1,8,0:0:0:0:
255,73,216071,6,0,B|303:74|352:89|352:89|376:78|399:40,1,154.000004699707,6|0,3:2|3:0,0:0:0:0:
492,50,216558,2,0,P|482:92|471:141,1,77.0000023498536,8|0,0:0|0:0,0:0:0:0:
451,225,216882,1,0,3:0:0:0:
451,225,217044,1,0,3:0:0:0:
357,187,217207,2,0,P|300:189|268:204,1,77.0000023498536,8|0,0:0|0:0,0:0:0:0:
222,276,217531,6,0,P|215:309|208:358,1,77.0000023498536,0|0,3:0|3:0,0:0:0:0:
108,357,217855,2,0,P|102:318|94:281,1,77.0000023498536,8|0,0:0|0:0,0:0:0:0:
23,217,218180,1,0,3:0:0:0:
23,217,218342,2,0,P|18:179|36:132,1,77.0000023498536,0|8,3:0|0:0,0:0:0:0:
103,75,218666,6,0,B|148:80|191:96|191:96|222:82|227:25,1,154.000004699707,6|0,3:2|3:0,0:0:0:0:
321,21,219152,2,0,P|342:72|341:112,1,77.0000023498536,8|0,0:0|0:0,0:0:0:0:
314,192,219477,1,0,3:0:0:0:
314,192,219639,1,0,3:0:0:0:
398,244,219801,2,0,P|449:223|489:224,1,77.0000023498536,8|0,0:0|0:0,0:0:0:0:
383,339,220125,6,0,P|344:333|310:316,1,77.0000023498536,0|0,3:0|3:0,0:0:0:0:
233,252,220450,2,0,P|194:257|160:274,1,77.0000023498536,8|0,0:0|0:0,0:0:0:0:
80,332,220774,1,0,3:0:0:0:
80,332,220936,1,0,3:0:0:0:
15,255,221098,2,0,B|23:194|20:212|34:112,1,115.50000352478,12|0,0:0|0:0,0:0:0:0:
35,101,221423,6,0,B|92:133|145:119|145:119|181:89,1,154.000004699707,6|8,3:2|0:0,0:0:0:0:
264,48,221909,2,0,P|277:110|279:127,1,77.0000023498536,6|0,3:2|0:0,0:0:0:0:
296,226,222234,1,0,3:0:0:0:
296,226,222396,1,8,0:0:0:0:
380,172,222558,6,0,B|443:151|494:187|494:187|477:229,1,154.000004699707,6|0,3:2|3:0,0:0:0:0:
443,311,223044,2,0,P|405:310|369:293,1,77.0000023498536,8|4,0:0|3:2,0:0:0:0:
296,226,223369,1,8,0:0:0:0:
287,217,223450,1,8,0:0:0:0:
278,209,223531,2,0,L|226:219,3,38.5000011749268,8|8|8|8,0:0|3:0|3:0|3:0,0:0:0:0:
201,225,223855,6,0,P|139:253|63:218,1,154.000004699707,4|0,3:0|3:0,0:0:0:0:
26,126,224342,2,0,P|31:86|39:42,1,77.0000023498536,12|0,0:0|0:0,0:0:0:0:
131,16,224666,2,0,P|137:53|142:92,1,77.0000023498536,2|0,3:2|3:0,0:0:0:0:
229,141,224990,1,8,0:0:0:0:
305,76,225152,6,0,P|349:78|389:96,1,77.0000023498536,2|0,0:0|3:0,0:0:0:0:
444,166,225477,1,0,3:0:0:0:
381,243,225639,2,0,B|290:220|290:220|260:233|245:271,1,154.000004699707,10|0,0:0|3:0,0:0:0:0:
221,360,226125,1,0,3:0:0:0:
221,360,226288,1,10,0:0:0:0:
126,326,226450,6,0,B|114:268|114:268|126:236|126:236|110:170,1,154.000004699707,6|0,3:2|3:0,0:0:0:0:
17,143,226936,2,0,P|26:91|31:62,1,77.0000023498536,10|0,0:0|0:0,0:0:0:0:
119,18,227261,1,0,3:0:0:0:
119,18,227423,1,0,3:0:0:0:
182,95,227585,2,0,P|237:99|265:88,1,77.0000023498536,10|0,0:0|0:0,0:0:0:0:
350,57,227909,5,10,0:0:0:0:
359,63,227990,1,0,3:0:0:0:
368,69,228071,2,0,P|355:129|351:158,1,77.0000023498536,0|8,3:0|0:0,0:0:0:0:
262,189,228396,2,0,P|275:249|279:278,1,77.0000023498536,10|0,0:0|0:0,0:0:0:0:
297,366,228720,1,0,3:0:0:0:
297,366,228882,1,10,0:0:0:0:
377,306,229044,6,0,B|419:323|454:324|454:324|483:311|512:268,1,154.000004699707,6|0,3:2|3:0,0:0:0:0:
512,173,229531,2,0,P|472:180|424:188,1,77.0000023498536,10|0,0:0|0:0,0:0:0:0:
352,144,229855,1,0,3:0:0:0:
352,144,230017,1,0,3:0:0:0:
267,90,230180,2,0,P|227:83|179:75,1,77.0000023498536,10|0,0:0|0:0,0:0:0:0:
102,29,230504,6,0,P|154:80|108:173,1,154.000004699707,2|10,0:0|0:0,0:0:0:0:
49,199,230990,1,0,3:0:0:0:
112,276,231152,2,0,L|117:319,3,38.5000011749268,8|8|8|8,3:0|3:0|3:0|3:0,0:0:0:0:
122,352,231477,2,0,P|160:345|214:335,1,77.0000023498536,10|0,0:0|3:0,0:0:0:0:
288,267,231801,6,0,B|255:219|255:219|294:113,1,154.000004699707,12|0,0:0|3:0,0:0:0:0:
340,25,232288,2,0,B|401:40|401:40|425:68|425:68|490:86,1,154.000004699707,12|0,0:0|3:0,0:0:0:0:
505,194,232774,6,0,B|452:213|452:213|487:318,1,154.000004699707,12|0,0:0|3:0,0:0:0:0:
379,360,233261,2,0,B|290:338|290:338|263:369|225:375,1,154.000004699707,12|0,0:0|3:0,0:0:0:0:
125,350,233747,5,10,0:0:0:0:
168,242,233909,1,10,0:0:0:0:
54,260,234071,1,10,0:0:0:0:
94,152,234233,1,6,3:2:0:0:
94,152,235693,6,0,P|125:145|149:142,2,46.6666666666667,2|8|8,3:2|0:0|0:0,0:0:0:0:
164,114,236017,2,0,P|195:120|219:124,2,46.6666666666667,8|8|8,3:0|3:0|3:0,0:0:0:0:
233,152,236342,2,0,P|264:124|358:123,1,140,4|8,3:0|0:0,0:0:0:0:
448,199,236828,5,6,3:2:0:0:
256,192,236909,12,0,239585,0:0:0:0:
