osu file format v14

[General]
AudioFilename: audio.mp3
AudioLeadIn: 0
PreviewTime: 175693
Countdown: 0
SampleSet: Soft
StackLeniency: 0.7
Mode: 0
LetterboxInBreaks: 0
WidescreenStoryboard: 1

[Editor]
Bookmarks: 408,5597,15975,26353,36732,41921,47110,49543,59921,71759,75953,88753,95153,107953,111153,113585,123963,134504,144882,155261,165639,173423,173747,174071,174396,174720,175044,175369,175693,176017,187693,192720,200504,213639,223855,236828,239585
DistanceSpacing: 1.9
BeatDivisor: 4
GridSize: 32
TimelineZoom: 1.9

[Metadata]
Title:STARRY SKY
TitleUnicode:STARRY SKY
Artist:PassCode
ArtistUnicode:PassCode
Creator:Akitoshi
Version:Expert
Source:隕石家族
Tags:Corinn -Laura- Inseki Kazoku Tokai Toukai TV Television Drama Japanese Pop Rock 高嶋楓 Takashima Kaede 南菜生 Minami Nao 今田夢菜 Imada Yuna 大上陽奈子 Oogami Hinako
BeatmapID:2538171
BeatmapSetID:1199549

[Difficulty]
HPDrainRate:5.8
CircleSize:3.9
OverallDifficulty:8.7
ApproachRate:9.3
SliderMultiplier:1.65
SliderTickRate:2

[Events]
//Background and Video events
0,0,"000000.jpg",0,0
//Break Periods
2,16175,24826
2,88953,92999
2,165839,172869
//Storyboard Layer 0 (Background)
//Storyboard Layer 1 (Fail)
//Storyboard Layer 2 (Pass)
//Storyboard Layer 3 (Foreground)
//Storyboard Layer 4 (Overlay)
//Storyboard Sound Samples

[TimingPoints]
408,324.324324324324,4,2,5,40,1,0
408,-200,4,2,5,40,0,0
3002,-166.666666666667,4,2,5,40,0,0
3651,-100,4,2,5,60,0,0
4218,-100,4,2,5,5,0,0
4299,-333.333333333333,4,2,5,40,0,0
5597,-100,4,2,5,70,0,0
5840,-100,4,2,5,5,0,0
5921,-100,4,2,5,70,0,0
11029,-100,4,2,5,5,0,0
11110,-100,4,2,5,70,0,0
15975,-250,4,2,5,70,0,0
25380,-166.666666666667,4,2,5,50,0,0
25786,-166.666666666667,4,2,5,5,0,0
25867,-166.666666666667,4,2,5,50,0,0
26272,-166.666666666667,4,2,5,5,0,0
26353,-111.111111111111,4,2,5,60,0,0
28867,-111.111111111111,4,2,5,5,0,0
28948,-111.111111111111,4,2,5,60,0,0
31462,-111.111111111111,4,2,5,5,0,0
31543,-111.111111111111,4,2,5,60,0,0
36732,-125,4,2,5,60,0,0
41921,-142.857142857143,4,2,5,60,0,0
43218,-125,4,2,5,60,0,0
44191,-100,4,2,5,60,0,0
44435,-100,4,2,5,5,0,0
44516,-200,4,2,5,40,0,0
46462,-111.111111111111,4,2,5,70,0,0
47110,-100,4,2,5,70,0,0
49543,-90.9090909090909,4,2,5,80,0,0
70137,-66.6666666666667,4,2,5,80,0,0
70380,-66.6666666666667,4,2,5,5,0,0
70462,-90.9090909090909,4,2,5,80,0,0
71759,-125,4,2,5,80,0,0
73056,-100,4,2,5,80,0,0
74272,-100,4,2,5,5,0,0
74353,400,4,2,5,70,1,0
75853,-100,4,2,5,5,0,0
75953,-100,4,2,5,70,0,0
88753,-125,4,2,5,60,0,0
93553,-66.6666666666667,4,2,5,60,0,0
93753,-66.6666666666667,4,2,5,5,0,0
93853,-66.6666666666667,4,2,5,60,0,0
94053,-66.6666666666667,4,2,5,5,0,0
94153,-66.6666666666667,4,2,5,60,0,0
95153,-111.111111111111,4,2,5,70,0,0
101853,-111.111111111111,4,2,5,5,0,0
101953,-111.111111111111,4,2,5,70,0,0
102653,-111.111111111111,4,2,5,5,0,0
102753,-111.111111111111,4,2,5,70,0,0
103453,-111.111111111111,4,2,5,5,0,0
103553,-111.111111111111,4,2,5,70,0,0
104353,-76.9230769230769,4,2,5,70,0,0
104653,-76.9230769230769,4,2,5,5,0,0
104753,-111.111111111111,4,2,5,70,0,0
105453,-111.111111111111,4,2,5,5,0,0
105553,-111.111111111111,4,2,5,70,0,0
106253,-111.111111111111,4,2,5,5,0,0
106353,-111.111111111111,4,2,5,70,0,0
107953,-66.6666666666667,4,2,5,70,0,0
108153,-66.6666666666667,4,2,5,5,0,0
108253,-66.6666666666667,4,2,5,70,0,0
108453,-66.6666666666667,4,2,5,5,0,0
108553,-66.6666666666667,4,2,5,70,0,0
108653,-66.6666666666667,4,2,5,5,0,0
108753,-66.6666666666667,4,2,5,70,0,0
108953,-66.6666666666667,4,2,5,5,0,0
109053,-66.6666666666667,4,2,5,70,0,0
109253,-66.6666666666667,4,2,5,5,0,0
109353,-66.6666666666667,4,2,5,70,0,0
109453,-66.6666666666667,4,2,5,5,0,0
109553,-66.6666666666667,4,2,5,70,0,0
109753,-66.6666666666667,4,2,5,5,0,0
109853,-66.6666666666667,4,2,5,70,0,0
110053,-66.6666666666667,4,2,5,5,0,0
110153,-66.6666666666667,4,2,5,70,0,0
110253,-66.6666666666667,4,2,5,5,0,0
110353,-66.6666666666667,4,2,5,70,0,0
110553,-66.6666666666667,4,2,5,5,0,0
110653,-66.6666666666667,4,2,5,70,0,0
110853,-66.6666666666667,4,2,5,5,0,0
110953,-66.6666666666667,4,2,5,70,0,0
111053,-66.6666666666667,4,2,5,5,0,0
111153,324.324324324324,4,2,5,60,1,0
111153,-125,4,2,5,60,0,0
112450,-111.111111111111,4,2,5,60,0,0
113098,-100,4,2,5,70,0,0
113585,-90.9090909090909,4,2,5,80,0,0
134504,-111.111111111111,4,2,5,70,0,0
144882,-100,4,2,5,70,0,0
153639,-66.6666666666667,4,2,5,70,0,0
154125,-1000,4,2,5,70,0,0
154936,-100,4,2,5,40,0,0
155098,-100,4,2,5,60,0,0
155261,-83.3333333333333,4,2,5,80,0,1
155504,-83.3333333333333,4,2,5,5,0,1
155585,-83.3333333333333,4,2,5,80,0,1
156801,-83.3333333333333,4,2,5,5,0,1
156882,-83.3333333333333,4,2,5,80,0,1
158098,-83.3333333333333,4,2,5,5,0,1
158180,-83.3333333333333,4,2,5,80,0,1
160693,-83.3333333333333,4,2,5,5,0,1
160774,-83.3333333333333,4,2,5,80,0,1
161990,-83.3333333333333,4,2,5,5,0,1
162071,-83.3333333333333,4,2,5,80,0,1
165639,-200,4,2,5,60,0,0
187693,-111.111111111111,4,2,5,70,0,0
190125,-100,4,2,5,70,0,0
191585,-90.9090909090909,4,2,5,70,0,0
192234,-66.6666666666667,4,2,5,70,0,0
192315,-66.6666666666667,4,2,5,5,0,0
192396,-166.666666666667,4,2,5,70,0,0
192639,-166.666666666667,4,2,5,5,0,0
192720,-83.3333333333333,4,2,5,85,0,1
200504,-80,4,2,5,85,0,1
211044,-333.333333333334,4,2,2,50,0,0
212666,-333.333333333334,4,2,5,5,0,0
213639,-83.3333333333333,4,2,5,80,0,1
221342,-83.3333333333333,4,2,5,5,0,1
221423,-83.3333333333333,4,2,5,80,0,1
234234,-142.857142857143,4,2,5,60,0,0
235693,-90.9090909090909,4,2,5,70,0,0
236828,-200,4,2,5,70,0,0
236990,-200,4,2,2,50,0,0
239585,-200,4,2,2,5,0,0

[Colours]
Combo1 : 21,234,154
Combo2 : 0,255,255
Combo3 : 159,159,208
Combo4 : 255,255,26

[HitObjects]
11,224,408,6,0,P|53:211|96:202,1,82.5,0|0,3:0|1:0,0:0:0:0:
250,262,1056,1,0,3:0:0:0:
250,262,1218,2,0,P|261:282|269:302,1,41.25,0|0,1:0|0:0,0:0:0:0:
350,299,1543,6,0,P|357:279|367:261,1,41.25,0|0,3:0|0:0,0:0:0:0:
428,205,1867,2,0,P|411:143|404:112,1,82.5,0|0,1:0|1:0,0:0:0:0:
350,65,2353,2,0,P|322:59|297:55,1,41.25,0|0,3:0|0:0,0:0:0:0:
231,28,2678,2,0,P|203:34|178:38,1,41.25,0|0,1:0|0:0,0:0:0:0:
117,86,3002,6,0,P|66:60|11:74,1,98.9999969787599,0|0,3:0|1:0,0:0:0:0:
139,267,3651,1,2,0:0:0:0:
214,179,3813,6,0,B|273:168|273:168|329:203|329:203|361:193|361:193|421:201,1,206.25,6|0,3:2|0:0,0:0:0:0:
428,205,4299,6,0,P|410:237|405:257,2,49.4999984893799,4|4|2,0:3|0:3|0:0,0:0:0:0:
428,205,5597,6,0,B|439:124|439:124|392:110,1,123.75,6|0,3:2|0:0,0:0:0:0:
321,99,5921,2,0,P|298:127|288:177,1,82.5,8|2,0:0|0:0,0:0:0:0:
287,327,6245,1,0,3:0:0:0:
192,202,6407,1,0,3:0:0:0:
341,250,6570,1,8,0:0:0:0:
181,303,6732,1,2,0:0:0:0:
181,303,6813,1,2,0:0:0:0:
181,303,6894,6,0,P|134:287|90:287,1,82.5,0|0,3:0|0:0,0:0:0:0:
32,145,7218,2,0,P|73:142|111:127,1,82.5,8|2,0:0|0:0,0:0:0:0:
232,26,7543,1,0,3:0:0:0:
76,7,7705,1,0,3:0:0:0:
209,132,7867,2,0,P|199:177|187:229,1,82.5,8|2,0:0|0:0,0:0:0:0:
154,364,8191,5,0,3:0:0:0:
92,220,8353,1,2,0:0:0:0:
241,309,8516,2,0,P|294:304|325:289,1,82.5,8|0,0:0|0:0,0:0:0:0:
378,146,8840,1,0,3:0:0:0:
459,291,9002,1,0,3:0:0:0:
459,291,9083,1,0,3:0:0:0:
459,291,9164,2,0,P|452:343|446:388,1,82.5,8|2,0:0|0:0,0:0:0:0:
241,309,9489,5,0,3:0:0:0:
366,166,9651,2,0,B|397:176|397:176|466:163,1,82.5,10|0,0:0|3:0,0:0:0:0:
247,33,9975,2,0,B|216:23|216:23|166:32,1,82.5,10|0,0:0|3:0,0:0:0:0:
42,187,10299,1,10,0:0:0:0:
42,187,10380,1,10,0:0:0:0:
42,187,10462,2,0,L|54:235,1,41.25,8|8,0:0|0:0,0:0:0:0:
157,291,10624,2,0,L|167:250,1,41.25,8|8,0:0|0:0,0:0:0:0:
258,169,10786,6,0,B|329:196|329:196|352:186|373:156,1,123.75,6|0,3:2|0:0,0:0:0:0:
440,143,11110,2,0,P|454:181|447:234,1,82.5,8|2,0:0|0:0,0:0:0:0:
377,361,11435,1,0,3:0:0:0:
310,219,11597,1,0,3:0:0:0:
464,313,11759,1,8,0:0:0:0:
283,346,11921,1,2,0:0:0:0:
283,346,12002,1,2,0:0:0:0:
283,346,12083,6,0,P|240:330|192:318,1,82.5,0|0,3:0|0:0,0:0:0:0:
39,245,12407,2,0,P|78:234|117:219,1,82.5,8|2,0:0|0:0,0:0:0:0:
198,84,12732,1,0,3:0:0:0:
48,130,12894,1,0,3:0:0:0:
222,179,13056,1,8,0:0:0:0:
303,39,13218,1,2,0:0:0:0:
303,39,13299,1,2,0:0:0:0:
303,39,13380,6,0,L|356:47,1,41.25,0|2,3:0|0:0,0:0:0:0:
429,124,13543,2,0,L|388:130,1,41.25,2|2,0:0|0:0,0:0:0:0:
324,216,13705,2,0,P|339:257|328:303,1,82.5,8|2,0:0|0:0,0:0:0:0:
283,355,13948,1,2,0:0:0:0:
283,355,14029,6,0,L|234:347,3,41.25,6|8|8|8,3:2|0:0|0:2|0:0,0:0:0:0:
175,306,14353,1,8,0:0:0:0:
138,312,14435,1,8,0:0:0:0:
101,318,14516,1,8,0:0:0:0:
65,324,14597,1,8,0:0:0:0:
28,330,14678,1,0,3:0:0:0:
3,174,14840,6,0,B|52:163|52:163|83:177,1,82.5,6|0,3:2|0:0,0:0:0:0:
270,118,15164,2,0,B|240:131|240:131|191:120,1,82.5,6|0,3:2|0:0,0:0:0:0:
365,24,15489,1,8,0:0:0:0:
326,184,15651,1,4,3:0:0:0:
272,29,15813,1,4,3:0:0:0:
415,125,15975,5,6,3:2:0:0:
217,280,25380,5,6,0:0:0:0:
303,212,25543,1,8,0:0:0:0:
303,212,25624,2,0,P|298:188|288:147,1,49.4999984893799,8|0,0:0|0:0,0:0:0:0:
285,140,25867,1,0,3:0:0:0:
402,194,26029,2,0,P|392:232|388:274,1,74.2499977340699,8|0,0:0|0:0,0:0:0:0:
390,300,26353,6,0,P|430:293|463:288,1,74.2499977340699,6|0,3:2|0:0,0:0:0:0:
288,372,26678,2,0,P|251:366|214:359,1,74.2499977340699,8|0,0:0|0:0,0:0:0:0:
98,338,27002,2,0,B|58:284|76:227|76:227|106:202,1,148.49999546814,0|2,3:0|0:0,0:0:0:0:
204,149,27489,1,8,0:0:0:0:
110,85,27651,5,2,0:0:0:0:
110,85,27813,2,0,P|63:94|28:101,1,74.2499977340699,0|8,3:0|0:0,0:0:0:0:
201,12,28137,2,0,P|237:19|273:26,1,74.2499977340699,2|0,0:0|3:0,0:0:0:0:
356,112,28462,1,0,3:0:0:0:
277,201,28624,2,0,P|288:251|300:314,1,111.374996601105,8|0,0:0|0:0,0:0:0:0:
305,339,28948,5,6,3:2:0:0:
420,365,29110,1,2,0:0:0:0:
490,269,29272,2,0,P|481:213|466:192,1,74.2499977340699,8|0,0:0|0:0,0:0:0:0:
374,130,29597,1,0,3:0:0:0:
277,201,29759,2,0,P|243:217|207:218,1,74.2499977340699,0|2,3:0|0:0,0:0:0:0:
94,180,30083,6,0,P|86:219|78:258,1,74.2499977340699,8|0,0:0|0:0,0:0:0:0:
2,125,30407,1,0,3:0:0:0:
107,68,30570,2,0,P|138:61|182:66,1,74.2499977340699,8|2,0:0|0:0,0:0:0:0:
288,113,30894,1,0,3:0:0:0:
246,1,31056,1,0,3:0:0:0:
203,154,31218,2,0,P|216:205|229:275,1,111.374996601105,8|0,0:0|0:0,0:0:0:0:
236,291,31543,6,0,P|272:293|315:278,1,74.2499977340699,6|0,3:2|0:0,0:0:0:0:
384,190,31867,2,0,P|348:178|311:180,1,74.2499977340699,8|0,0:0|0:0,0:0:0:0:
425,287,32191,1,2,0:0:0:0:
490,187,32353,2,0,P|482:149|462:118,1,74.2499977340699,0|0,3:0|0:0,0:0:0:0:
364,52,32678,1,8,0:0:0:0:
302,153,32840,6,0,P|258:146|223:142,1,74.2499977340699,2|0,0:0|3:0,0:0:0:0:
153,273,33164,2,0,P|189:268|226:262,1,74.2499977340699,8|0,0:0|0:0,0:0:0:0:
350,344,33489,1,0,3:0:0:0:
224,355,33651,1,0,3:0:0:0:
335,246,33813,1,8,0:0:0:0:
207,156,33975,6,0,P|148:156|122:170,1,74.2499977340699,2|0,0:0|3:0,0:0:0:0:
226,262,34299,1,0,3:0:0:0:
302,153,34462,2,0,P|289:97|284:68,1,74.2499977340699,10|0,0:0|3:0,0:0:0:0:
416,178,34786,1,10,0:0:0:0:
298,270,34948,2,0,P|248:271|213:252,1,74.2499977340699,0|0,3:0|3:0,0:0:0:0:
112,149,35272,6,0,B|97:195|97:195|115:243|115:243|95:293,1,148.49999546814,10|0,0:0|3:0,0:0:0:0:
207,156,35759,1,8,0:0:0:0:
57,79,35921,1,8,0:0:0:0:
57,79,36002,1,8,0:0:0:0:
57,79,36083,5,8,0:0:0:0:
200,41,36245,1,8,3:0:0:0:
112,149,36407,1,4,3:0:0:0:
200,41,36570,1,4,3:0:0:0:
216,199,36732,6,0,P|212:232|208:265,1,66,6|0,3:2|3:0,0:0:0:0:
113,295,37056,1,0,3:0:0:0:
43,224,37218,1,0,3:0:0:0:
115,121,37380,2,0,B|173:111|173:111|187:118|187:118|261:105,1,132,12|0,0:0|0:0,0:0:0:0:
339,81,37867,1,0,3:0:0:0:
309,209,38029,6,0,P|324:254|329:274,1,66,6|0,3:2|3:0,0:0:0:0:
355,366,38353,1,0,3:0:0:0:
422,292,38516,1,0,3:0:0:0:
263,337,38678,2,0,B|189:323|189:323|169:344|135:351,1,132,12|0,0:0|0:0,0:0:0:0:
47,315,39164,1,2,0:0:0:0:
119,203,39326,6,0,P|152:198|192:193,1,66,6|0,3:2|3:0,0:0:0:0:
259,128,39651,1,0,3:0:0:0:
161,110,39813,1,0,3:0:0:0:
279,224,39975,2,0,B|244:298|244:298|284:328,1,132,12|0,0:0|0:0,0:0:0:0:
368,380,40462,1,0,3:0:0:0:
433,273,40624,6,0,P|424:231|416:192,1,66,6|0,3:2|3:0,0:0:0:0:
362,127,40948,1,0,3:0:0:0:
295,200,41110,1,0,3:0:0:0:
202,96,41272,1,12,0:0:0:0:
172,99,41353,1,0,3:0:0:0:
143,103,41435,1,0,3:0:0:0:
113,106,41516,1,0,3:0:0:0:
84,110,41597,2,0,P|68:152|71:177,1,66,12|0,0:0|0:0,0:0:0:0:
136,273,41921,6,0,P|88:278|32:337,2,115.49999647522,6|0|0,3:2|3:2|3:0,0:0:0:0:
301,326,42894,1,0,3:0:0:0:
437,183,43218,6,0,P|434:129|425:101,1,66,0|2,3:0|0:0,0:0:0:0:
323,40,43543,2,0,P|316:72|317:105,1,66,0|2,3:0|0:0,0:0:0:0:
250,219,43867,1,0,3:0:0:0:
154,127,44029,1,2,0:0:0:0:
154,127,44110,1,2,0:0:0:0:
154,127,44191,2,0,P|105:109|39:170,1,123.75,0|0,3:0|0:0,0:0:0:0:
61,165,44516,5,2,0:0:0:0:
61,165,46462,5,8,0:0:0:0:
93,158,46543,1,0,3:0:0:0:
126,152,46624,1,0,3:0:0:0:
159,146,46705,1,0,3:0:0:0:
187,127,46786,5,4,3:0:0:0:
213,131,46867,1,4,3:0:0:0:
239,135,46948,1,4,3:0:0:0:
264,139,47029,1,4,3:0:0:0:
292,144,47110,6,0,B|308:117|308:117|291:47,1,82.5,6|0,3:2|3:0,0:0:0:0:
122,50,47435,1,0,3:0:0:0:
201,222,47597,1,8,0:0:0:0:
277,53,47759,1,0,3:0:0:0:
93,158,47921,5,8,0:0:0:0:
307,168,48083,1,8,0:0:0:0:
142,304,48245,1,10,0:0:0:0:
142,304,49543,6,0,B|237:331|237:331|268:319|283:293|273:254,1,181.500005538941,6|0,3:2|3:0,0:0:0:0:
120,125,50029,2,0,P|66:136|25:145,1,90.7500027694703,8|2,0:0|0:0,0:0:0:0:
194,45,50353,1,0,3:0:0:0:
183,218,50516,1,0,3:0:0:0:
366,101,50678,2,0,P|410:110|454:119,1,90.7500027694703,8|2,0:0|0:0,0:0:0:0:
351,279,51002,5,0,3:0:0:0:
246,131,51164,1,0,3:0:0:0:
202,337,51326,2,0,P|152:343|98:321,1,90.7500027694703,8|0,0:0|0:0,0:0:0:0:
42,153,51651,1,2,0:0:0:0:
211,226,51813,1,0,3:0:0:0:
8,273,51975,1,8,0:0:0:0:
187,120,52137,6,0,B|261:102|232:109|299:93|299:93|336:104|346:147,1,181.500005538941,6|0,3:2|3:0,0:0:0:0:
322,356,52624,2,0,P|269:347|216:340,1,90.7500027694703,8|2,0:0|0:0,0:0:0:0:
102,215,52948,1,0,3:0:0:0:
288,253,53110,1,0,3:0:0:0:
112,326,53272,2,0,P|64:329|18:309,1,90.7500027694703,8|2,0:0|0:0,0:0:0:0:
181,148,53597,5,0,3:0:0:0:
232,341,53759,1,0,3:0:0:0:
340,173,53921,2,0,B|356:142|356:142|337:68,1,90.7500027694703,8|2,0:0|0:0,0:0:0:0:
157,64,54245,1,0,3:0:0:0:
207,247,54407,1,0,3:0:0:0:
258,24,54570,1,8,0:0:0:0:
68,164,54732,6,0,B|79:212|97:262|97:262|71:302|23:285,1,181.500005538941,6|0,3:2|3:0,0:0:0:0:
44,69,55218,2,0,P|95:56|144:67,1,90.7500027694703,10|0,0:0|0:0,0:0:0:0:
267,197,55543,1,2,3:2:0:0:
95,165,55705,1,0,3:0:0:0:
256,10,55867,2,0,P|308:19|357:28,1,90.7500027694703,10|0,0:0|0:0,0:0:0:0:
246,177,56191,5,2,3:2:0:0:
146,25,56353,1,0,3:0:0:0:
354,116,56516,2,0,B|408:118|457:94|457:94|497:116|503:153,1,181.500005538941,10|2,0:0|0:2,0:0:0:0:
430,317,57002,1,0,3:0:0:0:
253,263,57164,2,0,P|237:218|250:171,1,90.7500027694703,10|0,0:0|0:0,0:0:0:0:
371,20,57489,5,6,3:2:0:0:
421,203,57651,1,0,3:0:0:0:
256,74,57813,1,8,0:0:0:0:
153,255,57975,2,0,B|104:253|50:273|50:273|12:253|12:210,1,181.500005538941,6|0,3:2|3:0,0:0:0:0:
144,54,58462,1,8,0:0:0:0:
302,216,58624,6,0,B|276:335|276:335|289:318|328:298,1,181.500005538941,6|0,3:2|3:0,0:0:0:0:
507,183,59110,1,10,0:0:0:0:
470,369,59272,1,0,3:0:0:0:
377,150,59435,1,10,0:0:0:0:
353,122,59516,1,8,0:0:0:0:
324,100,59597,1,8,0:0:0:0:
291,85,59678,1,8,0:0:0:0:
256,79,59759,1,8,0:0:0:0:
219,81,59840,1,8,0:0:0:0:
185,92,59921,6,0,B|217:155|217:155|166:273,1,181.500005538941,4|0,3:0|3:0,0:0:0:0:
100,289,60326,1,0,3:0:0:0:
100,289,60407,2,0,P|108:333|116:378,1,90.7500027694703,12|2,0:0|0:0,0:0:0:0:
276,257,60732,1,0,3:0:0:0:
85,199,60894,1,0,3:0:0:0:
247,357,61056,2,0,P|291:360|343:335,1,90.7500027694703,8|2,0:0|0:0,0:0:0:0:
465,192,61380,5,0,3:0:0:0:
276,257,61543,1,0,3:0:0:0:
375,73,61705,2,0,P|416:55|461:58,1,90.7500027694703,8|0,0:0|0:0,0:0:0:0:
367,224,62029,1,2,0:0:0:0:
268,50,62191,1,0,3:0:0:0:
464,163,62353,1,8,0:0:0:0:
240,210,62516,6,0,B|134:186|134:186|109:216|63:217,1,181.500005538941,6|0,3:2|3:0,0:0:0:0:
283,79,63002,1,8,0:0:0:0:
392,234,63164,2,0,P|402:294|381:343,1,90.7500027694703,2|0,0:0|0:0,0:0:0:0:
247,184,63489,1,0,3:0:0:0:
449,132,63651,1,8,0:0:0:0:
294,282,63813,6,0,B|230:294|230:294|199:328|199:328|128:344,1,181.500005538941,6|0,3:2|3:0,0:0:0:0:
196,107,64299,1,8,0:0:0:0:
317,266,64462,1,0,3:0:0:0:
437,106,64624,2,0,P|444:58|429:15,1,90.7500027694703,2|0,0:0|3:0,0:0:0:0:
276,176,64948,1,8,0:0:0:0:
467,231,65110,6,0,B|498:351|498:351|417:372,1,181.500005538941,6|0,3:2|3:0,0:0:0:0:
230,264,65597,2,0,B|257:252|257:252|333:269,1,90.7500027694703,12|0,0:0|0:0,0:0:0:0:
114,346,65921,1,2,3:2:0:0:
160,152,66083,1,0,3:0:0:0:
276,346,66245,1,8,0:0:0:0:
96,239,66407,6,0,P|42:248|-2:257,1,90.7500027694703,2|0,0:0|3:0,0:0:0:0:
61,61,66732,1,0,3:0:0:0:
246,174,66894,2,0,P|237:228|228:272,1,90.7500027694703,10|0,0:0|0:0,0:0:0:0:
179,51,67218,1,2,3:2:0:0:
348,155,67380,1,0,3:0:0:0:
129,158,67543,1,10,0:0:0:0:
317,32,67705,6,0,B|424:11|424:11|471:29|462:78,1,181.500005538941,6|0,3:2|3:0,0:0:0:0:
408,285,68191,1,10,0:0:0:0:
258,153,68353,1,0,3:0:0:0:
294,368,68516,5,10,0:0:0:0:
367,182,68678,1,0,3:0:0:0:
152,256,68840,1,10,0:0:0:0:
225,70,69002,1,0,3:0:0:0:
346,282,69164,5,8,0:0:0:0:
381,302,69245,1,8,0:0:0:0:
421,307,69326,1,8,0:0:0:0:
460,295,69407,1,8,0:0:0:0:
491,269,69489,2,0,L|483:211,1,45.3750013847352,0|0,3:0|3:0,0:0:0:0:
403,126,69651,5,0,3:0:0:0:
382,160,69732,1,0,3:0:0:0:
349,184,69813,1,0,3:0:0:0:
309,191,69894,1,0,3:0:0:0:
270,182,69975,1,0,3:0:0:0:
237,157,70056,1,0,3:0:0:0:
218,122,70137,6,0,B|162:117|162:117|152:111|152:111|86:104|86:104|112:91|135:75,1,185.625007081032,12|0,0:0|0:0,0:0:0:0:
207,22,70462,6,0,L|257:13,1,45.3750013847352,6|8,3:2|0:0,0:0:0:0:
356,69,70624,1,8,0:0:0:0:
356,69,70705,1,8,0:0:0:0:
356,69,70786,2,0,L|410:82,1,45.3750013847352,8|8,0:0|0:0,0:0:0:0:
504,109,70948,6,0,P|497:136|501:173,1,45.3750013847352,4|8,3:0|0:0,0:0:0:0:
424,234,71110,1,8,0:0:0:0:
424,234,71191,1,8,0:0:0:0:
424,234,71272,2,0,P|431:261|427:298,1,45.3750013847352,8|8,0:0|0:0,0:0:0:0:
345,351,71435,6,0,P|304:281|204:317,1,181.500005538941,4|2,3:0|3:2,0:0:0:0:
228,309,72083,5,2,3:2:0:0:
228,309,72407,5,2,3:2:0:0:
228,309,72732,5,2,3:2:0:0:
228,309,73056,6,0,L|217:255,1,41.25,6|0,3:2|0:0,0:0:0:0:
133,201,73218,1,8,0:0:0:0:
133,201,73299,1,8,0:0:0:0:
133,201,73380,2,0,L|144:147,1,41.25,8|8,0:2|0:0,0:0:0:0:
228,74,73543,6,0,L|239:128,1,41.25,4|8,3:0|0:0,0:0:0:0:
321,184,73705,1,8,0:0:0:0:
321,184,73786,1,8,0:0:0:0:
321,184,73867,2,0,L|310:238,1,41.25,8|8,0:0|0:0,0:0:0:0:
358,334,74029,2,0,P|419:355|485:309,1,123.75,4|0,3:0|0:0,0:0:0:0:
500,256,74353,6,0,P|494:215|486:168,1,82.5,8|0,0:0|3:0,0:0:0:0:
389,21,74753,2,0,P|382:61|376:102,1,82.5,4|0,3:0|3:0,0:0:0:0:
292,229,75153,5,0,3:0:0:0:
292,229,75253,1,0,3:0:0:0:
292,229,75353,1,0,3:0:0:0:
292,229,75453,1,0,3:0:0:0:
292,229,75553,2,0,B|215:209|215:209|170:238,1,123.75,14|0,0:2|0:0,0:0:0:0:
104,271,75953,6,0,P|61:228|-3:256,1,123.75,6|10,3:2|0:0,0:0:0:0:
10,264,76353,1,0,3:0:0:0:
102,127,76553,1,10,0:0:0:0:
241,215,76753,2,0,P|283:206|326:197,1,82.5,0|2,3:0|0:0,0:0:0:0:
335,183,77053,1,8,0:0:0:0:
335,183,77153,2,0,P|375:191|415:200,1,82.5,0|10,3:0|0:0,0:0:0:0:
503,59,77553,6,0,P|446:72|396:25,1,123.75,0|10,3:0|0:0,0:0:0:0:
411,16,77953,1,0,3:0:0:0:
333,161,78153,1,10,0:0:0:0:
226,34,78353,2,0,P|179:43|121:54,1,82.5,0|2,3:0|0:0,0:0:0:0:
136,70,78653,1,8,0:0:0:0:
136,70,78753,2,0,P|89:61|31:50,1,82.5,0|10,3:0|0:0,0:0:0:0:
11,213,79153,5,0,3:0:0:0:
179,183,79353,1,2,0:0:0:0:
179,183,79453,1,8,0:0:0:0:
179,183,79553,1,0,3:0:0:0:
101,328,79753,1,10,0:0:0:0:
269,298,79953,2,0,P|317:302|347:319,1,82.5,0|2,3:0|0:0,0:0:0:0:
366,334,80253,1,8,0:0:0:0:
366,334,80353,2,0,P|402:315|443:313,1,82.5,0|10,3:0|0:0,0:0:0:0:
506,160,80753,5,0,3:0:0:0:
355,216,80953,1,2,0:0:0:0:
355,216,81053,1,8,0:0:0:0:
355,216,81153,1,0,3:0:0:0:
405,58,81353,1,8,0:0:0:0:
254,114,81553,6,0,L|201:108,1,41.25,2|0,3:2|0:0,0:0:0:0:
101,101,81753,1,8,0:0:0:0:
95,133,81853,1,8,0:0:0:0:
89,166,81953,1,8,0:0:0:0:
83,198,82053,1,8,0:0:0:0:
77,231,82153,1,8,0:0:0:0:
71,263,82253,1,8,0:0:0:0:
65,296,82353,6,0,P|113:282|174:326,1,123.75,6|10,3:2|0:0,0:0:0:0:
161,338,82753,1,0,3:0:0:0:
248,198,82953,1,10,0:0:0:0:
95,133,83153,2,0,P|90:88|102:52,1,82.5,0|0,3:0|0:0,0:0:0:0:
118,41,83453,1,10,0:0:0:0:
118,41,83553,2,0,P|157:52|197:47,1,82.5,0|10,3:0|0:0,0:0:0:0:
358,9,83953,6,0,B|385:77|385:77|379:106|351:121,1,123.75,0|10,3:0|0:0,0:0:0:0:
336,114,84353,1,0,3:0:0:0:
191,192,84553,1,10,0:0:0:0:
335,271,84753,2,0,P|367:255|416:255,1,82.5,0|0,3:0|0:0,0:0:0:0:
431,243,85053,1,10,0:0:0:0:
431,243,85153,2,0,P|460:262|485:305,1,82.5,0|10,3:0|0:0,0:0:0:0:
330,362,85553,6,0,L|274:357,3,41.25,0|0|0|0,3:2|1:0|1:0|1:0,0:0:0:0:
224,305,85953,2,0,L|168:310,3,41.25,8|8|8|8,0:0|0:0|0:0|0:0,0:0:0:0:
99,313,86353,5,8,0:0:0:0:
74,292,86453,1,8,0:0:0:0:
56,264,86553,1,8,0:0:0:0:
46,233,86653,1,8,0:0:0:0:
45,200,86753,1,8,0:0:0:0:
52,168,86853,1,8,0:0:0:0:
68,139,86953,1,8,0:0:0:0:
91,116,87053,1,8,0:0:0:0:
119,99,87153,6,0,L|166:104,1,41.25,10|8,0:0|0:0,0:0:0:0:
203,180,87353,1,8,0:0:0:0:
203,180,87453,2,0,L|161:184,1,41.25,2|8,3:2|0:0,0:0:0:0:
114,253,87653,1,8,0:0:0:0:
114,253,87753,6,0,P|125:274|129:299,1,41.25,2|8,3:2|0:0,0:0:0:0:
206,333,87953,1,8,0:0:0:0:
206,333,88053,2,0,P|210:312|220:294,1,41.25,2|8,3:2|0:0,0:0:0:0:
298,265,88253,1,8,0:0:0:0:
298,265,88353,2,0,P|305:310|312:360,1,82.5,2|0,3:2|3:0,0:0:0:0:
435,228,88753,5,6,3:2:0:0:
43,159,93553,6,0,B|116:140|116:140|167:177,1,123.750004720688,4|0,3:2|0:0,0:0:0:0:
229,223,93853,1,8,0:0:0:0:
229,223,93953,2,0,L|217:287,1,61.875002360344,0|0,3:0|0:0,0:0:0:0:
274,349,94153,2,0,P|327:329|413:335,1,123.750004720688,8|4,0:0|0:3,0:0:0:0:
484,187,94553,5,0,3:0:0:0:
484,187,94619,1,0,3:0:0:0:
484,187,94686,1,0,3:0:0:0:
484,187,94753,2,0,B|503:71|503:71|473:94|436:88,1,185.625007081032,12|0,3:2|0:0,0:0:0:0:
364,65,95153,5,6,3:2:0:0:
263,151,95353,1,2,0:0:0:0:
263,151,95453,1,0,3:0:0:0:
263,151,95553,2,0,P|218:130|159:141,1,111.374996601105,8|8,0:0|0:0,0:0:0:0:
98,190,95953,1,2,0:0:0:0:
98,190,96053,2,0,P|108:229|114:267,1,74.2499977340699,0|0,3:0|3:0,0:0:0:0:
187,287,96353,2,0,P|193:250|202:214,1,74.2499977340699,8|2,0:0|0:0,0:0:0:0:
334,191,96753,5,0,3:0:0:0:
383,324,96953,1,2,0:0:0:0:
383,324,97053,1,0,3:0:0:0:
383,324,97153,2,0,P|437:334|488:301,1,111.374996601105,8|8,0:0|0:0,0:0:0:0:
510,235,97553,1,2,0:0:0:0:
510,235,97653,2,0,P|502:191|495:152,1,74.2499977340699,0|0,3:0|3:0,0:0:0:0:
419,148,97953,2,0,P|412:184|405:221,1,74.2499977340699,8|2,0:0|0:0,0:0:0:0:
286,283,98353,5,0,3:0:0:0:
180,219,98553,1,2,0:0:0:0:
180,219,98653,1,0,3:0:0:0:
180,219,98753,2,0,P|131:211|58:202,1,111.374996601105,8|8,0:0|0:0,0:0:0:0:
31,140,99153,1,2,0:0:0:0:
31,140,99253,2,0,P|64:122|112:117,1,74.2499977340699,0|0,3:0|3:0,0:0:0:0:
161,68,99553,2,0,P|194:86|242:91,1,74.2499977340699,8|2,0:0|0:0,0:0:0:0:
374,34,99953,6,0,P|356:95|346:151,1,111.374996601105,0|0,3:0|3:0,0:0:0:0:
285,190,100353,2,0,P|296:228|302:264,1,74.2499977340699,8|2,0:0|0:0,0:0:0:0:
171,348,100753,5,0,3:0:0:0:
141,363,100853,1,8,0:0:0:0:
108,368,100953,1,8,0:0:0:0:
75,362,101053,1,8,0:0:0:0:
46,345,101153,1,8,0:0:0:0:
24,321,101253,1,8,0:0:0:0:
10,290,101353,1,8,0:0:0:0:
8,257,101453,1,8,0:0:0:0:
15,225,101553,6,0,B|83:240|83:240|94:228|123:206,1,111.374996601105,6|0,3:2|0:0,0:0:0:0:
168,155,101953,2,0,P|178:111|165:78,1,74.2499977340699,8|0,0:0|0:0,0:0:0:0:
317,35,102353,2,0,B|385:20|385:20|396:32|425:54,1,111.374996601105,2|0,3:2|0:0,0:0:0:0:
479,94,102753,2,0,P|489:138|476:171,1,74.2499977340699,8|0,0:0|0:0,0:0:0:0:
349,250,103153,6,0,B|290:237|294:239|236:228,1,111.374996601105,2|0,3:2|0:0,0:0:0:0:
166,258,103553,2,0,P|178:300|185:335,1,74.2499977340699,8|0,0:0|0:0,0:0:0:0:
36,279,103953,1,0,3:0:0:0:
137,160,104153,5,0,3:0:0:0:
137,160,104219,1,0,3:0:0:0:
137,160,104286,1,0,3:0:0:0:
137,160,104353,2,0,B|166:143|201:147|201:147|216:123|216:123|247:129|290:109,1,160.874992635727,12|0,0:0|0:0,0:0:0:0:
295,36,104753,6,0,P|259:22|216:22,1,74.2499977340699,6|0,3:2|0:0,0:0:0:0:
69,41,105153,2,0,P|57:90|42:165,1,111.374996601105,8|0,0:0|0:0,0:0:0:0:
9,219,105553,2,0,P|16:251|26:301,1,74.2499977340699,2|0,3:2|0:0,0:0:0:0:
166,358,105953,2,0,P|208:320|265:327,1,111.374996601105,8|0,0:0|0:0,0:0:0:0:
335,345,106353,6,0,P|387:333|412:328,1,74.2499977340699,2|0,3:2|0:0,0:0:0:0:
494,199,106753,2,0,P|457:191|421:182,1,74.2499977340699,8|0,0:2|0:0,0:0:0:0:
267,154,107153,5,0,3:0:0:0:
237,170,107253,1,8,0:0:0:0:
205,177,107353,1,8,0:0:0:0:
172,173,107453,1,8,0:0:0:0:
141,160,107553,2,0,L|134:103,3,37.1249988670349,8|4|4|4,3:0|3:0|3:0|3:0,0:0:0:0:
44,87,107953,6,0,B|3:153|3:153|37:193,1,123.750004720688,12|0,3:2|0:0,0:0:0:0:
106,256,108253,2,0,B|159:252|159:252|179:265|179:265|240:258,1,123.750004720688,12|0,0:0|0:0,0:0:0:0:
323,249,108553,2,0,P|336:284|345:314,1,61.875002360344,12|0,0:0|0:0,0:0:0:0:
464,358,108753,6,0,B|488:304|490:257|490:257|471:221,1,123.750004720688,6|0,3:2|0:0,0:0:0:0:
434,153,109053,2,0,B|381:161|381:161|359:151|359:151|291:145,1,123.750004720688,6|0,3:2|0:0,0:0:0:0:
220,110,109353,2,0,P|211:74|203:43,1,61.875002360344,6|0,3:2|0:0,0:0:0:0:
81,7,109553,6,0,B|48:80|48:80|61:103|92:115,1,123.750004720688,12|0,3:2|0:0,0:0:0:0:
136,191,109853,2,0,B|89:199|89:199|55:191|55:191|2:202,1,123.750004720688,12|0,3:2|0:0,0:0:0:0:
8,298,110153,2,0,P|48:303|73:306,1,61.875002360344,12|0,3:2|0:0,0:0:0:0:
200,314,110353,6,0,B|238:319|238:319|214:218,1,123.750004720688,12|0,3:2|0:0,0:0:0:0:
291,169,110653,2,0,B|305:178|305:178|411:165,1,123.750004720688,12|0,3:2|0:0,0:0:0:0:
510,160,110953,2,0,P|498:195|491:226,1,61.875002360344,12|0,3:2|0:0,0:0:0:0:
447,347,111153,6,0,P|389:353|322:320,2,132,2|0|0,3:2|3:0|3:0,0:0:0:0:
510,160,112125,1,0,3:0:0:0:
420,191,112288,1,0,3:0:0:0:
420,191,112369,1,0,3:0:0:0:
420,191,112450,6,0,L|366:184,1,37.1249988670349,0|0,3:0|0:0,0:0:0:0:
317,142,112612,1,2,0:0:0:0:
317,142,112693,1,2,0:0:0:0:
317,142,112774,2,0,L|263:149,3,37.1249988670349,2|2|2|2,0:0|0:0|0:0|0:0,0:0:0:0:
207,194,113098,5,8,3:0:0:0:
174,189,113180,1,8,3:0:0:0:
142,184,113261,1,8,3:0:0:0:
109,179,113342,1,8,3:0:0:0:
76,174,113423,2,0,L|66:118,1,41.25,4|0,3:0|0:0,0:0:0:0:
173,46,113585,6,0,B|230:29|278:64|278:64|308:31|358:22,1,181.500005538941,6|0,3:2|3:0,0:0:0:0:
489,169,114071,2,0,P|500:222|488:263,1,90.7500027694703,8|2,0:0|0:0,0:0:0:0:
312,326,114396,1,0,3:0:0:0:
371,145,114558,1,0,3:0:0:0:
165,189,114720,2,0,P|119:181|62:171,1,90.7500027694703,8|2,0:0|0:0,0:0:0:0:
257,23,115044,5,0,3:0:0:0:
273,213,115207,1,0,3:0:0:0:
444,94,115369,2,0,P|455:54|439:5,1,90.7500027694703,8|0,0:0|0:0,0:0:0:0:
266,116,115693,1,2,0:0:0:0:
431,210,115855,1,0,3:0:0:0:
343,36,116017,1,8,0:0:0:0:
263,236,116180,6,0,B|203:242|154:216|154:216|123:224|93:262,1,181.500005538941,6|0,3:2|3:0,0:0:0:0:
282,371,116666,2,0,P|323:361|378:349,1,90.7500027694703,8|2,0:0|0:0,0:0:0:0:
261,141,116990,1,0,3:0:0:0:
203,323,117153,1,0,3:0:0:0:
66,165,117315,2,0,P|56:121|71:72,1,90.7500027694703,8|2,0:0|0:0,0:0:0:0:
249,21,117639,5,0,3:0:0:0:
171,195,117801,1,0,3:0:0:0:
369,131,117963,2,0,P|414:137|470:147,1,90.7500027694703,8|2,0:0|0:0,0:0:0:0:
281,257,118288,1,0,3:0:0:0:
179,95,118450,1,0,3:0:0:0:
174,312,118612,1,8,0:0:0:0:
398,215,118774,6,0,B|434:117|434:117|409:94|397:49,1,181.500005538941,6|0,3:2|3:0,0:0:0:0:
192,6,119261,2,0,P|145:14|96:22,1,90.7500027694703,10|0,0:0|0:0,0:0:0:0:
9,187,119585,1,2,3:2:0:0:
188,122,119747,1,0,3:0:0:0:
99,310,119909,2,0,P|54:302|9:295,1,90.7500027694703,10|0,0:0|0:0,0:0:0:0:
88,110,120234,5,2,3:2:0:0:
194,267,120396,1,0,3:0:0:0:
327,95,120558,2,0,B|383:100|435:125|435:125|470:112|480:61,1,181.500005538941,10|2,0:0|0:2,0:0:0:0:
281,1,121044,1,0,3:0:0:0:
307,209,121207,2,0,P|347:224|396:220,1,90.7500027694703,10|0,0:0|0:0,0:0:0:0:
210,88,121531,5,6,3:2:0:0:
229,277,121693,1,0,3:0:0:0:
362,119,121855,1,8,0:0:0:0:
145,184,122017,2,0,B|21:163|21:163|49:190|64:217,1,181.500005538941,6|0,3:2|3:0,0:0:0:0:
192,377,122504,1,8,0:0:0:0:
373,226,122666,6,0,B|471:200|471:200|517:224|500:269,1,181.500005538941,6|0,3:2|3:0,0:0:0:0:
289,314,123152,1,10,0:0:0:0:
330,126,123315,1,0,3:0:0:0:
137,204,123477,1,10,0:0:0:0:
106,213,123558,1,8,0:0:0:0:
75,211,123639,1,8,0:0:0:0:
46,199,123720,1,8,0:0:0:0:
23,177,123801,1,8,0:0:0:0:
9,149,123882,1,8,0:0:0:0:
6,117,123963,6,0,B|120:86|120:86|141:116|189:126,1,181.500005538941,4|0,3:0|3:0,0:0:0:0:
249,88,124369,1,0,3:0:0:0:
249,88,124450,2,0,B|266:63|266:63|248:-5,1,90.7500027694703,12|2,0:0|0:0,0:0:0:0:
137,204,124774,1,0,3:0:0:0:
323,163,124936,1,0,3:0:0:0:
226,327,125098,2,0,P|177:339|135:327,1,90.7500027694703,8|2,0:0|0:0,0:0:0:0:
171,121,125423,5,0,3:0:0:0:
299,261,125585,1,0,3:0:0:0:
408,105,125747,2,0,P|400:66|386:0,1,90.7500027694703,8|0,0:0|0:0,0:0:0:0:
237,193,126071,1,2,0:0:0:0:
427,213,126234,1,0,3:0:0:0:
270,61,126396,1,8,0:0:0:0:
123,222,126558,6,0,B|6:199|6:199|34:223|48:248,1,181.500005538941,6|0,3:2|3:0,0:0:0:0:
231,361,127044,1,8,0:0:0:0:
340,204,127207,2,0,P|348:162|323:111,1,90.7500027694703,2|0,0:0|0:0,0:0:0:0:
213,269,127531,1,0,3:0:0:0:
421,268,127693,1,8,0:0:0:0:
235,124,127855,6,0,B|192:116|161:133|161:133|132:120|132:120|96:133|39:115,1,181.500005538941,6|0,3:2|3:0,0:0:0:0:
269,29,128342,1,8,0:0:0:0:
311,214,128504,1,0,3:0:0:0:
465,102,128666,2,0,P|472:51|449:12,1,90.7500027694703,2|0,0:0|3:0,0:0:0:0:
265,124,128990,1,8,0:0:0:0:
450,238,129152,6,0,B|486:329|486:329|453:369|399:343,1,181.500005538941,6|0,3:2|3:0,0:0:0:0:
226,224,129639,2,0,B|255:206|255:206|331:217,1,90.7500027694703,12|0,0:0|0:0,0:0:0:0:
134,307,129963,1,2,3:2:0:0:
205,120,130125,1,0,3:0:0:0:
310,311,130288,1,8,0:0:0:0:
120,204,130450,6,0,P|73:211|29:220,1,90.7500027694703,2|0,0:0|3:0,0:0:0:0:
220,304,130774,1,0,3:0:0:0:
304,113,130936,2,0,P|296:69|280:12,1,90.7500027694703,10|0,0:0|0:0,0:0:0:0:
75,1,131261,1,8,3:0:0:0:
49,26,131342,1,8,3:0:0:0:
33,58,131423,1,8,3:0:0:0:
30,94,131504,1,8,3:0:0:0:
39,129,131585,2,0,P|66:123|96:118,1,45.3750013847352,8|0,0:0|0:0,0:0:0:0:
209,103,131747,6,0,B|189:210|189:210|212:235|259:224,1,181.500005538941,6|0,3:2|3:0,0:0:0:0:
469,172,132234,1,10,0:0:0:0:
357,337,132396,1,0,3:0:0:0:
322,122,132558,5,10,0:0:0:0:
443,280,132720,1,0,3:0:0:0:
503,70,132882,1,10,0:0:0:0:
348,222,133044,1,8,0:0:0:0:
348,222,133125,1,8,0:0:0:0:
348,222,133207,5,10,0:0:0:0:
294,29,133369,1,8,3:0:0:0:
175,166,133531,1,2,0:0:0:0:
349,116,133693,1,0,3:0:0:0:
152,22,133855,5,8,0:0:0:0:
94,241,134017,1,2,3:2:0:0:
94,241,134504,6,0,P|110:277|125:331,1,74.2499977340699,6|0,3:2|3:0,0:0:0:0:
239,370,134828,1,0,3:0:0:0:
223,237,134990,1,0,3:0:0:0:
342,297,135152,2,0,P|380:302|418:288,1,74.2499977340699,8|0,0:0|3:0,0:0:0:0:
506,193,135477,1,0,3:0:0:0:
407,103,135639,6,0,B|315:116|335:113|248:126,1,148.49999546814,0|0,3:0|3:0,0:0:0:0:
139,182,136125,1,0,3:0:0:0:
259,241,136288,1,0,3:0:0:0:
138,299,136450,2,0,P|77:294|49:275,1,74.2499977340699,8|0,0:0|3:0,0:0:0:0:
234,229,136774,1,0,3:0:0:0:
255,360,136936,1,0,3:0:0:0:
375,301,137098,6,0,P|368:262|360:215,1,74.2499977340699,0|0,3:0|3:0,0:0:0:0:
247,156,137423,2,0,P|240:192|234:229,1,74.2499977340699,0|0,3:0|3:0,0:0:0:0:
64,214,137747,2,0,P|102:201|146:192,1,74.2499977340699,8|0,0:0|3:0,0:0:0:0:
25,304,138071,1,0,3:0:0:0:
0,143,138234,6,0,P|15:71|35:0,1,148.49999546814,0|0,3:0|3:0,0:0:0:0:
141,80,138720,1,0,3:0:0:0:
25,147,138882,1,0,3:0:0:0:
138,217,139044,2,0,P|179:219|228:203,1,74.2499977340699,8|0,0:0|3:0,0:0:0:0:
335,160,139369,1,0,3:0:0:0:
284,283,139531,1,0,3:0:0:0:
240,110,139693,6,0,P|246:67|253:32,1,74.2499977340699,6|0,3:2|3:0,0:0:0:0:
382,9,140017,1,0,3:0:0:0:
337,135,140180,1,0,3:0:0:0:
467,108,140342,2,0,P|485:146|484:180,1,74.2499977340699,8|0,0:0|3:0,0:0:0:0:
408,287,140666,1,0,3:0:0:0:
290,224,140828,6,0,B|211:205|226:258|130:234,1,148.49999546814,0|0,3:0|3:0,0:0:0:0:
15,202,141315,1,0,3:0:0:0:
69,323,141477,1,0,3:0:0:0:
98,154,141639,2,0,P|94:114|88:67,1,74.2499977340699,8|0,0:0|3:0,0:0:0:0:
203,9,141963,1,0,3:0:0:0:
200,142,142125,1,0,3:0:0:0:
314,70,142288,6,0,P|362:71|399:91,1,74.2499977340699,0|0,3:0|3:0,0:0:0:0:
467,186,142612,1,0,3:0:0:0:
333,180,142774,1,0,3:0:0:0:
377,305,142936,2,0,P|418:296|456:291,1,74.2499977340699,8|0,0:0|3:0,0:0:0:0:
286,381,143261,1,0,3:0:0:0:
199,279,143423,6,0,P|206:206|216:126,1,148.49999546814,0|0,3:0|3:0,0:0:0:0:
99,64,143909,2,0,P|77:97|72:152,1,74.2499977340699,0|0,3:0|0:0,0:0:0:0:
100,293,144234,5,8,0:0:0:0:
133,288,144315,1,0,3:0:0:0:
166,284,144396,1,0,3:0:0:0:
199,279,144477,1,0,3:0:0:0:
229,265,144558,5,4,3:0:0:0:
255,269,144639,1,4,3:0:0:0:
280,274,144720,1,4,3:0:0:0:
306,278,144801,1,4,3:0:0:0:
331,283,144882,6,0,B|345:315|345:315|321:372,1,82.5,6|0,3:2|3:0,0:0:0:0:
206,179,145207,1,0,3:0:0:0:
394,198,145369,6,0,P|444:188|482:179,1,82.5,10|0,0:0|3:0,0:0:0:0:
314,79,145693,1,0,3:0:0:0:
306,278,145855,5,10,0:0:0:0:
119,242,146017,2,0,P|59:254|39:271,1,82.5,0|0,3:0|3:0,0:0:0:0:
206,364,146342,5,10,0:0:0:0:
229,192,146504,2,0,P|220:138|211:98,1,82.5,0|0,3:0|3:0,0:0:0:0:
15,167,146828,5,10,0:0:0:0:
141,258,146990,1,0,3:0:0:0:
103,55,147152,1,10,0:0:0:0:
256,192,147315,1,0,3:0:0:0:
409,17,147477,6,0,B|460:39|460:39|438:153,1,165,12|0,0:0|3:0,0:0:0:0:
314,278,147963,2,0,B|404:254|382:322|483:298,1,165,10|0,0:0|3:0,0:0:0:0:
358,98,148450,2,0,P|344:137|350:180,1,82.5,10|0,0:0|0:0,0:0:0:0:
222,307,148774,5,6,3:2:0:0:
185,302,148855,1,0,3:0:0:0:
148,297,148936,1,8,0:0:0:0:
111,292,149017,1,8,0:0:0:0:
74,288,149098,2,0,L|61:227,1,41.25,0|0,3:0|3:0,0:0:0:0:
52,156,149261,5,8,3:0:0:0:
74,126,149342,1,8,3:0:0:0:
105,107,149423,1,8,3:0:0:0:
141,100,149504,1,8,3:0:0:0:
178,107,149585,1,0,3:0:0:0:
209,127,149666,1,0,3:0:0:0:
231,156,149747,2,0,L|223:202,3,41.25,4|4|4|4,3:0|3:0|3:0|3:0,0:0:0:0:
210,286,150071,6,0,B|258:295|258:295|306:280,1,82.5,6|0,3:2|3:0,0:0:0:0:
456,232,150396,1,0,3:0:0:0:
318,90,150558,2,0,B|305:42|305:42|327:0,1,82.5,12|0,0:0|3:0,0:0:0:0:
468,143,150882,1,0,3:0:0:0:
273,178,151044,2,0,P|232:172|191:166,1,82.5,12|0,0:0|3:0,0:0:0:0:
49,267,151369,5,0,3:0:0:0:
234,336,151531,2,0,B|250:307|250:307|241:257,1,82.5,12|0,0:0|0:0,0:0:0:0:
220,86,151855,1,0,3:0:0:0:
141,294,152017,1,12,0:0:0:0:
80,113,152180,1,0,3:0:0:0:
290,163,152342,2,0,P|337:152|375:145,1,82.5,12|0,0:0|0:0,0:0:0:0:
493,289,152666,5,6,3:2:0:0:
458,311,152747,1,8,0:0:0:0:
418,320,152828,1,8,0:0:0:0:
378,312,152909,1,8,0:0:0:0:
343,291,152990,2,0,L|294:301,1,41.25,8|8,0:0|0:0,0:0:0:0:
164,328,153152,5,6,3:2:0:0:
141,294,153234,1,8,0:0:0:0:
133,253,153315,1,8,0:0:0:0:
140,213,153396,1,8,0:0:0:0:
161,178,153477,2,0,L|203:187,1,41.25,8|8,0:0|0:0,0:0:0:0:
357,140,153639,6,0,B|367:110|367:110|358:75,1,61.875002360344,6|0,3:2|0:0,0:0:0:0:
193,13,153801,2,0,B|183:43|183:43|190:72,1,61.875002360344,6|0,3:2|0:0,0:0:0:0:
190,72,154936,6,2,L|222:77,5,27.5
242,68,155261,6,0,B|226:127|209:164|209:164|246:192,1,148.49999546814,6|0,3:2|0:0,0:0:0:0:
318,224,155585,2,0,P|360:207|431:216,1,98.9999969787599,10|0,0:0|0:0,0:0:0:0:
232,331,155909,1,0,3:2:0:0:
314,129,156071,1,0,3:0:0:0:
483,281,156234,2,0,P|473:329|466:378,1,98.9999969787599,10|0,0:0|0:0,0:0:0:0:
229,306,156558,6,0,P|163:293|98:350,1,148.49999546814,0|0,3:2|0:0,0:0:0:0:
35,381,156882,2,0,P|13:332|26:276,1,98.9999969787599,10|0,0:0|0:0,0:0:0:0:
203,152,157207,1,0,3:0:0:0:
181,378,157369,1,0,3:0:0:0:
53,166,157531,2,0,P|60:114|69:67,1,98.9999969787599,10|0,0:0|0:0,0:0:0:0:
291,23,157855,6,0,B|385:48|385:48|398:24|425:9,1,148.49999546814,0|0,3:2|0:0,0:0:0:0:
456,83,158180,2,0,P|477:132|465:180,1,98.9999969787599,10|0,0:0|0:0,0:0:0:0:
325,352,158504,1,0,3:0:0:0:
229,145,158666,1,0,3:0:0:0:
408,285,158828,2,0,P|465:279|525:274,1,98.9999969787599,10|0,0:0|0:0,0:0:0:0:
323,123,159152,5,0,3:0:0:0:
211,334,159315,1,10,0:0:0:0:
107,153,159477,1,0,3:0:0:0:
323,249,159639,1,10,0:0:0:0:
90,295,159801,1,0,3:0:0:0:
199,62,159963,5,8,0:0:0:0:
238,55,160044,1,8,0:0:0:0:
277,49,160125,1,8,0:0:0:0:
316,43,160207,1,8,0:0:0:0:
355,37,160288,1,8,0:0:0:0:
394,31,160369,1,8,0:0:0:0:
433,25,160450,6,0,B|401:113|401:113|426:134|435:164,1,148.49999546814,6|0,3:2|0:0,0:0:0:0:
443,235,160774,2,0,P|397:254|342:244,1,98.9999969787599,10|0,0:0|0:0,0:0:0:0:
134,172,161098,1,0,3:0:0:0:
218,363,161261,1,0,3:0:0:0:
296,146,161423,2,0,P|286:94|276:44,1,98.9999969787599,10|0,0:0|0:0,0:0:0:0:
51,21,161747,6,0,P|12:80|48:157,1,148.49999546814,0|0,3:0|0:0,0:0:0:0:
89,206,162071,2,0,P|138:195|190:187,1,98.9999969787599,10|0,0:0|0:0,0:0:0:0:
378,83,162396,1,0,3:0:0:0:
161,59,162558,1,0,3:0:0:0:
326,234,162720,2,0,P|344:285|329:340,1,98.9999969787599,10|0,0:0|0:0,0:0:0:0:
86,320,163044,6,0,P|175:352|247:290,1,197.99999395752,0|10,3:0|0:0,0:0:0:0:
277,79,163531,1,2,0:0:0:0:
277,79,163612,1,2,0:0:0:0:
277,79,163693,1,0,3:0:0:0:
89,206,163855,1,0,3:0:0:0:
316,211,164017,2,0,P|375:200|423:192,1,98.9999969787599,10|0,0:0|0:0,0:0:0:0:
196,32,164342,5,6,3:2:0:0:
196,32,164450,2,8,P|155:37|119:58,1,65.9999979858399
191,149,164666,5,8,0:2:0:0:
191,149,164774,2,8,P|174:187|175:228,1,65.9999979858399
196,345,164990,5,8,3:0:0:0:
238,336,165098,1,8,3:0:0:0:
282,330,165207,1,8,3:0:0:0:
320,307,165315,5,4,3:0:0:0:
364,314,165423,1,4,3:0:0:0:
407,320,165531,1,4,3:0:0:0:
447,303,165639,5,6,3:2:0:0:
256,192,173423,12,2,175044,0:0:0:0:
256,192,175207,5,8,0:0:0:0:
256,192,175288,1,8,0:0:0:0:
256,192,175369,1,8,0:0:0:0:
231,270,175531,1,8,3:0:0:0:
175,208,175693,1,4,3:0:0:0:
150,286,175855,1,4,3:0:0:0:
94,224,176017,6,0,B|71:228|54:236|54:236|38:222|15:215,1,82.5,6|0,3:2|3:0,0:0:0:0:
7,142,176504,1,2,0:0:0:0:
7,142,176666,1,0,3:0:0:0:
50,77,176828,2,0,P|90:83|136:92,1,82.5,2|2,0:0|0:0,0:0:0:0:
208,108,177315,6,0,B|193:140|184:153|184:153|199:183,1,82.5,0|0,3:0|3:0,0:0:0:0:
241,246,177801,2,0,P|231:280|227:293,2,41.25,2|0|2,0:0|3:0|0:0,0:0:0:0:
308,203,178288,1,0,3:0:0:0:
357,264,178450,6,0,B|407:276|407:276|443:258,1,82.5,2|2,0:0|0:0,0:0:0:0:
489,206,178936,2,0,P|484:182|479:157,1,41.25,0|2,3:0|0:0,0:0:0:0:
413,124,179261,2,0,P|418:100|423:75,1,41.25,0|2,3:0|0:0,0:0:0:0:
360,33,179585,1,0,3:0:0:0:
360,33,179747,1,2,0:0:0:0:
302,86,179909,6,0,P|257:95|215:75,1,82.5,0|0,3:0|3:0,0:0:0:0:
160,34,180396,2,0,P|125:39|110:42,1,41.25,2|0,0:0|3:0,0:0:0:0:
98,115,180720,2,0,P|118:118|138:121,2,41.25,2|0|2,0:0|3:0|0:0,0:0:0:0:
52,237,181207,5,6,3:2:0:0:
52,237,181531,2,0,P|64:263|69:280,1,41.25,0|2,3:0|0:0,0:0:0:0:
128,324,181855,2,0,P|144:300|156:287,1,41.25,0|2,3:0|0:0,0:0:0:0:
166,213,182180,2,0,P|137:210|120:206,1,41.25,0|2,3:0|0:0,0:0:0:0:
228,264,182504,6,0,P|255:258|315:244,1,82.5,0|0,3:0|3:0,0:0:0:0:
342,174,182990,2,0,P|316:163|296:161,2,41.25,2|0|2,0:0|3:0|0:0,0:0:0:0:
406,227,183477,1,0,3:0:0:0:
406,227,183639,1,2,0:0:0:0:
470,182,183801,6,0,P|463:140|451:84,1,82.5,0|0,3:0|3:0,0:0:0:0:
379,76,184288,2,0,P|352:86|331:86,2,41.25,2|0|2,0:0|3:0|0:0,0:0:0:0:
340,7,184774,1,0,3:0:0:0:
270,43,184936,6,0,P|214:37|169:33,1,82.5,2|2,0:0|0:0,0:0:0:0:
128,86,185423,2,0,P|148:122|143:175,2,82.5,0|0|0,3:0|3:0|3:0,0:0:0:0:
61,43,186234,1,2,0:0:0:0:
8,101,186396,6,0,P|16:150|23:193,1,82.5,0|0,3:0|3:0,0:0:0:0:
91,217,186882,2,0,P|87:241|83:263,2,41.25,2|0|2,0:0|3:0|0:0,0:0:0:0:
147,162,187369,2,0,P|167:162|186:169,1,41.25,0|2,3:0|0:0,0:0:0:0:
312,233,187693,6,0,B|305:248|305:248|321:315,1,74.2499977340699,12|0,0:0|0:0,0:0:0:0:
346,330,187936,1,8,3:0:0:0:
346,330,188017,2,0,L|342:375,1,37.1249988670349,0|0,3:0|3:0,0:0:0:0:
426,285,188180,2,0,L|417:248,1,37.1249988670349,12|0,0:0|0:0,0:0:0:0:
380,180,188342,6,0,L|383:143,3,37.1249988670349,8|8|4|4,3:0|3:0|3:0|3:0,0:0:0:0:
383,61,188666,1,8,0:0:0:0:
346,69,188747,1,8,0:0:0:0:
310,77,188828,1,8,0:0:0:0:
274,85,188909,1,8,0:0:0:0:
238,93,188990,6,2,B|261:177|261:177|235:210|194:200,1,148.49999546814,6|2,3:2|0:1,0:1:0:0:
56,139,189477,1,6,3:2:0:0:
256,0,190125,5,6,3:2:0:0:
256,0,191585,5,6,3:2:0:0:
380,55,191747,1,8,0:0:0:0:
373,90,191828,1,8,0:0:0:0:
367,126,191909,1,8,0:0:0:0:
361,162,191990,1,8,0:0:0:0:
354,198,192071,1,8,0:0:0:0:
348,233,192152,1,8,0:0:0:0:
341,268,192234,6,0,L|354:346,1,61.875002360344,6|0,3:2|0:0,0:0:0:0:
440,369,192396,6,0,P|451:333|440:298,1,74.2499977340699,6|0,3:2|0:0,0:0:0:0:
424,282,192720,6,0,B|365:291|309:319|309:319|267:300|261:252,1,197.99999395752,6|0,3:2|3:0,0:0:0:0:
71,118,193207,2,0,P|60:166|52:223,1,98.9999969787599,8|2,0:0|0:0,0:0:0:0:
199,68,193531,1,0,3:0:0:0:
2,11,193693,1,0,3:0:0:0:
179,168,193855,2,0,P|228:180|286:160,1,98.9999969787599,8|2,0:0|0:0,0:0:0:0:
472,74,194180,5,0,3:0:0:0:
274,9,194342,1,0,3:0:0:0:
420,208,194504,2,0,P|407:259|394:317,1,98.9999969787599,8|2,0:0|0:0,0:0:0:0:
188,367,194828,1,0,3:0:0:0:
273,167,194990,1,0,3:0:0:0:
309,381,195152,1,8,0:0:0:0:
114,242,195315,6,0,B|73:119|73:119|148:91,1,197.99999395752,6|0,3:2|3:0,0:0:0:0:
302,251,195801,2,0,P|256:271|200:262,1,98.9999969787599,10|0,0:0|0:0,0:0:0:0:
396,155,196125,1,2,3:2:0:0:
328,363,196288,1,0,3:0:0:0:
241,160,196450,2,0,P|250:108|258:60,1,98.9999969787599,10|0,0:0|0:0,0:0:0:0:
400,252,196774,5,2,3:2:0:0:
184,284,196936,1,0,3:0:0:0:
380,134,197098,2,0,P|428:135|481:164,1,98.9999969787599,10|0,0:0|3:0,0:0:0:0:
310,301,197423,5,8,0:0:0:0:
274,319,197504,1,8,0:0:0:0:
235,324,197585,1,8,0:0:0:0:
197,313,197666,1,8,0:0:0:0:
164,293,197747,1,8,3:0:0:0:
126,281,197828,1,8,3:0:0:0:
87,283,197909,1,8,3:0:0:0:
50,298,197990,1,8,3:0:0:0:
14,315,198071,6,0,L|3:253,1,49.4999984893799,6|0,3:2|0:0,0:0:0:0:
103,144,198234,1,0,3:0:0:0:
103,144,198315,1,8,3:0:0:0:
103,144,198396,2,0,L|91:206,1,49.4999984893799,4|0,3:0|3:0,0:0:0:0:
239,194,198558,6,0,L|228:132,1,49.4999984893799,6|0,3:2|0:0,0:0:0:0:
328,23,198720,1,0,3:0:0:0:
328,23,198801,1,0,3:0:0:0:
328,23,198882,2,0,L|316:85,1,49.4999984893799,0|0,3:0|3:0,0:0:0:0:
372,246,199044,6,0,P|392:241|439:236,1,49.4999984893799,12|0,0:2|0:0,0:0:0:0:
287,365,199207,2,0,B|223:336|163:327|163:327|136:358|87:369,1,197.99999395752,2|8,3:2|0:0,0:0:0:0:
25,315,199612,1,8,0:0:0:0:
25,315,199693,2,0,L|14:250,3,49.4999984893799,8|8|0|0,0:0|0:0|3:0|3:0,0:0:0:0:
0,173,200017,5,8,0:0:0:0:
25,142,200098,1,8,0:0:0:0:
58,120,200180,1,8,0:0:0:0:
96,110,200261,1,8,0:0:0:0:
135,111,200342,1,8,0:0:0:0:
172,124,200423,1,8,0:0:0:0:
204,148,200504,6,0,B|273:141|330:121|330:121|360:133|372:164|359:193,1,206.25,6|0,3:2|3:0,0:0:0:0:
138,348,200990,1,10,0:0:0:0:
96,110,201152,1,0,3:0:0:0:
302,266,201315,5,10,0:0:0:0:
347,33,201477,1,0,3:0:0:0:
152,246,201639,1,10,0:0:0:0:
107,18,201801,1,0,3:0:0:0:
356,141,201963,5,10,0:0:0:0:
227,339,202125,1,0,3:0:0:0:
476,268,202288,1,10,0:0:0:0:
233,180,202450,1,0,3:0:0:0:
486,133,202612,5,10,0:0:0:0:
361,334,202774,1,0,3:0:0:0:
284,88,202936,1,10,0:0:0:0:
142,303,203098,2,0,B|74:313|74:313|27:291,1,103.125,6|0,3:2|0:0,0:0:0:0:
10,62,203423,5,8,0:0:0:0:
50,68,203504,1,8,0:0:0:0:
91,74,203585,1,8,0:0:0:0:
132,80,203666,1,8,0:0:0:0:
173,86,203747,1,8,0:0:0:0:
213,93,203828,1,8,0:0:0:0:
254,99,203909,1,8,0:0:0:0:
295,105,203990,1,8,0:0:0:0:
336,111,204071,2,0,L|322:166,3,51.5625,8|8|4|4,3:0|3:0|3:0|3:0,0:0:0:0:
249,226,204396,6,0,B|234:257|234:257|255:335,1,103.125,6|0,3:2|0:0,0:0:0:0:
487,352,204720,1,8,0:0:0:0:
480,311,204801,1,8,0:0:0:0:
471,271,204882,1,8,0:0:0:0:
464,230,204963,1,8,0:0:0:0:
455,190,205044,1,8,0:0:0:0:
447,150,205125,1,8,0:0:0:0:
439,109,205207,6,0,L|450:36,3,51.5625,8|8|8|8,3:0|3:0|3:0|3:0,0:0:0:0:
336,111,205531,2,0,L|343:161,1,51.5625,4|4,3:0|3:0,0:0:0:0:
357,284,205693,6,0,B|312:263|268:275|268:275|247:295|247:295|202:306|146:281,1,206.25,2|0,3:2|3:0,0:0:0:0:
23,75,206180,2,0,B|93:60|93:60|143:76,1,103.125,12|0,0:0|0:0,0:0:0:0:
340,136,206504,1,2,3:2:0:0:
120,194,206666,1,0,3:0:0:0:
289,14,206828,1,8,0:0:0:0:
248,236,206990,6,0,P|256:286|267:348,1,103.125,2|0,0:0|3:0,0:0:0:0:
437,188,207315,1,0,3:0:0:0:
212,85,207477,2,0,P|156:79|103:107,1,103.125,10|0,0:0|0:0,0:0:0:0:
41,312,207801,1,2,0:0:0:0:
243,211,207963,1,0,3:0:0:0:
0,180,208125,1,10,0:0:0:0:
173,358,208288,6,0,B|245:340|245:340|301:364|301:364|379:342,1,206.25,6|0,3:2|3:0,0:0:0:0:
294,87,208774,1,10,0:0:0:0:
138,264,208936,1,0,3:0:0:0:
389,209,209098,5,10,0:0:0:0:
164,129,209261,1,0,3:0:0:0:
272,351,209423,1,10,0:0:0:0:
296,115,209585,1,0,3:0:0:0:
53,164,209747,5,8,0:0:0:0:
26,195,209828,1,8,0:0:0:0:
13,235,209909,1,0,3:0:0:0:
14,276,209990,1,0,3:0:0:0:
30,313,210071,2,0,L|86:305,1,51.5625,0|0,3:0|3:0,0:0:0:0:
205,288,210234,5,8,0:0:0:0:
236,262,210315,1,8,0:0:0:0:
276,252,210396,1,8,0:0:0:0:
316,261,210477,1,8,0:0:0:0:
348,286,210558,1,0,3:0:0:0:
379,312,210639,1,0,3:0:0:0:
419,322,210720,2,0,P|447:318|474:309,1,51.5625,8|8,0:0|0:0,0:0:0:0:
499,191,210882,2,0,P|474:183|448:180,1,51.5625,8|8,0:0|0:0,0:0:0:0:
323,170,211044,6,2,B|301:126|301:126|310:79|310:79|279:49|271:7|271:7|246:40|214:45,1,247.4999924469,2|0,0:0|0:0,0:0:0:0:
217,45,213639,6,0,B|200:77|200:77|224:149,1,98.9999969787599,6|0,3:2|0:0,0:0:0:0:
108,334,213963,2,0,P|115:284|126:229,1,98.9999969787599,8|0,0:0|0:0,0:0:0:0:
323,174,214288,1,0,3:2:0:0:
211,341,214450,1,0,3:0:0:0:
105,132,214612,1,8,0:0:0:0:
286,269,214774,6,0,P|337:275|396:245,2,98.9999969787599,2|0|0,0:0|3:0|0:0,0:0:0:0:
217,45,215261,2,0,P|276:37|323:32,1,98.9999969787599,8|0,0:0|0:0,0:0:0:0:
447,192,215585,1,0,3:0:0:0:
243,151,215747,1,0,3:0:0:0:
436,30,215909,1,8,0:0:0:0:
323,249,216071,6,0,B|249:258|249:258|215:295|215:295|125:306,1,197.99999395752,6|0,3:2|3:0,0:0:0:0:
19,109,216558,2,0,P|67:103|113:121,1,98.9999969787599,8|0,0:0|0:0,0:0:0:0:
314,227,216882,1,0,3:0:0:0:
230,36,217044,1,0,3:0:0:0:
113,217,217207,2,0,P|67:234|18:228,1,98.9999969787599,8|0,0:0|0:0,0:0:0:0:
222,126,217531,5,0,3:0:0:0:
261,319,217693,1,0,3:0:0:0:
422,173,217855,2,0,P|410:112|398:56,1,98.9999969787599,8|0,0:0|0:0,0:0:0:0:
215,6,218180,1,0,3:0:0:0:
238,222,218342,2,0,P|290:227|346:200,1,98.9999969787599,0|8,3:0|0:0,0:0:0:0:
115,143,218666,6,0,B|93:206|75:254|75:254|107:284|110:337,1,197.99999395752,6|0,3:2|3:0,0:0:0:0:
45,75,219152,2,0,P|90:50|157:55,1,98.9999969787599,8|0,0:0|0:0,0:0:0:0:
283,210,219477,1,0,3:0:0:0:
75,254,219639,1,0,3:0:0:0:
251,94,219801,2,0,P|307:87|360:82,1,98.9999969787599,8|0,0:0|0:0,0:0:0:0:
471,262,220125,5,0,3:0:0:0:
257,213,220288,1,0,3:0:0:0:
463,117,220450,2,0,P|467:63|448:19,1,98.9999969787599,8|0,0:0|0:0,0:0:0:0:
251,94,220774,1,0,3:0:0:0:
364,268,220936,1,0,3:0:0:0:
139,232,221098,2,0,P|59:250|12:189,1,148.49999546814,12|0,0:0|0:0,0:0:0:0:
5,180,221423,5,6,3:2:0:0:
86,360,221585,1,0,3:0:0:0:
170,138,221747,1,8,0:0:0:0:
306,332,221909,2,0,B|422:302|422:302|450:338|498:346,1,197.99999395752,6|0,3:2|3:0,0:0:0:0:
402,152,222396,1,8,0:0:0:0:
199,276,222558,6,0,B|154:319|154:319|-1:275,1,197.99999395752,6|0,3:2|3:0,0:0:0:0:
198,149,223044,1,8,0:0:0:0:
309,361,223207,1,4,3:2:0:0:
491,242,223369,1,8,0:0:0:0:
485,203,223450,1,8,0:0:0:0:
479,164,223531,1,8,0:0:0:0:
473,125,223612,1,8,3:0:0:0:
467,86,223693,1,8,3:0:0:0:
461,47,223774,1,8,3:0:0:0:
455,8,223855,6,0,B|393:53|335:8|335:8|316:51|266:66,1,197.99999395752,4|0,3:0|3:0,0:0:0:0:
208,52,224261,1,0,3:0:0:0:
208,52,224342,2,0,B|186:88|186:88|212:166,1,98.9999969787599,12|0,0:0|0:0,0:0:0:0:
261,351,224666,1,2,3:2:0:0:
326,143,224828,1,0,3:0:0:0:
125,270,224990,1,8,0:0:0:0:
362,264,225152,6,0,P|408:262|463:280,1,98.9999969787599,2|0,0:0|3:0,0:0:0:0:
238,372,225477,1,0,3:0:0:0:
299,142,225639,2,0,B|355:137|355:137|401:117|401:117|441:155|494:149,1,197.99999395752,10|0,0:0|3:0,0:0:0:0:
283,21,226125,1,0,3:0:0:0:
223,242,226288,1,10,0:0:0:0:
76,42,226450,6,0,B|12:68|12:68|52:201,1,197.99999395752,6|0,3:2|3:0,0:0:0:0:
202,339,226936,2,0,P|212:292|225:235,1,98.9999969787599,10|0,0:0|0:0,0:0:0:0:
383,92,227261,1,0,3:0:0:0:
357,310,227423,1,0,3:0:0:0:
225,101,227585,2,0,P|166:109|130:134,1,98.9999969787599,10|0,0:0|0:0,0:0:0:0:
202,339,227909,5,10,0:0:0:0:
240,331,227990,1,0,3:0:0:0:
279,324,228071,1,0,3:0:0:0:
318,317,228152,1,0,3:0:0:0:
357,310,228234,2,0,L|415:318,1,49.4999984893799,8|0,0:0|0:0,0:0:0:0:
498,234,228396,2,0,P|508:184|479:127,1,98.9999969787599,10|0,0:0|0:0,0:0:0:0:
320,5,228720,1,0,3:0:0:0:
346,220,228882,1,10,0:0:0:0:
134,130,229044,6,0,B|88:102|24:113|0:158|0:158|56:175,1,197.99999395752,6|0,3:2|3:0,0:0:0:0:
252,235,229531,2,0,P|298:240|352:214,1,98.9999969787599,10|0,0:0|0:0,0:0:0:0:
447,27,229855,1,0,3:0:0:0:
249,118,230017,1,0,3:0:0:0:
458,180,230180,2,0,P|448:247|443:283,1,98.9999969787599,10|0,0:0|0:0,0:0:0:0:
230,322,230504,5,2,0:0:0:0:
336,131,230666,1,0,3:0:0:0:
105,219,230828,1,10,0:0:0:0:
211,28,230990,1,0,3:0:0:0:
333,245,231152,5,8,3:0:0:0:
373,239,231234,1,8,3:0:0:0:
412,234,231315,1,8,3:0:0:0:
451,229,231396,1,8,3:0:0:0:
490,223,231477,2,0,P|502:162|482:122,1,98.9999969787599,10|0,0:0|3:0,0:0:0:0:
236,39,231801,5,12,0:0:0:0:
333,245,231963,1,0,3:0:0:0:
395,26,232125,1,0,3:0:0:0:
191,201,232288,5,12,0:0:0:0:
404,157,232450,1,0,3:0:0:0:
266,338,232612,1,0,3:0:0:0:
134,105,232774,6,0,B|1:84|1:84|50:140,1,197.99999395752,12|0,0:0|3:0,0:0:0:0:
304,252,233261,2,0,B|321:179|321:179|299:134|299:134|321:53,1,197.99999395752,12|0,0:0|3:0,0:0:0:0:
390,341,233747,5,10,0:0:0:0:
197,202,233909,1,10,0:0:0:0:
432,173,234071,1,10,0:0:0:0:
239,350,234234,5,6,3:2:0:0:
239,350,235693,5,2,3:2:0:0:
239,350,235801,2,0,P|253:307|245:275,1,60.5000018463135,8|8,0:0|0:0,0:0:0:0:
338,236,236017,5,8,3:0:0:0:
338,236,236125,2,0,P|307:202|276:193,1,60.5000018463135,8|8,3:0|3:0,0:0:0:0:
173,238,236342,5,4,3:0:0:0:
131,245,236450,1,4,3:0:0:0:
89,252,236558,1,4,3:0:0:0:
47,259,236666,2,0,P|40:230|39:205,1,45.3750013847352,8|0,0:0|0:0,0:0:0:0:
158,144,236828,6,0,B|136:215|136:215|205:177|205:177|274:213|274:213|253:142|253:142|304:96|304:96|234:87|234:87|206:26|206:26|174:89|174:89|100:86|100:86|135:119,1,701.25,6|0,3:2|0:0,0:0:0:0:
