osu file format v14

[General]
AudioFilename: audio.mp3
AudioLeadIn: 0
PreviewTime: 175693
Countdown: 0
SampleSet: Soft
StackLeniency: 0.7
Mode: 0
LetterboxInBreaks: 0
WidescreenStoryboard: 1

[Editor]
Bookmarks: 408,5597,15975,26353,36732,41921,47110,49543,59921,71759,75953,88753,95153,107953,111153,113585,123963,134504,144882,155261,165639,173423,173747,174071,174396,174720,175044,175369,175693,176017,187693,192720,200504,213639,223855,236828,239585
DistanceSpacing: 1
BeatDivisor: 4
GridSize: 32
TimelineZoom: 1.3

[Metadata]
Title:STARRY SKY
TitleUnicode:STARRY SKY
Artist:PassCode
ArtistUnicode:PassCode
Creator:Akitoshi
Version:Easy
Source:隕石家族
Tags:Corinn -Laura- Inseki Kazoku Tokai Toukai TV Television Drama Japanese Pop Rock 高嶋楓 Takashima Kaede 南菜生 Minami Nao 今田夢菜 Imada Yuna 大上陽奈子 Oogami Hinako
BeatmapID:2503288
BeatmapSetID:1199549

[Difficulty]
HPDrainRate:2
CircleSize:2.8
OverallDifficulty:2
ApproachRate:4
SliderMultiplier:0.849999999999999
SliderTickRate:1

[Events]
//Background and Video events
0,0,"000000.jpg",0,0
//Break Periods
2,16175,25033
2,88953,92233
2,165839,174697
//Storyboard Layer 0 (Background)
//Storyboard Layer 1 (Fail)
//Storyboard Layer 2 (Pass)
//Storyboard Layer 3 (Foreground)
//Storyboard Layer 4 (Overlay)
//Storyboard Sound Samples

[TimingPoints]
408,324.324324324324,4,2,5,40,1,0
408,-100,4,2,5,40,0,0
3002,-100,4,2,5,40,0,0
3651,-100,4,2,5,60,0,0
4218,-100,4,2,5,5,0,0
4299,-100,4,2,5,40,0,0
5597,-100,4,2,5,70,0,0
11029,-100,4,2,5,5,0,0
11110,-100,4,2,5,70,0,0
15975,-100,4,2,5,70,0,0
25380,-100,4,2,5,50,0,0
26272,-100,4,2,5,5,0,0
26353,-100,4,2,5,60,0,0
28867,-100,4,2,5,5,0,0
28948,-100,4,2,5,60,0,0
31462,-100,4,2,5,5,0,0
31543,-100,4,2,5,60,0,0
36732,-100,4,2,5,60,0,0
41921,-100,4,2,5,60,0,0
43218,-100,4,2,5,60,0,0
44191,-100,4,2,5,60,0,0
44435,-100,4,2,5,5,0,0
44516,-100,4,2,5,40,0,0
46462,-100,4,2,5,70,0,0
47110,-100,4,2,5,70,0,0
49543,-100,4,2,5,80,0,0
70137,-100,4,2,5,80,0,0
70380,-100,4,2,5,5,0,0
70462,-100,4,2,5,80,0,0
71759,-100,4,2,5,80,0,0
73056,-100,4,2,5,80,0,0
74272,-100,4,2,5,5,0,0
74353,400,4,2,5,70,1,0
75853,-100,4,2,5,5,0,0
75953,-100,4,2,5,70,0,0
88753,-100,4,2,5,60,0,0
93553,-100,4,2,5,60,0,0
93753,-100,4,2,5,5,0,0
93853,-100,4,2,5,60,0,0
94053,-100,4,2,5,5,0,0
94153,-100,4,2,5,60,0,0
95153,-100,4,2,5,70,0,0
101853,-100,4,2,5,5,0,0
101953,-100,4,2,5,70,0,0
102653,-100,4,2,5,5,0,0
102753,-100,4,2,5,70,0,0
103453,-100,4,2,5,5,0,0
103553,-100,4,2,5,70,0,0
104353,-100,4,2,5,70,0,0
104653,-100,4,2,5,5,0,0
104753,-100,4,2,5,70,0,0
105453,-100,4,2,5,5,0,0
105553,-100,4,2,5,70,0,0
106253,-100,4,2,5,5,0,0
106353,-100,4,2,5,70,0,0
107953,-100,4,2,5,70,0,0
108153,-100,4,2,5,5,0,0
108253,-100,4,2,5,70,0,0
108453,-100,4,2,5,5,0,0
108553,-100,4,2,5,70,0,0
108653,-100,4,2,5,5,0,0
108753,-100,4,2,5,70,0,0
108953,-100,4,2,5,5,0,0
109053,-100,4,2,5,70,0,0
109253,-100,4,2,5,5,0,0
109353,-100,4,2,5,70,0,0
109453,-100,4,2,5,5,0,0
109553,-100,4,2,5,70,0,0
109753,-100,4,2,5,5,0,0
109853,-100,4,2,5,70,0,0
110053,-100,4,2,5,5,0,0
110153,-100,4,2,5,70,0,0
110253,-100,4,2,5,5,0,0
110353,-100,4,2,5,70,0,0
110553,-100,4,2,5,5,0,0
110653,-100,4,2,5,70,0,0
110853,-100,4,2,5,5,0,0
110953,-100,4,2,5,70,0,0
111053,-100,4,2,5,5,0,0
111153,324.324324324324,4,2,5,60,1,0
111153,-100,4,2,5,60,0,0
112450,-100,4,2,5,60,0,0
113098,-100,4,2,5,70,0,0
113585,-100,4,2,5,80,0,0
134504,-100,4,2,5,70,0,0
144882,-100,4,2,5,70,0,0
153639,-100,4,2,5,70,0,0
154125,-100,4,2,5,70,0,0
154936,-100,4,2,5,40,0,0
155098,-100,4,2,5,60,0,0
155261,-100,4,2,5,80,0,1
155504,-100,4,2,5,5,0,1
155585,-100,4,2,5,80,0,1
156801,-100,4,2,5,5,0,1
156882,-100,4,2,5,80,0,1
158098,-100,4,2,5,5,0,1
158180,-100,4,2,5,80,0,1
160693,-100,4,2,5,5,0,1
160774,-100,4,2,5,80,0,1
161990,-100,4,2,5,5,0,1
162071,-100,4,2,5,80,0,1
165639,-100,4,2,5,60,0,0
187693,-100,4,2,5,70,0,0
190125,-100,4,2,5,70,0,0
191585,-100,4,2,5,70,0,0
192234,-100,4,2,5,70,0,0
192315,-100,4,2,5,5,0,0
192396,-100,4,2,5,70,0,0
192639,-100,4,2,5,5,0,0
192720,-100,4,2,5,85,0,1
200504,-100,4,2,5,85,0,1
211044,-142.857142857143,4,2,2,50,0,0
212666,-100,4,2,5,5,0,0
213639,-100,4,2,5,80,0,1
221342,-100,4,2,5,5,0,1
221423,-100,4,2,5,80,0,1
234234,-100,4,2,5,60,0,0
235693,-100,4,2,5,70,0,0
236828,-100,4,2,5,70,0,0
236990,-100,4,2,2,50,0,0
239585,-100,4,2,2,5,0,0

[Colours]
Combo1 : 21,234,154
Combo2 : 0,255,255
Combo3 : 159,159,208
Combo4 : 255,255,26

[HitObjects]
200,65,3813,6,0,B|184:106|184:106|201:143|201:143|182:192,1,127.5,6|4,3:2|0:3,0:0:0:0:
185,182,5597,6,0,B|255:167|255:167|279:139|279:139|354:124,1,170,6|0,3:2|3:0,0:0:0:0:
422,109,6570,1,8,0:0:0:0:
489,161,6894,2,0,P|500:203|489:249,1,84.9999999999999,0|8,3:0|0:0,0:0:0:0:
431,302,7543,2,0,P|389:313|343:302,1,84.9999999999999,0|8,3:0|0:0,0:0:0:0:
266,282,8191,6,0,B|170:301|181:299|94:317,1,170,0|0,3:0|3:0,0:0:0:0:
25,273,9164,1,8,0:0:0:0:
48,191,9489,2,0,P|35:131|66:63,2,127.5,0|10|8,3:0|0:0|0:0,0:0:0:0:
129,216,10786,6,0,B|194:200|194:200|219:177|219:177|288:162,1,170,6|0,3:2|3:0,0:0:0:0:
369,145,11759,1,8,0:0:0:0:
434,199,12083,2,0,P|409:258|422:327,2,127.5,0|2|8,3:0|0:0|0:0,0:0:0:0:
481,127,13380,5,0,3:0:0:0:
452,46,13705,1,8,0:0:0:0:
372,15,14029,2,0,P|334:34|292:38,1,84.9999999999999,6|8,3:2|0:0,0:0:0:0:
186,109,14840,2,0,P|197:152|209:206,1,84.9999999999999,6|6,3:2|3:2,0:0:0:0:
139,245,15489,2,0,P|75:214|10:240,1,127.5,8|6,0:0|3:2,0:0:0:0:
396,295,26353,6,0,P|311:304|227:313,1,170,6|0,3:2|3:0,0:0:0:0:
71,244,27651,2,0,P|48:188|73:121,2,127.5,2|2|8,0:0|0:0|0:0,0:0:0:0:
154,261,28948,6,0,P|157:218|163:170,1,84.9999999999999,6|8,3:2|0:0,0:0:0:0:
239,141,29597,2,0,P|295:162|357:135,2,127.5,0|8|8,3:0|0:0|0:0,0:0:0:0:
178,80,30894,1,0,3:0:0:0:
93,80,31218,1,8,0:0:0:0:
32,140,31543,6,0,B|57:245|57:245|39:268|27:306,2,170,6|2|2,3:2|0:0|0:0,0:0:0:0:
93,80,33164,1,8,0:0:0:0:
166,122,33489,2,0,P|162:191|183:254,2,127.5,0|2|10,3:0|0:0|0:0,0:0:0:0:
247,97,34786,6,0,B|281:118|305:124|305:124|332:115|375:111,2,127.5,10|10|8,0:0|0:0|0:0,0:0:0:0:
192,31,36083,1,8,0:0:0:0:
108,17,36407,1,4,3:0:0:0:
37,64,36732,6,0,B|52:123|52:123|32:164|32:164|49:225,1,170,6|12,3:2|0:0,0:0:0:0:
170,344,38029,2,0,B|185:285|185:285|165:244|165:244|182:183,1,170,6|12,3:2|0:0,0:0:0:0:
292,53,39326,6,0,B|357:37|412:46|412:46|458:84,1,170,6|12,3:2|0:0,0:0:0:0:
506,237,40624,2,0,B|441:253|386:244|386:244|340:206,1,170,6|12,3:2|0:0,0:0:0:0:
289,151,41597,1,12,0:0:0:0:
256,192,41921,12,2,44516,0:0:0:0:
346,134,46462,6,0,P|298:143|258:154,1,84.9999999999999,8|4,0:0|3:0,0:0:0:0:
180,171,47110,2,0,P|133:152|56:183,1,127.5,6|8,3:2|0:0,0:0:0:0:
5,238,47921,1,8,0:0:0:0:
62,300,48245,1,10,0:0:0:0:
62,300,49543,6,0,B|139:278|139:278|157:293|183:300,1,127.5,6|8,3:2|0:0,0:0:0:0:
265,303,50353,1,0,3:0:0:0:
345,274,50678,1,8,0:0:0:0:
375,194,51002,2,0,P|424:201|466:208,2,84.9999999999999,0|8|2,3:0|0:0|0:0,0:0:0:0:
279,109,52137,6,0,B|237:87|237:87|150:103,1,127.5,6|8,3:2|0:0,0:0:0:0:
74,119,52948,1,0,3:0:0:0:
34,194,53272,1,8,0:0:0:0:
70,271,53597,2,0,P|116:282|166:264,1,84.9999999999999,0|8,3:0|0:0,0:0:0:0:
220,222,54245,1,0,3:0:0:0:
279,109,54732,6,0,B|330:103|330:103|353:114|353:114|411:108,1,127.5,6|10,3:2|0:0,0:0:0:0:
474,155,55543,2,0,P|454:197|447:241,1,84.9999999999999,2|10,3:2|0:0,0:0:0:0:
443,319,56191,1,2,3:2:0:0:
371,364,56516,1,10,0:0:0:0:
286,360,56840,2,0,P|244:340|200:333,1,84.9999999999999,2|10,0:2|0:0,0:0:0:0:
121,327,57489,6,0,B|106:235|110:241|96:149,1,170,6|0,3:2|0:0,0:0:0:0:
147,89,58462,2,0,B|193:117|193:117|309:79,1,170,8|10,0:0|0:0,0:0:0:0:
380,44,59435,1,10,0:0:0:0:
473,130,59921,6,0,B|447:169|447:208|447:208|467:249,1,127.5,4|12,3:0|0:0,0:0:0:0:
504,323,60732,1,0,3:0:0:0:
431,368,61056,1,8,0:0:0:0:
348,349,61380,2,0,P|303:354|244:364,2,84.9999999999999,0|8|2,3:0|0:0|0:0,0:0:0:0:
357,221,62516,6,0,P|307:204|228:217,2,127.5,6|8|0,3:2|0:0|3:0,0:0:0:0:
434,255,63813,2,0,B|457:214|457:214|428:125,1,127.5,6|8,3:2|0:0,0:0:0:0:
408,55,64624,1,2,0:0:0:0:
292,109,65110,6,0,B|255:112|219:122|219:122|182:104|170:77,1,127.5,6|12,3:2|0:0,0:0:0:0:
116,29,65921,2,0,P|53:30|6:71,2,127.5,2|2|10,3:2|0:0|0:0,0:0:0:0:
177,89,67218,1,2,3:2:0:0:
91,183,67705,6,0,B|105:215|105:215|85:260|95:310,1,127.5,6|10,3:2|0:0,0:0:0:0:
154,365,68516,1,10,0:0:0:0:
238,365,68840,1,10,0:0:0:0:
298,304,69164,2,0,P|362:329|421:311,2,127.5,8|0|12,0:0|3:0|0:0,0:0:0:0:
256,229,70462,6,0,B|248:185|248:185|259:155|259:155|245:95,2,127.5,6|4|4,3:2|3:0|3:0,0:0:0:0:
256,229,73056,6,0,B|248:273|248:273|259:303|259:303|245:363,2,127.5,6|4|4,3:2|3:0|3:0,0:0:0:0:
320,169,74353,6,0,P|380:181|419:172,2,84.9999999999999,8|4|0,0:0|3:0|3:0,0:0:0:0:
245,127,75553,1,14,0:2:0:0:
166,158,75953,6,0,P|151:196|152:243,1,84.9999999999999,6|0,3:2|3:0,0:0:0:0:
193,313,76753,2,0,P|231:328|278:327,1,84.9999999999999,0|0,3:0|3:0,0:0:0:0:
354,297,77553,2,0,P|414:306|492:319,2,127.5,0|10|0,3:0|0:0|3:0,0:0:0:0:
286,245,79153,5,0,3:0:0:0:
262,163,79553,1,0,3:0:0:0:
302,88,79953,2,0,P|364:97|426:69,2,127.5,0|10|0,3:0|0:0|3:0,0:0:0:0:
226,47,81553,2,0,P|185:55|139:65,1,84.9999999999999,2|8,3:2|0:0,0:0:0:0:
59,83,82353,6,0,P|45:135|48:166,1,84.9999999999999,6|0,3:2|3:0,0:0:0:0:
65,248,83153,1,0,3:0:0:0:
146,272,83553,1,0,3:0:0:0:
228,248,83953,2,0,P|237:311|244:375,2,127.5,0|10|0,3:0|0:0|3:0,0:0:0:0:
216,164,85553,6,0,P|255:151|310:162,1,84.9999999999999,0|8,3:2|0:0,0:0:0:0:
354,219,86353,2,0,P|393:232|448:221,1,84.9999999999999,8|8,0:0|0:0,0:0:0:0:
493,163,87153,2,0,B|501:138|501:138|473:31,2,127.5,10|2|2,0:0|3:2|3:2,0:0:0:0:
435,226,88753,1,6,3:2:0:0:
256,192,93553,6,0,B|298:222|298:222|387:212,2,127.5,4|8|12,3:2|0:0|3:2,0:0:0:0:
188,140,95153,6,0,P|146:145|97:152,1,84.9999999999999,6|8,3:2|0:0,0:0:0:0:
37,204,95953,1,2,0:0:0:0:
38,288,96353,1,8,0:0:0:0:
95,350,96753,2,0,P|134:355|187:336,1,84.9999999999999,0|8,3:0|0:0,0:0:0:0:
254,306,97553,2,0,P|293:301|346:320,1,84.9999999999999,2|8,0:0|0:0,0:0:0:0:
418,336,98353,6,0,P|429:279|437:247,1,84.9999999999999,0|8,3:0|0:0,0:0:0:0:
456,170,99153,1,2,0:0:0:0:
403,103,99553,1,8,0:0:0:0:
324,69,99953,2,0,P|265:78|225:69,1,84.9999999999999,0|8,3:0|0:0,0:0:0:0:
166,117,100753,2,0,P|157:176|166:216,1,84.9999999999999,0|8,3:0|0:0,0:0:0:0:
189,280,101553,6,0,P|230:276|285:269,2,84.9999999999999,6|8|2,3:2|0:0|3:2,0:0:0:0:
104,292,102753,1,8,0:0:0:0:
41,234,103153,2,0,P|28:189|35:148,1,84.9999999999999,2|8,3:2|0:0,0:0:0:0:
79,80,103953,2,0,P|124:67|165:74,1,84.9999999999999,0|12,3:0|0:0,0:0:0:0:
238,107,104753,6,0,P|228:155|223:198,2,84.9999999999999,6|8|2,3:2|0:0|3:2,0:0:0:0:
309,61,105953,1,8,0:0:0:0:
390,85,106353,2,0,P|408:127|405:175,1,84.9999999999999,2|8,3:2|0:2,0:0:0:0:
336,212,107153,2,0,P|318:250|318:292,1,84.9999999999999,0|8,3:0|3:0,0:0:0:0:
249,342,107953,6,0,B|187:330|187:330|150:354|150:354|81:343,1,170,12|6,3:2|3:2,0:0:0:0:
88,174,109553,2,0,B|149:164|149:164|186:188|186:188|248:176,2,170,12|12|2,3:2|3:2|3:2,0:0:0:0:
27,113,111477,6,0,P|22:71|41:25,2,84.9999999999999,0|0|0,3:0|3:0|3:0,0:0:0:0:
106,81,112450,2,0,P|139:55|189:49,1,84.9999999999999,0|2,3:0|0:0,0:0:0:0:
265,61,113098,1,8,3:0:0:0:
370,132,113585,6,0,B|349:202|349:202|362:225|366:261,1,127.5,6|8,3:2|0:0,0:0:0:0:
363,338,114396,1,0,3:0:0:0:
279,354,114720,1,8,0:0:0:0:
204,312,115044,2,0,P|160:313|120:331,2,84.9999999999999,0|8|2,3:0|0:0|0:0,0:0:0:0:
258,196,116180,6,0,B|265:173|265:173|241:65,1,127.5,6|8,3:2|0:0,0:0:0:0:
173,21,116990,1,0,3:0:0:0:
87,24,117315,1,8,0:0:0:0:
38,93,117639,2,0,P|27:138|41:188,1,84.9999999999999,0|8,3:0|0:0,0:0:0:0:
74,250,118288,1,0,3:0:0:0:
192,202,118774,6,0,B|248:209|248:209|266:222|266:222|322:228,1,127.5,6|10,3:2|0:0,0:0:0:0:
399,233,119585,2,0,P|413:191|412:141,1,84.9999999999999,2|10,3:2|0:0,0:0:0:0:
398,66,120234,1,2,3:2:0:0:
323,25,120558,1,10,0:0:0:0:
247,63,120882,2,0,P|204:62|164:48,1,84.9999999999999,2|10,0:2|0:0,0:0:0:0:
82,26,121531,6,0,B|57:118|63:106|41:205,1,170,6|0,3:2|0:0,0:0:0:0:
76,270,122504,2,0,B|128:259|128:259|175:309|236:287,1,170,8|10,0:0|0:0,0:0:0:0:
305,242,123477,1,10,0:0:0:0:
343,120,123963,6,0,B|422:104|422:104|448:114|464:129,1,127.5,4|12,3:0|0:0,0:0:0:0:
508,199,124774,1,0,3:0:0:0:
470,275,125098,1,8,0:0:0:0:
386,289,125423,2,0,P|393:330|398:373,2,84.9999999999999,0|8|2,3:0|0:0|0:0,0:0:0:0:
262,257,126558,6,0,P|199:280|130:257,2,127.5,6|8|0,3:2|0:0|3:0,0:0:0:0:
319,193,127855,2,0,B|344:112|344:112|308:62,1,127.5,6|8,3:2|0:0,0:0:0:0:
258,16,128666,1,2,0:0:0:0:
164,102,129152,6,0,B|118:111|87:93|87:93|56:95|30:104,1,127.5,6|12,3:2|0:0,0:0:0:0:
23,184,129963,2,0,P|30:265|58:313,2,127.5,2|2|10,3:2|0:0|0:0,0:0:0:0:
39,101,131261,1,8,3:0:0:0:
164,102,131747,6,0,B|240:119|240:119|288:90,1,127.5,6|10,3:2|0:0,0:0:0:0:
342,33,132558,1,10,0:0:0:0:
426,33,132882,1,10,0:0:0:0:
486,93,133207,2,0,P|479:117|467:182,1,84.9999999999999,10|2,0:0|0:0,0:0:0:0:
448,258,133855,1,8,0:0:0:0:
310,354,134504,6,0,P|256:358|223:344,1,84.9999999999999,6|0,3:2|3:0,0:0:0:0:
165,289,135152,2,0,P|86:311|27:327,2,127.5,8|0|0,0:0|3:0|3:0,0:0:0:0:
208,215,136450,2,0,B|180:182|180:182|196:91,2,127.5,8|0|0,0:0|3:0|3:0,0:0:0:0:
269,273,137747,6,0,P|325:264|361:258,1,84.9999999999999,8|0,0:0|3:0,0:0:0:0:
405,192,138396,2,0,P|413:142|400:105,1,84.9999999999999,2|0,0:0|3:0,0:0:0:0:
347,45,139044,1,8,0:0:0:0:
261,45,139369,1,0,3:0:0:0:
194,99,139693,6,0,P|122:87|99:84,1,84.9999999999999,6|0,3:2|3:0,0:0:0:0:
33,123,140342,2,0,P|9:187|37:256,2,127.5,8|0|0,0:0|3:0|3:0,0:0:0:0:
110,85,141639,2,0,P|135:131|141:168,1,84.9999999999999,8|0,0:0|3:0,0:0:0:0:
127,246,142288,6,0,P|167:258|209:258,1,84.9999999999999,0|0,3:0|3:0,0:0:0:0:
266,194,142936,2,0,P|306:182|348:182,1,84.9999999999999,8|0,0:0|3:0,0:0:0:0:
432,198,143585,1,2,0:0:0:0:
486,263,143909,1,0,3:0:0:0:
456,343,144234,2,0,P|404:336|366:330,1,84.9999999999999,8|4,0:0|3:0,0:0:0:0:
287,320,144882,6,0,B|246:341|246:341|154:321,2,127.5,6|10|10,3:2|0:0|0:0,0:0:0:0:
357,213,146342,2,0,P|347:147|338:86,1,127.5,10|10,0:0|0:0,0:0:0:0:
265,42,147152,1,10,0:0:0:0:
193,87,147477,6,0,B|141:75|141:75|131:60|131:60|63:42,2,127.5,12|10|10,0:0|0:0|0:0,0:0:0:0:
234,161,148774,2,0,P|199:213|200:290,2,127.5,6|8|4,3:2|3:0|3:0,0:0:0:0:
301,108,150071,6,0,B|384:126|384:126|434:91,2,127.5,6|12|12,3:2|0:0|0:0,0:0:0:0:
202,24,151531,2,0,P|137:34|62:48,1,127.5,12|12,0:0|0:0,0:0:0:0:
31,117,152342,1,12,0:0:0:0:
83,183,152666,6,0,P|145:188|195:239,2,127.5,6|6|6,3:2|3:2|3:2,0:0:0:0:
83,183,155261,6,0,B|179:208|179:208|212:198|240:153,1,170,6|0,3:2|3:2,0:0:0:0:
270,87,156234,1,10,0:0:0:0:
352,108,156558,2,0,P|366:159|374:196,1,84.9999999999999,0|10,3:2|0:0,0:0:0:0:
391,273,157207,1,0,3:0:0:0:
330,332,157531,1,10,0:0:0:0:
249,303,157855,6,0,B|151:330|151:330|114:319|101:271,1,170,0|0,3:2|3:0,0:0:0:0:
101,197,158828,1,10,0:0:0:0:
153,130,159152,2,0,P|194:139|235:151,1,84.9999999999999,0|0,3:0|3:0,0:0:0:0:
312,186,159801,2,0,P|353:176|394:164,1,84.9999999999999,0|8,3:0|0:0,0:0:0:0:
474,137,160450,6,0,B|509:186|509:186|478:295,1,170,6|0,3:2|3:0,0:0:0:0:
420,353,161423,1,10,0:0:0:0:
336,368,161747,2,0,P|284:371|241:353,1,84.9999999999999,0|10,3:0|0:0,0:0:0:0:
179,318,162396,1,0,3:0:0:0:
141,241,162720,1,10,0:0:0:0:
159,158,163044,6,0,B|249:130|235:187|324:161,1,170,0|0,3:0|3:0,0:0:0:0:
396,114,164017,1,10,0:0:0:0:
361,36,164342,2,0,P|312:22|268:23,1,84.9999999999999,6|8,3:2|0:2,0:0:0:0:
198,51,164990,2,0,P|157:63|115:65,1,84.9999999999999,8|4,3:0|3:0,0:0:0:0:
31,51,165639,5,6,3:2:0:0:
202,95,176017,6,0,P|265:40|357:51,2,170,6|0|0,3:2|3:0|3:0,0:0:0:0:
137,252,177963,1,0,3:0:0:0:
283,339,178612,6,0,B|370:350|358:298|449:308,2,170,0|0|0,3:0|3:0|3:0,0:0:0:0:
137,252,180558,1,0,3:0:0:0:
202,95,181207,6,0,B|271:85|271:85|296:59|296:59|372:48,1,170,6|0,3:2|3:0,0:0:0:0:
495,151,182504,2,0,B|426:161|426:161|401:187|401:187|325:198,1,170,0|0,3:0|3:0,0:0:0:0:
169,222,183801,6,0,B|141:281|158:344|158:344|203:371,2,170,0|0|0,3:0|3:0|3:0,0:0:0:0:
269,84,185747,1,0,3:0:0:0:
431,133,186396,2,0,P|469:211|443:299,1,170,0|0,3:0|3:0,0:0:0:0:
283,320,187693,6,0,B|296:287|296:287|274:190,2,127.5,12|12|8,0:0|0:0|0:0,0:0:0:0:
206,357,188990,2,2,B|134:333|134:333|112:355|82:361,1,127.5,6|6,3:2|3:2,0:1:0:0:
8,209,190125,1,6,3:2:0:0:
8,209,191585,6,0,P|46:211|97:190,1,84.9999999999999,6|8,3:2|0:0,0:0:0:0:
154,140,192234,1,6,3:2:0:0:
264,203,192720,6,0,B|246:240|246:240|272:325,1,127.5,6|8,3:2|0:0,0:0:0:0:
339,373,193531,1,0,3:0:0:0:
423,373,193855,1,8,0:0:0:0:
491,321,194180,2,0,P|501:280|488:224,1,84.9999999999999,0|8,3:0|0:0,0:0:0:0:
444,169,194828,1,0,3:0:0:0:
350,81,195315,6,0,B|295:89|295:89|276:104|276:104|210:116,1,127.5,6|10,3:2|0:0,0:0:0:0:
145,125,196125,2,0,P|130:168|135:208,1,84.9999999999999,2|10,3:2|0:0,0:0:0:0:
157,288,196774,1,2,3:2:0:0:
236,318,197098,1,10,0:0:0:0:
320,304,197423,2,0,P|335:261|330:221,1,84.9999999999999,8|8,0:0|3:0,0:0:0:0:
312,139,198071,6,0,B|413:117|380:175|483:148,1,170,6|0,3:2|3:0,0:0:0:0:
499,67,199044,2,0,B|485:35|456:22|456:22|346:42,1,170,12|8,0:2|0:0,0:0:0:0:
268,62,200017,1,8,0:0:0:0:
209,175,200504,6,0,B|233:210|233:210|204:299,1,127.5,6|10,3:2|0:0,0:0:0:0:
178,371,201315,1,10,0:0:0:0:
93,375,201639,1,10,0:0:0:0:
29,318,201963,2,0,P|19:274|28:230,1,84.9999999999999,10|10,0:0|0:0,0:0:0:0:
49,153,202612,1,10,0:0:0:0:
133,57,203098,6,0,B|203:48|203:48|215:43|215:43|267:37,2,127.5,6|8|8,3:2|0:0|3:0,0:0:0:0:
48,68,204396,1,6,3:2:0:0:
49,153,204720,2,0,P|97:179|173:168,1,127.5,8|8,0:0|3:0,0:0:0:0:
286,126,205693,6,0,B|275:155|275:155|299:252,1,127.5,2|12,3:2|0:0,0:0:0:0:
316,331,206504,2,0,P|253:337|180:357,2,127.5,2|2|10,3:2|0:0|0:0,0:0:0:0:
401,328,207801,1,2,0:0:0:0:
479,227,208288,6,0,B|485:177|485:177|474:158|474:158|481:102,1,127.5,6|10,3:2|0:0,0:0:0:0:
439,28,209098,1,10,0:0:0:0:
354,18,209423,1,10,0:0:0:0:
282,64,209747,2,0,B|231:52|185:58|185:58|161:77,2,127.5,8|8|8,0:0|0:0|0:0,0:0:0:0:
334,136,211044,6,2,B|380:174|411:289|356:343|279:320|268:272|290:228,1,297.49999092102,2|0,0:0|0:0,0:0:0:0:
288,234,213639,6,0,P|245:242|202:250,1,84.9999999999999,6|8,3:2|0:0,0:0:0:0:
119,256,214288,2,0,P|73:215|-5:221,2,127.5,0|2|8,3:2|0:0|0:0,0:0:0:0:
144,337,215585,1,0,3:0:0:0:
268,365,216071,6,0,B|319:354|319:354|336:336|336:336|397:324,1,127.5,6|8,3:2|0:0,0:0:0:0:
456,279,216882,2,0,P|469:218|443:160,2,127.5,0|2|8,3:0|0:0|0:0,0:0:0:0:
385,326,218180,1,0,3:0:0:0:
268,273,218666,6,0,B|250:188|250:188|270:144,1,127.5,6|8,3:2|0:0,0:0:0:0:
295,70,219477,2,0,P|259:49|211:43,1,84.9999999999999,0|8,3:0|0:0,0:0:0:0:
131,48,220125,1,0,3:0:0:0:
61,96,220450,1,8,0:0:0:0:
39,178,220774,2,0,P|48:227|54:271,1,84.9999999999999,0|12,3:0|0:0,0:0:0:0:
67,345,221423,6,0,B|108:364|108:364|195:340,1,127.5,6|6,3:2|3:2,0:0:0:0:
268,315,222234,1,0,3:0:0:0:
349,290,222558,2,0,P|359:243|348:200,1,84.9999999999999,6|0,3:2|3:0,0:0:0:0:
273,173,223207,2,0,P|263:126|274:83,1,84.9999999999999,4|8,3:2|0:0,0:0:0:0:
318,20,223855,6,0,B|346:39|346:39|447:25,1,127.5,4|12,3:0|0:0,0:0:0:0:
495,89,224666,2,0,P|510:156|488:219,2,127.5,2|2|10,3:2|0:0|0:0,0:0:0:0:
438,26,225963,1,0,3:0:0:0:
358,126,226450,6,0,B|303:137|303:137|298:147|298:147|237:159,1,127.5,6|10,3:2|0:0,0:0:0:0:
153,161,227261,2,0,P|145:117|136:66,1,84.9999999999999,0|10,3:0|0:0,0:0:0:0:
53,77,227909,2,0,P|45:118|30:204,1,127.5,10|10,0:0|0:0,0:0:0:0:
16,286,228720,1,0,3:0:0:0:
89,329,229044,6,0,B|124:312|124:312|211:325,1,127.5,6|10,3:2|0:0,0:0:0:0:
296,331,229855,2,0,P|330:317|390:317,1,84.9999999999999,0|10,3:0|0:0,0:0:0:0:
460,332,230504,2,0,P|474:298|474:238,1,84.9999999999999,2|10,0:0|0:0,0:0:0:0:
466,165,231152,1,8,3:0:0:0:
398,112,231477,1,10,0:0:0:0:
328,160,231801,6,0,B|279:160|244:174|244:174|199:149,1,127.5,12|12,0:0|0:0,0:0:0:0:
207,26,232774,2,0,B|256:26|291:12|291:12|336:37,1,127.5,12|12,0:0|0:0,0:0:0:0:
435,100,233747,2,0,B|414:128|414:128|449:228,1,127.5,10|6,0:0|3:2,0:0:0:0:
444,215,235693,6,0,P|397:220|363:244,1,84.9999999999999,2|8,3:2|3:0,0:0:0:0:
286,271,236342,2,0,P|225:245|158:264,1,127.5,4|6,3:0|3:2,0:0:0:0:
256,192,236990,12,0,239585,0:0:0:0:
