osu file format v14

[General]
AudioFilename: audio.mp3
AudioLeadIn: 0
PreviewTime: 146162
Countdown: 0
SampleSet: Soft
StackLeniency: 0.7
Mode: 0
LetterboxInBreaks: 0
WidescreenStoryboard: 1

[Editor]
Bookmarks: 102469,168929
DistanceSpacing: 1.5
BeatDivisor: 4
GridSize: 32
TimelineZoom: 1.8

[Metadata]
Title:SIREN
TitleUnicode:SIREN
Artist:PassCode
ArtistUnicode:PassCode
Creator:Akitoshi
Version:Supatoshi's Hard
Source:
Tags:Corinn -Laura- Amats Mimiliaa Hojo Karen Suzuhara Lulu Hitsukuya Mimilie SupaV Japanese Pop Rock 高嶋楓 Takashima Kaede 南菜生 Minami Nao 大上陽奈子 Oogami Hinako 有馬えみり Arima Emily REVERBERATE ep.
BeatmapID:4001535
BeatmapSetID:1912647

[Difficulty]
HPDrainRate:4.9
CircleSize:3.5
OverallDifficulty:6
ApproachRate:8
SliderMultiplier:1.4
SliderTickRate:1

[Events]
//Background and Video events
0,0,"copium1212.jpg",0,0
Video,120,"Passcode - Siren-1-1.mp4"
//Break Periods
2,92825,96797
//Storyboard Layer 0 (Background)
//Storyboard Layer 1 (Fail)
//Storyboard Layer 2 (Pass)
//Storyboard Layer 3 (Foreground)
//Storyboard Layer 4 (Overlay)
//Storyboard Sound Samples

[TimingPoints]
321,305.732484076433,4,2,5,30,1,0
321,-142.857142857143,4,2,5,30,0,0
1085,-100,4,2,5,60,0,0
1543,312.5,4,2,5,60,1,0
1543,-142.857142857143,4,2,5,60,0,0
2168,307.692307692308,4,2,5,60,1,0
2783,307.692307692308,4,2,5,60,1,0
2783,-142.857142857143,4,2,5,60,0,0
4013,306.122448979592,4,2,5,60,1,0
4013,-142.857142857143,4,2,5,60,0,0
5237,307.29833546735,4,2,5,60,1,0
5237,-142.857142857143,4,2,5,60,0,0
8617,292.682926829268,4,2,5,60,1,0
8909,307.692307692308,4,2,5,60,1,0
8909,-142.857142857143,4,2,5,60,0,0
9678,-111.111111111111,4,2,5,70,0,0
10139,311.688311688312,4,2,5,70,1,0
11074,-90.9090909090909,4,2,5,70,0,0
11307,-90.9090909090909,4,2,5,5,0,0
11385,309.278350515464,4,2,5,70,1,0
13859,307.495195387572,4,2,5,70,1,0
23698,307.692307692308,4,2,5,60,1,0
23698,-125,4,2,5,60,0,0
26159,309.677419354839,4,2,5,60,1,0
26159,-125,4,2,5,60,0,0
28636,307.692307692308,4,2,5,60,1,0
28636,-125,4,2,5,60,0,0
31097,305.343511450382,4,2,5,60,1,0
31097,-125,4,2,5,60,0,0
33234,-100,4,2,5,60,0,0
33463,-100,4,2,5,5,0,0
33539,310.077519379845,4,2,5,60,1,0
33539,-111.111111111111,4,2,5,60,0,0
35709,302.648171500631,4,2,5,60,1,0
35709,-111.111111111111,4,2,5,60,0,0
36011,307.692307692308,4,2,5,60,1,0
36011,-111.111111111111,4,2,5,60,0,0
38472,308.08729139923,4,2,5,60,1,0
38472,-111.111111111111,4,2,5,60,0,0
42785,306.122448979592,4,2,5,60,1,0
42785,-111.111111111111,4,2,5,60,0,0
43397,306.513409961686,4,2,5,70,1,0
45849,307.692307692308,4,2,5,70,1,0
50772,310.478654592497,4,2,5,70,1,0
52479,294.117647058824,4,2,5,70,1,0
52626,305.732484076433,4,2,5,70,1,0
53237,307.692307692308,4,2,5,60,1,0
53237,-142.857142857143,4,2,5,60,0,0
55390,302.267002518892,4,2,5,60,1,0
55692,309.278350515464,4,2,5,60,1,0
57547,304.568527918782,4,2,5,60,1,0
58156,310.880829015544,4,2,5,60,1,0
58156,-142.857142857143,4,2,5,60,0,0
59399,307.692307692308,4,2,5,60,1,0
59399,-142.857142857143,4,2,5,60,0,0
60629,313.31592689295,4,2,5,60,1,0
60629,-125,4,2,5,60,0,0
61255,285.714285714286,4,2,5,70,1,0
61397,-111.111111111111,4,2,5,70,0,0
61826,326.086956521739,4,2,5,70,1,0
62478,300,4,2,5,70,1,0
63078,307.692307692308,4,2,5,80,1,1
63078,-90.9090909090909,4,2,5,80,0,1
65539,309.278350515464,4,2,5,80,1,1
65539,-90.9090909090909,4,2,5,80,0,1
67703,301.507537688442,4,2,5,80,1,1
67703,-90.9090909090909,4,2,5,80,0,1
68004,306.90537084399,4,2,5,80,1,1
68004,-90.9090909090909,4,2,5,80,0,1
68234,-90.9090909090909,4,2,5,5,0,1
68310,-90.9090909090909,4,2,5,80,0,1
72607,315.789473684211,4,2,5,80,1,1
72607,-90.9090909090909,4,2,5,80,0,1
72922,308.761096101891,4,2,5,80,1,1
72922,-90.9090909090909,4,2,5,80,0,1
76627,306.122448979592,4,2,5,80,1,1
76627,-90.9090909090909,4,2,5,80,0,1
77774,-90.9090909090909,4,2,5,5,0,1
77851,308.880308880309,4,2,5,80,1,1
77851,-90.9090909090909,4,2,5,80,0,1
80322,303.79746835443,4,2,5,80,1,1
80322,-90.9090909090909,4,2,5,80,0,1
81840,314.13612565445,4,2,5,80,1,1
81840,-90.9090909090909,4,2,5,80,0,1
82468,-90.9090909090909,4,2,5,80,0,1
82703,-90.9090909090909,4,2,5,5,0,1
82782,300,4,2,5,70,1,0
83082,307.692307692308,4,2,5,70,1,0
84005,307.692307692308,4,2,5,70,1,0
85235,308.483290488432,4,2,5,70,1,0
87702,307.692307692308,4,2,5,70,1,0
92625,303.79746835443,4,2,5,60,1,0
93232,307.692307692308,4,2,5,60,1,0
93847,307.692307692308,4,2,5,60,1,0
95077,310.880829015544,4,2,5,60,1,0
96320,306.90537084399,4,2,5,60,1,0
97547,307.692307692308,4,2,5,60,1,0
97547,-111.111111111111,4,2,5,60,0,0
100008,306.122448979592,4,2,5,60,1,0
100008,-111.111111111111,4,2,5,60,0,0
101232,309.278350515464,4,2,5,60,1,0
101232,-111.111111111111,4,2,5,60,0,0
102469,307.692307692308,4,2,5,70,1,0
109853,310.077519379845,4,2,5,70,1,0
111093,303.030303030303,4,2,5,70,1,0
111699,307.692307692308,4,2,5,70,1,0
112314,308.483290488432,4,2,5,70,1,0
112314,-125,4,2,5,70,0,0
114473,303.030303030303,4,2,5,70,1,0
114776,308.483290488432,4,2,5,80,1,1
114776,-90.9090909090909,4,2,5,80,0,1
117243,307.692307692308,4,2,5,80,1,1
117243,-90.9090909090909,4,2,5,80,0,1
119089,303.030303030303,4,2,5,80,1,1
119089,-90.9090909090909,4,2,5,80,0,1
119695,308.483290488432,4,2,5,80,1,1
119695,-90.9090909090909,4,2,5,80,0,1
122162,307.692307692308,4,2,5,80,1,1
122162,-90.9090909090909,4,2,5,80,0,1
128315,305.343511450382,4,2,5,80,1,1
128315,-90.9090909090909,4,2,5,80,0,1
129231,312.5,4,2,5,80,1,1
129231,-90.9090909090909,4,2,5,80,0,1
129543,306.709265175719,4,2,5,80,1,1
129543,-90.9090909090909,4,2,5,80,0,1
131689,315.789473684211,4,2,5,80,1,1
131689,-90.9090909090909,4,2,5,80,0,1
132004,309.278350515464,4,2,5,80,1,1
132004,-90.9090909090909,4,2,5,80,0,1
133241,307.692307692308,4,2,5,80,1,1
133241,-90.9090909090909,4,2,5,80,0,1
134317,-111.111111111111,4,2,5,70,0,0
134779,300,4,2,5,70,1,0
134779,-111.111111111111,4,2,5,70,0,0
135079,307.692307692308,4,2,5,70,1,0
135079,-111.111111111111,4,2,5,70,0,0
135694,307.692307692308,4,2,5,70,1,0
135694,-111.111111111111,4,2,5,70,0,0
139078,285.714285714286,4,2,5,70,1,0
139078,-111.111111111111,4,2,5,70,0,0
139220,324.324324324324,4,2,5,70,1,0
139220,-111.111111111111,4,2,5,70,0,0
139382,324.324324324324,4,2,5,70,1,0
139382,-111.111111111111,4,2,5,70,0,0
139706,306.122448979592,4,2,5,70,1,0
139706,-111.111111111111,4,2,5,70,0,0
140624,306.122448979592,4,2,5,70,1,0
140624,-111.111111111111,4,2,5,70,0,0
141236,308.483290488432,4,2,5,70,1,0
141236,-111.111111111111,4,2,5,70,0,0
141698,-100,4,2,5,70,0,0
141852,308.483290488432,4,2,5,70,1,0
144319,307.692307692308,4,2,5,70,1,0
144319,-111.111111111111,4,2,5,70,0,0
145549,312.5,4,2,5,70,1,0
145549,-100,4,2,5,70,0,0
145783,-100,4,2,5,5,0,0
145861,301.507537688442,4,2,5,70,1,0
145861,-100,4,2,5,70,0,0
146765,310.478654592497,4,2,5,60,1,0
146765,-142.857142857143,4,2,5,60,0,0
148006,307.692307692308,4,2,5,60,1,0
148006,-142.857142857143,4,2,5,60,0,0
155390,-125,4,2,5,60,0,0
156621,-111.111111111111,4,2,5,70,0,0
166159,315.789473684211,4,2,5,70,1,0
166474,292.682926829268,4,2,5,70,1,0
166766,307.692307692308,4,2,5,70,1,0
167073,-100,4,2,5,70,0,0
167689,307.692307692308,4,2,5,70,1,0
168304,312.5,4,2,5,70,1,0
168929,305.732484076433,4,2,5,80,1,1
168929,-90.9090909090909,4,2,5,80,0,1
170457,307.692307692308,4,2,5,80,1,1
170457,-90.9090909090909,4,2,5,80,0,1
171380,310.880829015544,4,2,5,80,1,1
171380,-90.9090909090909,4,2,5,80,0,1
171613,-90.9090909090909,4,2,5,5,0,1
171690,-90.9090909090909,4,2,5,80,0,1
172934,305.343511450382,4,2,5,80,1,1
172934,-90.9090909090909,4,2,5,80,0,1
173850,307.495195387572,4,2,5,80,1,1
173850,-90.9090909090909,4,2,5,80,0,1
175694,-142.857142857143,4,2,5,80,0,0
175848,-142.857142857143,4,2,0,5,0,0
176309,308.483290488432,4,2,5,80,1,1
176309,-90.9090909090909,4,2,5,80,0,1
180319,307.692307692308,4,2,5,80,1,1
180319,-90.9090909090909,4,2,5,80,0,1
181242,307.692307692308,4,2,5,80,1,1
181242,-90.9090909090909,4,2,5,80,0,1
181472,-90.9090909090909,4,2,5,5,0,1
181549,-90.9090909090909,4,2,5,80,0,1
183395,297.029702970297,4,2,5,80,1,1
183395,-90.9090909090909,4,2,5,80,0,1
183692,310.880829015544,4,2,5,80,1,1
183692,-90.9090909090909,4,2,5,80,0,1
184624,307.692307692308,4,2,5,80,1,1
184624,-90.9090909090909,4,2,5,80,0,1
184931,307.692307692308,4,2,5,80,1,1
184931,-90.9090909090909,4,2,5,80,0,1
186161,309.278350515464,4,2,5,80,1,1
186161,-90.9090909090909,4,2,5,80,0,1
188635,306.122448979592,4,2,5,80,1,1
188635,-90.9090909090909,4,2,5,80,0,1
191007,-90.9090909090909,4,2,5,5,0,1
191083,309.278350515464,4,2,5,80,1,1
191083,-90.9090909090909,4,2,5,80,0,1
192320,306.90537084399,4,2,5,80,1,1
192320,-90.9090909090909,4,2,5,80,0,1
193547,304.182509505703,4,2,5,80,1,1
193547,-90.9090909090909,4,2,5,80,0,1
195067,309.278350515464,4,2,5,80,1,1
195067,-90.9090909090909,4,2,5,80,0,1
195994,310.077519379845,4,2,5,80,1,1
195994,-100,4,2,5,80,0,0
197854,307.692307692308,4,2,5,80,1,0
198469,307.692307692308,4,2,5,80,1,0
200851,-100,4,2,5,5,0,0
200930,315.789473684211,4,2,5,80,1,0
201245,307.692307692308,4,2,5,80,1,0
202168,303.79746835443,4,2,5,80,1,0
203383,307.692307692308,4,2,5,80,1,0
203613,-100,4,2,5,5,0,0
203690,-100,4,2,5,80,0,0
204921,311.284046692607,4,2,5,80,1,0
205854,307.495195387572,4,2,5,80,1,0
210466,295.566502463054,4,2,5,80,1,0
210761,310.077519379845,4,2,5,80,1,0
212931,303.030303030303,4,2,5,80,1,0
213234,307.889672867223,4,2,5,80,1,0
213387,-100,4,2,5,5,0,0
217852,-100,4,2,5,80,0,0
218160,-100,4,2,5,5,0,0

[Colours]
Combo1 : 0,128,192
Combo2 : 255,143,89
Combo3 : 0,223,223
Combo4 : 255,128,191

[HitObjects]
229,191,321,6,0,P|249:236|237:295,2,97.9999970092774,4|4|4,0:0|0:0|0:0,0:0:0:0:
158,145,1085,2,0,L|122:153,2,35,0|0|8,1:0|1:0|0:0,0:0:0:0:
282,49,1543,6,0,P|338:61|390:71,1,97.9999970092774,6|0,1:2|1:2,0:0:0:0:
507,99,2168,1,0,1:2:0:0:
507,99,2475,1,0,1:2:0:0:
458,217,2783,6,0,P|407:226|351:209,1,97.9999970092774,6|0,1:2|1:2,0:0:0:0:
247,174,3398,1,0,1:2:0:0:
247,174,3706,2,0,P|241:209|237:232,1,48.9999985046387,0|0,1:2|3:0,0:0:0:0:
219,303,4013,6,0,P|168:294|112:311,1,97.9999970092774,6|0,1:2|1:2,0:0:0:0:
12,364,4625,1,0,1:2:0:0:
12,364,4931,1,0,1:2:0:0:
33,238,5237,6,0,P|23:187|13:141,1,97.9999970092774,6|0,1:2|1:2,0:0:0:0:
125,78,5851,1,0,1:0:0:0:
125,78,6158,2,0,P|117:115|115:129,1,48.9999985046387,0|0,1:0|3:0,0:0:0:0:
181,177,6466,6,0,P|213:156|279:157,2,97.9999970092774,6|0|0,1:2|1:0|1:0,0:0:0:0:
117,287,7388,1,0,1:0:0:0:
226,351,7695,6,0,P|273:338|323:329,2,97.9999970092774,6|0|0,1:2|1:0|1:0,0:0:0:0:
117,287,8617,1,0,1:0:0:0:
181,177,8909,6,0,P|172:128|162:75,1,97.9999970092774,6|0,1:2|1:2,0:0:0:0:
271,13,9524,1,0,1:0:0:0:
348,64,9678,1,8,0:0:0:0:
348,64,9755,1,8,0:0:0:0:
348,64,9832,2,0,P|343:91|341:101,3,31.4999990386963,8|8|8|8,0:0|0:0|0:0|0:0,0:0:0:0:
338,123,10139,5,12,0:0:0:0:
338,123,11074,6,0,B|389:115|389:115|403:120|403:120|457:111,1,115.50000352478,4|0,1:3|0:0,0:0:0:0:
478,107,11385,6,0,B|508:144|509:173|507:208|507:208|479:233,1,140,6|8,1:2|0:0,0:0:0:0:
401,271,11848,2,0,P|351:228|268:234,1,140,2|2,0:0|1:2,0:0:0:0:
200,274,12312,2,0,P|193:308|187:346,1,70,10|0,0:0|0:0,0:0:0:0:
96,342,12622,6,0,P|90:307|83:273,1,70,2|0,1:2|1:0,0:0:0:0:
70,186,12931,1,10,0:0:0:0:
70,186,13086,2,0,P|138:187|191:143,1,140,2|0,0:0|1:0,0:0:0:0:
219,56,13549,1,10,0:0:0:0:
395,102,13859,6,0,P|382:157|372:241,1,140,2|10,1:2|0:0,0:0:0:0:
419,318,14320,2,0,P|378:279|293:286,1,140,2|2,0:2|1:2,0:0:0:0:
217,324,14781,2,0,P|178:318|139:312,1,70,10|0,0:0|0:0,0:0:0:0:
103,233,15088,6,0,P|144:194|229:201,1,140,2|10,1:2|0:0,0:0:0:0:
293,139,15550,2,0,P|225:146|172:103,1,140,2|2,0:0|1:2,0:0:0:0:
154,18,16011,1,10,0:0:0:0:
154,18,16165,1,2,0:0:0:0:
251,61,16318,6,0,B|306:47|306:47|334:58|334:58|388:44,1,140,6|10,1:2|0:0,0:0:0:0:
468,82,16780,2,0,P|481:118|477:157,1,70,2|0,0:0|1:0,0:0:0:0:
455,237,17087,1,0,1:0:0:0:
366,214,17241,2,0,P|331:212|298:225,1,70,10|0,0:0|1:0,0:0:0:0:
248,301,17548,6,0,P|280:313|315:312,1,70,2|0,1:2|1:0,0:0:0:0:
213,222,17856,1,10,0:0:0:0:
213,222,18010,2,0,B|131:236|139:235|67:249,1,140,2|0,0:0|1:2,0:0:0:0:
13,180,18471,2,0,P|5:143|13:109,1,70,10|2,0:0|0:0,0:0:0:0:
55,31,18778,5,2,1:2:0:0:
135,92,18932,1,2,0:0:0:0:
135,92,19009,1,2,0:0:0:0:
135,92,19086,2,0,P|174:86|216:79,1,70,10|0,0:0|1:0,0:0:0:0:
294,69,19393,2,0,P|327:129|305:213,1,140,10|0,0:0|1:0,0:0:0:0:
284,283,19855,6,0,B|364:292|352:256|423:267,1,140,10|0,0:0|1:0,0:0:0:0:
457,182,20316,2,0,B|466:148|466:148|452:110,1,70,10|2,0:0|1:2,0:0:0:0:
387,54,20623,2,0,L|347:62,3,35,8|8|8|8,0:0|0:0|0:0|0:0,0:0:0:0:
329,76,20931,2,0,L|289:68,3,35,0|0|0|0,1:3|1:3|1:3|1:3,0:0:0:0:
267,62,21238,5,10,0:0:0:0:
256,192,21315,12,8,23391,0:0:0:0:
271,151,23698,6,0,B|224:158|224:158|206:151|206:151|155:160,1,112,6|10,1:2|0:0,0:0:0:0:
20,251,24313,2,0,P|12:283|21:320,1,56,2|0,1:2|0:0,0:0:0:0:
82,363,24621,1,10,0:0:0:0:
82,363,24774,6,0,P|119:351|138:347,1,56,2|0,1:2|0:0,0:0:0:0:
205,299,25082,2,0,P|242:311|261:315,1,56,2|8,1:2|0:0,0:0:0:0:
342,310,25390,2,0,P|355:260|331:197,1,112,2|0,0:0|1:0,0:0:0:0:
271,151,25851,1,8,0:0:0:0:
369,14,26159,6,0,B|407:11|435:26|435:26|450:17|485:7,2,112,6|10|2,1:2|0:2|1:2,0:0:0:0:
285,27,26933,1,0,0:0:0:0:
221,80,27088,1,10,0:0:0:0:
221,80,27242,6,0,P|165:104|106:86,1,112,0|0,1:2|0:0,0:0:0:0:
48,44,27707,2,0,P|18:90|27:158,1,112,8|0,0:0|0:0,0:0:0:0:
61,219,28171,1,2,1:2:0:0:
139,190,28326,2,0,P|167:193|200:198,1,56,10|2,0:0|0:0,0:0:0:0:
262,272,28636,6,0,B|236:309|236:309|262:382,2,112,6|10|2,1:2|0:0|1:2,0:0:0:0:
308,201,29405,1,0,1:0:0:0:
370,257,29559,2,0,P|399:258|430:248,1,56,10|0,0:0|1:0,0:0:0:0:
490,197,29866,6,0,P|479:137|466:73,2,112,2|10|2,0:0|0:0|0:0,0:0:0:0:
506,279,30636,1,0,1:0:0:0:
469,354,30789,2,0,P|432:354|413:348,1,56,10|2,0:0|0:0,0:0:0:0:
370,257,31097,6,0,P|374:226|379:200,1,56,6|0,1:2|0:0,0:0:0:0:
325,136,31402,2,0,P|274:158|216:148,1,112,8|0,0:0|1:0,0:0:0:0:
156,94,31860,1,0,1:0:0:0:
90,143,32013,1,10,0:0:0:0:
90,143,32165,6,0,P|103:198|114:257,1,112,2|0,1:2|1:0,0:0:0:0:
197,259,32623,2,0,P|207:203|220:149,1,112,10|0,0:0|0:0,0:0:0:0:
292,102,33081,1,2,1:2:0:0:
292,102,33158,1,0,1:0:0:0:
292,102,33234,2,0,B|323:99|343:110|343:110|364:90|397:84,1,105,10|0,0:0|0:0,0:0:0:0:
413,82,33539,6,0,P|421:126|425:147,1,62.9999980773926,6|0,1:2|0:0,0:0:0:0:
502,187,33849,2,0,P|494:231|490:252,1,62.9999980773926,10|0,0:0|0:0,0:0:0:0:
416,298,34159,2,0,P|365:270|295:282,1,125.999996154785,2|10,1:2|0:0,0:0:0:0:
220,317,34624,6,0,P|222:348|218:380,1,62.9999980773926,2|0,1:2|0:0,0:0:0:0:
129,379,34934,2,0,P|124:347|127:316,1,62.9999980773926,2|8,1:2|0:0,0:0:0:0:
168,238,35244,2,0,B|159:169|162:188|152:98,1,125.999996154785,2|0,0:0|1:0,0:0:0:0:
145,24,35709,1,8,0:0:0:0:
309,87,36011,6,0,B|299:117|281:137|281:137|279:166|306:199,2,125.999996154785,6|10|2,1:2|0:0|1:2,0:0:0:0:
330,1,36780,1,0,1:0:0:0:
421,18,36934,1,10,0:0:0:0:
421,18,37087,6,0,P|449:71|435:140,1,125.999996154785,0|0,1:2|1:0,0:0:0:0:
400,213,37549,2,0,P|410:251|419:292,1,62.9999980773926,8|0,0:0|0:0,0:0:0:0:
363,347,37857,1,2,0:0:0:0:
363,347,38011,1,0,1:0:0:0:
284,307,38164,2,0,P|248:318|216:315,1,62.9999980773926,10|0,0:0|0:0,0:0:0:0:
124,273,38472,6,0,B|71:284|71:284|50:277|50:277|-1:286,2,125.999996154785,6|10|2,1:2|0:0|1:2,0:0:0:0:
200,227,39242,1,0,1:0:0:0:
126,179,39396,2,0,P|122:147|135:102,1,62.9999980773926,10|0,0:0|1:0,0:0:0:0:
213,94,39704,6,0,P|264:123|332:108,2,125.999996154785,2|10|2,0:0|0:0|0:0,0:0:0:0:
155,26,40474,1,0,1:0:0:0:
241,8,40628,2,0,P|272:13|309:19,1,62.9999980773926,10|2,0:0|0:0,0:0:0:0:
405,52,40936,6,0,P|436:46|467:41,1,62.9999980773926,6|0,1:2|0:0,0:0:0:0:
506,121,41244,2,0,B|480:163|507:202|507:202|494:246,1,125.999996154785,8|0,0:0|1:0,0:0:0:0:
472,327,41706,1,0,1:0:0:0:
400,285,41860,1,10,0:0:0:0:
400,285,42015,6,0,P|348:275|285:317,1,125.999996154785,0|0,1:0|1:0,0:0:0:0:
215,362,42477,2,0,P|177:362|139:346,1,62.9999980773926,12|0,0:0|1:0,0:0:0:0:
100,282,42785,2,0,L|91:235,3,31.4999990386963,8|8|8|8,0:0|0:3|0:3|0:3,0:0:0:0:
77,231,43091,2,0,L|82:200,3,31.4999990386963,4|4|4|4,0:3|0:3|0:3|0:3,0:0:0:0:
89,172,43397,6,0,B|167:193|167:193|191:187|218:156,1,140,6|0,1:2|1:0,0:0:0:0:
276,82,43856,2,0,P|340:63|424:104,1,140,10|0,0:2|1:0,0:0:0:0:
472,160,44316,6,0,P|460:225|448:306,1,140,10|0,0:0|0:0,0:0:0:0:
380,367,44776,1,10,0:2:0:0:
327,284,44929,2,0,P|283:284|257:295,1,70,0|0,1:2|1:0,0:0:0:0:
177,348,45236,6,0,P|133:348|107:336,1,70,10|0,0:0|1:0,0:0:0:0:
28,293,45542,1,10,0:0:0:0:
28,293,45695,1,0,1:0:0:0:
114,221,45849,6,0,B|126:169|126:169|112:138|112:138|126:86,1,140,12|0,0:2|1:0,0:0:0:0:
203,26,46310,2,0,P|248:73|323:67,1,140,10|0,0:0|1:0,0:0:0:0:
409,32,46772,6,0,P|362:77|368:152,1,140,10|0,0:0|1:0,0:0:0:0:
403,238,47233,1,10,0:0:0:0:
325,297,47387,2,0,P|287:293|232:287,1,70,0|0,0:0|1:0,0:0:0:0:
208,202,47695,6,0,P|242:198|277:194,1,70,10|0,0:0|1:0,0:0:0:0:
369,151,48002,1,10,0:0:0:0:
369,151,48156,1,0,1:0:0:0:
272,93,48310,6,0,B|224:80|183:108|183:108|163:89|130:84,1,140,12|0,0:0|1:0,0:0:0:0:
86,14,48772,2,0,P|56:55|72:145,1,140,10|0,0:0|1:0,0:0:0:0:
128,207,49233,6,0,B|199:195|191:244|268:231,1,140,10|0,0:0|1:0,0:0:0:0:
346,196,49695,2,0,P|375:230|366:322,1,140,10|0,0:0|1:0,0:0:0:0:
287,364,50156,6,0,P|247:358|217:353,1,70,10|0,0:0|1:0,0:0:0:0:
127,338,50464,2,0,P|106:341|91:343,3,35,10|8|8|8,0:0|0:3|0:3|0:3,0:0:0:0:
64,343,50772,6,0,B|54:291|54:291|33:273|33:273|21:199,1,140,6|0,1:2|1:0,0:0:0:0:
74,129,51237,2,0,B|110:159|110:159|154:133|214:130,1,140,12|0,0:0|1:0,0:0:0:0:
292,102,51703,2,0,P|297:55|306:27,1,70,12|0,0:0|1:0,0:0:0:0:
405,22,52013,5,0,1:0:0:0:
405,22,52169,2,0,B|445:55|443:112|443:112|418:153,1,140,12|0,0:0|1:0,0:0:0:0:
361,220,52626,2,0,P|326:209|285:203,1,70,12|0,0:0|1:0,0:0:0:0:
373,311,52931,2,0,P|407:305|440:294,1,70,12|0,0:0|0:0,0:0:0:0:
508,209,53237,5,6,1:2:0:0:
384,157,55692,5,6,1:2:0:0:
256,192,58156,6,0,B|211:208|211:208|144:190,1,97.9999970092774,6|0,1:2|0:0,0:0:0:0:
162,67,58777,2,0,B|207:51|207:51|274:69,1,97.9999970092774,6|0,1:2|0:0,0:0:0:0:
366,126,59399,6,0,B|357:164|357:164|364:183|364:183|351:235,1,97.9999970092774,6|0,1:2|0:0,0:0:0:0:
244,286,60014,2,0,B|253:248|253:248|246:229|246:229|259:177,1,97.9999970092774,6|0,1:2|0:0,0:0:0:0:
120,136,60629,6,0,P|74:141|61:146,1,56,6|0,1:2|0:0,0:0:0:0:
28,220,60942,2,0,P|54:227|82:228,1,56,6|0,1:2|0:0,0:0:0:0:
164,206,61255,5,6,1:2:0:0:
157,300,61397,1,8,0:0:0:0:
157,300,61469,1,8,0:0:0:0:
157,300,61540,2,0,L|167:341,3,31.4999990386963,8|8|8|8,0:0|0:0|0:0|0:0,0:0:0:0:
170,355,61826,5,8,0:0:0:0:
247,250,62478,6,0,P|266:245|284:238,3,35,6|0|8|8,1:2|0:0|0:0|0:0,0:0:0:0:
301,220,62778,2,0,P|320:225|338:232,3,35,8|8|8|8,0:0|0:0|0:0|0:0,0:0:0:0:
360,245,63078,6,0,B|411:231|411:231|455:253|455:253|515:234,1,154.000004699707,6|8,1:2|0:0,0:0:0:0:
507,137,63539,2,0,P|466:123|428:124,1,77.0000023498536,2|0,0:0|1:0,0:0:0:0:
386,33,63847,2,0,P|353:61|335:94,1,77.0000023498536,2|8,1:2|0:0,0:0:0:0:
243,127,64154,6,0,P|203:82|103:76,1,154.000004699707,2|2,1:2|1:2,0:0:0:0:
28,124,64616,2,0,P|34:162|42:212,1,77.0000023498536,10|0,0:2|0:2,0:2:0:0:
59,303,64924,1,2,1:2:0:0:
59,303,65078,1,0,1:0:0:0:
141,245,65231,2,0,P|182:245|219:263,1,77.0000023498536,8|0,0:0|0:0,0:0:0:0:
286,329,65539,5,6,1:2:0:0:
326,237,65693,1,2,1:2:0:0:
418,276,65848,2,0,P|457:270|497:264,1,77.0000023498536,8|2,0:0|0:0,0:0:0:0:
482,164,66157,2,0,P|443:170|403:176,1,77.0000023498536,0|2,1:2|1:2,0:0:0:0:
321,121,66466,1,8,0:0:0:0:
239,179,66621,6,0,P|175:209|95:163,1,154.000004699707,2|2,1:2|1:2,0:0:0:0:
62,83,67085,2,0,P|98:75|150:66,1,77.0000023498536,8|0,0:2|0:0,0:0:0:0:
239,53,67394,1,2,1:2:0:0:
239,53,67549,1,0,1:0:0:0:
337,36,67703,2,0,P|373:43|425:53,1,77.0000023498536,8|2,0:0|0:0,0:0:0:0:
492,135,68004,6,0,B|467:171|467:171|488:215|495:248,1,115.50000352478,6|0,1:2|0:0,0:0:0:0:
499,268,68310,2,0,P|452:282|416:275,1,77.0000023498536,10|0,0:0|0:0,0:0:0:0:
374,364,68617,2,0,P|338:330|326:295,1,77.0000023498536,2|0,1:2|1:0,0:0:0:0:
227,304,68924,2,0,P|238:256|262:228,1,77.0000023498536,10|0,0:0|0:0,0:0:0:0:
342,185,69231,6,0,P|249:183|202:117,2,154.000004699707,2|10|2,1:2|0:0|0:0,0:0:0:0:
426,131,69998,1,0,1:0:0:0:
405,33,70152,1,10,0:0:0:0:
314,58,70305,1,0,1:0:0:0:
314,58,70382,1,0,1:0:0:0:
313,58,70459,6,0,P|275:51|237:45,1,77.0000023498536,14|0,0:0|1:0,0:0:0:0:
135,130,70766,2,0,P|173:136|211:143,1,77.0000023498536,10|0,0:0|1:0,0:0:0:0:
108,228,71073,2,0,P|64:221|26:215,1,77.0000023498536,10|0,0:0|1:0,0:0:0:0:
5,119,71379,1,10,0:0:0:0:
93,43,71533,6,0,B|125:19|166:27|166:27|198:57|253:43,1,154.000004699707,6|0,1:2|1:0,0:0:0:0:
333,14,71993,1,8,0:0:0:0:
402,124,72147,2,0,B|393:154|393:154|398:165|398:165|388:206,1,77.0000023498536,6|0,1:2|0:0,0:0:0:0:
307,249,72454,1,0,1:2:0:0:
307,249,72530,1,0,1:0:0:0:
307,249,72607,2,0,P|266:241|226:252,1,77.0000023498536,10|0,0:0|0:0,0:0:0:0:
122,309,72922,6,0,B|90:303|90:303|81:305|81:305|46:297,1,77.0000023498536,6|0,1:2|1:0,0:0:0:0:
47,200,73230,2,0,B|79:194|79:194|88:196|88:196|130:187,1,77.0000023498536,10|0,0:0|0:0,0:0:0:0:
221,172,73539,2,0,P|231:238|246:335,1,154.000004699707,2|8,1:2|0:0,0:0:0:0:
332,373,74002,1,2,0:0:0:0:
424,335,74157,6,0,P|453:273|429:182,1,154.000004699707,2|8,1:2|0:0,0:0:0:0:
387,104,74620,2,0,B|309:112|327:50|244:57,1,154.000004699707,2|2,0:2|1:2,0:0:0:0:
152,93,75083,1,8,0:0:0:0:
90,13,75237,1,2,0:0:0:0:
11,96,75392,6,0,P|19:130|30:183,1,77.0000023498536,6|0,1:2|1:0,0:0:0:0:
109,241,75700,1,8,0:0:0:0:
109,241,75855,2,0,P|164:222|250:284,1,154.000004699707,2|0,0:0|1:0,0:0:0:0:
307,344,76318,2,0,P|346:335|395:329,1,77.0000023498536,8|0,0:0|0:0,0:0:0:0:
435,244,76627,6,0,P|396:238|359:229,1,77.0000023498536,2|0,1:2|1:0,0:0:0:0:
278,169,76933,1,8,0:0:0:0:
233,79,77086,2,0,P|170:55|83:107,1,154.000004699707,10|0,0:0|1:0,0:0:0:0:
70,186,77545,2,0,P|79:226|90:299,1,115.50000352478,12|0,0:0|0:0,0:0:0:0:
95,330,77851,2,0,P|132:338|169:325,1,77.0000023498536,6|0,1:2|1:0,0:0:0:0:
259,284,78159,6,0,B|276:318|276:318|273:368,1,77.0000023498536,10|0,0:2|1:0,0:0:0:0:
373,375,78468,2,0,B|402:340|402:340|374:207,1,154.000004699707,2|8,1:2|0:0,0:0:0:0:
312,156,78932,6,0,B|249:165|249:165|230:185|230:185|162:196,1,154.000004699707,2|0,0:0|1:0,0:0:0:0:
74,158,79395,1,8,0:0:0:0:
88,63,79549,2,0,B|128:47|148:17|148:17|183:43|226:42,1,154.000004699707,2|0,0:0|1:0,0:0:0:0:
319,27,80013,1,8,0:0:0:0:
400,125,80167,1,0,1:0:0:0:
400,125,80244,1,0,1:0:0:0:
400,125,80322,6,0,B|432:120|432:120|449:124|449:124|483:118,1,77.0000023498536,12|0,0:0|1:0,0:0:0:0:
511,229,80625,2,0,P|474:221|427:216,1,77.0000023498536,12|0,0:0|1:0,0:0:0:0:
318,220,80929,1,12,0:0:0:0:
381,297,81081,2,0,P|370:341|365:390,1,77.0000023498536,0|10,1:0|0:0,0:0:0:0:
250,377,81385,6,0,B|223:353|214:340|214:340|102:373,1,154.000004699707,6|0,1:2|1:0,0:0:0:0:
18,305,81840,2,0,B|5:266|5:266|19:226,1,77.0000023498536,12|0,0:0|1:0,0:0:0:0:
88,161,82154,2,0,P|112:166|135:171,3,38.5000011749268,8|8|8|8,0:3|0:3|0:3|0:3,0:0:0:0:
147,191,82468,2,0,B|197:179|197:179|208:181|208:181|262:169,1,115.50000352478,12|0,0:0|0:0,0:0:0:0:
287,163,82782,6,0,B|252:106|283:58|283:58|317:71,1,140,6|8,1:2|0:0,0:0:0:0:
405,93,83235,2,0,B|504:70|504:70|490:85|484:109,1,140,6|0,1:2|1:0,0:0:0:0:
505,199,83697,1,8,0:0:0:0:
426,257,83851,6,0,B|391:255|370:249|370:249|340:260|340:260|317:253|282:251,1,140,6|0,1:2|1:0,0:0:0:0:
203,300,84312,1,8,0:0:0:0:
122,244,84466,2,0,B|110:211|110:211|125:166,1,70,6|0,1:2|0:0,0:0:0:0:
224,162,84774,1,0,1:0:0:0:
224,162,84851,1,0,1:0:0:0:
224,162,84928,2,0,B|236:129|236:129|221:84,1,70,12|0,0:0|0:0,0:0:0:0:
156,25,85235,6,0,B|78:9|78:9|41:19|23:45,1,140,6|8,1:2|0:0,0:0:0:0:
3,134,85697,2,0,B|26:172|26:172|12:208|0:279,1,140,6|0,1:2|1:0,0:0:0:0:
63,342,86160,1,8,0:0:0:0:
129,269,86314,6,0,B|179:281|179:281|212:265|212:265|275:281,1,140,6|0,1:2|1:0,0:0:0:0:
355,306,86777,1,8,0:0:0:0:
437,253,86931,2,0,P|441:214|431:180,1,70,6|0,1:2|0:0,0:0:0:0:
375,104,87240,1,4,1:3:0:0:
300,167,87394,2,0,P|260:171|217:176,1,70,4|4,1:3|1:3,0:0:0:0:
124,135,87702,6,0,B|93:53|93:53|115:44|143:20,1,140,6|8,1:2|0:0,0:0:0:0:
234,12,88163,2,0,B|272:18|294:46|294:46|325:22|370:26,1,140,6|0,1:2|1:0,0:0:0:0:
448,64,88625,1,8,0:0:0:0:
406,153,88778,6,0,B|306:128|306:128|324:146|331:178,1,140,6|0,1:2|1:0,0:0:0:0:
280,246,89240,1,8,0:0:0:0:
194,199,89394,2,0,B|161:215|146:233|146:233|47:201,1,140,6|0,1:2|1:0,0:0:0:0:
3,281,89855,2,0,P|17:325|22:353,1,70,8|0,0:0|0:0,0:0:0:0:
133,355,90163,6,0,B|158:337|198:345|198:345|228:374|274:362,1,140,6|8,1:2|0:0,0:0:0:0:
356,321,90625,1,0,3:0:0:0:
356,321,90702,1,0,3:0:0:0:
356,321,90778,2,0,P|378:326|404:330,3,35,8|0|0|0,0:0|3:0|3:0|3:0,0:0:0:0:
405,351,91086,2,0,P|442:342|482:335,1,70,8|10,0:2|0:2,0:0:0:0:
492,158,91548,5,8,0:0:0:0:
492,158,91702,2,0,P|451:144|422:148,1,70,8|8,0:0|0:0,0:0:0:0:
340,198,92009,2,0,P|317:198|283:183,2,46.6666666666667,8|8|8,0:0|3:0|0:3,0:0:0:0:
275,169,92317,2,0,P|252:169|218:184,2,46.6666666666667,4|4|8,0:3|3:0|0:3,0:0:0:0:
210,197,92625,5,6,1:2:0:0:
263,204,97547,6,0,B|208:197|208:197|190:206|190:206|123:196,1,125.999996154785,6|0,1:2|1:0,0:0:0:0:
72,141,98008,1,8,0:0:0:0:
72,141,98162,2,0,P|66:104|77:71,1,62.9999980773926,0|0,1:0|0:0,0:0:0:0:
155,110,98470,2,0,P|184:86|218:79,1,62.9999980773926,0|2,1:0|0:0,0:0:0:0:
296,73,98777,5,0,1:0:0:0:
360,133,98931,2,0,P|351:190|341:267,1,125.999996154785,8|0,0:0|0:0,0:0:0:0:
330,349,99393,1,0,1:0:0:0:
330,349,99547,1,0,1:0:0:0:
251,308,99700,2,0,P|204:311|184:320,1,62.9999980773926,8|0,0:0|0:0,0:0:0:0:
111,359,100008,5,2,1:2:0:0:
111,359,100161,1,0,1:0:0:0:
40,306,100314,2,0,B|30:275|30:275|43:233,1,62.9999980773926,12|0,0:0|0:0,0:0:0:0:
75,165,100620,2,0,L|65:115,3,31.4999990386963,0|0|0|0,1:0|1:0|1:0|1:0,0:0:0:0:
46,121,100926,2,0,B|52:96|52:96|50:85|50:85|58:46,1,62.9999980773926,12|2,0:0|0:0,0:0:0:0:
55,59,101850,6,0,L|89:55,3,31.4999990386963,8|8|8|8,0:0|1:3|1:3|1:3,0:0:0:0:
108,43,102159,2,0,L|142:47,3,31.4999990386963,0|0|0|0,1:3|1:3|1:3|1:3,0:0:0:0:
167,42,102469,6,0,B|190:75|190:75|177:111,1,70,6|0,1:2|1:0,0:0:0:0:
146,190,102776,1,8,0:0:0:0:
146,190,102930,2,0,P|161:257|176:330,1,140,0|0,1:0|1:0,0:0:0:0:
250,381,103392,1,8,0:0:0:0:
326,331,103545,6,0,B|365:302|365:302|478:322,1,140,6|0,1:2|1:0,0:0:0:0:
508,244,104007,1,8,0:0:0:0:
508,244,104161,2,0,P|467:236|420:227,1,70,0|8,1:0|0:0,0:0:0:0:
365,176,104469,1,0,1:0:0:0:
432,117,104622,2,0,P|424:76|415:29,1,70,8|0,0:0|1:0,0:0:0:0:
399,35,104853,1,0,1:0:0:0:
399,35,104930,6,0,P|367:27|324:52,1,70,12|0,0:0|1:0,0:0:0:0:
244,21,105238,2,0,P|221:44|221:94,1,70,8|0,0:0|1:0,0:0:0:0:
146,139,105545,2,0,P|155:170|198:195,1,70,8|0,0:0|1:0,0:0:0:0:
263,237,105853,1,8,0:0:0:0:
188,289,106007,6,0,B|133:284|133:284|105:306|105:306|50:297,1,140,6|0,1:2|1:0,0:0:0:0:
4,229,106469,1,12,0:0:0:0:
4,229,106622,1,0,1:0:0:0:
43,146,106776,2,0,L|33:100,3,35,8|8|8|8,1:3|1:3|1:3|1:3,0:0:0:0:
14,92,107084,2,0,P|21:54|31:13,1,70,12|0,0:0|1:0,0:0:0:0:
119,16,107392,6,0,P|127:48|139:90,1,70,6|0,1:2|1:0,0:0:0:0:
171,173,107699,1,8,0:0:0:0:
171,173,107853,2,0,B|250:153|250:153|265:174|305:189,1,140,0|0,1:0|1:0,0:0:0:0:
384,215,108315,1,8,0:0:0:0:
470,186,108469,6,0,P|505:137|474:53,1,140,6|0,1:2|1:0,0:0:0:0:
419,11,108930,1,8,0:0:0:0:
419,11,109084,1,0,1:0:0:0:
330,33,109238,2,0,L|276:23,3,35,8|8|8|8,0:0|1:3|1:3|1:3,0:0:0:0:
272,9,109545,2,0,L|197:23,1,70,8|0,0:0|1:0,0:0:0:0:
100,3,109853,6,0,P|77:42|89:83,1,70,12|0,0:0|1:0,0:0:0:0:
130,149,110163,1,0,1:0:0:0:
218,107,110318,2,0,P|241:146|229:187,1,70,12|0,0:0|1:0,0:0:0:0:
187,253,110628,1,0,1:0:0:0:
270,315,110783,6,0,B|299:287|341:293|341:293|374:335|426:316,1,140,12|0,0:0|1:0,0:0:0:0:
482,263,111244,2,0,B|512:219|512:219|485:186|467:136,1,140,12|0,0:0|1:0,0:0:0:0:
414,54,111699,2,0,L|363:65,3,35,12|8|8|8,0:0|1:3|1:3|1:3,0:0:0:0:
356,77,112006,2,0,L|287:62,1,70,12|0,0:0|1:0,0:0:0:0:
230,152,112314,6,0,B|285:152|321:208|321:208|370:169|428:184,2,224,8|8|8,1:3|1:3|1:3,0:0:0:0:
113,15,113856,1,8,1:3:0:0:
0,155,114164,1,8,1:3:0:0:
151,250,114473,1,2,0:0:0:0:
0,384,114776,6,0,P|61:324|124:342,1,154.000004699707,6|8,1:2|0:0,0:0:0:0:
211,383,115238,2,0,P|221:341|231:289,1,77.0000023498536,2|0,0:0|1:0,0:0:0:0:
299,237,115547,1,0,1:2:0:0:
299,237,115701,2,0,P|289:195|279:143,1,77.0000023498536,8|0,0:0|0:0,0:0:0:0:
365,105,116009,6,0,B|398:115|429:145|429:145|469:123|523:129,1,154.000004699707,0|8,1:0|0:0,0:0:0:0:
490,27,116472,2,0,P|452:19|414:10,1,77.0000023498536,2|0,0:0|1:0,0:0:0:0:
320,33,116781,1,0,1:0:0:0:
320,33,116935,2,0,P|282:25|244:16,1,77.0000023498536,8|0,0:0|0:0,0:0:0:0:
145,0,117243,6,0,P|126:27|137:81,1,77.0000023498536,2|0,1:2|1:0,0:0:0:0:
65,147,117550,2,0,P|78:176|130:196,1,77.0000023498536,8|2,0:0|0:0,0:0:0:0:
183,278,117858,1,0,1:0:0:0:
183,278,118012,2,0,P|215:280|257:246,1,77.0000023498536,2|8,0:0|0:0,0:0:0:0:
325,188,118319,1,2,0:0:0:0:
241,119,118473,6,0,B|214:47|214:47|230:-5|293:11,1,154.000004699707,0|8,1:2|0:0,0:0:0:0:
364,62,118935,1,2,0:0:0:0:
453,1,119089,2,0,B|494:40|494:40|460:79|459:151,1,154.000004699707,0|12,1:2|0:0,0:0:0:0:
509,323,119695,6,0,P|443:263|366:289,1,154.000004699707,6|8,1:2|0:0,0:0:0:0:
289,242,120157,2,0,P|299:278|310:330,1,77.0000023498536,2|0,0:0|1:0,0:0:0:0:
230,382,120466,2,0,P|220:346|209:294,1,77.0000023498536,0|8,1:0|0:0,0:0:0:0:
155,224,120774,1,0,0:0:0:0:
68,274,120928,6,0,P|24:277|-2:257,1,77.0000023498536,2|0,1:2|1:0,0:0:0:0:
5,161,121237,1,8,0:0:0:0:
5,161,121391,2,0,B|83:180|83:180|107:143|152:140,1,154.000004699707,2|0,0:0|1:0,0:0:0:0:
235,102,121854,1,8,0:0:0:0:
301,181,122008,1,2,0:0:0:0:
389,139,122162,6,0,P|402:102|368:59,1,77.0000023498536,0|0,1:2|1:0,0:0:0:0:
317,4,122469,1,8,0:0:0:0:
317,4,122623,2,0,P|243:20|159:32,1,154.000004699707,2|0,0:0|1:0,0:0:0:0:
69,1,123085,1,8,0:0:0:0:
2,85,123238,6,0,P|58:145|127:127,1,154.000004699707,2|2,0:0|0:0,0:0:0:0:
217,180,123700,1,8,0:0:0:0:
149,264,123854,1,0,1:0:0:0:
226,338,124008,2,0,L|278:350,3,38.5000011749268,8|0|0|0,1:3|1:2|1:2|1:2,0:0:0:0:
285,369,124315,2,0,P|325:361|371:353,1,77.0000023498536,12|0,0:0|0:0,0:0:0:0:
471,327,124623,6,0,P|515:274|470:191,1,154.000004699707,6|12,1:2|0:0,0:0:0:0:
411,135,125085,2,0,P|400:174|388:223,1,77.0000023498536,2|0,0:0|1:0,0:0:0:0:
311,269,125392,1,0,1:0:0:0:
311,269,125546,2,0,P|322:308|334:357,1,77.0000023498536,8|0,0:0|0:0,0:0:0:0:
237,380,125854,6,0,B|195:343|195:343|88:365,1,154.000004699707,2|8,1:2|0:0,0:0:0:0:
0,338,126315,2,0,P|11:299|20:244,1,77.0000023498536,2|0,0:0|1:0,0:0:0:0:
68,178,126623,1,0,1:0:0:0:
68,178,126777,2,0,P|57:139|48:84,1,77.0000023498536,8|0,0:0|0:0,0:0:0:0:
108,11,127085,6,0,P|140:5|184:39,1,77.0000023498536,2|0,1:2|0:0,0:0:0:0:
283,6,127392,2,0,P|303:30|298:85,1,77.0000023498536,10|0,0:0|0:0,0:0:0:0:
371,159,127700,2,0,P|358:188|309:211,1,77.0000023498536,2|0,1:2|1:0,0:0:0:0:
226,165,128008,1,8,0:0:0:0:
226,165,128162,6,0,P|208:244|197:320,1,152.6525,2|0,0:0|1:0,0:0:0:0:
277,380,128620,1,8,0:0:0:0:
358,321,128773,2,0,P|392:314|450:304,1,77.0000023498536,10|0,0:0|1:0,0:0:0:0:
502,234,129078,1,0,1:0:0:0:
418,164,129231,1,12,0:0:0:0:
418,164,129387,1,0,0:0:0:0:
490,73,129543,6,0,B|482:40|482:40|486:34|486:34|478:-4,1,77.0000023498536,6|0,1:2|1:0,0:0:0:0:
378,3,129849,2,0,P|322:59|355:137,1,154.000004699707,8|0,0:0|1:0,0:0:0:0:
297,216,130309,1,0,1:0:0:0:
209,166,130463,1,8,0:0:0:0:
209,166,130616,1,0,0:0:0:0:
159,253,130769,6,0,P|171:293|181:336,1,77.0000023498536,2|0,1:2|1:0,0:0:0:0:
93,379,131076,1,8,0:0:0:0:
93,379,131229,2,0,P|28:337|47:266,1,154.000004699707,2|0,0:0|1:0,0:0:0:0:
0,179,131689,2,0,P|40:167|83:157,1,77.0000023498536,8|0,0:0|0:0,0:0:0:0:
158,78,132004,6,0,B|188:84|215:88|215:88|236:125|236:125|273:125|315:143,2,154.000004699707,6|10|0,1:2|0:0|1:0,0:0:0:0:
75,21,132777,1,0,1:0:0:0:
9,96,132931,2,0,P|21:136|31:179,1,77.0000023498536,10|0,0:0|0:0,0:0:0:0:
99,243,133241,6,0,P|142:248|176:222,1,77.0000023498536,0|0,1:0|1:0,0:0:0:0:
245,154,133548,1,10,0:0:0:0:
326,239,133702,1,8,0:0:0:0:
326,239,133779,1,8,0:0:0:0:
326,239,133856,2,0,P|314:275|305:313,1,77.0000023498536,10|10,0:0|0:0,0:0:0:0:
390,380,134164,1,10,0:0:0:0:
481,336,134317,6,0,B|507:308|507:308|484:280|472:218,1,125.999996154785,6|0,1:2|1:0,0:0:0:0:
502,146,134779,1,0,1:0:0:0:
502,146,134929,1,0,1:0:0:0:
418,89,135079,2,0,P|359:102|278:119,1,125.999996154785,12|0,0:0|0:0,0:0:0:0:
208,138,135540,2,0,P|191:209|223:253,1,125.999996154785,6|0,1:2|1:0,0:0:0:0:
289,310,136001,1,0,1:0:0:0:
289,310,136155,1,0,1:0:0:0:
216,380,136309,1,12,0:0:0:0:
1,226,136770,6,0,P|40:185|112:194,1,125.999996154785,6|0,1:2|1:0,0:0:0:0:
182,243,137232,1,0,1:0:0:0:
182,243,137386,1,0,1:0:0:0:
253,171,137540,2,0,P|240:111|222:23,1,125.999996154785,12|0,0:0|0:0,0:0:0:0:
303,2,138001,2,0,P|312:37|321:77,1,62.9999980773926,6|0,1:2|0:0,0:0:0:0:
383,131,138309,1,8,0:0:0:0:
383,131,138463,2,0,P|374:166|365:206,1,62.9999980773926,0|0,0:0|1:0,0:0:0:0:
412,282,138770,5,8,0:0:0:0:
348,360,138924,1,8,0:0:0:0:
261,305,139078,1,8,0:0:0:0:
196,382,139220,6,0,B|153:352|153:352|65:372,1,125.999996154785,6|0,1:2|1:0,0:0:0:0:
4,325,139706,1,0,1:0:0:0:
4,325,139859,1,0,1:0:0:0:
54,237,140012,2,0,P|120:247|198:259,1,125.999996154785,12|0,0:0|0:0,0:0:0:0:
258,217,140471,2,0,P|294:171|271:105,1,125.999996154785,6|0,1:2|1:0,0:0:0:0:
251,25,140930,2,0,P|216:31|167:40,1,62.9999980773926,0|0,1:0|1:0,0:0:0:0:
97,4,141236,5,8,0:2:0:0:
97,4,141390,1,0,1:0:0:0:
20,69,141544,1,8,0:0:0:0:
88,137,141698,6,0,B|72:183|72:183|92:217|92:217|71:278,1,140,6|0,1:2|0:0,0:0:0:0:
127,347,142160,1,8,0:0:0:0:
127,347,142314,2,0,P|165:338|208:329,1,70,2|0,0:0|1:0,0:0:0:0:
276,373,142623,1,2,0:0:0:0:
340,308,142777,2,0,P|348:268|314:234,1,70,8|0,0:0|0:0,0:0:0:0:
263,194,143085,5,0,1:0:0:0:
263,194,143240,2,0,P|275:127|289:43,1,140,2|2,0:0|0:0,0:0:0:0:
206,0,143702,2,0,L|158:10,3,35,2|8|8|8,1:2|0:0|0:0|0:0,0:0:0:0:
150,26,144011,2,0,L|102:16,3,35,8|8|8|8,1:2|0:0|0:0|0:0,0:0:0:0:
91,26,144319,6,0,P|58:77|94:145,1,125.999996154785,6|2,1:2|1:2,0:0:0:0:
168,274,144934,2,0,P|193:335|158:389,1,125.999996154785,2|2,1:2|1:2,0:0:0:0:
21,235,145549,6,0,P|68:222|142:202,1,105,6|0,1:2|0:0,0:0:0:0:
141,186,145861,2,0,P|179:192|226:201,1,70,4|4,1:3|1:3,0:0:0:0:
287,136,146162,1,4,1:3:0:0:
287,136,146313,1,8,0:0:0:0:
364,197,146464,1,8,0:0:0:0:
309,278,146614,1,8,0:0:0:0:
387,337,146765,6,0,B|431:329|431:329|438:324|438:324|490:316,3,97.9999970092774,6|0|0|0,1:2|1:2|1:2|1:2,0:0:0:0:
511,143,148006,2,0,B|467:135|467:135|460:130|460:130|408:122,3,97.9999970092774,2|0|0|0,1:2|1:2|1:2|1:2,0:0:0:0:
247,69,149236,6,0,B|225:88|225:88|209:123|239:165,3,97.9999970092774,2|0|0|0,1:2|1:2|1:2|1:2,0:0:0:0:
350,284,150467,2,0,B|372:265|372:265|388:230|358:188,3,97.9999970092774,2|0|0|0,1:2|1:2|1:2|1:0,0:0:0:0:
510,100,151698,6,0,P|461:90|408:82,1,97.9999970092774,6|0,1:2|1:0,0:0:0:0:
255,3,152313,2,0,P|206:10|158:20,1,97.9999970092774,0|0,1:0|1:0,0:0:0:0:
13,119,152929,2,0,P|62:129|115:137,1,97.9999970092774,2|0,1:2|1:0,0:0:0:0:
268,216,153544,2,0,P|316:208|364:198,1,97.9999970092774,0|0,1:0|1:0,0:0:0:0:
509,98,154159,5,2,1:2:0:0:
352,18,154467,1,0,1:0:0:0:
224,141,154775,1,0,1:2:0:0:
302,298,155082,1,0,1:0:0:0:
475,273,155390,6,0,P|482:243|494:204,1,56,2|0,1:2|0:0,0:0:0:0:
422,158,155698,2,0,P|414:184|407:212,1,56,2|0,1:2|0:0,0:0:0:0:
340,151,156006,2,0,P|347:121|359:82,1,56,2|0,1:2|0:0,0:0:0:0:
287,35,156313,2,0,P|279:61|272:89,1,56,2|0,1:2|0:0,0:0:0:0:
199,137,156621,6,0,P|144:91|88:113,1,125.999996154785,8|0,1:3|1:0,0:0:0:0:
10,85,157082,2,0,P|24:146|41:232,1,125.999996154785,8|0,1:3|0:0,0:0:0:0:
108,260,157544,2,0,P|94:321|77:407,1,125.999996154785,8|0,1:3|1:0,0:0:0:0:
261,384,158159,1,0,1:0:0:0:
261,384,158313,2,0,P|300:339|267:268,1,125.999996154785,8|0,1:3|0:0,0:0:0:0:
218,228,158775,1,8,1:3:0:0:
218,228,158929,1,0,0:0:0:0:
267,154,159082,6,0,P|258:95|245:23,1,125.999996154785,8|0,1:3|1:0,0:0:0:0:
330,1,159544,2,0,P|341:63|350:125,1,125.999996154785,8|0,1:3|0:0,0:0:0:0:
408,192,160006,2,0,P|466:208|517:149,1,125.999996154785,8|0,1:3|1:0,0:0:0:0:
511,348,160621,1,0,1:0:0:0:
511,348,160775,2,0,P|464:308|406:324,1,125.999996154785,8|0,1:3|0:0,0:0:0:0:
341,384,161236,1,8,1:3:0:0:
341,384,161390,1,0,0:0:0:0:
266,336,161544,6,0,P|254:273|239:194,1,125.999996154785,8|0,1:3|1:0,0:0:0:0:
181,148,162006,2,0,P|193:85|208:6,1,125.999996154785,8|0,1:3|0:0,0:0:0:0:
118,1,162467,2,0,P|75:50|94:118,1,125.999996154785,8|0,1:3|1:0,0:0:0:0:
143,277,163082,1,0,1:0:0:0:
143,277,163236,2,0,P|162:344|125:387,1,125.999996154785,8|0,1:3|0:0,0:0:0:0:
46,356,163698,2,0,P|40:324|32:285,1,62.9999980773926,8|0,1:3|0:0,0:0:0:0:
2,211,164006,6,0,P|48:164|115:183,1,125.999996154785,8|0,1:3|1:0,0:0:0:0:
188,196,164467,2,0,P|249:185|270:182,1,62.9999980773926,8|0,1:3|0:0,0:0:0:0:
320,130,164775,1,0,0:0:0:0:
320,130,164929,2,0,P|351:135|385:142,1,62.9999980773926,8|0,1:3|0:0,0:0:0:0:
464,200,165236,5,6,1:2:0:0:
508,384,166316,5,0,1:0:0:0:
508,384,166395,1,0,1:0:0:0:
508,384,166474,2,0,B|477:338|427:311|427:311|469:275|477:209,1,212.858333333334,12|0,0:0|0:0,0:0:0:0:
504,135,167073,1,8,0:0:0:0:
430,81,167227,2,0,P|389:88|348:95,1,70,4|0,1:2|0:0,0:0:0:0:
280,162,167535,6,0,P|225:103|249:38,1,140,6|0,1:2|1:0,0:0:0:0:
158,4,167996,2,0,L|109:13,3,35,8|8|8|8,0:0|0:0|0:0|0:0,0:0:0:0:
105,31,168304,2,0,L|70:24,3,35,8|8|8|8,1:3|1:3|1:3|1:3,0:0:0:0:
45,36,168616,2,0,B|28:68|28:68|43:120,1,70,12|0,0:0|0:0,0:0:0:0:
68,212,168929,6,0,B|157:179|157:179|188:195|200:235,1,154.000004699707,6|8,1:2|0:0,0:0:0:0:
229,322,169387,1,2,0:0:0:0:
229,322,169540,2,0,P|279:329|318:314,1,77.0000023498536,0|0,1:0|1:0,0:0:0:0:
395,281,169846,1,8,0:0:0:0:
321,213,169999,6,0,B|330:130|329:143|340:53,1,154.000004699707,2|0,1:2|1:0,0:0:0:0:
433,25,170457,2,0,P|451:67|448:105,1,77.0000023498536,10|0,0:2|0:0,0:0:0:0:
419,195,170764,1,2,1:2:0:0:
419,195,170918,1,0,1:0:0:0:
321,213,171072,2,0,P|281:204|236:197,1,77.0000023498536,8|2,0:0|0:0,0:0:0:0:
130,181,171380,6,0,B|116:203|106:215|106:215|116:259|126:299,1,115.50000352478,6|0,1:2|0:0,0:0:0:0:
130,316,171690,2,0,P|167:315|204:334,1,77.0000023498536,10|0,0:0|0:0,0:0:0:0:
298,363,172001,2,0,P|332:345|370:346,1,77.0000023498536,2|0,1:2|1:0,0:0:0:0:
471,376,172312,1,8,0:0:0:0:
471,376,172468,1,2,0:0:0:0:
505,282,172623,6,0,P|497:229|490:188,1,77.0000023498536,0|0,1:2|1:0,0:0:0:0:
476,105,172934,2,0,P|400:102|333:144,1,154.000004699707,10|2,0:2|1:2,0:0:0:0:
300,236,173392,1,0,1:0:0:0:
190,291,173544,2,0,B|153:302|153:302|108:293,1,77.0000023498536,12|0,0:0|1:0,0:0:0:0:
37,213,173850,5,6,1:2:0:0:
37,213,173926,1,0,1:3:0:0:
37,213,174003,2,0,P|45:168|49:130,1,77.0000023498536,0|0,1:3|1:3,0:0:0:0:
138,51,174311,1,6,1:2:0:0:
138,51,174388,1,0,1:0:0:0:
138,51,174464,2,0,P|143:89|150:127,1,77.0000023498536,0|0,1:0|1:0,0:0:0:0:
213,195,174772,1,10,0:0:0:0:
258,80,174926,6,0,B|351:51|351:51|365:71|410:92,1,154.000004699707,6|10,1:2|0:0,0:0:0:0:
495,98,175387,2,0,P|501:118|503:143,3,38.5000011749268,0|0|0|0,1:3|1:3|1:3|1:3,0:0:0:0:
489,158,175694,1,10,0:0:0:0:
259,248,176309,6,0,B|166:229|166:229|136:244|121:283,1,154.000004699707,6|10,1:2|0:0,0:0:0:0:
40,322,176771,2,0,P|28:287|32:239,1,77.0000023498536,2|0,0:0|1:0,0:0:0:0:
78,159,177080,2,0,P|70:123|61:71,1,77.0000023498536,2|8,1:2|0:0,0:0:0:0:
151,35,177388,6,0,P|199:69|293:48,1,154.000004699707,2|2,1:2|1:2,0:0:0:0:
383,20,177851,2,0,P|437:29|468:35,1,77.0000023498536,10|0,0:0|0:0,0:0:0:0:
506,127,178159,1,2,1:2:0:0:
506,127,178314,1,0,1:0:0:0:
412,163,178468,2,0,P|421:217|427:248,1,77.0000023498536,8|2,0:0|0:0,0:0:0:0:
441,337,178776,5,0,1:2:0:0:
352,383,178931,1,0,1:0:0:0:
280,313,179085,2,0,P|233:313|204:328,1,77.0000023498536,8|2,0:0|0:0,0:0:0:0:
116,371,179393,2,0,P|69:371|40:356,1,77.0000023498536,0|0,1:2|1:0,0:0:0:0:
1,266,179702,1,8,0:0:0:0:
47,177,179856,6,0,B|128:165|106:235|203:215,1,154.000004699707,2|0,1:2|1:0,0:0:0:0:
270,157,180319,1,10,0:0:0:0:
178,116,180472,1,8,0:0:0:0:
239,38,180626,2,0,P|278:44|318:51,1,77.0000023498536,2|0,1:2|1:0,0:0:0:0:
371,134,180934,2,0,P|410:128|450:121,1,77.0000023498536,12|2,0:0|0:0,0:0:0:0:
510,239,181242,6,0,B|487:274|487:274|510:310|512:346,1,115.50000352478,6|0,1:2|0:0,0:0:0:0:
491,366,181549,2,0,P|455:361|413:372,1,77.0000023498536,10|0,0:0|0:0,0:0:0:0:
380,252,181857,2,0,P|357:280|346:322,1,77.0000023498536,2|0,1:2|1:0,0:0:0:0:
226,288,182165,2,0,P|239:321|270:352,1,77.0000023498536,10|0,0:0|0:0,0:0:0:0:
279,202,182472,6,0,P|267:125|254:38,2,154.000004699707,2|10|2,1:2|0:0|0:0,0:0:0:0:
226,288,183242,1,0,1:0:0:0:
146,226,183395,2,0,B|154:198|154:198|150:182|150:182|159:147,1,77.0000023498536,12|0,0:0|0:0,0:0:0:0:
36,127,183692,6,0,B|53:178|53:178|40:214|40:214|61:280,1,154.000004699707,12|0,0:0|1:0,0:0:0:0:
114,357,184158,2,0,P|164:360|210:344,1,77.0000023498536,12|0,1:2|1:0,0:0:0:0:
271,292,184469,1,0,1:0:0:0:
271,292,184546,1,0,1:0:0:0:
271,292,184624,1,10,0:0:0:0:
159,221,184777,6,0,B|148:185|148:185|165:139,1,77.0000023498536,6|0,1:2|0:0,0:0:0:0:
204,61,185084,1,0,1:0:0:0:
204,61,185161,1,0,1:0:0:0:
204,61,185238,1,10,0:0:0:0:
323,113,185392,2,0,B|359:124|359:124|405:107,1,77.0000023498536,6|0,1:2|0:0,0:0:0:0:
496,81,185700,1,0,1:0:0:0:
496,81,185777,1,0,1:0:0:0:
496,81,185854,2,0,P|511:121|505:163,1,77.0000023498536,10|0,0:0|0:0,0:0:0:0:
400,230,186161,6,0,B|405:263|405:263|411:270|411:270|417:308,1,77.0000023498536,6|0,1:2|1:0,0:0:0:0:
343,373,186470,1,10,0:0:0:0:
343,373,186624,1,0,0:0:0:0:
251,331,186779,2,0,P|192:362|102:344,1,154.000004699707,2|8,1:2|0:0,0:0:0:0:
20,299,187243,1,2,0:0:0:0:
76,213,187398,6,0,P|70:178|63:127,1,77.0000023498536,0|0,1:2|1:0,0:0:0:0:
54,37,187707,1,8,0:0:0:0:
148,71,187862,2,0,B|231:82|210:17|306:33,1,154.000004699707,2|0,0:0|1:0,0:0:0:0:
392,40,188325,1,8,0:0:0:0:
323,112,188480,1,2,0:0:0:0:
451,131,188635,6,0,B|460:155|460:155|444:211,1,77.0000023498536,6|0,1:2|1:0,0:0:0:0:
409,300,188941,1,8,0:0:0:0:
409,300,189094,2,0,P|336:317|258:265,1,154.000004699707,2|0,0:0|1:0,0:0:0:0:
177,239,189553,2,0,P|138:246|99:252,1,77.0000023498536,8|0,0:0|0:0,0:0:0:0:
25,185,189859,6,0,P|16:146|24:106,1,77.0000023498536,0|0,1:2|1:0,0:0:0:0:
62,17,190165,1,8,0:0:0:0:
142,77,190318,2,0,B|219:62|201:65|308:45,1,154.000004699707,8|0,0:0|1:0,0:0:0:0:
391,27,190777,2,0,B|396:63|413:79|413:79|393:99|389:142,1,115.50000352478,12|0,0:0|0:0,0:0:0:0:
383,161,191083,2,0,P|340:153|296:148,1,77.0000023498536,6|0,1:2|1:0,0:0:0:0:
207,164,191392,6,0,B|191:201|191:201|204:249,1,77.0000023498536,10|0,0:0|0:0,0:0:0:0:
264,313,191701,2,0,B|312:297|312:297|354:341|416:322,1,154.000004699707,0|8,1:0|0:0,0:0:0:0:
472,248,192165,6,0,B|486:180|486:180|472:157|472:157|485:79,1,153.363466666667,2|0,0:0|1:0,0:0:0:0:
409,30,192626,1,8,0:0:0:0:
315,65,192780,2,0,B|218:95|218:95|199:73|165:55,1,154.000004699707,2|0,0:0|1:0,0:0:0:0:
85,21,193240,1,10,0:0:0:0:
21,121,193394,1,0,1:0:0:0:
21,121,193470,1,0,1:0:0:0:
21,121,193547,6,0,B|26:153|26:153|24:160|24:160|34:200,1,77.0000023498536,12|0,0:0|1:0,0:0:0:0:
118,295,193851,2,0,P|124:257|131:219,1,77.0000023498536,12|0,0:0|1:0,0:0:0:0:
235,166,194155,1,12,0:0:0:0:
247,265,194307,2,0,P|283:276|324:270,1,77.0000023498536,0|8,1:0|0:0,0:0:0:0:
438,209,194611,6,0,B|421:157|421:157|439:120|439:120|421:58,1,154.000004699707,6|0,1:2|1:0,0:0:0:0:
337,10,195067,2,0,P|294:8|258:20,1,77.0000023498536,12|0,0:0|0:0,0:0:0:0:
196,95,195376,2,0,P|169:90|152:87,3,38.5000011749268,6|8|8|8,1:2|0:0|0:0|0:0,0:0:0:0:
137,65,195685,2,0,P|110:70|93:73,3,38.5000011749268,10|8|8|8,1:2|0:0|0:0|0:0,0:0:0:0:
80,93,195994,6,0,B|45:84|45:84|7:94,1,70,6|0,1:2|1:0,0:0:0:0:
11,198,196304,2,0,B|46:207|46:207|84:197,1,70,12|2,0:0|0:0,0:0:0:0:
167,177,196614,2,0,P|180:244|193:320,1,140,0|8,1:0|0:0,0:0:0:0:
274,355,197079,6,0,P|307:343|343:342,1,70,2|0,0:0|1:0,0:0:0:0:
431,361,197389,1,0,1:0:0:0:
495,297,197544,2,0,P|498:261|480:214,1,70,8|2,0:0|0:0,0:0:0:0:
457,148,197854,1,0,1:0:0:0:
457,148,198007,1,0,1:0:0:0:
376,189,198161,2,0,P|337:182|301:176,1,70,10|0,0:0|0:0,0:0:0:0:
245,109,198469,6,0,P|241:69|225:37,1,70,2|0,1:2|1:0,0:0:0:0:
137,42,198776,2,0,P|123:73|120:108,1,70,8|2,0:0|0:0,0:0:0:0:
169,186,199084,2,0,P|119:151|26:170,1,140,0|8,1:2|0:0,0:0:0:0:
30,249,199545,6,0,P|80:284|173:265,1,140,2|0,0:0|1:0,0:0:0:0:
239,240,200007,1,8,0:0:0:0:
230,330,200161,1,8,0:0:0:0:
314,294,200315,2,0,P|327:331|328:369,1,70,0|0,1:0|1:0,0:0:0:0:
419,361,200622,2,0,P|421:326|433:293,1,70,12|0,0:0|0:0,0:0:0:0:
482,195,200930,6,0,B|491:171|491:171|481:123,1,70,6|0,1:2|1:0,0:0:0:0:
395,91,201245,2,0,P|367:132|388:231,1,140,10|2,0:0|1:2,0:0:0:0:
432,293,201706,1,0,1:0:0:0:
357,345,201860,2,0,P|324:351|286:342,1,70,10|0,0:0|0:0,0:0:0:0:
205,301,202168,6,0,P|130:316|48:329,1,140,2|8,1:2|0:0,0:0:0:0:
48,237,202623,2,0,P|116:225|185:212,1,140,2|0,0:0|1:0,0:0:0:0:
253,150,203079,1,8,0:0:0:0:
253,150,203231,1,2,0:0:0:0:
315,85,203383,6,0,P|358:66|420:79,1,105,0|0,1:2|0:0,0:0:0:0:
431,97,203690,2,0,P|423:133|420:168,1,70,10|0,0:0|1:0,0:0:0:0:
349,225,203998,2,0,P|357:261|360:296,1,70,10|0,0:0|1:0,0:0:0:0:
315,374,204306,1,2,1:2:0:0:
231,338,204459,6,0,B|146:359|146:359|129:339|101:323,1,140,12|0,0:0|1:0,0:0:0:0:
20,292,204921,2,0,P|15:255|28:219,1,70,12|0,0:0|0:0,0:0:0:0:
66,142,205232,2,0,L|57:98,3,35,10|0|0|0,0:0|1:0|1:0|1:0,0:0:0:0:
34,93,205543,2,0,P|39:58|46:20,1,70,12|2,0:0|0:0,0:0:0:0:
149,10,205854,6,0,P|168:44|171:84,1,70,6|0,1:2|1:0,0:0:0:0:
258,103,206161,2,0,P|238:136|204:159,1,70,10|0,0:0|1:0,0:0:0:0:
231,244,206468,2,0,P|192:243|155:226,1,70,10|0,0:0|0:0,0:0:0:0:
91,185,206776,5,2,1:2:0:0:
91,185,206930,1,8,0:0:0:0:
32,255,207083,2,0,P|42:303|46:330,1,70,2|0,0:0|1:0,0:0:0:0:
119,377,207391,2,0,P|166:342|256:348,1,140,10|0,0:0|1:0,0:0:0:0:
331,370,207852,1,0,1:0:0:0:
417,340,208006,2,0,P|423:304|415:267,1,70,8|2,0:0|0:0,0:0:0:0:
321,225,208313,6,0,B|288:236|288:236|248:228,1,70,6|0,1:2|0:0,0:0:0:0:
240,138,208621,2,0,P|279:129|320:138,1,70,10|0,0:0|1:0,0:0:0:0:
398,166,208928,1,10,0:0:0:0:
398,166,209082,2,0,P|423:117|386:38,1,140,0|8,1:0|0:0,0:0:0:0:
303,20,209543,6,0,B|204:34|240:28|149:42,1,140,2|8,0:0|0:0,0:0:0:0:
92,96,210005,2,0,P|85:128|92:177,1,70,2|0,0:0|1:0,0:0:0:0:
114,252,210312,1,0,1:0:0:0:
199,219,210466,2,0,P|230:225|274:233,1,70,8|0,0:0|0:0,0:0:0:0:
371,249,210761,6,0,P|408:250|443:238,1,70,6|0,1:2|1:0,0:0:0:0:
394,160,211071,2,0,P|413:128|420:92,1,70,10|0,0:0|1:0,0:0:0:0:
328,96,211381,2,0,P|310:63|282:39,1,70,10|0,0:0|1:0,0:0:0:0:
201,6,211691,5,6,1:2:0:0:
177,94,211846,1,8,0:0:0:0:
92,59,212001,2,0,B|64:92|64:92|101:195,1,140,2|8,1:2|0:2,0:0:0:0:
226,310,212621,6,0,P|254:302|286:303,2,46.6666666666667,8|8|8,1:3|1:3|1:3,0:0:0:0:
296,285,212931,2,0,P|324:293|356:292,2,46.6666666666667,0|0|0,1:3|1:3|1:3,0:0:0:0:
361,276,213234,5,6,1:2:0:0:
256,192,213310,12,12,217852,0:2:0:0:
