osu file format v14

[General]
AudioFilename: audio.mp3
AudioLeadIn: 0
PreviewTime: 146162
Countdown: 0
SampleSet: Soft
StackLeniency: 0.7
Mode: 0
LetterboxInBreaks: 0
WidescreenStoryboard: 1

[Editor]
Bookmarks: 1543,43397,82782,114776,156621
DistanceSpacing: 1.6
BeatDivisor: 4
GridSize: 32
TimelineZoom: 2.2

[Metadata]
Title:SIREN
TitleUnicode:SIREN
Artist:PassCode
ArtistUnicode:PassCode
Creator:Akitoshi
Version:Mimitoshi's Extreme
Source:
Tags:Corinn -Laura- Amats Mimiliaa Hojo Karen Suzuhara Lulu Hitsukuya Mimilie SupaV Japanese Pop Rock 高嶋楓 Takashima Kaede 南菜生 Minami Nao 大上陽奈子 Oogami Hinako 有馬えみり Arima Emily REVERBERATE ep.
BeatmapID:3988746
BeatmapSetID:1912647

[Difficulty]
HPDrainRate:5.8
CircleSize:4.1
OverallDifficulty:9
ApproachRate:9.3
SliderMultiplier:1.7
SliderTickRate:2

[Events]
//Background and Video events
Video,120,"Passcode - Siren-1-1.mp4"
0,0,"kok.jpg",0,0
//Break Periods
2,92825,96933
//Storyboard Layer 0 (Background)
//Storyboard Layer 1 (Fail)
//Storyboard Layer 2 (Pass)
//Storyboard Layer 3 (Foreground)
//Storyboard Layer 4 (Overlay)
//Storyboard Sound Samples

[TimingPoints]
321,305.732484076433,4,2,5,30,1,0
1085,-100,4,2,5,60,0,0
1543,312.5,4,2,5,60,1,0
1543,-166.666666666667,4,2,5,60,0,0
2168,307.692307692308,4,2,5,60,1,0
2168,-166.666666666667,4,2,5,60,0,0
2783,307.692307692308,4,2,5,60,1,0
2783,-166.666666666667,4,2,5,60,0,0
4013,306.122448979592,4,2,5,60,1,0
4013,-166.666666666667,4,2,5,60,0,0
5237,307.29833546735,4,2,5,60,1,0
5237,-166.666666666667,4,2,5,60,0,0
6696,-166.666666666667,4,2,5,5,0,0
6773,-166.666666666667,4,2,5,60,0,0
7925,-166.666666666667,4,2,5,5,0,0
8002,-166.666666666667,4,2,5,60,0,0
8617,292.682926829268,4,2,5,60,1,0
8617,-166.666666666667,4,2,5,60,0,0
8909,307.692307692308,4,2,5,60,1,0
8909,-166.666666666667,4,2,5,60,0,0
9678,-125,4,2,5,70,0,0
10139,311.688311688312,4,2,5,70,1,0
11074,-76.923076923077,4,2,5,70,0,0
11307,-76.923076923077,4,2,5,5,0,0
11385,309.278350515464,4,2,5,70,1,0
13549,-142.857142857143,4,2,5,70,0,0
13780,-142.857142857143,4,2,5,5,0,0
13859,307.495195387572,4,2,5,70,1,0
23621,-100,4,2,5,5,0,0
23698,307.692307692308,4,2,5,60,1,0
23698,-142.857142857143,4,2,5,60,0,0
26159,309.677419354839,4,2,5,60,1,0
26159,-142.857142857143,4,2,5,60,0,0
28636,307.692307692308,4,2,5,60,1,0
28636,-142.857142857143,4,2,5,60,0,0
28866,-142.857142857143,4,2,5,5,0,0
28943,-142.857142857143,4,2,5,60,0,0
31097,305.343511450382,4,2,5,60,1,0
31097,-142.857142857143,4,2,5,60,0,0
31326,-142.857142857143,4,2,5,5,0,0
31402,-142.857142857143,4,2,5,60,0,0
33234,-90.909090909091,4,2,5,60,0,0
33463,-90.909090909091,4,2,5,5,0,0
33539,310.077519379845,4,2,5,60,1,0
33539,-125,4,2,5,60,0,0
35709,302.648171500631,4,2,5,60,1,0
36011,307.692307692308,4,2,5,60,1,0
36011,-125,4,2,5,60,0,0
36241,-125,4,2,5,5,0,0
36318,-125,4,2,5,60,0,0
38472,308.08729139923,4,2,5,60,1,0
38472,-125,4,2,5,60,0,0
38703,-125,4,2,5,5,0,0
38780,-125,4,2,5,60,0,0
42785,306.122448979592,4,2,5,60,1,0
43397,306.513409961686,4,2,5,70,1,0
45849,307.692307692308,4,2,5,70,1,0
49464,-100,4,2,5,5,0,0
49541,-100,4,2,5,70,0,0
50772,310.478654592497,4,2,5,70,1,0
52479,294.117647058824,4,2,5,70,1,0
52626,305.732484076433,4,2,5,70,1,0
53237,307.692307692308,4,2,5,60,1,0
53237,-200,4,2,5,60,0,0
55390,302.267002518892,4,2,5,60,1,0
55692,309.278350515464,4,2,5,60,1,0
57547,304.568527918782,4,2,5,60,1,0
58156,310.880829015544,4,2,5,60,1,0
58156,-142.857142857143,4,2,5,60,0,0
59399,307.692307692308,4,2,5,60,1,0
60629,313.31592689295,4,2,5,60,1,0
60629,-125,4,2,5,60,0,0
61255,285.714285714286,4,2,5,70,1,0
61397,-111.111111111111,4,2,5,70,0,0
61826,326.086956521739,4,2,5,70,1,0
62478,300,4,2,5,70,1,0
63078,307.692307692308,4,2,5,80,1,1
63078,-90.909090909091,4,2,5,80,0,1
63308,-90.909090909091,4,2,5,5,0,1
63385,-90.909090909091,4,2,5,80,0,1
65539,309.278350515464,4,2,5,80,1,1
65539,-90.909090909091,4,2,5,80,0,1
67703,301.507537688442,4,2,5,80,1,1
67703,-90.9090909090909,4,2,5,80,0,1
68004,306.90537084399,4,2,5,80,1,1
68004,-90.909090909091,4,2,5,80,0,1
68234,-90.909090909091,4,2,5,5,0,1
68310,-90.909090909091,4,2,5,80,0,1
72607,315.789473684211,4,2,5,80,1,1
72607,-90.909090909091,4,2,5,80,0,1
72922,308.761096101891,4,2,5,80,1,1
72922,-90.909090909091,4,2,5,80,0,1
76627,306.122448979592,4,2,5,80,1,1
76627,-76.9230769230769,4,2,5,80,0,1
77545,-76.9230769230769,4,2,5,80,0,1
77773,-90.909090909091,4,2,5,5,0,1
77851,308.880308880309,4,2,5,80,1,1
77851,-90.909090909091,4,2,5,80,0,1
80322,303.79746835443,4,2,5,80,1,1
80322,-90.909090909091,4,2,5,80,0,1
81840,314.13612565445,4,2,5,80,1,1
81840,-90.9090909090909,4,2,5,80,0,1
82468,-66.6666666666667,4,2,5,80,0,1
82703,-66.6666666666667,4,2,5,5,0,1
82782,300,4,2,5,70,1,0
83082,307.692307692308,4,2,5,70,1,0
84005,307.692307692308,4,2,5,70,1,0
85158,-100,4,2,5,70,0,0
85235,308.483290488432,4,2,5,70,1,0
87240,-71.4285714285714,4,2,5,70,0,0
87317,-71.4285714285714,4,2,5,5,0,0
87394,-71.4285714285714,4,2,5,70,0,0
87471,-71.4285714285714,4,2,5,5,0,0
87548,-71.4285714285714,4,2,5,70,0,0
87625,-71.4285714285714,4,2,5,5,0,0
87702,307.692307692308,4,2,5,70,1,0
92625,303.79746835443,4,2,5,60,1,0
93232,307.692307692308,4,2,5,60,1,0
93847,307.692307692308,4,2,5,60,1,0
95077,310.880829015544,4,2,5,60,1,0
96320,306.90537084399,4,2,5,60,1,0
97547,307.692307692308,4,2,5,60,1,0
97547,-125,4,2,5,60,0,0
100008,306.122448979592,4,2,5,60,1,0
100008,-125,4,2,5,60,0,0
101232,309.278350515464,4,2,5,60,1,0
101232,-125,4,2,5,60,0,0
101850,-111.111111111111,4,2,5,60,0,0
102469,307.692307692308,4,2,5,70,1,0
109853,310.077519379845,4,2,5,70,1,0
111093,303.030303030303,4,2,5,70,1,0
111699,307.692307692308,4,2,5,70,1,0
112314,308.483290488432,4,2,5,70,1,0
112314,-83.3333333333333,4,2,5,70,0,0
114473,303.030303030303,4,2,5,70,1,0
114473,-500,4,2,5,70,0,0
114776,308.483290488432,4,2,5,80,1,1
114776,-90.9090909090909,4,2,5,80,0,1
117243,307.692307692308,4,2,5,80,1,1
117243,-90.9090909090909,4,2,5,80,0,1
119089,303.030303030303,4,2,5,80,1,1
119089,-90.9090909090909,4,2,5,80,0,1
119617,-90.9090909090909,4,2,5,5,0,1
119695,308.483290488432,4,2,5,80,1,1
119695,-90.9090909090909,4,2,5,80,0,1
122162,307.692307692308,4,2,5,80,1,1
122162,-90.9090909090909,4,2,5,80,0,1
127315,-90.9090909090909,4,2,5,5,0,1
127392,-90.9090909090909,4,2,5,80,0,1
128315,305.343511450382,4,2,5,80,1,1
128315,-90.9090909090909,4,2,5,80,0,1
129231,312.5,4,2,5,80,1,1
129231,-90.9090909090909,4,2,5,80,0,1
129543,306.709265175719,4,2,5,80,1,1
129543,-90.9090909090909,4,2,5,80,0,1
131689,315.789473684211,4,2,5,80,1,1
131689,-90.9090909090909,4,2,5,80,0,1
132004,309.278350515464,4,2,5,80,1,1
132004,-90.9090909090909,4,2,5,80,0,1
132235,-90.9090909090909,4,2,5,5,0,1
132313,-90.9090909090909,4,2,5,80,0,1
133241,307.692307692308,4,2,5,80,1,1
133241,-90.9090909090909,4,2,5,80,0,1
134317,-142.857142857143,4,2,5,70,0,0
134779,300,4,2,5,70,1,0
134779,-142.857142857143,4,2,5,70,0,0
135079,307.692307692308,4,2,5,70,1,0
135079,-142.857142857143,4,2,5,70,0,0
135694,307.692307692308,4,2,5,70,1,0
135694,-142.857142857143,4,2,5,70,0,0
139078,285.714285714286,4,2,5,70,1,0
139078,-142.857142857143,4,2,5,70,0,0
139220,324.324324324324,4,2,5,70,1,0
139220,-142.857142857143,4,2,5,70,0,0
139382,324.324324324324,4,2,5,70,1,0
139382,-142.857142857143,4,2,5,70,0,0
139706,306.122448979592,4,2,5,70,1,0
139706,-142.857142857143,4,2,5,70,0,0
140624,306.122448979592,4,2,5,70,1,0
140624,-142.857142857143,4,2,5,70,0,0
141236,308.483290488432,4,2,5,70,1,0
141236,-142.857142857143,4,2,5,70,0,0
141698,-125,4,2,5,70,0,0
141852,308.483290488432,4,2,5,70,1,0
141852,-125,4,2,5,70,0,0
144319,307.692307692308,4,2,5,70,1,0
144319,-111.111111111111,4,2,5,70,0,0
145549,312.5,4,2,5,70,1,0
145861,301.507537688442,4,2,5,70,1,0
146765,310.478654592497,4,2,5,60,1,0
146765,-166.666666666667,4,2,5,60,0,0
148006,307.692307692308,4,2,5,60,1,0
148006,-166.666666666667,4,2,5,60,0,0
151929,-166.666666666667,4,2,5,5,0,0
152006,-166.666666666667,4,2,5,60,0,0
153159,-166.666666666667,4,2,5,5,0,0
153236,-166.666666666667,4,2,5,60,0,0
155698,-142.857142857143,4,2,5,60,0,0
156006,-125,4,2,5,60,0,0
156313,-111.111111111111,4,2,5,60,0,0
156621,-100,4,2,5,70,0,0
166159,315.789473684211,4,2,5,70,1,0
166474,292.682926829268,4,2,5,70,1,0
166766,307.692307692308,4,2,5,70,1,0
167689,307.692307692308,4,2,5,70,1,0
168304,312.5,4,2,5,70,1,0
168850,-100,4,2,5,5,0,0
168929,305.732484076433,4,2,5,80,1,1
168929,-90.9090909090909,4,2,5,80,0,1
170457,307.692307692308,4,2,5,80,1,1
170457,-90.9090909090909,4,2,5,80,0,1
171380,310.880829015544,4,2,5,80,1,1
171380,-90.9090909090909,4,2,5,80,0,1
171613,-90.9090909090909,4,2,5,5,0,1
171690,-90.9090909090909,4,2,5,80,0,1
172934,305.343511450382,4,2,5,80,1,1
172934,-90.9090909090909,4,2,5,80,0,1
173850,307.495195387572,4,2,5,80,1,1
174157,-90.9090909090909,4,2,5,80,0,1
175694,-166.666666666667,4,2,5,80,0,0
175848,-166.666666666667,4,2,0,5,0,0
176309,308.483290488432,4,2,5,80,1,1
176309,-83.3333333333333,4,2,5,80,0,1
180319,307.692307692308,4,2,5,80,1,1
180626,-83.3333333333333,4,2,5,80,0,1
181242,307.692307692308,4,2,5,80,1,1
181242,-83.3333333333333,4,2,5,80,0,1
181472,-83.3333333333333,4,2,5,5,0,1
181549,-83.3333333333333,4,2,5,80,0,1
183395,297.029702970297,4,2,5,80,1,1
183395,-83.3333333333333,4,2,5,80,0,1
183692,310.880829015544,4,2,5,80,1,1
184002,-83.3333333333333,4,2,5,80,0,1
184624,307.692307692308,4,2,5,80,1,1
184624,-83.3333333333333,4,2,5,80,0,1
184931,307.692307692308,4,2,5,80,1,1
185238,-83.3333333333333,4,2,5,80,0,1
186161,309.278350515464,4,2,5,80,1,1
186470,-83.3333333333333,4,2,5,80,0,1
188635,306.122448979592,4,2,5,80,1,1
188635,-83.3333333333333,4,2,5,80,0,1
191007,-83.3333333333333,4,2,5,5,0,1
191083,309.278350515464,4,2,5,80,1,1
191083,-83.3333333333333,4,2,5,80,0,1
192320,306.90537084399,4,2,5,80,1,1
192780,-83.3333333333333,4,2,5,80,0,1
193547,304.182509505703,4,2,5,80,1,1
194611,-83.3333333333333,4,2,5,80,0,1
195067,309.278350515464,4,2,5,80,1,1
195067,-83.3333333333333,4,2,5,80,0,1
195994,310.077519379845,4,2,5,80,1,0
195994,-90.9090909090909,4,2,5,80,0,0
197854,307.692307692308,4,2,5,80,1,0
198161,-90.9090909090909,4,2,5,80,0,0
198469,307.692307692308,4,2,5,80,1,0
198622,-90.9090909090909,4,2,5,80,0,0
200853,-90.9090909090909,4,2,5,5,0,0
200930,315.789473684211,4,2,5,80,1,0
200930,-90.9090909090909,4,2,5,80,0,0
201245,307.692307692308,4,2,5,80,1,0
201245,-90.9090909090909,4,2,5,80,0,0
202168,303.79746835443,4,2,5,80,1,0
202168,-90.9090909090909,4,2,5,80,0,0
203383,307.692307692308,4,2,5,80,1,0
203383,-90.9090909090909,4,2,5,80,0,0
203613,-90.9090909090909,4,2,5,5,0,0
203690,-90.9090909090909,4,2,5,80,0,0
204921,311.284046692607,4,2,5,80,1,0
204921,-90.9090909090909,4,2,5,80,0,0
205854,307.495195387572,4,2,5,80,1,0
205854,-83.3333333333333,4,2,5,80,0,0
210466,295.566502463054,4,2,5,80,1,0
210466,-83.3333333333333,4,2,5,80,0,0
210761,310.077519379845,4,2,5,80,1,0
210761,-83.3333333333333,4,2,5,80,0,0
212931,303.030303030303,4,2,5,80,1,0
212931,-83.3333333333333,4,2,5,80,0,0
213234,307.889672867223,4,2,5,80,1,0
213234,-250.000000000001,4,2,5,80,0,0
213387,-250.000000000001,4,2,0,5,0,0
217852,-100,4,2,5,80,0,0
218160,-100,4,2,5,5,0,0

[Colours]
Combo1 : 255,255,102
Combo2 : 111,111,255
Combo3 : 0,215,215
Combo4 : 255,136,196

[HitObjects]
138,109,321,5,4,0:0:0:0:
144,124,626,1,4,0:0:0:0:
150,139,932,1,4,0:0:0:0:
203,237,1085,5,0,1:0:0:0:
203,237,1161,1,0,1:0:0:0:
203,237,1238,2,0,P|246:243|295:219,1,85,8|0,0:0|0:0,0:0:0:0:
364,142,1543,6,0,L|426:152,1,50.9999984436036,6|0,1:2|3:0,0:0:0:0:
333,63,1855,2,0,L|343:1,1,50.9999984436036,0|0,1:2|3:0,0:0:0:0:
263,101,2168,2,0,L|201:91,1,50.9999984436036,0|0,1:2|3:0,0:0:0:0:
292,178,2475,2,0,L|282:240,1,50.9999984436036,0|0,1:2|3:0,0:0:0:0:
231,334,2783,6,0,P|203:329|179:331,1,50.9999984436036,6|0,1:2|3:0,0:0:0:0:
200,229,3090,2,0,P|173:238|153:252,1,50.9999984436036,0|0,1:2|3:0,0:0:0:0:
119,155,3398,2,0,P|100:176|90:198,1,50.9999984436036,0|0,1:2|3:0,0:0:0:0:
12,131,3706,2,0,P|7:159|9:183,1,50.9999984436036,0|0,1:2|3:0,0:0:0:0:
77,66,4013,6,0,L|68:6,1,50.9999984436036,6|0,1:2|3:0,0:0:0:0:
164,76,4319,2,0,L|155:16,1,50.9999984436036,0|0,1:2|3:0,0:0:0:0:
250,86,4625,2,0,L|241:26,1,50.9999984436036,0|0,1:2|3:0,0:0:0:0:
337,96,4931,2,0,L|328:36,1,50.9999984436036,0|0,1:2|3:0,0:0:0:0:
316,178,5237,6,0,P|344:181|370:174,1,50.9999984436036,6|0,1:2|3:0,0:0:0:0:
267,239,5544,2,0,P|278:265|297:284,1,50.9999984436036,0|0,1:2|3:0,0:0:0:0:
190,223,5851,2,0,P|172:245|165:271,1,50.9999984436036,0|0,1:0|3:0,0:0:0:0:
167,148,6158,2,0,P|138:144|112:151,1,50.9999984436036,0|0,1:0|3:0,0:0:0:0:
30,228,6466,6,0,B|38:264|38:264|36:272|36:272|46:311,1,76.4999976654053,6|0,1:2|0:0,0:0:0:0:
60,318,6773,2,0,L|52:377,1,50.9999984436036,0|0,1:0|3:0,0:0:0:0:
160,317,7080,2,0,L|166:266,1,50.9999984436036,0|0,1:0|3:0,0:0:0:0:
263,332,7388,2,0,L|255:391,1,50.9999984436036,0|0,1:0|3:0,0:0:0:0:
376,314,7695,6,0,B|391:276|391:276|370:226,1,76.4999976654053,6|0,1:2|0:0,0:0:0:0:
369,223,8002,2,0,P|334:229|303:222,1,50.9999984436036,0|0,1:0|3:0,0:0:0:0:
305,109,8309,2,0,P|327:136|337:166,1,50.9999984436036,0|0,1:0|3:0,0:0:0:0:
239,220,8617,2,0,P|251:186|272:163,1,50.9999984436036,0|0,1:0|3:0,0:0:0:0:
394,87,8909,6,0,L|454:96,1,50.9999984436036,6|0,1:2|3:0,0:0:0:0:
336,7,9216,2,0,L|276:16,1,50.9999984436036,0|0,1:2|3:0,0:0:0:0:
185,33,9524,1,0,1:0:0:0:
134,121,9678,1,8,0:0:0:0:
137,152,9755,1,8,0:0:0:0:
141,182,9832,1,8,0:0:0:0:
145,212,9909,1,8,0:0:0:0:
149,243,9985,1,8,0:0:0:0:
153,273,10062,1,8,0:0:0:0:
157,304,10139,5,12,0:0:0:0:
157,304,11074,6,0,B|194:286|237:302|237:302|233:305|233:305|264:340|320:330,1,165.749992412568,4|0,1:3|0:0,0:0:0:0:
369,285,11385,6,0,B|359:244|359:244|362:238|362:238|352:199,1,85,6|0,1:2|1:0,0:0:0:0:
325,34,11694,1,8,0:0:0:0:
225,115,11848,2,0,L|131:96,1,85,2|0,0:0|1:0,0:0:0:0:
233,7,12158,1,2,1:2:0:0:
260,209,12312,2,0,L|166:190,1,85,10|0,0:0|0:0,0:0:0:0:
19,267,12622,5,2,1:2:0:0:
157,304,12776,1,0,1:0:0:0:
61,153,12931,1,10,0:0:0:0:
78,347,13086,2,0,B|147:331|147:331|175:339|175:339|259:320,1,170,2|0,0:0|1:0,0:0:0:0:
343,187,13549,6,0,P|299:187|260:208,1,89.2499972763062,10|0,0:0|0:0,0:0:0:0:
243,221,13859,6,0,P|240:178|214:134,1,85,2|0,1:2|1:0,0:0:0:0:
161,335,14166,1,10,0:0:0:0:
321,275,14320,2,0,L|414:290,1,85,2|0,0:2|1:0,0:0:0:0:
506,210,14627,1,2,1:2:0:0:
365,107,14781,2,0,P|345:144|342:186,1,85,10|0,0:0|0:0,0:0:0:0:
452,44,15088,6,0,P|378:1|289:31,1,170,2|10,1:2|0:0,0:0:0:0:
171,131,15550,2,0,L|259:115,1,85,2|0,0:0|1:0,0:0:0:0:
90,66,15857,1,2,1:2:0:0:
160,230,16011,1,10,0:0:0:0:
90,66,16165,1,2,0:0:0:0:
19,239,16318,6,0,B|27:277|27:277|25:286|25:286|33:322,1,85,6|0,1:2|1:0,0:0:0:0:
201,384,16626,1,10,0:0:0:0:
201,384,16703,1,2,0:0:0:0:
201,384,16780,2,0,P|207:338|213:293,1,85,2|0,0:0|1:0,0:0:0:0:
306,212,17087,1,0,1:0:0:0:
387,341,17241,2,0,P|428:345|477:329,1,85,10|0,0:0|1:0,0:0:0:0:
432,159,17548,6,0,P|425:200|419:242,1,85,2|0,1:2|1:0,0:0:0:0:
299,377,17856,1,10,0:0:0:0:
214,281,18010,2,0,B|123:265|143:332|31:310,1,170,2|0,0:0|1:2,0:0:0:0:
219,187,18471,1,10,0:0:0:0:
189,382,18625,1,2,0:0:0:0:
108,185,18778,5,2,1:2:0:0:
320,246,18932,1,2,0:0:0:0:
320,246,19009,1,2,0:0:0:0:
320,246,19086,1,10,0:0:0:0:
237,77,19240,1,0,1:0:0:0:
214,281,19393,1,10,0:0:0:0:
339,142,19547,2,0,L|444:162,1,85,2|0,1:2|1:0,0:0:0:0:
454,352,19855,6,0,B|351:376|351:376|321:362|301:336,1,170,10|0,0:0|1:0,0:0:0:0:
210,170,20316,1,10,0:0:0:0:
342,245,20470,1,2,1:2:0:0:
205,359,20623,5,8,0:0:0:0:
169,373,20700,1,8,0:0:0:0:
131,375,20777,1,8,0:0:0:0:
95,364,20854,1,8,0:0:0:0:
64,341,20931,5,0,1:3:0:0:
79,315,21008,1,0,1:3:0:0:
101,296,21085,1,0,1:3:0:0:
129,286,21162,1,0,1:3:0:0:
159,286,21238,5,10,0:0:0:0:
256,192,21315,12,2,23083,0:0:0:0:
314,174,23237,5,0,1:0:0:0:
314,174,23314,1,0,1:0:0:0:
314,174,23391,2,0,B|258:184|258:184|246:194|246:194|186:204,1,127.5,8|0,0:0|0:0,0:0:0:0:
122,165,23698,6,0,B|112:135|112:135|121:100,1,59.4999981842042,6|0,1:2|0:0,0:0:0:0:
183,14,24005,2,0,L|197:80,1,59.4999981842042,10|0,0:0|0:0,0:0:0:0:
286,103,24313,2,0,P|343:75|408:88,1,118.999996368408,2|10,1:2|0:0,0:0:0:0:
477,131,24774,6,0,L|463:197,1,59.4999981842042,2|0,1:2|0:0,0:0:0:0:
394,271,25082,2,0,L|381:212,1,59.4999981842042,2|8,1:2|0:0,0:0:0:0:
290,182,25390,2,0,B|228:168|239:217|157:199,1,118.999996368408,2|0,0:0|1:0,0:0:0:0:
100,143,25851,1,8,0:0:0:0:
76,235,26005,1,2,0:0:0:0:
4,140,26159,6,0,L|14:73,1,59.4999981842042,6|0,1:2|0:0,0:0:0:0:
87,4,26468,2,0,L|97:71,1,59.4999981842042,10|0,0:2|0:0,0:0:0:0:
175,126,26778,2,0,L|185:59,1,59.4999981842042,2|0,1:2|0:0,0:0:0:0:
262,11,27088,1,10,0:0:0:0:
341,63,27242,6,0,P|388:41|466:53,1,118.999996368408,0|0,1:2|0:0,0:0:0:0:
466,141,27707,2,0,P|419:163|341:151,1,118.999996368408,8|0,0:0|0:0,0:0:0:0:
271,117,28171,1,2,1:2:0:0:
282,211,28326,1,10,0:0:0:0:
271,117,28481,1,2,0:0:0:0:
177,200,28636,6,0,B|185:236|185:236|181:253|181:253|189:288,1,89.2499972763062,6|0,1:2|0:0,0:0:0:0:
193,307,28943,2,0,P|161:320|126:319,1,59.4999981842042,10|0,0:0|0:0,0:0:0:0:
46,301,29251,1,2,1:2:0:0:
46,301,29405,1,0,1:0:0:0:
84,213,29559,2,0,L|73:147,1,59.4999981842042,10|0,0:0|1:0,0:0:0:0:
110,65,29866,6,0,P|140:54|174:56,1,59.4999981842042,2|0,0:0|1:0,0:0:0:0:
271,117,30174,2,0,P|241:128|207:126,1,59.4999981842042,10|0,0:0|0:0,0:0:0:0:
333,50,30482,1,2,0:0:0:0:
355,142,30636,1,0,1:0:0:0:
431,84,30789,2,0,L|421:16,1,59.4999981842042,10|2,0:0|0:0,0:0:0:0:
505,177,31097,6,0,B|497:213|497:213|501:230|501:230|493:265,1,89.2499972763062,6|0,1:2|0:0,0:0:0:0:
488,284,31402,2,0,P|454:289|426:286,1,59.4999981842042,8|0,0:0|0:0,0:0:0:0:
336,263,31707,1,0,1:0:0:0:
415,209,31860,1,0,1:0:0:0:
363,342,32013,1,10,0:0:0:0:
252,253,32165,6,0,B|187:244|200:282|129:272,1,118.999996368408,2|0,1:2|1:0,0:0:0:0:
51,189,32623,2,0,P|83:148|153:140,1,118.999996368408,10|0,0:0|0:0,0:0:0:0:
271,169,33081,1,2,1:2:0:0:
271,169,33158,1,0,1:0:0:0:
271,169,33234,6,0,B|247:74|247:74|272:89|309:96,1,140.25000428009,10|0,0:0|0:0,0:0:0:0:
366,100,33539,6,0,B|371:74|371:74|369:63|369:63|377:27,1,68,6|0,1:2|0:0,0:0:0:0:
477,153,33849,2,0,P|487:193|477:236,1,68,10|0,0:0|0:0,0:0:0:0:
437,310,34159,1,2,1:2:0:0:
386,221,34314,1,0,1:0:0:0:
343,342,34469,1,10,0:0:0:0:
292,253,34624,6,0,P|258:253|223:267,1,68,2|0,1:2|0:0,0:0:0:0:
173,161,34934,2,0,P|156:190|150:227,1,68,2|8,1:2|0:0,0:0:0:0:
68,306,35244,2,0,P|38:248|48:172,1,136,2|0,0:0|1:0,0:0:0:0:
114,78,35709,1,8,0:0:0:0:
173,161,35860,1,2,0:0:0:0:
246,46,36011,6,0,B|281:67|281:67|350:48,1,102,6|0,1:2|0:0,0:0:0:0:
357,33,36318,2,0,L|433:45,1,68,10|0,0:0|0:0,0:0:0:0:
492,119,36626,1,2,1:2:0:0:
390,132,36780,1,0,1:0:0:0:
493,208,36934,1,10,0:0:0:0:
391,221,37087,6,0,B|361:293|408:282|386:366,1,136,0|0,1:2|1:0,0:0:0:0:
268,378,37549,2,0,L|256:302,1,68,8|0,0:0|0:0,0:0:0:0:
199,226,37857,1,2,0:0:0:0:
156,319,38011,1,0,1:0:0:0:
88,208,38164,2,0,P|52:223|10:222,1,68,10|0,0:0|0:0,0:0:0:0:
155,106,38472,6,0,B|189:127|189:127|260:110,1,102,6|0,1:2|0:0,0:0:0:0:
273,109,38780,2,0,P|265:74|274:35,1,68,10|0,0:0|0:0,0:0:0:0:
353,160,39088,1,2,1:2:0:0:
259,199,39242,1,0,1:0:0:0:
377,248,39396,2,0,L|454:231,1,68,10|0,0:0|1:0,0:0:0:0:
293,329,39704,6,0,P|246:324|218:312,1,68,2|0,0:0|1:0,0:0:0:0:
98,255,40012,2,0,P|131:253|163:241,1,68,10|0,0:0|0:0,0:0:0:0:
259,199,40320,1,2,0:0:0:0:
165,158,40474,1,0,1:0:0:0:
273,101,40628,1,10,0:0:0:0:
254,222,40782,1,2,0:0:0:0:
378,166,40936,6,0,B|431:175|431:175|457:163|457:163|519:174,2,136,6|8|0,1:2|0:0|1:0,0:0:0:0:
297,102,41706,1,0,1:0:0:0:
415,72,41860,1,10,0:0:0:0:
335,7,42015,6,0,L|195:31,1,136,0|0,1:0|1:0,0:0:0:0:
92,111,42477,2,0,P|127:122|162:120,1,68,12|0,0:0|1:0,0:0:0:0:
297,102,42785,5,8,0:0:0:0:
292,132,42861,1,8,0:3:0:0:
288,162,42938,1,8,0:3:0:0:
284,192,43014,1,8,0:3:0:0:
270,208,43091,5,4,0:3:0:0:
274,228,43167,1,4,0:3:0:0:
278,248,43244,1,4,0:3:0:0:
281,268,43320,1,4,0:3:0:0:
296,288,43397,6,0,B|405:262|405:262|379:284|368:315,1,170,6|0,1:2|1:0,0:0:0:0:
512,366,43856,2,0,B|528:326|528:326|507:289,1,85,10|0,0:2|0:0,0:0:0:0:
463,166,44163,1,0,1:0:0:0:
444,331,44316,1,10,0:0:0:0:
369,188,44469,6,0,L|382:97,1,85,0|0,1:0|0:0,0:0:0:0:
373,277,44776,1,10,0:2:0:0:
280,147,44929,2,0,L|293:56,1,85,0|0,1:2|1:0,0:0:0:0:
449,190,45236,5,10,0:0:0:0:
260,232,45389,1,0,1:0:0:0:
441,324,45542,1,10,0:0:0:0:
362,177,45695,1,0,1:0:0:0:
115,277,45849,6,0,B|199:272|190:322|281:316,1,170,12|0,0:2|1:0,0:0:0:0:
106,192,46310,2,0,L|114:276,1,85,10|0,0:0|0:0,0:0:0:0:
0,357,46618,1,0,1:0:0:0:
18,115,46772,2,0,L|26:199,1,85,10|0,0:0|0:0,0:0:0:0:
142,364,47079,5,0,1:0:0:0:
26,199,47233,2,0,B|62:180|62:180|109:192,1,85,10|0,0:0|0:0,0:0:0:0:
272,97,47541,1,0,1:0:0:0:
106,70,47695,5,10,0:0:0:0:
283,204,47849,1,0,1:0:0:0:
104,190,48002,1,10,0:0:0:0:
282,82,48156,1,0,1:0:0:0:
91,59,48310,6,0,L|-1:44,1,85,12|0,0:0|0:0,0:0:0:0:
104,211,48618,1,0,1:0:0:0:
183,91,48772,2,0,B|193:52|193:52|170:1,1,85,10|0,0:0|0:0,0:0:0:0:
97,228,49079,1,0,1:0:0:0:
294,209,49233,6,0,L|420:190,1,127.5,10|0,0:0|0:0,0:0:0:0:
435,196,49541,1,0,1:0:0:0:
337,35,49695,2,0,B|321:79|321:79|340:125,1,85,10|0,0:0|0:0,0:0:0:0:
239,279,50002,1,0,1:0:0:0:
256,130,50156,5,10,0:0:0:0:
371,286,50310,1,0,1:0:0:0:
176,332,50464,5,10,0:0:0:0:
154,310,50541,1,8,0:3:0:0:
144,281,50618,1,8,0:3:0:0:
151,252,50695,1,8,0:3:0:0:
169,229,50772,2,0,L|156:132,1,85,6|0,1:2|1:0,0:0:0:0:
256,285,51082,1,0,1:0:0:0:
76,221,51237,5,12,0:0:0:0:
248,120,51392,1,0,1:0:0:0:
260,297,51548,1,0,1:0:0:0:
145,136,51703,5,12,0:0:0:0:
339,202,51858,1,0,1:0:0:0:
175,342,52013,1,0,1:0:0:0:
254,95,52169,5,12,0:0:0:0:
87,229,52324,1,0,1:0:0:0:
275,311,52479,1,0,1:0:0:0:
49,329,52626,5,12,0:0:0:0:
251,212,52778,1,0,1:0:0:0:
38,121,52931,5,12,0:0:0:0:
175,342,53084,1,0,0:0:0:0:
234,100,53237,5,6,1:2:0:0:
215,105,55692,5,6,1:2:0:0:
198,116,58156,5,6,1:2:0:0:
181,124,58777,5,6,1:2:0:0:
166,130,59399,5,6,1:2:0:0:
151,136,60014,5,6,1:2:0:0:
136,142,60629,5,6,1:2:0:0:
123,147,60942,5,6,1:2:0:0:
110,152,61255,5,6,1:2:0:0:
348,216,61397,5,8,0:0:0:0:
316,202,61469,1,8,0:0:0:0:
283,204,61540,1,8,0:0:0:0:
252,214,61612,1,8,0:0:0:0:
226,235,61683,1,8,0:0:0:0:
212,267,61755,1,8,0:0:0:0:
210,302,61826,5,8,0:0:0:0:
210,302,62478,6,0,L|153:310,1,42.5,6|8,1:2|0:0,0:0:0:0:
17,213,62628,1,8,0:0:0:0:
63,209,62703,1,8,0:0:0:0:
103,184,62778,1,8,0:0:0:0:
118,139,62853,1,8,0:0:0:0:
153,108,62928,1,8,0:0:0:0:
199,105,63003,1,8,0:0:0:0:
241,134,63078,6,0,B|305:148|303:105|386:127,1,140.25000428009,6|0,1:2|0:0,0:0:0:0:
413,139,63385,1,8,0:0:0:0:
363,313,63539,2,0,L|349:210,1,93.5000028533936,2|0,0:0|1:0,0:0:0:0:
262,46,63847,1,2,1:2:0:0:
436,148,64001,1,8,0:0:0:0:
267,220,64154,2,0,P|211:217|175:188,1,93.5000028533936,2|0,1:2|0:0,0:0:0:0:
63,64,64462,5,2,1:2:0:0:
249,135,64616,1,10,0:2:0:0:
90,231,64770,1,0,0:2:0:0:
90,231,64847,1,2,0:0:0:0:
90,231,64924,2,0,B|78:187|78:187|110:140,1,93.5000028533936,2|0,1:2|1:0,0:0:0:0:
164,21,65231,1,8,0:0:0:0:
41,75,65385,1,0,0:0:0:0:
197,209,65539,5,6,1:2:0:0:
21,310,65693,1,2,1:2:0:0:
112,128,65848,1,8,0:0:0:0:
241,315,66002,1,2,0:0:0:0:
0,213,66157,5,0,1:2:0:0:
203,222,66312,1,2,1:2:0:0:
121,107,66466,1,8,0:0:0:0:
263,331,66621,6,0,L|378:349,1,93.5000028533936,2|0,1:2|0:0,0:0:0:0:
488,220,66930,1,2,1:2:0:0:
297,142,67085,2,0,P|277:188|285:250,1,93.5000028533936,8|0,0:2|0:0,0:0:0:0:
413,110,67394,1,2,1:2:0:0:
259,52,67549,1,0,1:0:0:0:
386,208,67703,1,8,0:0:0:0:
358,16,67853,1,2,0:0:0:0:
142,189,68004,6,0,B|39:175|39:175|58:166|75:147,1,140.25000428009,6|0,1:2|0:0,0:0:0:0:
120,95,68310,2,0,L|135:-4,1,93.5000028533936,10|0,0:0|0:0,0:0:0:0:
311,200,68617,2,0,L|326:101,1,93.5000028533936,2|0,1:2|1:0,0:0:0:0:
125,381,68924,2,0,L|140:282,1,93.5000028533936,10|2,0:0|0:0,0:0:0:0:
143,270,69154,1,2,0:0:0:0:
143,270,69231,6,0,L|32:276,1,93.5000028533936,2|0,1:2|1:0,0:0:0:0:
312,98,69538,2,0,L|201:104,1,93.5000028533936,10|0,0:0|0:0,0:0:0:0:
438,271,69845,2,0,L|327:277,1,93.5000028533936,2|0,0:0|1:0,0:0:0:0:
512,44,70152,2,0,L|401:50,1,93.5000028533936,10|0,0:0|1:0,0:0:0:0:
404,50,70382,1,0,1:0:0:0:
390,52,70459,5,14,0:0:0:0:
162,173,70612,1,0,1:0:0:0:
435,258,70766,1,10,0:0:0:0:
268,66,70919,1,0,1:0:0:0:
260,280,71073,5,10,0:0:0:0:
180,91,71226,1,0,1:0:0:0:
396,172,71379,1,10,0:0:0:0:
167,270,71533,2,0,L|54:252,1,93.5000028533936,6|0,1:2|0:0,0:0:0:0:
252,53,71840,1,0,1:0:0:0:
280,292,71993,1,8,0:0:0:0:
411,79,72147,6,0,B|344:91|344:91|314:137|314:137|237:148,1,187.000005706787,6|0,1:2|1:2,0:0:0:0:
180,186,72530,1,0,1:0:0:0:
180,186,72607,2,0,B|160:143|160:143|185:97,1,93.5000028533936,10|0,0:0|0:0,0:0:0:0:
398,349,72922,6,0,B|399:307|408:287|408:287|402:255|385:228|385:228|398:201|399:164,2,187.000005706787,6|10|2,1:2|0:0|1:2,0:0:0:0:
188,277,73693,1,0,1:0:0:0:
398,158,73848,1,8,0:0:0:0:
315,308,74002,1,2,0:0:0:0:
189,116,74157,6,0,L|198:10,1,93.5000028533936,2|0,1:2|0:0,0:0:0:0:
24,145,74465,1,8,0:0:0:0:
102,261,74620,2,0,P|157:284|199:268,1,93.5000028533936,2|0,0:2|1:0,0:0:0:0:
318,103,74928,1,2,1:2:0:0:
109,168,75083,1,8,0:0:0:0:
306,284,75237,1,2,0:0:0:0:
404,23,75392,6,0,B|451:10|451:10|507:36,1,93.5000028533936,6|0,1:2|1:0,0:0:0:0:
432,259,75700,1,8,0:0:0:0:
304,196,75855,2,0,B|208:221|222:148|104:185,1,187.000005706787,2|0,0:0|1:0,0:0:0:0:
126,345,76318,2,0,P|173:341|214:320,1,93.5000028533936,8|0,0:0|0:0,0:0:0:0:
328,107,76627,5,2,1:2:0:0:
115,93,76780,1,0,1:0:0:0:
289,280,76933,1,8,0:0:0:0:
231,46,77086,1,10,0:0:0:0:
110,263,77239,2,0,L|1:241,1,110.499994941712,0|0,1:0|1:0,0:0:0:0:
331,216,77545,6,0,P|365:269|319:351,1,165.749992412568,12|0,0:0|0:0,0:0:0:0:
289,280,77851,6,0,L|307:164,1,93.5000028533936,6|0,1:2|1:0,0:0:0:0:
419,49,78159,2,0,P|466:47|508:76,1,93.5000028533936,10|0,0:2|1:0,0:0:0:0:
304,170,78468,2,0,B|262:169|242:160|242:160|210:166|183:183|183:183|156:170|119:169,1,187.000005706787,2|8,1:2|0:0,0:0:0:0:
295,0,78932,6,0,B|312:40|312:40|291:90,1,93.5000028533936,2|0,0:0|1:0,0:0:0:0:
198,289,79240,1,0,1:0:0:0:
83,103,79395,1,8,0:0:0:0:
304,170,79549,1,2,0:0:0:0:
93,291,79704,6,0,L|0:283,1,93.5000028533936,0|0,1:0|1:0,0:0:0:0:
304,184,80013,2,0,L|416:175,1,93.5000028533936,8|0,0:0|1:0,0:0:0:0:
412,173,80244,1,0,1:0:0:0:
426,172,80322,5,12,0:0:0:0:
173,108,80473,1,0,1:0:0:0:
381,65,80625,1,12,0:0:0:0:
224,224,80777,1,0,1:0:0:0:
252,17,80929,5,12,0:0:0:0:
132,225,81081,1,0,1:0:0:0:
350,180,81233,1,10,0:0:0:0:
98,98,81385,6,0,L|5:110,1,93.5000028533936,6|0,1:2|0:0,0:0:0:0:
252,17,81689,1,0,1:0:0:0:
224,224,81840,1,12,0:0:0:0:
91,18,81997,1,0,1:0:0:0:
15,258,82154,5,8,0:3:0:0:
33,262,82232,1,8,0:3:0:0:
51,266,82311,1,8,0:3:0:0:
68,270,82389,1,8,0:3:0:0:
83,274,82468,6,0,B|120:280|120:280|153:273|153:273|184:310|184:310|226:305|226:305|283:315,1,191.250007295609,12|0,0:0|0:0,0:0:0:0:
334,290,82782,6,0,B|348:258|348:258|333:207,1,85,6|0,1:2|1:0,0:0:0:0:
307,74,83082,1,8,0:0:0:0:
186,171,83235,2,0,B|69:192|69:192|105:127,1,170,6|0,1:2|1:0,0:0:0:0:
213,83,83697,1,8,0:0:0:0:
249,268,83851,6,0,B|225:376|225:376|284:361,1,170,6|0,1:2|1:0,0:0:0:0:
414,325,84312,1,8,0:0:0:0:
359,165,84466,6,0,B|306:182|306:182|275:170,1,85,6|0,1:2|0:0,0:0:0:0:
201,10,84774,1,0,1:0:0:0:
201,10,84851,1,0,1:0:0:0:
201,10,84928,2,0,B|234:42|234:42|206:125,1,127.5,12|0,0:0|0:0,0:0:0:0:
132,149,85235,6,0,B|100:135|100:135|42:152,1,85,6|0,1:2|1:0,0:0:0:0:
152,283,85543,1,8,0:0:0:0:
278,171,85697,6,0,B|339:153|339:153|377:173|377:173|443:152,1,170,6|0,1:2|1:0,0:0:0:0:
284,75,86160,1,8,0:0:0:0:
233,248,86314,6,0,B|270:358|270:358|203:338,1,170,6|0,1:2|1:0,0:0:0:0:
85,312,86777,1,8,0:0:0:0:
132,149,86931,2,0,B|114:111|114:111|135:67,1,85,6|0,1:2|0:0,0:0:0:0:
288,9,87240,6,0,L|303:74,1,59.4999981842042,4|0,1:3|0:0,0:0:0:0:
381,14,87394,2,0,L|396:79,1,59.4999981842042,4|0,1:3|0:0,0:0:0:0:
475,19,87548,2,0,L|490:84,1,59.4999981842042,4|0,1:3|0:0,0:0:0:0:
436,171,87702,6,0,B|406:189|406:189|348:176,1,85,6|0,1:2|1:0,0:0:0:0:
222,153,88009,1,8,0:0:0:0:
285,310,88163,2,0,B|350:292|350:292|386:311|386:311|460:289,1,170,6|0,1:2|1:0,0:0:0:0:
357,178,88625,1,8,0:0:0:0:
200,245,88778,6,0,B|84:220|84:220|125:284,1,170,6|0,1:2|1:0,0:0:0:0:
181,381,89240,1,8,0:0:0:0:
279,213,89394,6,0,B|272:180|272:180|276:160|276:160|269:129,1,85,6|0,1:2|0:0,0:0:0:0:
200,245,89702,1,0,1:0:0:0:
357,178,89855,2,0,B|406:189|406:189|436:171,1,85,8|0,0:0|0:0,0:0:0:0:
290,26,90163,6,0,B|257:20|257:20|238:25|238:25|196:19,1,85,6|0,1:2|0:0,0:0:0:0:
62,6,90471,1,8,0:0:0:0:
43,29,90548,1,0,3:0:0:0:
33,57,90625,1,0,3:0:0:0:
32,86,90702,1,0,3:0:0:0:
41,115,90778,5,8,0:0:0:0:
61,146,90855,1,0,3:0:0:0:
69,183,90932,1,0,3:0:0:0:
63,221,91009,1,0,3:0:0:0:
43,253,91086,6,0,L|2:246,1,42.5,8|0,0:2|0:0,0:0:0:0:
64,343,91240,2,0,L|105:336,1,42.5,10|0,0:2|0:0,0:0:0:0:
265,136,91548,5,8,0:0:0:0:
357,258,91702,1,8,0:0:0:0:
407,77,91855,1,8,0:0:0:0:
407,77,91932,1,8,0:0:0:0:
407,77,92009,6,0,P|394:42|390:20,2,56.6666666666667,8|8|8,0:0|3:0|0:3,0:0:0:0:
464,161,92317,2,0,P|451:196|447:218,2,56.6666666666667,4|4|8,0:3|3:0|0:3,0:0:0:0:
512,77,92625,5,6,1:2:0:0:
288,211,97547,6,0,B|230:201|230:201|209:208|209:208|134:195,1,136,6|0,1:2|1:0,0:0:0:0:
289,118,98008,1,8,0:0:0:0:
371,178,98162,2,0,P|377:224|365:257,1,68,0|0,1:0|0:0,0:0:0:0:
316,330,98470,1,0,1:0:0:0:
286,242,98623,1,2,0:0:0:0:
286,242,98700,1,2,0:0:0:0:
286,242,98777,5,0,1:0:0:0:
197,293,98931,2,0,P|124:309|52:271,1,136,8|0,0:0|0:0,0:0:0:0:
14,199,99393,1,0,1:0:0:0:
114,181,99547,1,0,1:0:0:0:
20,102,99700,2,0,L|31:21,1,68,8|0,0:0|0:0,0:0:0:0:
126,0,100008,5,2,1:2:0:0:
147,99,100161,1,0,1:0:0:0:
267,35,100314,2,0,B|296:47|296:47|344:37,1,68,12|0,0:0|0:0,0:0:0:0:
453,27,100620,5,0,1:0:0:0:
470,53,100696,1,0,1:0:0:0:
478,82,100773,1,0,1:0:0:0:
477,112,100849,1,0,1:0:0:0:
465,141,100926,2,0,L|410:130,1,34,12|0,0:0|0:0,0:0:0:0:
365,214,101079,2,0,L|420:203,1,34,2|0,0:0|0:0,0:0:0:0:
398,207,101850,5,8,0:0:0:0:
364,201,101927,1,8,1:3:0:0:
330,195,102005,1,8,1:3:0:0:
296,190,102082,1,8,1:3:0:0:
272,164,102159,5,0,1:3:0:0:
249,167,102237,1,0,1:3:0:0:
226,171,102314,1,0,1:3:0:0:
203,174,102391,1,0,1:3:0:0:
181,195,102469,6,0,B|167:228|167:228|184:287,1,85,6|0,1:2|1:0,0:0:0:0:
321,370,102776,2,0,L|335:287,1,85,8|0,0:0|1:0,0:0:0:0:
369,118,103084,1,8,0:0:0:0:
450,237,103238,1,0,1:0:0:0:
473,68,103392,1,8,0:0:0:0:
296,190,103545,6,0,B|228:176|228:176|196:191|196:191|123:174,1,170,6|0,1:2|1:0,0:0:0:0:
65,332,104007,2,0,L|165:311,1,85,8|0,0:0|1:0,0:0:0:0:
316,280,104315,1,8,0:0:0:0:
214,183,104469,1,0,1:0:0:0:
243,349,104622,1,8,0:0:0:0:
415,251,104776,1,0,1:0:0:0:
415,251,104853,1,0,1:0:0:0:
415,251,104930,6,0,B|465:262|465:262|503:251,1,85,12|0,0:0|1:0,0:0:0:0:
366,90,105238,2,0,L|266:109,1,85,8|0,0:0|1:0,0:0:0:0:
460,2,105545,1,8,0:0:0:0:
444,153,105699,1,0,1:0:0:0:
330,3,105853,1,8,0:0:0:0:
201,161,106007,6,0,B|80:133|80:133|115:188,1,170,6|0,1:2|1:0,0:0:0:0:
195,316,106469,2,0,L|291:297,1,85,12|0,0:0|1:0,0:0:0:0:
447,264,106776,1,8,1:3:0:0:
460,238,106853,1,8,1:3:0:0:
464,208,106930,1,8,1:3:0:0:
459,179,107007,1,8,1:3:0:0:
444,153,107084,2,0,L|360:136,1,85,12|0,0:0|1:0,0:0:0:0:
157,104,107392,6,0,B|140:135|140:135|156:201,1,85,6|0,1:2|1:0,0:0:0:0:
243,10,107699,1,8,0:0:0:0:
100,29,107853,1,0,1:0:0:0:
267,112,108007,2,0,L|253:202,1,85,8|0,0:0|1:0,0:0:0:0:
229,348,108315,1,8,0:0:0:0:
382,240,108469,6,0,B|497:269|497:269|462:217,1,170,6|0,1:2|1:0,0:0:0:0:
355,99,108930,1,8,0:0:0:0:
271,217,109084,1,0,1:0:0:0:
187,59,109238,1,8,0:0:0:0:
161,46,109315,1,8,1:3:0:0:
132,41,109392,1,8,1:3:0:0:
102,45,109469,1,8,1:3:0:0:
76,57,109545,2,0,L|91:144,1,85,8|0,0:0|1:0,0:0:0:0:
120,351,109853,5,12,0:0:0:0:
165,204,110008,1,0,1:0:0:0:
29,276,110163,1,0,1:0:0:0:
233,353,110318,5,12,0:0:0:0:
278,206,110473,1,0,1:0:0:0:
142,278,110628,1,0,1:0:0:0:
360,302,110783,5,12,0:0:0:0:
331,134,110938,1,0,1:0:0:0:
479,217,111093,1,0,1:0:0:0:
258,196,111244,5,12,0:0:0:0:
314,35,111396,1,0,1:0:0:0:
409,175,111547,1,0,1:0:0:0:
213,94,111699,6,0,L|152:106,1,42.5,12|8,0:0|1:3,0:0:0:0:
59,126,111852,1,8,1:3:0:0:
59,126,111929,1,8,1:3:0:0:
59,126,112006,2,0,B|41:177|41:177|62:215,1,85,12|0,0:0|1:0,0:0:0:0:
159,362,112314,6,0,B|227:372|281:337|281:337|326:360|326:360|391:329|474:338,1,305.999990661621,8|0,1:3|0:0,0:0:0:0:
489,144,112930,2,0,B|421:134|366:166|366:166|317:142|317:142|254:178|175:169,1,305.999990661621,8|0,1:3|0:0,0:0:0:0:
58,379,113547,6,0,L|166:360,1,101.999996887207,8|0,1:3|0:0,0:0:0:0:
198,170,113856,2,0,L|90:189,1,101.999996887207,8|0,1:3|0:0,0:0:0:0:
282,338,114164,2,0,B|370:321|370:321|396:328|396:328|499:308,1,203.999993774414,8|2,1:3|0:0,0:0:0:0:
481,311,114776,6,0,B|495:266|495:266|475:212,1,93.5000028533936,6|0,1:2|1:0,0:0:0:0:
348,61,115084,1,8,0:0:0:0:
297,226,115238,1,2,0:0:0:0:
292,234,115315,1,2,0:0:0:0:
287,242,115392,1,0,1:0:0:0:
410,162,115547,1,0,1:2:0:0:
201,112,115701,2,0,L|109:92,1,93.5000028533936,8|0,0:0|0:0,0:0:0:0:
352,45,116009,6,0,B|480:32|480:32|430:102,1,187.000005706787,0|8,1:0|0:0,0:0:0:0:
297,226,116472,2,0,B|277:182|277:182|313:121,1,93.5000028533936,2|0,0:0|1:0,0:0:0:0:
485,234,116781,1,0,1:0:0:0:
337,352,116935,2,0,L|217:339,1,93.5000028533936,8|0,0:0|0:0,0:0:0:0:
47,192,117243,5,2,1:2:0:0:
279,151,117396,1,0,1:0:0:0:
145,328,117550,1,8,0:0:0:0:
121,100,117704,1,2,0:0:0:0:
121,100,117781,1,2,0:0:0:0:
121,100,117858,5,0,1:0:0:0:
45,313,118012,1,2,0:0:0:0:
271,263,118166,1,8,0:0:0:0:
45,175,118319,1,2,0:0:0:0:
258,69,118473,6,0,B|314:63|340:98|340:98|340:100|340:100|369:140|431:130,1,187.000005706787,0|8,1:2|0:0,0:0:0:0:
504,275,118935,1,2,0:0:0:0:
269,158,119089,1,0,1:2:0:0:
412,46,119240,1,0,1:0:0:0:
385,298,119392,2,0,P|325:248|262:269,1,140.25000428009,12|0,0:0|0:0,0:0:0:0:
256,340,119695,6,0,B|205:329|185:284|185:284|159:328|102:345,1,187.000005706787,6|8,1:2|0:0,0:0:0:0:
67,154,120157,2,0,P|86:196|91:242,1,93.5000028533936,2|0,0:0|1:0,0:0:0:0:
276,347,120466,1,0,1:0:0:0:
357,158,120620,2,0,B|314:141|314:141|258:162,1,93.5000028533936,8|0,0:0|0:0,0:0:0:0:
22,80,120928,6,0,P|88:68|157:178,1,187.000005706787,2|8,1:2|0:0,0:0:0:0:
312,255,121391,2,0,L|418:246,1,93.5000028533936,2|0,0:0|1:0,0:0:0:0:
140,310,121700,1,0,1:0:0:0:
258,135,121854,1,8,0:0:0:0:
346,341,122008,1,2,0:0:0:0:
483,133,122162,6,0,B|495:86|495:86|470:45,1,93.5000028533936,0|0,1:2|1:0,0:0:0:0:
254,152,122469,1,8,0:0:0:0:
405,247,122623,2,0,L|513:256,1,93.5000028533936,2|0,0:0|1:0,0:0:0:0:
282,60,122931,2,0,P|236:57|197:83,1,93.5000028533936,0|8,1:0|0:0,0:0:0:0:
166,251,123238,6,0,L|182:361,1,93.5000028533936,2|0,0:0|1:0,0:0:0:0:
81,132,123546,1,2,0:0:0:0:
81,132,123623,1,2,0:0:0:0:
81,132,123700,1,8,0:0:0:0:
276,162,123854,1,0,1:0:0:0:
72,332,124008,5,8,1:3:0:0:
75,293,124085,1,0,1:2:0:0:
96,262,124162,1,0,1:2:0:0:
130,247,124238,1,0,1:2:0:0:
166,251,124315,2,0,L|185:136,1,93.5000028533936,12|0,0:0|0:0,0:0:0:0:
448,323,124623,6,0,B|378:322|323:351|323:351|305:330|294:300,1,187.000005706787,6|12,1:2|0:0,0:0:0:0:
344,98,125085,1,2,0:0:0:0:
469,220,125238,1,0,1:0:0:0:
472,60,125392,1,0,1:0:0:0:
354,204,125546,2,0,L|245:194,1,93.5000028533936,8|0,0:0|0:0,0:0:0:0:
138,37,125854,6,0,B|169:71|169:71|153:118,1,93.5000028533936,2|0,1:2|0:0,0:0:0:0:
164,295,126162,1,8,0:0:0:0:
3,133,126315,2,0,B|59:127|85:162|85:162|85:164|85:164|114:204|176:194,1,187.000005706787,2|0,0:0|1:0,0:0:0:0:
335,54,126777,2,0,P|291:65|270:105,1,93.5000028533936,8|0,0:0|0:0,0:0:0:0:
397,319,127085,6,0,B|299:328|299:328|324:294,1,140.25000428009,2|0,1:2|0:0,0:0:0:0:
389,237,127392,2,0,L|483:252,1,93.5000028533936,10|0,0:0|0:0,0:0:0:0:
252,123,127700,2,0,L|346:138,1,93.5000028533936,2|0,1:2|1:0,0:0:0:0:
214,347,128008,1,8,0:0:0:0:
45,245,128162,2,0,L|139:260,1,93.5000028533936,2|0,0:0|1:0,0:0:0:0:
306,216,128467,5,0,1:0:0:0:
153,84,128620,1,8,0:0:0:0:
139,275,128773,2,0,L|128:333,2,46.7500014266968,10|2|0,0:0|0:0|1:0,0:0:0:0:
282,119,129078,1,0,1:0:0:0:
47,92,129231,1,12,0:0:0:0:
222,277,129387,1,0,0:0:0:0:
338,50,129543,6,0,B|296:26|296:26|243:41,1,93.5000028533936,6|0,1:2|1:0,0:0:0:0:
98,153,129849,2,0,L|288:117,1,187.000005706787,8|0,0:0|1:0,0:0:0:0:
460,204,130309,1,0,1:0:0:0:
302,237,130463,1,8,0:0:0:0:
414,104,130616,1,0,0:0:0:0:
441,297,130769,6,0,B|399:282|399:282|358:312,1,93.5000028533936,2|0,1:2|1:0,0:0:0:0:
293,347,130999,1,0,1:0:0:0:
281,354,131076,2,0,L|155:330,1,93.5000028533936,8|2,0:0|0:0,0:0:0:0:
48,180,131383,1,0,1:0:0:0:
234,182,131536,1,0,1:0:0:0:
109,356,131689,2,0,B|93:313|93:313|120:270,1,93.5000028533936,8|0,0:0|0:0,0:0:0:0:
351,122,132004,6,0,L|346:28,1,93.5000028533936,6|0,1:2|0:0,0:0:0:0:
238,275,132313,2,0,L|233:181,1,93.5000028533936,10|0,0:0|0:0,0:0:0:0:
419,356,132622,2,0,L|414:262,1,93.5000028533936,0|0,1:0|1:0,0:0:0:0:
411,248,132854,1,0,1:0:0:0:
411,248,132931,6,0,L|513:265,1,93.5000028533936,10|0,0:0|0:0,0:0:0:0:
258,106,133241,2,0,L|360:123,1,93.5000028533936,0|0,1:0|1:0,0:0:0:0:
127,269,133548,2,0,L|229:286,1,93.5000028533936,10|8,0:0|0:0,0:0:0:0:
232,287,133779,1,8,0:0:0:0:
245,290,133856,1,10,0:0:0:0:
440,146,134010,1,10,0:0:0:0:
187,57,134164,1,10,0:0:0:0:
322,338,134317,6,0,P|340:282|310:232,1,118.999996368408,6|0,1:2|1:0,0:0:0:0:
231,181,134779,1,0,1:0:0:0:
231,181,134929,1,0,1:0:0:0:
134,251,135079,2,0,B|197:253|182:287|259:290,1,118.999996368408,12|0,0:0|0:0,0:0:0:0:
144,369,135540,6,0,L|133:250,1,118.999996368408,6|0,1:2|1:0,0:0:0:0:
96,163,136001,1,0,1:0:0:0:
96,163,136155,1,0,1:0:0:0:
175,104,136309,2,0,P|228:81|284:98,1,118.999996368408,12|0,0:0|0:0,0:0:0:0:
332,199,136770,6,0,L|448:174,1,118.999996368408,6|0,1:2|1:0,0:0:0:0:
475,87,137232,1,0,1:0:0:0:
475,87,137386,1,0,1:0:0:0:
442,186,137540,2,0,B|422:232|422:232|456:311,1,118.999996368408,12|0,0:0|0:0,0:0:0:0:
356,355,138001,6,0,L|364:296,1,59.4999981842042,6|0,1:2|0:0,0:0:0:0:
332,199,138309,2,0,L|313:74,1,118.999996368408,8|0,0:0|1:0,0:0:0:0:
222,178,138770,5,8,0:0:0:0:
437,204,138924,1,8,0:0:0:0:
222,178,139078,1,8,0:0:0:0:
425,43,139220,6,0,B|362:45|377:79|300:82,1,118.999996368408,6|0,1:2|1:0,0:0:0:0:
204,66,139706,2,0,L|191:1,1,59.4999981842042,0|0,1:0|1:0,0:0:0:0:
100,96,140012,2,0,P|146:59|203:65,1,118.999996368408,12|0,0:0|0:0,0:0:0:0:
247,160,140471,6,0,L|188:151,1,59.4999981842042,6|0,1:2|0:0,0:0:0:0:
92,194,140777,1,0,1:0:0:0:
92,194,140930,2,0,L|33:202,1,59.4999981842042,0|0,1:0|1:0,0:0:0:0:
181,292,141236,6,0,P|192:264|186:235,1,59.4999981842042,8|0,0:2|1:0,0:0:0:0:
106,107,141544,1,8,0:0:0:0:
45,290,141698,6,0,B|106:286|103:321|188:316,1,136,6|0,1:2|0:0,0:0:0:0:
319,293,142160,5,8,0:0:0:0:
275,183,142314,2,0,L|282:106,1,68,2|0,0:0|1:0,0:0:0:0:
186,235,142623,5,2,0:0:0:0:
383,203,142777,2,0,P|425:201|449:217,1,68,8|0,0:0|0:0,0:0:0:0:
269,103,143085,5,0,1:0:0:0:
407,285,143240,2,0,L|417:358,1,68,2|8,0:0|0:0,0:0:0:0:
468,132,143548,1,2,0:0:0:0:
278,236,143702,5,2,1:2:0:0:
261,232,143780,1,8,0:0:0:0:
244,228,143857,1,8,0:0:0:0:
227,224,143934,1,8,0:0:0:0:
216,215,144011,5,8,1:2:0:0:
181,215,144088,1,8,0:0:0:0:
146,215,144165,1,8,0:0:0:0:
111,216,144242,1,8,0:0:0:0:
72,215,144319,6,0,P|60:179|69:142,1,76.4999976654053,6|0,1:2|0:0,0:0:0:0:
4,86,144626,2,0,P|11:49|38:22,1,76.4999976654053,2|0,1:2|3:0,0:0:0:0:
152,120,144934,2,0,L|60:133,1,76.4999976654053,2|0,1:2|3:0,0:0:0:0:
241,19,145242,2,0,L|149:32,1,76.4999976654053,2|0,1:2|3:0,0:0:0:0:
374,157,145549,6,0,B|389:196|389:196|373:236,1,85,6|0,1:2|3:0,0:0:0:0:
278,287,145861,5,4,1:3:0:0:
159,221,146011,1,4,1:3:0:0:
294,205,146162,5,4,1:3:0:0:
140,305,146313,1,8,0:0:0:0:
347,337,146464,5,8,0:0:0:0:
99,165,146614,1,8,0:0:0:0:
365,76,146765,6,0,B|411:79|410:103|471:105,1,101.999996887207,6|0,1:2|1:2,0:0:0:0:
499,176,147230,2,0,P|497:214|490:235,1,50.9999984436036,0|0,3:0|1:0,0:0:0:0:
411,226,147541,2,0,P|405:201|405:175,1,50.9999984436036,0|0,3:0|1:0,0:0:0:0:
303,143,147851,6,0,L|231:155,1,50.9999984436036,0|2,3:0|1:2,0:0:0:0:
175,166,148159,1,0,3:0:0:0:
175,166,148313,1,0,1:0:0:0:
117,224,148467,2,0,L|45:212,2,50.9999984436036,0|0|0,3:0|1:0|3:0,0:0:0:0:
160,293,148929,2,0,B|227:280,1,50.9999984436036,0|0,1:2|3:0,0:0:0:0:
318,265,149236,5,2,1:2:0:0:
318,265,149390,2,0,P|328:297|327:326,1,50.9999984436036,0|0,3:0|1:0,0:0:0:0:
405,343,149698,2,0,P|427:318|453:304,1,50.9999984436036,0|0,3:0|1:0,0:0:0:0:
429,228,150006,2,0,P|396:220|371:205,1,50.9999984436036,0|0,3:0|1:0,0:0:0:0:
324,121,150313,6,0,L|332:56,2,50.9999984436036,0|2|0,3:0|1:2|3:0,0:0:0:0:
262,176,150775,1,0,1:0:0:0:
192,132,150929,2,0,P|152:131|134:137,2,50.9999984436036,0|0|0,3:0|1:0|3:0,0:0:0:0:
174,214,151390,1,0,1:0:0:0:
174,214,151544,1,0,3:0:0:0:
51,138,151698,6,0,P|92:124|132:136,1,76.4999976654053,6|0,1:2|0:0,0:0:0:0:
142,134,152006,2,0,L|125:21,2,101.999996887207,0|0|0,1:0|1:0|1:0,0:0:0:0:
251,290,152929,6,0,P|268:262|257:211,1,76.4999976654053,2|0,1:2|0:0,0:0:0:0:
245,214,153236,2,0,L|180:202,1,50.9999984436036,0|0,1:0|3:0,0:0:0:0:
133,264,153544,2,0,L|68:252,1,50.9999984436036,0|0,1:0|3:0,0:0:0:0:
67,176,153852,2,0,L|2:164,1,50.9999984436036,0|0,1:0|3:0,0:0:0:0:
92,80,154159,6,0,P|126:57|190:71,2,101.999996887207,2|0|0,1:2|1:0|1:2,0:0:0:0:
194,204,155082,2,0,L|269:200,1,50.9999984436036,0|0,1:0|3:0,0:0:0:0:
431,172,155390,6,0,P|392:147|373:151,1,50.9999984436036,2|0,1:2|0:0,0:0:0:0:
306,101,155698,6,0,P|261:107|248:122,1,59.4999981842042,2|0,1:2|0:0,0:0:0:0:
146,127,156006,6,0,P|113:162|113:183,1,68,2|0,1:2|0:0,0:0:0:0:
54,274,156313,6,0,P|52:325|70:347,1,76.4999976654053,2|0,1:2|0:0,0:0:0:0:
285,373,156621,6,0,L|452:342,1,170,8|0,1:3|1:0,0:0:0:0:
270,246,157082,2,0,L|437:215,1,170,8|0,1:3|0:0,0:0:0:0:
295,102,157544,6,0,L|127:71,1,170,8|0,1:3|1:0,0:0:0:0:
127,71,158159,1,0,1:0:0:0:
42,208,158313,2,0,L|210:177,1,170,8|0,1:3|0:0,0:0:0:0:
309,291,158775,2,0,L|284:376,1,85,8|0,1:3|0:0,0:0:0:0:
437,214,159082,6,0,L|389:50,1,170,8|0,1:3|1:0,0:0:0:0:
309,192,159544,2,0,L|261:28,1,170,8|0,1:3|0:0,0:0:0:0:
205,207,160006,6,0,L|157:370,1,170,8|0,1:3|1:0,0:0:0:0:
157,370,160621,1,0,1:0:0:0:
55,255,160775,2,0,L|7:91,1,170,8|0,1:3|0:0,0:0:0:0:
153,21,161236,2,0,L|129:102,1,85,8|0,1:3|0:0,0:0:0:0:
181,289,161544,6,0,L|354:243,1,170,8|0,1:3|1:0,0:0:0:0:
254,379,162006,2,0,L|427:333,1,170,8|0,1:3|0:0,0:0:0:0:
421,172,162467,6,0,L|248:126,1,170,8|0,1:3|1:0,0:0:0:0:
256,128,163082,1,0,1:0:0:0:
181,289,163236,2,0,L|354:243,1,170,8|0,1:3|0:0,0:0:0:0:
168,183,163698,2,0,L|81:160,1,85,8|0,1:3|0:0,0:0:0:0:
139,15,164006,6,0,L|167:182,1,170,8|0,1:3|1:0,0:0:0:0:
345,245,164467,2,0,L|373:77,1,170,8|0,1:3|0:0,0:0:0:0:
248,249,164929,2,0,L|262:332,1,85,8|0,1:3|0:0,0:0:0:0:
442,217,165236,5,6,1:2:0:0:
167,182,166316,1,0,1:0:0:0:
167,182,166395,1,0,1:0:0:0:
167,182,166474,5,12,0:0:0:0:
167,182,167073,1,8,0:0:0:0:
234,279,167227,2,0,P|246:331|237:369,1,85,4|0,1:2|0:0,0:0:0:0:
60,261,167535,6,0,B|79:209|79:209|59:156|59:156|84:91,1,170,6|0,1:2|1:0,0:0:0:0:
252,29,167996,5,8,0:0:0:0:
291,13,168073,1,8,0:0:0:0:
333,13,168150,1,8,0:0:0:0:
373,28,168227,1,8,0:0:0:0:
404,56,168304,5,8,1:3:0:0:
388,81,168382,1,8,1:3:0:0:
365,99,168460,1,8,1:3:0:0:
337,108,168538,1,8,1:3:0:0:
307,108,168616,6,0,B|301:135|292:154|292:154|305:186|305:186|296:206|294:244,1,127.5,12|0,0:0|0:0,0:0:0:0:
234,279,168929,6,0,B|187:292|187:292|140:274,1,93.5000028533936,6|0,1:2|1:0,0:0:0:0:
34,67,169234,1,8,0:0:0:0:
197,136,169387,1,2,0:0:0:0:
41,169,169540,1,0,1:0:0:0:
140,45,169693,1,0,1:0:0:0:
122,268,169846,1,8,0:0:0:0:
302,134,169999,6,0,P|388:117|481:193,1,187.000005706787,2|0,1:2|1:0,0:0:0:0:
348,311,170457,2,0,L|242:290,1,93.5000028533936,10|0,0:2|0:0,0:0:0:0:
120,153,170764,1,2,1:2:0:0:
298,160,170918,1,0,1:0:0:0:
145,276,171072,1,8,0:0:0:0:
215,62,171226,1,2,0:0:0:0:
380,240,171380,6,0,B|468:263|468:263|494:254|513:224,1,140.25000428009,6|0,1:2|0:0,0:0:0:0:
486,151,171690,2,0,P|427:146|385:162,1,93.5000028533936,10|0,0:0|0:0,0:0:0:0:
226,216,172001,1,2,1:2:0:0:
368,323,172157,1,0,1:0:0:0:
299,138,172312,1,8,0:0:0:0:
225,320,172468,1,2,0:0:0:0:
136,145,172623,6,0,L|150:51,1,93.5000028533936,0|0,1:2|1:0,0:0:0:0:
18,292,172934,2,0,L|31:384,1,93.5000028533936,10|0,0:2|0:0,0:0:0:0:
160,273,173239,1,2,1:2:0:0:
0,200,173392,1,0,1:0:0:0:
126,373,173544,1,12,0:0:0:0:
151,160,173697,1,0,1:0:0:0:
339,313,173850,5,6,1:2:0:0:
373,327,173926,1,0,1:3:0:0:
410,331,174003,1,0,1:3:0:0:
446,325,174080,1,0,1:3:0:0:
479,307,174157,2,0,P|486:280|485:253,1,46.7500014266968,0|0,1:3|1:3,0:0:0:0:
459,121,174311,5,6,1:2:0:0:
430,98,174388,1,0,1:0:0:0:
394,85,174464,1,0,1:0:0:0:
357,85,174541,1,0,1:0:0:0:
322,97,174618,1,0,1:0:0:0:
292,119,174695,1,0,1:0:0:0:
272,150,174772,2,0,P|246:156|224:156,1,46.7500014266968,10|0,0:0|0:0,0:0:0:0:
125,43,174926,6,0,B|163:35|163:35|177:39|177:39|221:30,1,93.5000028533936,6|0,1:2|0:0,0:0:0:0:
459,121,175233,1,10,0:0:0:0:
486,152,175310,1,4,0:3:0:0:
504,190,175387,1,0,1:3:0:0:
511,231,175464,1,0,1:3:0:0:
508,273,175541,1,0,1:3:0:0:
493,313,175618,1,0,1:3:0:0:
469,347,175694,6,0,P|394:331|308:313,1,152.999995330811,10|0,0:0|0:0,0:0:0:0:
300,323,176309,6,0,B|317:288|317:288|297:218,1,101.999996887207,6|0,1:2|1:0,0:0:0:0:
84,90,176617,1,10,0:0:0:0:
113,271,176771,2,0,P|155:276|207:250,1,101.999996887207,2|0,0:0|1:0,0:0:0:0:
313,74,177080,1,2,1:2:0:0:
97,175,177234,1,8,0:0:0:0:
328,216,177388,6,0,B|461:183|461:183|420:249,1,203.999993774414,2|2,1:2|1:2,0:0:0:0:
217,97,177851,2,0,P|262:75|313:74,1,101.999996887207,10|0,0:0|0:0,0:0:0:0:
226,260,178159,1,2,1:2:0:0:
104,83,178314,1,0,1:0:0:0:
26,282,178468,2,0,L|42:382,1,101.999996887207,8|2,0:0|0:0,0:0:0:0:
252,174,178776,5,0,1:2:0:0:
0,130,178931,1,0,1:0:0:0:
192,341,179085,1,8,0:0:0:0:
262,75,179239,1,2,0:0:0:0:
83,211,179393,1,0,1:2:0:0:
358,228,179548,1,0,1:0:0:0:
124,66,179702,1,8,0:0:0:0:
407,27,179856,6,0,P|459:26|505:53,1,101.999996887207,2|0,1:2|0:0,0:0:0:0:
377,238,180165,1,0,1:0:0:0:
237,11,180319,1,10,0:0:0:0:
167,256,180472,1,8,0:0:0:0:
356,120,180626,2,0,L|471:137,1,101.999996887207,2|0,1:2|1:0,0:0:0:0:
301,352,180934,1,12,0:0:0:0:
251,154,181088,1,2,0:0:0:0:
47,324,181242,6,0,B|28:296|5:283|5:283|36:177,1,152.999995330811,6|0,1:2|0:0,0:0:0:0:
53,113,181549,2,0,P|101:98|161:117,1,101.999996887207,10|0,0:0|0:0,0:0:0:0:
358,228,181857,1,2,1:2:0:0:
167,256,182011,1,0,1:0:0:0:
343,101,182165,2,0,P|334:54|323:-4,1,101.999996887207,10|0,0:0|0:0,0:0:0:0:
251,215,182472,5,2,1:2:0:0:
467,162,182626,1,0,1:2:0:0:
295,351,182780,2,0,P|229:358|188:332,1,101.999996887207,10|0,0:0|0:0,0:0:0:0:
346,121,183088,1,2,0:0:0:0:
418,333,183242,1,0,1:0:0:0:
167,256,183395,2,0,L|51:274,1,101.999996887207,12|0,0:0|0:0,0:0:0:0:
200,7,183692,5,12,0:0:0:0:
349,214,183847,1,0,1:0:0:0:
349,214,183925,1,0,1:0:0:0:
349,214,184002,2,0,L|335:275,1,50.9999984436036,0|0,1:0|1:0,0:0:0:0:
504,212,184158,6,0,L|490:151,1,50.9999984436036,12|0,1:2|1:0,0:0:0:0:
383,75,184313,1,0,1:0:0:0:
356,89,184391,1,0,1:0:0:0:
326,95,184469,1,0,1:0:0:0:
296,92,184546,1,0,1:0:0:0:
267,80,184624,2,0,P|235:88|210:89,1,50.9999984436036,10|0,0:0|0:0,0:0:0:0:
61,32,184777,6,0,B|14:157|14:157|93:190,1,203.999993774414,6|0,1:2|1:0,0:0:0:0:
160,215,185161,1,0,1:0:0:0:
160,215,185238,2,0,P|146:247|140:276,1,50.9999984436036,10|0,0:0|0:0,0:0:0:0:
273,365,185392,6,0,B|389:333|389:333|413:371|467:387,1,203.999993774414,6|0,1:2|1:0,0:0:0:0:
505,320,185777,1,0,1:0:0:0:
505,320,185854,2,0,P|511:268|490:219,1,101.999996887207,10|0,0:0|0:0,0:0:0:0:
296,12,186161,5,6,1:2:0:0:
342,231,186315,1,0,1:0:0:0:
131,87,186470,2,0,L|23:111,1,101.999996887207,10|0,0:0|0:0,0:0:0:0:
248,207,186779,2,0,P|328:234|406:142,1,203.999993774414,2|8,1:2|0:0,0:0:0:0:
227,71,187243,1,2,0:0:0:0:
158,295,187398,5,0,1:2:0:0:
314,143,187552,1,0,1:0:0:0:
85,190,187707,1,8,0:0:0:0:
281,336,187862,2,0,P|328:326|383:315,1,101.999996887207,2|0,0:0|1:0,0:0:0:0:
202,144,188171,1,0,1:0:0:0:
96,376,188325,1,8,0:0:0:0:
16,122,188480,1,2,0:0:0:0:
261,218,188635,6,0,B|312:233|312:233|373:208,1,101.999996887207,6|0,1:2|1:0,0:0:0:0:
272,4,188941,1,8,0:0:0:0:
107,101,189094,2,0,L|148:316,1,203.999993774414,2|0,0:0|1:0,0:0:0:0:
306,108,189553,2,0,P|247:103|192:127,1,101.999996887207,8|0,0:0|0:0,0:0:0:0:
34,208,189859,5,0,1:2:0:0:
265,221,190012,1,0,1:0:0:0:
56,338,190165,1,8,0:0:0:0:
207,117,190318,2,0,L|189:-1,1,101.999996887207,8|0,0:0|1:0,0:0:0:0:
32,186,190624,1,0,1:0:0:0:
283,228,190777,2,0,B|390:198|390:198|369:227|365:255,1,152.999995330811,12|0,0:0|0:0,0:0:0:0:
333,308,191083,6,0,B|303:312|283:326|283:326|265:312|219:306,1,101.999996887207,6|0,1:2|1:0,0:0:0:0:
107,101,191392,2,0,L|218:119,1,101.999996887207,10|0,0:0|0:0,0:0:0:0:
31,275,191701,1,0,1:0:0:0:
6,61,191856,1,0,1:0:0:0:
160,237,192010,1,8,0:0:0:0:
263,14,192165,6,0,P|317:8|364:27,1,101.999996887207,2|0,0:0|1:0,0:0:0:0:
283,228,192473,1,0,1:0:0:0:
164,15,192626,1,8,0:0:0:0:
385,141,192780,2,0,L|499:120,1,101.999996887207,2|0,0:0|1:0,0:0:0:0:
263,14,193087,1,0,1:0:0:0:
380,251,193240,1,10,0:0:0:0:
108,133,193394,1,0,1:0:0:0:
108,133,193470,1,0,1:0:0:0:
108,133,193547,5,12,0:0:0:0:
382,118,193699,1,0,1:0:0:0:
111,294,193851,1,12,0:0:0:0:
164,15,194003,1,0,1:0:0:0:
406,258,194155,5,12,0:0:0:0:
137,141,194307,1,0,1:0:0:0:
424,27,194459,1,8,0:0:0:0:
236,317,194611,6,0,B|193:308|193:308|183:310|183:310|128:299,1,101.999996887207,6|0,1:2|0:0,0:0:0:0:
8,77,194915,1,0,1:0:0:0:
282,134,195067,2,0,B|325:125|325:125|335:127|335:127|390:116,1,101.999996887207,12|0,0:0|0:0,0:0:0:0:
493,321,195376,5,6,1:2:0:0:
461,346,195453,1,8,0:0:0:0:
424,363,195530,1,8,0:0:0:0:
384,372,195608,1,8,0:0:0:0:
344,371,195685,1,10,1:2:0:0:
304,362,195762,1,8,0:0:0:0:
268,343,195840,1,8,0:0:0:0:
236,317,195917,1,8,0:0:0:0:
212,285,195994,6,0,B|168:302|168:302|106:284,1,93.5000028533936,6|0,1:2|1:0,0:0:0:0:
16,100,196304,2,0,L|130:77,1,93.5000028533936,12|2,0:0|0:0,0:0:0:0:
282,134,196614,1,0,1:0:0:0:
105,195,196769,1,0,1:0:0:0:
231,32,196924,1,8,0:0:0:0:
326,214,197079,6,0,L|307:309,1,93.5000028533936,2|0,0:0|1:0,0:0:0:0:
494,162,197389,2,0,L|475:67,1,93.5000028533936,0|8,1:0|0:0,0:0:0:0:
260,135,197699,1,2,0:0:0:0:
431,249,197854,1,0,1:0:0:0:
352,58,198007,1,0,1:0:0:0:
204,239,198161,2,0,P|155:237|113:216,1,93.5000028533936,10|0,0:0|0:0,0:0:0:0:
248,23,198469,5,2,1:2:0:0:
326,214,198622,2,0,L|307:309,1,93.5000028533936,0|8,1:0|0:0,0:0:0:0:
102,337,198930,1,2,0:0:0:0:
184,148,199084,1,0,1:2:0:0:
2,244,199238,1,0,1:0:0:0:
212,322,199392,1,8,0:0:0:0:
70,147,199545,6,0,P|62:95|85:45,1,93.5000028533936,2|0,0:0|1:0,0:0:0:0:
275,7,199853,1,0,1:0:0:0:
208,241,200007,1,8,0:0:0:0:
163,8,200161,1,8,0:0:0:0:
359,69,200315,2,0,L|467:48,1,93.5000028533936,0|0,1:0|1:0,0:0:0:0:
272,279,200622,2,0,B|211:267|211:267|191:273|191:273|108:255,1,140.25000428009,12|0,0:0|0:0,0:0:0:0:
56,244,200930,6,0,B|36:287|36:287|57:341,1,93.5000028533936,6|0,1:2|1:0,0:0:0:0:
235,166,201245,2,0,L|213:58,1,93.5000028533936,10|0,0:0|0:0,0:0:0:0:
362,246,201552,2,0,L|340:138,1,93.5000028533936,2|0,1:2|1:0,0:0:0:0:
487,326,201860,2,0,L|465:218,1,93.5000028533936,10|0,0:0|0:0,0:0:0:0:
362,63,202168,6,0,L|340:171,1,93.5000028533936,2|0,1:2|1:0,0:0:0:0:
291,365,202471,1,8,0:0:0:0:
161,258,202623,2,0,P|74:275|-7:199,1,187.000005706787,2|0,0:0|1:0,0:0:0:0:
235,166,203079,1,8,0:0:0:0:
190,357,203231,1,2,0:0:0:0:
99,163,203383,6,0,P|83:93|129:10,1,140.25000428009,0|0,1:2|0:0,0:0:0:0:
184,12,203690,2,0,L|287:29,1,93.5000028533936,10|0,0:0|1:0,0:0:0:0:
386,224,203998,2,0,L|283:241,1,93.5000028533936,10|0,0:0|1:0,0:0:0:0:
473,102,204306,1,2,1:2:0:0:
425,350,204459,6,0,B|359:335|359:335|310:355|310:355|223:334,1,187.000005706787,12|0,0:0|1:0,0:0:0:0:
99,163,204921,2,0,B|129:147|129:147|156:145|205:164,1,93.5000028533936,12|0,0:0|0:0,0:0:0:0:
415,217,205232,5,10,0:0:0:0:
433,185,205310,1,0,1:0:0:0:
438,148,205387,1,0,1:0:0:0:
431,111,205465,1,0,1:0:0:0:
413,80,205543,2,0,B|386:81|369:95|369:95|350:85|318:88,1,93.5000028533936,12|2,0:0|0:0,0:0:0:0:
106,273,205854,5,6,1:2:0:0:
329,248,206007,1,0,1:0:0:0:
99,163,206161,1,10,0:0:0:0:
245,339,206315,1,0,1:0:0:0:
230,84,206468,2,0,P|177:71|119:88,1,101.999996887207,10|0,0:0|0:0,0:0:0:0:
306,253,206776,5,2,1:2:0:0:
359,3,206930,1,8,0:0:0:0:
505,144,207083,2,0,L|490:249,1,101.999996887207,2|0,0:0|1:0,0:0:0:0:
238,195,207391,6,0,P|291:138|407:152,1,203.999993774414,10|0,0:0|1:0,0:0:0:0:
260,335,207852,1,0,1:0:0:0:
173,105,208006,1,8,0:0:0:0:
338,237,208160,1,2,0:0:0:0:
101,333,208313,6,0,B|61:327|61:327|43:336|43:336|3:329,1,101.999996887207,6|0,1:2|0:0,0:0:0:0:
69,101,208621,2,0,L|179:83,1,101.999996887207,10|0,0:0|1:0,0:0:0:0:
407,152,208928,1,10,0:0:0:0:
222,213,209082,1,0,1:0:0:0:
312,53,209236,1,0,1:0:0:0:
358,251,209390,1,8,0:0:0:0:
167,80,209543,6,0,P|68:72|6:172,1,203.999993774414,2|8,0:0|0:0,0:0:0:0:
227,193,210005,2,0,L|339:169,1,101.999996887207,2|0,0:0|1:0,0:0:0:0:
234,15,210312,1,0,1:0:0:0:
124,210,210466,2,0,P|115:262|132:320,1,101.999996887207,8|0,0:0|0:0,0:0:0:0:
371,379,210761,5,6,1:2:0:0:
227,193,210916,1,0,1:0:0:0:
461,292,211071,1,10,0:0:0:0:
231,343,211226,1,0,1:0:0:0:
421,158,211381,2,0,L|400:28,1,101.999996887207,10|0,0:0|1:0,0:0:0:0:
166,114,211691,5,6,1:2:0:0:
359,246,211846,1,8,0:0:0:0:
277,19,212001,5,2,1:2:0:0:
277,19,212104,2,0,P|230:21|198:37,1,67.9999979248048,8|8,0:0|0:0,0:0:0:0:
100,104,212311,1,8,0:2:0:0:
100,104,212414,2,0,P|147:106|179:122,1,67.9999979248048,8|8,0:0|0:0,0:0:0:0:
269,210,212621,5,8,1:3:0:0:
302,216,212724,1,8,1:3:0:0:
336,221,212828,1,8,1:3:0:0:
359,246,212931,5,0,1:3:0:0:
392,241,213032,1,0,1:3:0:0:
426,235,213133,1,0,1:3:0:0:
454,215,213234,6,0,B|388:203|353:160|353:160|372:201|376:251|376:251|382:268|407:282|407:282|399:330|419:377|419:377|334:379|276:342|248:284|268:209|268:209|170:191|92:255|102:352|102:352|130:360|175:357|194:302,1,986,6|0,1:2|0:0,0:0:0:0:
88,178,217852,6,0,B|30:190|0:124|0:124|23:123|59:106,1,170,12|0,0:2|0:0,0:0:0:0:
