osu file format v14

[General]
AudioFilename: audio.mp3
AudioLeadIn: 0
PreviewTime: 146162
Countdown: 0
SampleSet: Soft
StackLeniency: 0.7
Mode: 0
LetterboxInBreaks: 0
WidescreenStoryboard: 1

[Editor]
DistanceSpacing: 1
BeatDivisor: 4
GridSize: 32
TimelineZoom: 1

[Metadata]
Title:SIREN
TitleUnicode:SIREN
Artist:PassCode
ArtistUnicode:PassCode
Creator:Akitoshi
Version:Easy
Source:
Tags:Corinn -Laura- Amats Mimiliaa Hojo Karen Suzuhara Lulu Hitsukuya Mimilie SupaV Japanese Pop Rock 高嶋楓 Takashima Kaede 南菜生 Minami Nao 大上陽奈子 Oogami Hinako 有馬えみり Arima Emily REVERBERATE ep.
BeatmapID:3945445
BeatmapSetID:1912647

[Difficulty]
HPDrainRate:2
CircleSize:2.8
OverallDifficulty:3
ApproachRate:4
SliderMultiplier:0.85
SliderTickRate:0.5

[Events]
//Background and Video events
0,0,"copium1212.jpg",0,0
Video,120,"Passcode - Siren-1-1.mp4"
//Break Periods
2,53437,56836
2,92825,96227
2,146965,155301
//Storyboard Layer 0 (Background)
//Storyboard Layer 1 (Fail)
//Storyboard Layer 2 (Pass)
//Storyboard Layer 3 (Foreground)
//Storyboard Layer 4 (Overlay)
//Storyboard Sound Samples

[TimingPoints]
321,305.732484076433,4,2,5,30,1,0
1085,-100,4,2,5,60,0,0
1543,312.5,4,2,5,60,1,0
2168,307.692307692308,4,2,5,60,1,0
2783,307.692307692308,4,2,5,60,1,0
4013,306.122448979592,4,2,5,60,1,0
5237,307.29833546735,4,2,5,60,1,0
6696,-100,4,2,5,5,0,0
6773,-100,4,2,5,60,0,0
7925,-100,4,2,5,5,0,0
8002,-100,4,2,5,60,0,0
8617,292.682926829268,4,2,5,60,1,0
8909,307.692307692308,4,2,5,60,1,0
9678,-100,4,2,5,70,0,0
10139,311.688311688312,4,2,5,70,1,0
11385,309.278350515464,4,2,5,70,1,0
13859,307.495195387572,4,2,5,70,1,0
23698,307.692307692308,4,2,5,60,1,0
26159,309.677419354839,4,2,5,60,1,0
28636,307.692307692308,4,2,5,60,1,0
31097,305.343511450382,4,2,5,60,1,0
33539,310.077519379845,4,2,5,60,1,0
35709,302.648171500631,4,2,5,60,1,0
36011,307.692307692308,4,2,5,60,1,0
38472,308.08729139923,4,2,5,60,1,0
42785,306.122448979592,4,2,5,60,1,0
43397,306.513409961686,4,2,5,70,1,0
45849,307.692307692308,4,2,5,70,1,0
50772,310.478654592497,4,2,5,70,1,0
52479,294.117647058824,4,2,5,70,1,0
52626,305.732484076433,4,2,5,70,1,0
53237,307.692307692308,4,2,5,60,1,0
55390,302.267002518892,4,2,5,60,1,0
55692,309.278350515464,4,2,5,60,1,0
57547,304.568527918782,4,2,5,60,1,0
58156,310.880829015544,4,2,5,60,1,0
59399,307.692307692308,4,2,5,60,1,0
60629,313.31592689295,4,2,5,60,1,0
61255,285.714285714286,4,2,5,60,1,0
61397,-100,4,2,5,70,0,0
61826,326.086956521739,4,2,5,70,1,0
62478,300,4,2,5,70,1,0
63078,307.692307692308,4,2,5,80,1,1
65539,309.278350515464,4,2,5,80,1,1
67703,301.507537688442,4,2,5,80,1,1
68004,306.90537084399,4,2,5,80,1,1
72607,315.789473684211,4,2,5,80,1,1
72922,308.761096101891,4,2,5,80,1,1
76627,306.122448979592,4,2,5,80,1,1
77851,308.880308880309,4,2,5,80,1,1
80322,303.79746835443,4,2,5,80,1,1
81840,314.13612565445,4,2,5,80,1,1
82782,300,4,2,5,70,1,0
83082,307.692307692308,4,2,5,70,1,0
84005,307.692307692308,4,2,5,70,1,0
85235,308.483290488432,4,2,5,70,1,0
87702,307.692307692308,4,2,5,70,1,0
92625,303.79746835443,4,2,5,60,1,0
93232,307.692307692308,4,2,5,60,1,0
93847,307.692307692308,4,2,5,60,1,0
95077,310.880829015544,4,2,5,60,1,0
96320,306.90537084399,4,2,5,60,1,0
97547,307.692307692308,4,2,5,60,1,0
100008,306.122448979592,4,2,5,60,1,0
101232,309.278350515464,4,2,5,60,1,0
102469,307.692307692308,4,2,5,70,1,0
109853,310.077519379845,4,2,5,70,1,0
111093,303.030303030303,4,2,5,70,1,0
111699,307.692307692308,4,2,5,70,1,0
112314,308.483290488432,4,2,5,70,1,0
114473,303.030303030303,4,2,5,70,1,0
114776,308.483290488432,4,2,5,80,1,1
117243,307.692307692308,4,2,5,80,1,1
119089,303.030303030303,4,2,5,80,1,1
119695,308.483290488432,4,2,5,80,1,1
122162,307.692307692308,4,2,5,80,1,1
128315,305.343511450382,4,2,5,80,1,1
129231,312.5,4,2,5,80,1,1
129543,306.709265175719,4,2,5,80,1,1
131689,315.789473684211,4,2,5,80,1,1
132004,309.278350515464,4,2,5,80,1,1
133241,307.692307692308,4,2,5,80,1,1
134317,-100,4,2,5,70,0,0
134779,300,4,2,5,70,1,0
135079,307.692307692308,4,2,5,70,1,0
135694,307.692307692308,4,2,5,70,1,0
139078,285.714285714286,4,2,5,70,1,0
139220,324.324324324324,4,2,5,70,1,0
139382,324.324324324324,4,2,5,70,1,0
139706,306.122448979592,4,2,5,70,1,0
140624,306.122448979592,4,2,5,70,1,0
141236,308.483290488432,4,2,5,70,1,0
141852,308.483290488432,4,2,5,70,1,0
144319,307.692307692308,4,2,5,70,1,0
145549,312.5,4,2,5,70,1,0
145861,301.507537688442,4,2,5,70,1,0
146765,310.478654592497,4,2,5,60,1,0
148006,307.692307692308,4,2,5,60,1,0
156621,-100,4,2,5,70,0,0
166159,315.789473684211,4,2,5,70,1,0
166474,292.682926829268,4,2,5,70,1,0
166766,307.692307692308,4,2,5,70,1,0
167689,307.692307692308,4,2,5,70,1,0
168304,312.5,4,2,5,70,1,0
168929,305.732484076433,4,2,5,80,1,1
170457,307.692307692308,4,2,5,80,1,1
171380,310.880829015544,4,2,5,80,1,1
172934,305.343511450382,4,2,5,80,1,1
173850,307.495195387572,4,2,5,80,1,1
175694,-100,4,2,5,80,0,0
176309,308.483290488432,4,2,5,80,1,1
180319,307.692307692308,4,2,5,80,1,1
181242,307.692307692308,4,2,5,80,1,1
183395,297.029702970297,4,2,5,80,1,1
183692,310.880829015544,4,2,5,80,1,1
184624,307.692307692308,4,2,5,80,1,1
184931,307.692307692308,4,2,5,80,1,1
186161,309.278350515464,4,2,5,80,1,1
188635,306.122448979592,4,2,5,80,1,1
191083,309.278350515464,4,2,5,80,1,1
192320,306.90537084399,4,2,5,80,1,1
193547,304.182509505703,4,2,5,80,1,1
195067,309.278350515464,4,2,5,80,1,1
195994,310.077519379845,4,2,5,80,1,0
197854,307.692307692308,4,2,5,80,1,0
198469,307.692307692308,4,2,5,80,1,0
200930,315.789473684211,4,2,5,80,1,0
201245,307.692307692308,4,2,5,80,1,0
202168,303.79746835443,4,2,5,80,1,0
203383,307.692307692308,4,2,5,80,1,0
204921,311.284046692607,4,2,5,80,1,0
205854,307.495195387572,4,2,5,80,1,0
210466,295.566502463054,4,2,5,80,1,0
210761,310.077519379845,4,2,5,80,1,0
212931,303.030303030303,4,2,5,80,1,0
213234,307.889672867223,4,2,5,80,1,0
213387,-100,4,2,5,5,0,0
217852,-100,4,2,5,80,0,0
218160,-100,4,2,5,5,0,0

[Colours]
Combo1 : 0,128,192
Combo2 : 255,143,89
Combo3 : 0,223,223
Combo4 : 255,128,191

[HitObjects]
155,25,321,6,0,P|162:68|170:116,1,85,4|4,0:0|0:0,0:0:0:0:
238,157,932,2,0,P|231:200|223:248,1,85,4|8,0:0|0:0,0:0:0:0:
238,324,1543,6,0,B|332:341|310:286|403:302,1,170,6|0,1:2|1:2,0:0:0:0:
403,136,2783,2,0,B|309:119|331:174|237:157,1,170,6|0,1:2|1:2,0:0:0:0:
154,142,3706,1,0,1:2:0:0:
156,56,4013,6,0,P|217:17|314:20,1,170,6|0,1:2|1:2,0:0:0:0:
471,77,5237,2,0,P|457:153|440:253,1,170,6|0,1:2|1:0,0:0:0:0:
425,327,6158,1,0,1:0:0:0:
340,323,6466,6,0,B|295:331|264:355|264:355|221:358|168:327,2,170,6|0|6,1:2|1:0|1:2,0:0:0:0:
268,168,8309,2,0,P|222:162|174:179,1,85,0|0,1:0|1:0,0:0:0:0:
101,184,8909,6,0,P|83:145|82:101,1,85,6|0,1:2|1:2,0:0:0:0:
120,29,9524,2,0,B|166:26|200:53|200:53|232:22|282:24,1,170,0|12,1:0|0:0,0:0:0:0:
467,194,11074,1,4,1:3:0:0:
397,243,11385,6,0,B|411:282|411:282|401:324|401:324|416:366,2,127.5,6|2|10,1:2|0:0|0:0,0:0:0:0:
334,184,12622,2,0,B|348:145|348:145|338:103|338:103|353:61,2,127.5,2|2|10,1:2|0:0|0:0,0:0:0:0:
261,229,13859,5,2,1:2:0:0:
197,172,14166,2,0,P|123:153|37:212,1,170,10|10,0:0|0:0,0:0:0:0:
12,276,15088,1,2,1:2:0:0:
60,345,15396,2,0,P|102:334|146:328,1,85,10|0,0:0|1:0,0:0:0:0:
228,325,16011,1,10,0:0:0:0:
295,273,16318,6,0,B|320:287|336:299|336:299|370:288|424:283,2,127.5,6|2|10,1:2|0:0|0:0,0:0:0:0:
229,219,17548,2,0,P|212:163|241:85,2,127.5,2|2|10,1:2|0:0|0:0,0:0:0:0:
295,273,18778,6,0,P|288:316|282:362,1,85,2|10,1:2|0:0,0:0:0:0:
198,370,19393,2,0,B|137:380|142:340|69:347,2,127.5,10|10|10,0:0|0:0|0:0,0:0:0:0:
283,357,20623,2,0,P|317:344|374:349,1,85,8|0,0:0|1:3,0:0:0:0:
445,374,21238,1,10,0:0:0:0:
445,374,23698,6,0,P|438:324|430:284,1,85,6|10,1:2|0:0,0:0:0:0:
417,206,24313,1,2,1:2:0:0:
341,166,24621,2,0,P|271:207|183:186,2,170,10|8|8,0:0|0:0|0:0,0:0:0:0:
382,91,26159,5,6,1:2:0:0:
313,40,26468,2,0,P|270:46|222:55,1,85,10|2,0:2|1:2,0:0:0:0:
143,65,27088,2,0,P|63:57|0:115,2,170,10|8|10,0:0|0:0|0:0,0:0:0:0:
197,132,28636,6,0,B|257:118|257:118|301:139|301:139|368:123,1,170,6|2,1:2|1:2,0:0:0:0:
442,106,29559,1,10,0:0:0:0:
495,171,29866,2,0,P|511:209|507:251,1,85,2|10,0:0|0:0,0:0:0:0:
444,309,30482,2,0,P|398:326|357:319,1,85,2|10,0:0|0:0,0:0:0:0:
278,308,31097,6,0,P|236:313|186:324,1,85,6|8,1:2|0:0,0:0:0:0:
109,332,31707,1,0,1:0:0:0:
41,282,32013,2,0,P|17:194|56:120,1,170,10|10,0:0|0:0,0:0:0:0:
123,84,32929,2,0,P|161:106|205:108,1,85,0|10,0:0|0:0,0:0:0:0:
286,101,33539,6,0,P|278:161|274:197,1,85,6|10,1:2|0:0,0:0:0:0:
263,269,34159,1,2,1:2:0:0:
190,310,34469,2,0,P|121:264|40:281,2,170,10|8|8,0:0|0:0|0:0,0:0:0:0:
253,367,36011,6,0,P|308:358|348:355,1,85,6|10,1:2|0:0,0:0:0:0:
421,349,36626,1,2,1:2:0:0:
478,285,36934,2,0,P|501:203|461:119,1,170,10|8,0:0|0:0,0:0:0:0:
399,79,37857,1,2,0:0:0:0:
313,79,38164,1,10,0:0:0:0:
248,134,38472,6,0,B|265:195|265:195|250:237|250:237|272:306,1,170,6|2,1:2|1:2,0:0:0:0:
204,351,39396,1,10,0:0:0:0:
128,311,39704,2,0,P|85:324|35:315,1,85,2|10,0:0|0:0,0:0:0:0:
6,243,40320,2,0,P|1:201|14:160,1,85,2|10,0:0|0:0,0:0:0:0:
64,92,40936,5,6,1:2:0:0:
132,141,41244,1,8,0:0:0:0:
185,75,41552,2,0,P|250:67|312:59,2,127.5,0|0|12,1:0|1:0|0:0,0:0:0:0:
132,141,42785,2,0,P|125:184|136:229,1,85,8|4,0:0|0:3,0:0:0:0:
184,291,43397,6,0,B|256:278|244:320|312:304,2,127.5,6|10|10,1:2|0:2|0:0,0:0:0:0:
59,320,44776,2,0,P|30:270|35:193,1,127.5,10|10,0:2|0:0,0:0:0:0:
58,121,45542,1,10,0:0:0:0:
130,76,45849,6,0,B|177:75|209:89|209:89|228:78|266:63,2,127.5,12|10|10,0:2|0:0|0:0,0:0:0:0:
119,203,47233,2,0,P|176:229|243:209,1,127.5,10|10,0:0|0:0,0:0:0:0:
295,151,48002,1,10,0:0:0:0:
364,200,48310,6,0,B|352:249|352:249|362:281|362:281|353:338,2,127.5,12|10|10,0:0|0:0|0:0,0:0:0:0:
482,152,49695,2,0,P|497:91|467:27,1,127.5,10|10,0:0|0:0,0:0:0:0:
391,8,50464,1,10,0:0:0:0:
316,49,50772,6,0,B|239:69|239:69|216:54|194:24,2,127.5,6|12|12,1:2|0:0|0:0,0:0:0:0:
381,158,52169,2,0,B|369:204|369:204|381:231|381:231|366:292,1,125.113270833333,12|12,0:0|0:0,0:0:0:0:
347,362,52931,1,12,0:0:0:0:
263,377,53237,5,6,1:2:0:0:
256,192,58156,12,8,61826,0:0:0:0:
256,192,63078,6,0,B|301:204|301:204|351:186,1,85,6|8,1:2|0:0,0:0:0:0:
415,158,63693,2,0,P|443:211|439:294,2,127.5,0|2|10,1:0|1:2|0:2,0:0:0:0:
348,105,64924,2,0,P|299:98|256:91,1,85,2|8,1:2|0:0,0:0:0:0:
179,86,65539,5,6,1:2:0:0:
133,158,65848,1,8,0:0:0:0:
166,236,66157,2,0,P|226:225|296:217,2,127.5,0|2|8,1:2|1:2|0:2,0:0:0:0:
119,306,67394,2,0,P|76:300|35:292,1,85,2|8,1:2|0:0,0:0:0:0:
5,213,68004,6,0,P|1:169|25:117,1,85,6|10,1:2|0:0,0:0:0:0:
61,60,68617,1,2,1:2:0:0:
144,42,68924,1,10,0:0:0:0:
215,88,69231,2,0,P|254:101|302:95,1,85,2|10,1:2|0:0,0:0:0:0:
373,57,69845,1,2,0:0:0:0:
428,123,70152,1,10,0:0:0:0:
378,191,70459,6,0,P|388:233|396:278,1,85,14|10,0:0|0:0,0:0:0:0:
409,358,71073,1,10,0:0:0:0:
281,363,71533,2,0,B|239:351|239:351|193:363,1,85,6|0,1:2|1:0,0:0:0:0:
115,378,72147,2,0,B|90:338|90:338|111:249,1,127.5,6|10,1:2|0:0,0:0:0:0:
134,178,72922,5,6,1:2:0:0:
213,147,73230,1,10,0:0:0:0:
284,192,73539,2,0,P|331:200|374:189,1,85,2|8,1:2|0:0,0:0:0:0:
438,146,74157,2,0,P|424:80|412:22,2,127.5,2|2|8,1:2|0:2|0:0,0:0:0:0:
491,212,75392,6,0,P|511:272|490:340,2,127.5,6|2|8,1:2|0:0|0:0,0:0:0:0:
438,146,76627,1,2,1:2:0:0:
366,192,76933,2,0,B|276:202|300:135|190:149,1,170,8|12,0:0|0:0,0:0:0:0:
123,161,77851,5,6,1:2:0:0:
51,115,78159,1,10,0:2:0:0:
90,39,78468,2,0,P|132:19|177:20,1,85,2|8,1:2|0:0,0:0:0:0:
250,47,79086,2,0,P|323:30|383:20,2,127.5,0|2|8,1:0|0:0|0:0,0:0:0:0:
211,122,80322,5,12,0:0:0:0:
211,206,80625,1,12,0:0:0:0:
153,268,80929,2,0,P|80:251|20:241,2,127.5,12|6|12,0:0|1:2|0:0,0:0:0:0:
221,318,82154,2,0,P|262:324|305:309,1,85,8|12,0:3|0:0,0:0:0:0:
354,243,82782,6,0,B|400:267|400:267|431:253|488:244,1,128.35,6|6,1:2|1:2,0:0:0:0:
511,170,83543,1,0,1:0:0:0:
450,109,83851,2,0,P|453:66|440:26,1,85,6|0,1:2|1:0,0:0:0:0:
355,24,84466,2,0,B|309:48|309:48|278:34|221:25,1,127.5,6|12,1:2|0:0,0:0:0:0:
151,14,85235,6,0,B|141:58|141:58|157:95|157:95|148:144,1,127.5,6|6,1:2|1:2,0:0:0:0:
126,218,86006,1,0,1:0:0:0:
156,297,86314,2,0,P|198:305|242:295,1,85,6|0,1:2|1:0,0:0:0:0:
306,244,86931,2,0,B|300:197|300:197|312:169|312:169|303:114,1,127.5,6|4,1:2|1:3,0:0:0:0:
286,36,87702,6,0,B|330:11|380:20|380:20|415:47,1,127.5,6|6,1:2|1:2,0:0:0:0:
459,102,88471,1,0,1:0:0:0:
411,172,88778,2,0,P|416:216|421:261,1,85,6|0,1:2|1:0,0:0:0:0:
422,341,89394,2,0,B|378:366|328:357|328:357|293:330,1,127.5,6|8,1:2|0:0,0:0:0:0:
238,283,90163,5,6,1:2:0:0:
221,199,90471,1,8,0:0:0:0:
242,116,90778,2,0,P|175:93|111:121,1,127.5,8|10,0:0|0:2,0:0:0:0:
58,165,91548,6,0,B|85:237|48:218|68:290,1,127.5,8|8,0:0|0:0,0:0:0:0:
109,364,92317,1,4,0:3:0:0:
171,305,92625,5,6,1:2:0:0:
256,192,97547,6,0,P|190:142|100:160,1,170,6|0,1:2|1:0,0:0:0:0:
37,201,98470,2,0,P|53:279|57:334,2,127.5,0|8|0,1:0|0:0|1:0,0:0:0:0:
12,119,99700,1,8,0:0:0:0:
59,48,100008,6,0,P|96:35|150:38,1,85,2|12,1:2|0:0,0:0:0:0:
222,61,100620,2,0,P|259:74|313:71,1,85,0|12,1:0|0:0,0:0:0:0:
505,230,101850,2,0,P|500:273|493:321,1,85,8|0,0:0|1:3,0:0:0:0:
434,374,102469,5,6,1:2:0:0:
349,368,102776,1,8,0:0:0:0:
283,314,103084,2,0,B|243:331|243:331|153:311,2,127.5,8|6|8,0:0|1:2|0:0,0:0:0:0:
353,266,104315,2,0,L|338:170,1,85,8|8,0:0|0:0,0:0:0:0:
326,97,104930,5,12,0:0:0:0:
247,65,105238,1,8,0:0:0:0:
171,104,105545,2,0,B|123:96|123:96|105:81|105:81|41:72,2,127.5,8|6|12,0:0|1:2|0:0,0:0:0:0:
198,184,106776,2,0,L|183:280,1,85,8|12,1:3|0:0,0:0:0:0:
168,351,107392,5,6,1:2:0:0:
248,378,107699,1,8,0:0:0:0:
328,350,108007,2,0,B|408:369|408:369|450:349,2,127.5,8|6|8,0:0|1:2|0:0,0:0:0:0:
271,286,109238,2,0,L|284:202,1,85,8|8,0:0|0:0,0:0:0:0:
347,144,109853,6,0,B|393:152|393:152|430:140|430:140|479:149,1,127.5,12|12,0:0|0:0,0:0:0:0:
492,21,110783,2,0,B|446:13|446:13|409:25|409:25|360:16,1,126.371625,12|12,0:0|0:0,0:0:0:0:
243,7,111699,1,12,0:0:0:0:
215,87,112006,1,12,0:0:0:0:
256,161,112314,5,8,1:3:0:0:
245,330,112930,1,8,1:3:0:0:
77,307,113547,1,8,1:3:0:0:
32,234,113856,1,8,1:3:0:0:
69,157,114164,2,0,L|163:171,1,85,8|2,1:3|0:0,0:0:0:0:
212,230,114776,6,0,B|259:218|259:218|292:228|292:228|341:215,2,127.5,6|2|8,1:2|0:0|0:0,0:0:0:0:
153,291,116009,2,0,B|106:279|106:279|73:289|73:289|24:276,2,127.5,0|2|8,1:0|0:0|0:0,0:0:0:0:
213,351,117243,5,2,1:2:0:0:
298,351,117550,1,8,0:0:0:0:
357,291,117858,2,0,P|415:302|450:289,1,85,0|8,1:0|0:0,0:0:0:0:
493,229,118473,2,0,B|480:145|482:157|466:58,1,170,0|0,1:2|1:2,0:0:0:0:
396,12,119392,1,12,0:0:0:0:
317,44,119695,6,0,B|272:22|272:22|191:41,2,127.5,6|2|8,1:2|0:0|0:0,0:0:0:0:
317,129,120928,2,0,B|241:146|241:146|196:124,2,127.5,2|2|8,1:2|0:0|0:0,0:0:0:0:
390,171,122162,6,0,P|405:214|383:304,1,127.5,0|2,1:2|0:0,0:0:0:0:
318,338,122931,1,0,1:0:0:0:
247,289,123238,2,0,P|191:296|117:309,1,127.5,2|8,0:0|0:0,0:0:0:0:
35,304,124008,1,8,1:3:0:0:
8,223,124315,1,12,0:0:0:0:
58,153,124623,6,0,B|46:107|46:107|55:80|55:80|40:21,2,127.5,6|2|8,1:2|0:0|0:0,0:0:0:0:
137,185,125854,2,0,B|125:231|125:231|134:258|134:258|119:317,2,127.5,2|2|8,1:2|0:0|0:0,0:0:0:0:
162,103,127085,5,2,1:2:0:0:
237,63,127392,1,10,0:0:0:0:
318,85,127700,2,0,P|338:124|339:173,1,85,2|8,1:2|0:0,0:0:0:0:
291,234,128315,2,0,P|305:297|320:370,2,127.5,0|10|12,1:0|0:0|0:0,0:0:0:0:
230,173,129543,5,6,1:2:0:0:
162,224,129849,2,0,P|83:248|2:198,1,170,8|8,0:0|0:0,0:0:0:0:
4,123,130769,1,2,1:2:0:0:
62,60,131076,2,0,B|144:73|101:65|235:86,1,170,8|8,0:0|0:0,0:0:0:0:
314,98,132004,5,6,1:2:0:0:
359,170,132313,1,10,0:0:0:0:
293,224,132622,2,0,P|284:273|295:312,1,85,0|10,1:0|0:0,0:0:0:0:
351,367,133241,2,0,P|400:376|439:365,1,85,0|10,1:0|0:0,0:0:0:0:
498,312,133856,1,10,0:0:0:0:
415,215,134317,6,0,B|370:236|370:236|283:223,1,127.5,6|0,1:2|1:0,0:0:0:0:
206,214,135079,1,12,0:0:0:0:
90,160,135540,2,0,B|69:205|69:205|82:292,1,127.5,6|0,1:2|1:0,0:0:0:0:
92,366,136309,1,12,0:0:0:0:
219,363,136770,6,0,B|265:354|265:354|301:367|301:367|345:358,1,127.5,6|0,1:2|1:0,0:0:0:0:
424,333,137540,2,0,P|441:285|412:212,1,127.5,12|6,0:0|1:2,0:0:0:0:
357,152,138309,2,0,B|311:143|311:143|275:156|275:156|229:147,1,127.5,8|8,0:0|0:0,0:0:0:0:
178,32,139220,6,0,B|253:12|253:12|305:30,1,127.5,6|0,1:2|1:0,0:0:0:0:
378,61,140012,1,12,0:0:0:0:
449,166,140471,2,0,B|429:241|429:241|447:293,1,127.5,6|0,1:2|1:0,0:0:0:0:
477,366,141236,1,8,0:2:0:0:
349,375,141698,6,0,P|306:343|229:344,1,127.5,6|8,1:2|0:0,0:0:0:0:
152,368,142468,2,0,P|111:362|61:354,1,85,0|8,1:0|0:0,0:0:0:0:
7,294,143085,1,0,1:0:0:0:
7,208,143394,1,8,0:0:0:0:
66,148,143702,2,0,P|107:141|150:135,1,85,2|8,1:2|1:2,0:0:0:0:
234,124,144319,6,0,P|235:80|218:34,2,85,6|2|2,1:2|1:2|1:2,0:0:0:0:
205,203,145242,1,2,1:2:0:0:
265,263,145549,2,0,P|305:257|357:249,1,85,6|4,1:2|1:3,0:0:0:0:
432,235,146162,1,4,1:3:0:0:
492,175,146464,1,8,0:0:0:0:
474,92,146765,5,6,1:2:0:0:
191,83,156621,6,0,P|115:79|70:113,2,127.5,8|8|8,1:3|1:3|1:3,0:0:0:0:
370,196,158313,2,0,P|356:274|346:338,1,127.5,8|8,1:3|1:3,0:0:0:0:
271,357,159082,6,0,P|195:361|150:327,2,127.5,8|8|8,1:3|1:3|1:3,0:0:0:0:
274,144,160775,2,0,P|196:158|132:168,1,127.5,8|8,1:3|1:3,0:0:0:0:
63,170,161544,6,0,P|44:127|60:46,2,127.5,8|8|8,1:3|1:3|1:3,0:0:0:0:
253,265,163236,2,0,P|331:251|395:241,1,127.5,8|8,1:3|1:3,0:0:0:0:
432,177,164006,6,0,P|405:120|419:56,2,127.5,8|8|8,1:3|1:3|1:3,0:0:0:0:
498,230,165236,1,6,1:2:0:0:
498,230,166474,6,0,P|435:274|332:253,1,173.959583333334,12|8,0:0|0:0,0:0:0:0:
235,199,167535,2,0,P|244:137|254:67,1,127.5,6|8,1:2|0:0,0:0:0:0:
184,22,168304,2,0,P|141:14|87:25,1,85,8|12,1:3|0:0,0:0:0:0:
27,63,168929,5,6,1:2:0:0:
24,148,169234,1,8,0:0:0:0:
82,209,169540,2,0,P|72:275|65:344,2,127.5,0|2|10,1:0|1:2|0:2,0:0:0:0:
155,165,170764,2,0,P|192:160|249:176,1,85,2|8,1:2|0:0,0:0:0:0:
312,212,171380,6,0,P|301:253|306:295,1,85,6|10,1:2|0:0,0:0:0:0:
355,364,172001,1,2,1:2:0:0:
439,369,172312,1,8,0:0:0:0:
495,305,172623,2,0,P|499:262|489:221,1,85,0|10,1:2|0:2,0:0:0:0:
451,145,173239,1,2,1:2:0:0:
365,145,173544,1,12,0:0:0:0:
312,212,173850,6,0,B|243:197|252:241|177:224,1,127.5,6|6,1:2|1:2,0:0:0:0:
105,205,174618,1,0,1:0:0:0:
115,120,174926,2,0,B|194:97|194:97|212:110|245:122,1,127.5,6|0,1:2|1:3,0:0:0:0:
310,79,175694,1,10,0:0:0:0:
459,161,176309,6,0,B|477:202|477:202|465:242,1,85,6|10,1:2|0:0,0:0:0:0:
385,268,176925,2,0,P|317:235|262:241,2,127.5,0|2|10,1:0|1:2|0:0,0:0:0:0:
397,352,178159,2,0,P|355:359|306:368,1,85,2|8,1:2|0:0,0:0:0:0:
229,378,178776,5,0,1:2:0:0:
152,340,179085,1,8,0:0:0:0:
144,255,179393,2,0,B|72:245|88:289|2:275,2,127.5,0|2|10,1:2|1:2|0:0,0:0:0:0:
195,187,180626,2,0,P|186:146|197:98,1,85,2|12,1:2|0:0,0:0:0:0:
240,32,181242,5,6,1:2:0:0:
325,32,181549,1,10,0:0:0:0:
369,104,181857,2,0,P|379:146|370:193,1,85,2|10,1:2|0:0,0:0:0:0:
327,259,182472,1,2,1:2:0:0:
242,259,182780,1,10,0:0:0:0:
195,187,183088,2,0,P|153:177|112:186,1,85,2|12,0:0|0:0,0:0:0:0:
35,220,183692,6,0,B|13:288|13:288|31:318|54:340,1,127.5,12|12,0:0|1:2,0:0:0:0:
120,375,184469,1,0,1:0:0:0:
179,314,184777,2,0,P|227:303|271:315,1,85,6|0,1:2|1:0,0:0:0:0:
336,351,185392,2,0,B|381:371|429:360|429:360|465:324,1,127.5,6|10,1:2|0:0,0:0:0:0:
487,259,186161,5,6,1:2:0:0:
478,174,186470,1,10,0:0:0:0:
397,146,186779,2,0,P|347:141|304:152,1,85,2|8,1:2|0:0,0:0:0:0:
235,185,187398,2,0,B|248:246|247:242|262:314,2,127.5,0|2|8,1:2|0:0|0:0,0:0:0:0:
167,133,188635,6,0,P|113:169|41:158,2,127.5,6|2|8,1:2|0:0|0:0,0:0:0:0:
215,62,189859,1,0,1:2:0:0:
290,23,190165,2,0,B|396:36|364:33|473:48,1,170,8|12,0:0|0:0,0:0:0:0:
511,112,191083,5,6,1:2:0:0:
511,197,191392,1,10,0:0:0:0:
449,255,191701,2,0,P|404:261|353:248,1,85,0|8,1:0|0:0,0:0:0:0:
288,216,192320,2,0,P|316:254|316:338,2,127.5,0|2|10,1:0|0:0|0:0,0:0:0:0:
208,185,193547,5,12,0:0:0:0:
134,227,193851,1,12,0:0:0:0:
59,186,194155,2,0,P|47:120|81:59,2,127.5,12|6|12,0:0|1:2|0:0,0:0:0:0:
134,227,195376,2,0,P|125:281|121:317,1,85,6|10,1:2|1:2,0:0:0:0:
186,366,195994,5,6,1:2:0:0:
264,332,196304,2,0,P|327:360|418:325,1,170,12|8,0:0|0:0,0:0:0:0:
466,256,197234,2,0,P|457:202|450:168,1,85,0|8,1:0|0:0,0:0:0:0:
375,132,197854,2,0,P|384:78|391:44,1,85,0|10,1:0|0:0,0:0:0:0:
309,20,198469,6,0,P|254:62|150:45,1,170,2|0,1:2|1:2,0:0:0:0:
84,8,199392,1,8,0:0:0:0:
17,61,199699,2,0,P|24:106|30:153,1,85,0|8,1:0|0:0,0:0:0:0:
39,229,200315,1,0,1:0:0:0:
117,261,200622,1,12,0:0:0:0:
183,207,200930,6,0,P|229:203|278:224,1,85,6|10,1:2|0:0,0:0:0:0:
330,270,201552,2,0,P|376:274|425:253,1,85,2|10,1:2|0:0,0:0:0:0:
478,207,202168,2,0,P|464:144|451:79,2,127.5,2|2|8,1:2|0:0|0:0,0:0:0:0:
498,289,203383,5,0,1:2:0:0:
438,348,203690,1,10,0:0:0:0:
353,360,203998,2,0,B|307:373|263:362|263:362|228:325,2,127.5,10|12|12,0:0|0:0|0:0,0:0:0:0:
379,279,205232,2,0,P|381:229|360:182,1,85,10|12,0:0|0:0,0:0:0:0:
325,123,205854,5,6,1:2:0:0:
264,62,206161,2,0,P|222:68|173:77,1,85,10|10,0:0|0:0,0:0:0:0:
96,88,206776,1,2,1:2:0:0:
59,164,207083,1,2,0:0:0:0:
91,242,207391,2,0,P|130:255|185:243,1,85,10|0,0:0|1:0,0:0:0:0:
249,212,208006,1,8,0:0:0:0:
332,225,208313,6,0,P|345:265|339:311,1,85,6|10,1:2|0:0,0:0:0:0:
267,351,208928,2,0,P|196:358|123:368,2,127.5,10|8|8,0:0|0:0|0:0,0:0:0:0:
340,307,210158,2,0,P|382:313|432:321,1,85,0|8,1:0|0:0,0:0:0:0:
490,266,210761,5,6,1:2:0:0:
506,182,211071,2,0,P|508:137|490:85,1,85,10|10,0:0|0:0,0:0:0:0:
431,45,211691,1,6,1:2:0:0:
355,84,212001,2,0,P|302:75|271:69,1,85,2|8,1:2|0:2,0:0:0:0:
194,31,212621,2,0,P|152:38|110:45,1,85,8|0,1:3|1:3,0:0:0:0:
27,65,213234,5,6,1:2:0:0:
256,192,213387,12,12,217852,0:2:0:0:
