osu file format v14

[General]
AudioFilename: audio.mp3
AudioLeadIn: 0
PreviewTime: 146162
Countdown: 0
SampleSet: Soft
StackLeniency: 0.7
Mode: 0
LetterboxInBreaks: 0
WidescreenStoryboard: 0

[Editor]
Bookmarks: 1543,11385,23698,33539,43397,53237,63078,72922,82782,92625,102469,109853,114776,124623,134317,141698,146765,156621,166474,168929,176309,186161,195994,205854,213234,217852
DistanceSpacing: 0.9
BeatDivisor: 4
GridSize: 32
TimelineZoom: 2.5

[Metadata]
Title:SIREN
TitleUnicode:SIREN
Artist:PassCode
ArtistUnicode:PassCode
Creator:Akitoshi
Version:Bright Dream
Source:
Tags:Corinn -Laura- Amats Mimiliaa Hojo Karen Suzuhara Lulu Hitsukuya Mimilie SupaV Japanese Pop Rock 高嶋楓 Takashima Kaede 南菜生 Minami Nao 大上陽奈子 Oogami Hinako 有馬えみり Arima Emily REVERBERATE ep.
BeatmapID:3945387
BeatmapSetID:1912647

[Difficulty]
HPDrainRate:6
CircleSize:4.2
OverallDifficulty:9.3
ApproachRate:9.5
SliderMultiplier:1.8
SliderTickRate:2

[Events]
//Background and Video events
0,0,"copium1212.jpg",0,0
Video,120,"Passcode - Siren-1-1.mp4"
//Break Periods
2,92825,96933
//Storyboard Layer 0 (Background)
//Storyboard Layer 1 (Fail)
//Storyboard Layer 2 (Pass)
//Storyboard Layer 3 (Foreground)
//Storyboard Layer 4 (Overlay)
//Storyboard Sound Samples

[TimingPoints]
321,305.732484076433,4,2,5,30,1,0
1085,-100,4,2,5,60,0,0
1543,312.5,4,2,5,60,1,0
1543,-166.666666666667,4,2,5,60,0,0
2168,307.692307692308,4,2,5,60,1,0
2168,-166.666666666667,4,2,5,60,0,0
2783,307.692307692308,4,2,5,60,1,0
2783,-166.666666666667,4,2,5,60,0,0
4013,306.122448979592,4,2,5,60,1,0
4013,-166.666666666667,4,2,5,60,0,0
5237,307.29833546735,4,2,5,60,1,0
5237,-166.666666666667,4,2,5,60,0,0
6696,-166.666666666667,4,2,5,5,0,0
6773,-166.666666666667,4,2,5,60,0,0
7925,-166.666666666667,4,2,5,5,0,0
8002,-166.666666666667,4,2,5,60,0,0
8617,292.682926829268,4,2,5,60,1,0
8617,-166.666666666667,4,2,5,60,0,0
8909,307.692307692308,4,2,5,60,1,0
8909,-166.666666666667,4,2,5,60,0,0
9678,-125,4,2,5,70,0,0
10139,311.688311688312,4,2,5,70,1,0
11074,-76.923076923077,4,2,5,70,0,0
11307,-76.923076923077,4,2,5,5,0,0
11385,309.278350515464,4,2,5,70,1,0
13549,-142.857142857143,4,2,5,70,0,0
13781,-142.857142857143,4,2,5,5,0,0
13859,307.495195387572,4,2,5,70,1,0
23621,-100,4,2,5,5,0,0
23698,307.692307692308,4,2,5,60,1,0
23698,-142.857142857143,4,2,5,60,0,0
26159,309.677419354839,4,2,5,60,1,0
26159,-142.857142857143,4,2,5,60,0,0
28636,307.692307692308,4,2,5,60,1,0
28636,-142.857142857143,4,2,5,60,0,0
28866,-142.857142857143,4,2,5,5,0,0
28943,-142.857142857143,4,2,5,60,0,0
31097,305.343511450382,4,2,5,60,1,0
31097,-142.857142857143,4,2,5,60,0,0
31326,-142.857142857143,4,2,5,5,0,0
31402,-142.857142857143,4,2,5,60,0,0
33234,-90.909090909091,4,2,5,60,0,0
33463,-90.909090909091,4,2,5,5,0,0
33539,310.077519379845,4,2,5,60,1,0
33539,-125,4,2,5,60,0,0
35709,302.648171500631,4,2,5,60,1,0
35709,-125,4,2,5,60,0,0
36011,307.692307692308,4,2,5,60,1,0
36011,-125,4,2,5,60,0,0
36241,-125,4,2,5,5,0,0
36318,-125,4,2,5,60,0,0
38472,308.08729139923,4,2,5,60,1,0
38472,-125,4,2,5,60,0,0
38703,-125,4,2,5,5,0,0
38780,-125,4,2,5,60,0,0
42785,306.122448979592,4,2,5,60,1,0
43397,306.513409961686,4,2,5,70,1,0
45849,307.692307692308,4,2,5,70,1,0
50772,310.478654592497,4,2,5,70,1,0
52479,294.117647058824,4,2,5,70,1,0
52626,305.732484076433,4,2,5,70,1,0
53237,307.692307692308,4,2,5,60,1,0
53237,-195.266485527335,4,2,5,60,0,0
55390,302.267002518892,4,2,5,60,1,0
55390,-196.078431372549,4,2,5,60,0,0
55692,309.278350515464,4,2,5,60,1,0
55692,-196.010621672486,4,2,5,60,0,0
57547,304.568527918782,4,2,5,60,1,0
57547,-196.078431372549,4,2,5,60,0,0
58156,310.880829015544,4,2,5,60,1,0
58156,-142.857142857143,4,2,5,60,0,0
59399,307.692307692308,4,2,5,60,1,0
59399,-142.857142857143,4,2,5,60,0,0
60629,313.31592689295,4,2,5,60,1,0
60629,-125,4,2,5,60,0,0
61255,285.714285714286,4,2,5,70,1,0
61255,-111.111111111111,4,2,5,70,0,0
61826,326.086956521739,4,2,5,70,1,0
62478,300,4,2,5,70,1,0
63078,307.692307692308,4,2,5,80,1,1
63078,-90.909090909091,4,2,5,80,0,1
65539,309.278350515464,4,2,5,80,1,1
65539,-90.909090909091,4,2,5,80,0,1
67703,301.507537688442,4,2,5,80,1,1
67703,-90.9090909090909,4,2,5,80,0,1
68004,306.90537084399,4,2,5,80,1,1
68004,-90.909090909091,4,2,5,80,0,1
68234,-90.909090909091,4,2,5,5,0,1
68310,-90.909090909091,4,2,5,80,0,1
72607,315.789473684211,4,2,5,80,1,1
72607,-90.909090909091,4,2,5,80,0,1
72922,308.761096101891,4,2,5,80,1,1
72922,-90.909090909091,4,2,5,80,0,1
76627,306.122448979592,4,2,5,80,1,1
76627,-90.909090909091,4,2,5,80,0,1
77774,-90.909090909091,4,2,5,5,0,1
77851,308.880308880309,4,2,5,80,1,1
77851,-90.909090909091,4,2,5,80,0,1
80322,303.79746835443,4,2,5,80,1,1
80322,-90.909090909091,4,2,5,80,0,1
81840,314.13612565445,4,2,5,80,1,1
81840,-90.9090909090909,4,2,5,80,0,1
82468,-66.6666666666667,4,2,5,80,0,1
82707,-66.6666666666667,4,2,5,5,0,1
82782,300,4,2,5,70,1,0
83082,307.692307692308,4,2,5,70,1,0
84005,307.692307692308,4,2,5,70,1,0
85235,308.483290488432,4,2,5,70,1,0
87240,-71.4285714285714,4,2,5,70,0,0
87317,-71.4285714285714,4,2,5,5,0,0
87394,-71.4285714285714,4,2,5,70,0,0
87471,-71.4285714285714,4,2,5,5,0,0
87548,-71.4285714285714,4,2,5,70,0,0
87625,-71.4285714285714,4,2,5,5,0,0
87702,307.692307692308,4,2,5,70,1,0
92625,303.79746835443,4,2,5,60,1,0
93232,307.692307692308,4,2,5,60,1,0
93847,307.692307692308,4,2,5,60,1,0
95077,310.880829015544,4,2,5,60,1,0
96320,306.90537084399,4,2,5,60,1,0
97547,307.692307692308,4,2,5,60,1,0
97547,-125,4,2,5,60,0,0
100008,306.122448979592,4,2,5,60,1,0
100008,-125,4,2,5,60,0,0
101232,309.278350515464,4,2,5,60,1,0
101232,-125,4,2,5,60,0,0
101850,-111.111111111111,4,2,5,60,0,0
102469,307.692307692308,4,2,5,70,1,0
109853,310.077519379845,4,2,5,70,1,0
111093,303.030303030303,4,2,5,70,1,0
111699,307.692307692308,4,2,5,70,1,0
112314,308.483290488432,4,2,5,70,1,0
112314,-83.3333333333333,4,2,5,70,0,0
114473,303.030303030303,4,2,5,70,1,0
114473,-500,4,2,5,70,0,0
114776,308.483290488432,4,2,5,80,1,1
114776,-90.9090909090909,4,2,5,80,0,1
117243,307.692307692308,4,2,5,80,1,1
117243,-90.9090909090909,4,2,5,80,0,1
119089,303.030303030303,4,2,5,80,1,1
119089,-90.9090909090909,4,2,5,80,0,1
119695,308.483290488432,4,2,5,80,1,1
119695,-90.9090909090909,4,2,5,80,0,1
122162,307.692307692308,4,2,5,80,1,1
122162,-90.9090909090909,4,2,5,80,0,1
127315,-90.9090909090909,4,2,5,5,0,1
127392,-90.9090909090909,4,2,5,80,0,1
128315,305.343511450382,4,2,5,80,1,1
128315,-90.9090909090909,4,2,5,80,0,1
129231,312.5,4,2,5,80,1,1
129231,-90.9090909090909,4,2,5,80,0,1
129543,306.709265175719,4,2,5,80,1,1
129543,-90.9090909090909,4,2,5,80,0,1
131689,315.789473684211,4,2,5,80,1,1
131689,-90.9090909090909,4,2,5,80,0,1
132004,309.278350515464,4,2,5,80,1,1
132004,-90.9090909090909,4,2,5,80,0,1
132235,-90.9090909090909,4,2,5,5,0,1
132313,-90.9090909090909,4,2,5,80,0,1
133241,307.692307692308,4,2,5,80,1,1
133241,-90.909090909091,4,2,5,80,0,1
134317,-142.857142857143,4,2,5,70,0,0
134779,300,4,2,5,70,1,0
134779,-142.857142857143,4,2,5,70,0,0
135079,307.692307692308,4,2,5,70,1,0
135079,-142.857142857143,4,2,5,70,0,0
135694,307.692307692308,4,2,5,70,1,0
135694,-142.857142857143,4,2,5,70,0,0
139078,285.714285714286,4,2,5,70,1,0
139078,-142.857142857143,4,2,5,70,0,0
139220,324.324324324324,4,2,5,70,1,0
139220,-142.857142857143,4,2,5,70,0,0
139382,324.324324324324,4,2,5,70,1,0
139382,-142.857142857143,4,2,5,70,0,0
139706,306.122448979592,4,2,5,70,1,0
139706,-142.857142857143,4,2,5,70,0,0
140624,306.122448979592,4,2,5,70,1,0
140624,-142.857142857143,4,2,5,70,0,0
141236,308.483290488432,4,2,5,70,1,0
141236,-142.857142857143,4,2,5,70,0,0
141698,-125,4,2,5,70,0,0
141852,308.483290488432,4,2,5,70,1,0
141852,-125,4,2,5,70,0,0
144319,307.692307692308,4,2,5,70,1,0
144319,-111.111111111111,4,2,5,70,0,0
145549,312.5,4,2,5,70,1,0
145861,301.507537688442,4,2,5,70,1,0
146765,310.478654592497,4,2,5,60,1,0
146765,-166.666666666667,4,2,5,60,0,0
148006,307.692307692308,4,2,5,60,1,0
148006,-166.666666666667,4,2,5,60,0,0
151929,-166.666666666667,4,2,5,5,0,0
152006,-166.666666666667,4,2,5,60,0,0
153159,-166.666666666667,4,2,5,5,0,0
153236,-166.666666666667,4,2,5,60,0,0
154390,-166.666666666667,4,2,5,5,0,0
154467,-166.666666666667,4,2,5,60,0,0
155006,-166.666666666667,4,2,5,5,0,0
155082,-166.666666666667,4,2,5,60,0,0
155698,-142.857142857143,4,2,5,60,0,0
156006,-125,4,2,5,60,0,0
156313,-111.111111111111,4,2,5,60,0,0
156621,-100,4,2,5,70,0,0
166159,315.789473684211,4,2,5,70,1,0
166474,292.682926829268,4,2,5,70,1,0
166766,307.692307692308,4,2,5,70,1,0
167689,307.692307692308,4,2,5,70,1,0
168304,312.5,4,2,5,70,1,0
168850,-100,4,2,5,5,0,0
168929,305.732484076433,4,2,5,80,1,1
168929,-90.9090909090909,4,2,5,80,0,1
170457,307.692307692308,4,2,5,80,1,1
170457,-90.9090909090909,4,2,5,80,0,1
171380,310.880829015544,4,2,5,80,1,1
171380,-90.9090909090909,4,2,5,80,0,1
171613,-90.9090909090909,4,2,5,5,0,1
171690,-90.9090909090909,4,2,5,80,0,1
172934,305.343511450382,4,2,5,80,1,1
172934,-90.9090909090909,4,2,5,80,0,1
173850,307.495195387572,4,2,5,80,1,1
173850,-90.9090909090909,4,2,5,80,0,1
175694,-166.666666666667,4,2,5,80,0,0
175848,-166.666666666667,4,2,0,5,0,0
176309,308.483290488432,4,2,5,80,1,1
176309,-83.3333333333333,4,2,5,80,0,1
180319,307.692307692308,4,2,5,80,1,1
180319,-83.3333333333333,4,2,5,80,0,1
181242,307.692307692308,4,2,5,80,1,1
181242,-83.3333333333333,4,2,5,80,0,1
181472,-83.3333333333333,4,2,5,5,0,1
181549,-83.3333333333333,4,2,5,80,0,1
183395,297.029702970297,4,2,5,80,1,1
183395,-83.3333333333333,4,2,5,80,0,1
183692,310.880829015544,4,2,5,80,1,1
183692,-83.3333333333333,4,2,5,80,0,1
184624,307.692307692308,4,2,5,80,1,1
184624,-83.3333333333333,4,2,5,80,0,1
184931,307.692307692308,4,2,5,80,1,1
184931,-83.3333333333333,4,2,5,80,0,1
186161,309.278350515464,4,2,5,80,1,1
186161,-83.3333333333333,4,2,5,80,0,1
188635,306.122448979592,4,2,5,80,1,1
188635,-83.3333333333333,4,2,5,80,0,1
191007,-83.3333333333333,4,2,5,5,0,1
191083,309.278350515464,4,2,5,80,1,1
191083,-83.3333333333333,4,2,5,80,0,1
192320,306.90537084399,4,2,5,80,1,1
192320,-83.3333333333333,4,2,5,80,0,1
193547,304.182509505703,4,2,5,80,1,1
193547,-83.3333333333333,4,2,5,80,0,1
195067,309.278350515464,4,2,5,80,1,1
195067,-83.3333333333333,4,2,5,80,0,1
195994,310.077519379845,4,2,5,80,1,0
195994,-90.9090909090909,4,2,5,80,0,0
197854,307.692307692308,4,2,5,80,1,0
197854,-90.9090909090909,4,2,5,80,0,0
198469,307.692307692308,4,2,5,80,1,0
198469,-90.9090909090909,4,2,5,80,0,0
200853,-90.9090909090909,4,2,5,5,0,0
200930,315.789473684211,4,2,5,80,1,0
200930,-90.9090909090909,4,2,5,80,0,0
201245,307.692307692308,4,2,5,80,1,0
201245,-90.9090909090909,4,2,5,80,0,0
202168,303.79746835443,4,2,5,80,1,0
202168,-90.9090909090909,4,2,5,80,0,0
203383,307.692307692308,4,2,5,80,1,0
203383,-90.9090909090909,4,2,5,80,0,0
203613,-90.9090909090909,4,2,5,5,0,0
203690,-90.9090909090909,4,2,5,80,0,0
204921,311.284046692607,4,2,5,80,1,0
204921,-90.9090909090909,4,2,5,80,0,0
205854,307.495195387572,4,2,5,80,1,0
205854,-83.3333333333333,4,2,5,80,0,0
210466,295.566502463054,4,2,5,80,1,0
210466,-83.3333333333333,4,2,5,80,0,0
210761,310.077519379845,4,2,5,80,1,0
210761,-83.3333333333333,4,2,5,80,0,0
212931,303.030303030303,4,2,5,80,1,0
212931,-83.3333333333333,4,2,5,80,0,0
213234,307.889672867223,4,2,5,80,1,0
213234,-248.64872837025,4,2,5,80,0,0
213387,-250.000000000001,4,2,0,5,0,0
217852,-100,4,2,5,80,0,0
218160,-100,4,2,5,5,0,0

[Colours]
Combo1 : 0,128,192
Combo2 : 255,143,89
Combo3 : 0,223,223
Combo4 : 255,128,191

[HitObjects]
145,129,321,5,4,0:0:0:0:
150,146,626,1,4,0:0:0:0:
156,162,932,1,4,0:0:0:0:
269,130,1085,5,0,1:0:0:0:
269,130,1161,1,0,1:0:0:0:
269,130,1238,2,0,P|321:126|358:148,1,90,8|0,0:0|0:0,0:0:0:0:
399,270,1543,6,0,P|392:299|387:325,1,53.9999983520508,6|0,1:2|3:0,0:0:0:0:
306,250,1855,2,0,P|299:279|294:305,1,53.9999983520508,0|0,1:2|3:0,0:0:0:0:
213,230,2168,2,0,P|206:259|201:285,1,53.9999983520508,0|0,1:2|3:0,0:0:0:0:
120,210,2475,2,0,P|113:239|108:265,1,53.9999983520508,0|0,1:2|3:0,0:0:0:0:
24,110,2783,6,0,P|54:111|84:126,1,53.9999983520508,6|0,1:2|3:0,0:0:0:0:
126,24,3090,2,0,P|140:50|142:83,1,53.9999983520508,0|0,1:2|3:0,0:0:0:0:
250,67,3398,2,0,P|234:92|206:110,1,53.9999983520508,0|0,1:2|3:0,0:0:0:0:
281,193,3706,2,0,P|251:192|221:177,1,53.9999983520508,0|0,1:2|3:0,0:0:0:0:
334,73,4013,6,0,P|340:107|346:138,1,53.9999983520508,6|0,1:2|3:0,0:0:0:0:
441,123,4319,2,0,P|435:157|429:188,1,53.9999983520508,0|0,1:2|3:0,0:0:0:0:
362,244,4625,2,0,P|368:278|374:309,1,53.9999983520508,0|0,1:2|3:0,0:0:0:0:
469,294,4931,2,0,P|463:328|457:359,1,53.9999983520508,0|0,1:2|3:0,0:0:0:0:
339,383,5237,6,0,P|286:360|274:359,1,53.9999983520508,6|0,1:2|3:0,0:0:0:0:
268,265,5544,2,0,P|242:273|219:287,1,53.9999983520508,0|0,1:2|3:0,0:0:0:0:
135,338,5851,2,0,P|125:289|122:276,1,53.9999983520508,0|0,1:0|3:0,0:0:0:0:
44,228,6158,2,0,P|38:254|33:280,1,53.9999983520508,0|0,1:0|3:0,0:0:0:0:
2,144,6466,6,0,B|39:130|39:130|86:142,1,80.9999975280763,6|0,1:2|0:0,0:0:0:0:
98,131,6773,2,0,P|91:104|93:77,1,53.9999983520508,0|0,1:0|3:0,0:0:0:0:
168,15,7080,2,0,P|194:22|217:37,1,53.9999983520508,0|0,1:0|3:0,0:0:0:0:
234,132,7388,2,0,P|214:151|189:163,1,53.9999983520508,0|0,1:0|3:0,0:0:0:0:
326,68,7695,6,0,B|361:75|361:75|368:80|368:80|411:87,1,80.9999975280763,6|0,1:2|0:0,0:0:0:0:
426,88,8002,2,0,P|434:117|432:145,1,53.9999983520508,0|0,1:0|3:0,0:0:0:0:
510,200,8309,2,0,P|488:221|463:233,1,53.9999983520508,0|0,1:0|3:0,0:0:0:0:
456,328,8617,2,0,P|426:320|403:304,1,53.9999983520508,0|0,1:0|3:0,0:0:0:0:
281,277,8909,6,0,P|277:308|272:343,1,53.9999983520508,6|0,1:2|3:0,0:0:0:0:
358,206,9216,2,0,P|354:175|349:140,1,53.9999983520508,0|0,1:2|3:0,0:0:0:0:
272,49,9524,1,0,1:0:0:0:
209,153,9678,1,8,0:0:0:0:
181,169,9755,1,8,0:0:0:0:
149,175,9832,1,8,0:0:0:0:
117,171,9909,1,8,0:0:0:0:
88,157,9985,1,8,0:0:0:0:
64,135,10062,1,8,0:0:0:0:
49,107,10139,5,12,0:0:0:0:
49,107,11074,6,0,B|80:104|110:78|110:78|70:128|84:188,1,175.499991966248,4|0,1:3|0:0,0:0:0:0:
125,251,11385,6,0,B|171:266|171:266|222:250,1,90,6|0,1:2|1:0,0:0:0:0:
406,185,11694,1,8,0:0:0:0:
326,76,11848,2,0,P|302:118|307:164,1,90,2|0,0:0|1:0,0:0:0:0:
405,276,12158,1,2,1:2:0:0:
482,122,12312,2,0,P|473:75|464:23,1,90,10|0,0:0|0:0,0:0:0:0:
321,235,12622,5,2,1:2:0:0:
492,204,12776,1,0,1:0:0:0:
337,62,12931,1,10,0:0:0:0:
301,252,13086,2,0,B|328:369|328:369|403:356,1,180,2|0,0:0|1:0,0:0:0:0:
257,135,13549,6,0,B|201:126|214:155|151:147,1,94.499997116089,10|0,0:0|0:0,0:0:0:0:
142,148,13859,6,0,P|155:193|137:245,1,90,2|0,1:2|1:0,0:0:0:0:
12,49,14166,1,10,0:0:0:0:
164,59,14320,2,0,P|212:49|262:41,1,90,2|0,0:2|1:0,0:0:0:0:
404,23,14627,1,2,1:2:0:0:
268,146,14781,2,0,P|258:186|276:244,1,90,10|0,0:0|0:0,0:0:0:0:
422,294,15088,6,0,B|333:283|346:352|252:341,1,180,2|10,1:2|0:0,0:0:0:0:
88,245,15550,2,0,P|131:232|178:220,1,90,2|0,0:0|1:0,0:0:0:0:
14,138,15857,1,2,1:2:0:0:
97,358,16011,1,10,0:0:0:0:
14,138,16165,1,2,0:0:0:0:
259,202,16318,6,0,B|309:215|309:215|330:208|362:193,1,90,6|0,1:2|1:0,0:0:0:0:
254,13,16626,1,10,0:0:0:0:
254,13,16703,1,2,0:0:0:0:
254,13,16780,2,0,P|217:22|162:35,1,90,2|0,0:0|1:0,0:0:0:0:
256,226,17087,1,0,1:0:0:0:
413,101,17241,2,0,P|450:110|505:123,1,90,10|0,0:0|1:0,0:0:0:0:
376,298,17548,5,2,1:2:0:0:
286,121,17702,1,0,1:0:0:0:
194,346,17856,1,10,0:0:0:0:
104,169,18010,2,0,P|57:178|8:190,1,90,2|0,0:0|1:2,0:0:0:0:
240,258,18317,1,0,1:2:0:0:
77,67,18471,1,10,0:0:0:0:
95,284,18625,1,2,0:0:0:0:
283,97,18778,5,2,1:2:0:0:
220,365,18932,1,2,0:0:0:0:
220,365,19009,1,2,0:0:0:0:
220,365,19086,1,10,0:0:0:0:
104,169,19240,1,0,1:0:0:0:
359,215,19393,1,10,0:0:0:0:
188,273,19547,2,0,P|138:266|90:258,1,90,2|0,1:2|1:0,0:0:0:0:
227,33,19855,6,0,B|272:80|272:80|241:134|227:207,1,180,10|0,0:0|1:0,0:0:0:0:
411,365,20316,1,10,0:0:0:0:
372,162,20470,1,2,1:2:0:0:
208,316,20623,5,8,0:0:0:0:
172,334,20700,1,8,0:0:0:0:
132,338,20777,1,8,0:0:0:0:
93,326,20854,1,8,0:0:0:0:
62,299,20931,5,0,1:3:0:0:
72,274,21008,1,0,1:3:0:0:
90,254,21085,1,0,1:3:0:0:
114,243,21162,1,0,1:3:0:0:
141,241,21238,5,10,0:0:0:0:
256,192,21315,12,2,23083,0:0:0:0:
207,157,23237,5,0,1:0:0:0:
207,157,23314,1,0,1:0:0:0:
207,157,23391,2,0,B|293:145|259:151|343:140,1,135,8|0,0:0|0:0,0:0:0:0:
398,191,23698,6,0,B|407:216|407:216|400:265,1,62.9999980773926,6|0,1:2|0:0,0:0:0:0:
319,349,24005,2,0,P|310:314|302:282,1,62.9999980773926,10|0,0:0|0:0,0:0:0:0:
214,254,24313,2,0,P|178:285|80:270,1,125.999996154785,2|10,1:2|0:0,0:0:0:0:
27,227,24774,6,0,P|34:189|39:158,1,62.9999980773926,2|0,1:2|0:0,0:0:0:0:
106,73,25082,2,0,P|111:104|116:135,1,62.9999980773926,2|8,1:2|0:0,0:0:0:0:
207,157,25390,2,0,P|245:126|327:127,1,125.999996154785,2|0,0:0|1:0,0:0:0:0:
403,168,25851,1,8,0:0:0:0:
436,79,26005,1,2,0:0:0:0:
497,173,26159,6,0,P|485:213|482:246,1,62.9999980773926,6|0,1:2|0:0,0:0:0:0:
450,323,26468,2,0,P|421:292|394:273,1,62.9999980773926,10|0,0:2|0:0,0:0:0:0:
343,207,26778,2,0,P|383:197|413:183,1,62.9999980773926,2|0,1:2|0:0,0:0:0:0:
275,118,27088,1,10,0:0:0:0:
216,192,27242,6,0,P|227:244|238:322,1,125.999996154785,0|0,1:2|0:0,0:0:0:0:
158,367,27707,2,0,P|93:382|29:351,1,125.999996154785,8|0,0:0|0:0,0:0:0:0:
10,269,28171,1,2,1:2:0:0:
103,281,28326,1,10,0:0:0:0:
10,269,28481,1,2,0:0:0:0:
48,162,28636,6,0,B|78:176|78:176|144:160,1,94.499997116089,6|0,1:2|0:0,0:0:0:0:
159,156,28943,2,0,P|163:114|168:92,1,62.9999980773926,10|0,0:0|0:0,0:0:0:0:
229,22,29251,1,2,1:2:0:0:
229,22,29405,1,0,1:0:0:0:
301,83,29559,2,0,P|343:79|365:74,1,62.9999980773926,10|0,0:0|1:0,0:0:0:0:
475,55,29866,6,0,P|494:91|496:124,1,62.9999980773926,2|0,0:0|1:0,0:0:0:0:
432,214,30174,2,0,P|413:178|411:145,1,62.9999980773926,10|0,0:0|0:0,0:0:0:0:
363,74,30482,1,2,0:0:0:0:
324,160,30636,1,0,1:0:0:0:
270,81,30789,2,0,P|277:43|285:5,1,62.9999980773926,10|2,0:0|0:0,0:0:0:0:
159,120,31097,6,0,B|171:161|171:161|165:177|165:177|179:226,1,94.499997116089,6|0,1:2|0:0,0:0:0:0:
190,225,31402,2,0,P|182:270|179:293,1,62.9999980773926,8|0,0:0|0:0,0:0:0:0:
108,350,31707,1,0,1:0:0:0:
97,250,31860,1,0,1:0:0:0:
23,344,32013,1,10,0:0:0:0:
178,305,32165,6,0,B|246:310|235:345|309:352,1,125.999996154785,2|0,1:2|1:0,0:0:0:0:
399,222,32623,2,0,P|342:216|297:278,1,125.999996154785,10|0,0:0|0:0,0:0:0:0:
449,355,33081,1,2,1:2:0:0:
449,355,33158,1,0,1:0:0:0:
449,355,33234,6,0,B|489:377|489:377|467:275,1,148.50000453186,10|0,0:0|0:0,0:0:0:0:
399,222,33539,6,0,B|405:192|405:192|403:181|403:181|410:143,1,72,6|0,1:2|0:0,0:0:0:0:
305,59,33849,2,0,P|316:113|321:141,1,72,10|0,0:0|0:0,0:0:0:0:
238,203,34159,1,2,1:2:0:0:
216,97,34314,1,0,1:0:0:0:
141,202,34469,1,10,0:0:0:0:
119,96,34624,6,0,P|80:97|32:119,1,72,2|0,1:2|0:0,0:0:0:0:
166,0,34934,2,0,P|199:11|235:11,1,72,2|8,1:2|0:0,0:0:0:0:
358,4,35244,2,0,P|339:56|323:147,1,144,2|0,0:0|1:0,0:0:0:0:
439,250,35709,1,8,0:0:0:0:
419,143,35860,1,2,0:0:0:0:
316,234,36011,6,0,B|283:250|283:250|202:233,1,108,6|0,1:2|0:0,0:0:0:0:
201,221,36318,2,0,L|122:237,1,72,10|0,0:0|0:0,0:0:0:0:
24,256,36626,1,2,1:2:0:0:
79,162,36780,1,0,1:0:0:0:
91,312,36934,1,10,0:0:0:0:
198,205,37087,6,0,B|213:124|158:152|183:46,1,144,0|0,1:2|1:0,0:0:0:0:
307,1,37549,2,0,P|300:37|293:77,1,72,8|0,0:0|0:0,0:0:0:0:
366,153,37857,1,2,0:0:0:0:
398,49,38011,1,0,1:0:0:0:
464,176,38164,2,0,P|457:212|450:252,1,72,10|0,0:0|0:0,0:0:0:0:
319,303,38472,6,0,B|282:281|282:281|208:300,1,108,6|0,1:2|0:0,0:0:0:0:
201,302,38780,2,0,P|213:344|206:382,1,72,10|0,0:0|0:0,0:0:0:0:
129,246,39088,1,2,1:2:0:0:
230,209,39242,1,0,1:0:0:0:
139,151,39396,2,0,B|92:161|106:158|55:170,1,72,10|0,0:0|1:0,0:0:0:0:
165,21,39704,6,0,P|185:55|188:94,1,72,2|0,0:0|1:0,0:0:0:0:
302,150,40012,2,0,P|306:114|325:84,1,72,10|0,0:0|0:0,0:0:0:0:
426,42,40320,1,2,0:0:0:0:
392,144,40474,1,0,1:0:0:0:
350,1,40628,1,10,0:0:0:0:
450,44,40782,1,2,0:0:0:0:
325,84,40936,6,0,B|274:76|274:76|234:86|234:86|178:76,2,144,6|8|0,1:2|0:0|1:0,0:0:0:0:
229,1,41706,1,0,1:0:0:0:
177,162,41860,1,10,0:0:0:0:
91,66,42015,6,0,P|48:68|11:91,1,72,0|2,1:0|0:0,0:0:0:0:
110,213,42323,1,0,1:0:0:0:
184,77,42477,1,12,0:0:0:0:
24,167,42631,1,0,1:0:0:0:
224,245,42785,5,8,0:0:0:0:
259,237,42861,1,8,0:3:0:0:
294,230,42938,1,8,0:3:0:0:
329,223,43014,1,8,0:3:0:0:
356,198,43091,5,4,0:3:0:0:
384,204,43167,1,4,0:3:0:0:
412,210,43244,1,4,0:3:0:0:
440,215,43320,1,4,0:3:0:0:
462,236,43397,6,0,B|505:202|505:151|477:104|477:104|437:129,1,180,6|0,1:2|1:0,0:0:0:0:
294,230,43856,2,0,P|303:277|312:322,1,90,10|0,0:2|0:0,0:0:0:0:
346,116,44163,1,0,1:0:0:0:
194,241,44316,5,10,0:0:0:0:
158,83,44469,2,0,P|203:65|263:73,1,90,0|0,1:0|0:0,0:0:0:0:
89,228,44776,1,10,0:2:0:0:
39,98,44929,2,0,P|45:49|51:-2,1,90,0|0,1:2|1:0,0:0:0:0:
218,162,45236,5,10,0:0:0:0:
81,328,45389,1,0,1:0:0:0:
58,101,45542,1,10,0:0:0:0:
212,259,45695,1,0,1:0:0:0:
289,33,45849,6,0,B|326:33|352:46|352:46|375:43|401:29|401:29|431:41|475:42,1,180,12|0,0:2|1:0,0:0:0:0:
353,233,46310,2,0,P|341:192|361:132,1,90,10|0,0:0|0:0,0:0:0:0:
436,324,46618,1,0,1:0:0:0:
229,279,46772,2,0,P|157:294|120:304,1,90,10|0,0:0|0:0,0:0:0:0:
314,373,47079,5,0,1:0:0:0:
254,176,47233,2,0,P|204:176|163:197,1,90,10|0,0:0|0:0,0:0:0:0:
49,314,47541,1,0,1:0:0:0:
145,84,47695,5,10,0:0:0:0:
229,279,47849,1,0,1:0:0:0:
289,33,48002,1,10,0:0:0:0:
89,160,48156,1,0,1:0:0:0:
342,259,48310,6,0,B|465:228|465:228|445:246|433:276,1,180,12|0,0:0|1:0,0:0:0:0:
322,162,48772,2,0,P|366:151|420:137,1,90,10|0,0:0|0:0,0:0:0:0:
370,345,49079,1,0,1:0:0:0:
228,174,49233,2,0,P|217:124|234:69,1,90,10|0,0:0|0:0,0:0:0:0:
342,259,49541,5,0,1:0:0:0:
144,235,49695,2,0,P|96:235|53:257,1,90,10|0,0:0|0:0,0:0:0:0:
238,324,50002,1,0,1:0:0:0:
104,110,50156,1,10,0:0:0:0:
57,335,50310,1,0,1:0:0:0:
303,252,50464,1,10,0:0:0:0:
342,259,50541,1,8,0:3:0:0:
382,267,50618,1,8,0:3:0:0:
422,275,50695,1,8,0:3:0:0:
461,283,50772,6,0,B|475:251|475:251|460:193,1,90,6|0,1:2|1:0,0:0:0:0:
400,6,51082,1,0,1:0:0:0:
242,169,51237,5,12,0:0:0:0:
446,93,51392,1,0,1:0:0:0:
234,34,51548,1,0,1:0:0:0:
335,284,51703,5,12,0:0:0:0:
325,51,51858,1,0,1:0:0:0:
159,247,52013,1,0,1:0:0:0:
85,0,52169,5,12,0:0:0:0:
261,185,52324,1,0,1:0:0:0:
0,162,52479,1,0,1:0:0:0:
253,18,52626,5,12,0:0:0:0:
225,320,52778,1,0,1:0:0:0:
412,112,52931,2,0,P|417:68|405:25,1,90,12|0,0:0|0:0,0:0:0:0:
149,156,53237,6,0,B|223:132|283:187|283:187|383:189|446:119|405:25|405:25|321:46|295:130|334:227|403:249,1,690.25670040613,6|0,1:2|0:0,0:0:0:0:
510,233,55692,6,0,B|452:223|416:276|428:323|428:323|402:343|385:381|385:381|367:326|322:299|322:299|277:339|197:342|143:296|143:296|188:390|275:377,1,686.188324144679,6|0,1:2|0:0,0:0:0:0:
361,220,58156,6,0,B|354:179|343:160|343:160|345:128|359:99|359:99|343:74|337:37,1,188.999994232178,6|0,1:2|0:0,0:0:0:0:
453,215,58777,6,0,B|446:174|435:155|435:155|437:123|451:94|451:94|435:69|429:32,1,188.999994232178,6|0,1:2|0:0,0:0:0:0:
250,21,59399,6,0,B|213:36|198:70|198:70|148:29|75:45,1,188.999994232178,6|0,1:2|0:0,0:0:0:0:
28,165,60014,6,0,B|65:180|80:214|80:214|130:173|203:189,1,188.999994232178,6|0,1:2|0:0,0:0:0:0:
232,308,60629,6,0,P|213:362|210:390,1,72,6|0,1:2|0:0,0:0:0:0:
355,262,60942,6,0,P|347:226|333:193,1,72,6|0,1:2|0:0,0:0:0:0:
149,273,61255,5,6,1:2:0:0:
368,364,61397,5,8,0:0:0:0:
406,351,61469,5,8,0:0:0:0:
437,325,61540,5,8,0:0:0:0:
458,291,61612,5,8,0:0:0:0:
466,251,61683,5,8,0:0:0:0:
459,212,61755,5,8,0:0:0:0:
440,177,61826,5,8,0:0:0:0:
440,177,62478,6,0,L|366:195,1,45,6|8,1:2|0:0,0:0:0:0:
301,204,62628,5,8,0:0:0:0:
267,175,62703,5,8,0:0:0:0:
247,135,62778,5,8,0:0:0:0:
247,90,62853,5,8,0:0:0:0:
265,50,62928,5,8,0:0:0:0:
298,20,63003,5,8,0:0:0:0:
341,7,63078,6,0,B|350:43|350:43|342:67|342:67|355:105,1,99.0000030212403,6|0,1:2|1:0,0:0:0:0:
222,340,63385,1,8,0:0:0:0:
154,154,63539,2,0,P|202:132|259:139,1,99.0000030212403,2|0,0:0|1:0,0:0:0:0:
113,271,63847,1,2,1:2:0:0:
178,12,64001,1,8,0:0:0:0:
334,216,64154,6,0,P|382:217|427:196,1,99.0000030212403,2|0,1:2|0:0,0:0:0:0:
291,11,64462,1,2,1:2:0:0:
207,240,64616,2,0,P|223:313|230:355,1,99.0000030212403,10|0,0:2|0:2,0:2:0:0:
286,108,64924,1,2,1:2:0:0:
91,178,65078,1,0,1:0:0:0:
334,216,65231,2,0,P|355:266|346:322,1,99.0000030212403,8|0,0:0|0:0,0:0:0:0:
73,345,65539,5,6,1:2:0:0:
185,90,65693,1,2,1:2:0:0:
299,384,65848,1,8,0:0:0:0:
379,136,66002,1,2,0:0:0:0:
98,206,66157,1,0,1:2:0:0:
366,317,66312,1,2,1:2:0:0:
265,12,66466,1,8,0:0:0:0:
172,273,66621,6,0,P|180:317|193:390,1,99.0000030212403,2|0,1:2|0:0,0:0:0:0:
279,131,66930,1,2,1:2:0:0:
58,285,67085,2,0,P|66:329|79:402,1,99.0000030212403,8|0,0:2|0:0,0:0:0:0:
224,200,67394,1,2,1:2:0:0:
32,149,67549,1,0,1:0:0:0:
181,323,67703,1,8,0:0:0:0:
188,115,67853,1,2,0:0:0:0:
379,270,68004,6,0,B|423:278|467:291|467:291|496:276|518:249,1,148.50000453186,6|0,1:2|0:0,0:0:0:0:
510,175,68310,2,0,P|501:134|486:79,1,99.0000030212403,10|0,0:0|0:0,0:0:0:0:
302,3,68617,1,2,1:2:0:0:
383,183,68771,1,0,1:0:0:0:
175,98,68924,2,0,P|121:93|72:114,1,99.0000030212403,10|0,0:0|0:0,0:0:0:0:
241,256,69231,5,2,1:2:0:0:
340,85,69385,1,0,1:0:0:0:
468,285,69538,2,0,P|459:333|454:382,1,99.0000030212403,10|0,0:0|0:0,0:0:0:0:
273,183,69845,2,0,P|267:133|259:85,1,99.0000030212403,2|0,0:0|1:0,0:0:0:0:
156,333,70152,1,10,0:0:0:0:
408,172,70305,1,0,1:0:0:0:
408,172,70382,1,0,1:0:0:0:
408,172,70459,5,14,0:0:0:0:
134,124,70612,1,0,1:0:0:0:
379,324,70766,5,10,0:0:0:0:
339,29,70919,1,0,1:0:0:0:
156,333,71073,5,10,0:0:0:0:
120,37,71226,1,0,1:0:0:0:
408,172,71379,1,10,0:0:0:0:
100,229,71533,6,0,B|57:224|57:224|42:230|42:230|-1:224,1,99.0000030212403,6|0,1:2|0:0,0:0:0:0:
237,91,71840,1,0,1:0:0:0:
162,357,71993,1,8,0:0:0:0:
408,172,72147,6,0,B|390:114|369:45|369:45|412:66|441:80,1,198.000006042481,6|0,1:2|1:2,0:0:0:0:
512,162,72530,1,0,1:0:0:0:
512,162,72607,2,0,P|502:211|495:259,1,99.0000030212403,10|0,0:0|0:0,0:0:0:0:
175,340,72922,5,6,1:2:0:0:
312,149,73076,1,0,1:0:0:0:
383,375,73230,2,0,P|434:363|488:354,1,99.0000030212403,10|0,0:0|0:0,0:0:0:0:
315,174,73539,2,0,B|207:168|241:244|123:233,1,198.000006042481,2|8,1:2|0:0,0:0:0:0:
298,276,74002,1,2,0:0:0:0:
391,97,74157,6,0,P|392:52|365:1,1,99.0000030212403,2|0,1:2|0:0,0:0:0:0:
149,133,74465,1,8,0:0:0:0:
317,277,74620,2,0,P|365:267|418:257,1,99.0000030212403,2|0,0:2|1:0,0:0:0:0:
260,92,74928,1,2,1:2:0:0:
228,370,75083,1,8,0:0:0:0:
423,176,75237,1,2,0:0:0:0:
133,234,75392,6,0,B|90:226|90:226|77:230|77:230|23:220,1,99.0000030212403,6|0,1:2|1:0,0:0:0:0:
204,23,75700,1,8,0:0:0:0:
301,187,75855,2,0,B|267:329|284:253|256:380,1,198.000006042481,2|0,0:0|1:0,0:0:0:0:
73,337,76318,2,0,P|125:327|180:318,1,99.0000030212403,8|0,0:0|0:0,0:0:0:0:
368,295,76627,5,2,1:2:0:0:
201,162,76780,1,0,1:0:0:0:
256,379,76933,1,8,0:0:0:0:
401,171,77086,2,0,P|405:117|374:63,1,99.0000030212403,10|0,0:0|1:0,0:0:0:0:
208,61,77392,1,0,1:0:0:0:
367,277,77545,2,0,B|458:255|458:255|486:267|499:293,1,148.50000453186,12|0,0:0|0:0,0:0:0:0:
491,371,77851,6,0,B|455:366|455:366|433:375|433:375|392:369,1,99.0000030212403,6|0,1:2|1:0,0:0:0:0:
304,172,78159,2,0,B|342:166|342:166|364:175|364:175|400:170,1,99.0000030212403,10|0,0:2|1:0,0:0:0:0:
165,73,78468,2,0,B|112:117|112:117|165:241,1,198.000006042481,2|8,1:2|0:0,0:0:0:0:
18,376,78932,6,0,L|46:275,1,99.0000030212403,2|0,0:0|1:0,0:0:0:0:
220,144,79240,1,0,1:0:0:0:
167,359,79395,1,8,0:0:0:0:
375,255,79549,2,0,B|410:269|410:269|485:248,1,99.0000030212403,2|0,0:0|1:0,0:0:0:0:
324,92,79858,1,0,1:0:0:0:
304,346,80013,1,8,0:0:0:0:
86,121,80167,1,0,1:0:0:0:
86,121,80244,1,0,1:0:0:0:
86,121,80322,5,12,0:0:0:0:
361,237,80473,1,0,1:0:0:0:
32,329,80625,1,12,0:0:0:0:
180,59,80777,1,0,1:0:0:0:
325,363,80929,5,12,0:0:0:0:
89,146,81081,1,0,1:0:0:0:
403,108,81233,1,10,0:0:0:0:
137,351,81385,6,0,B|100:366|100:366|65:364|30:345,1,99.0000030212403,6|0,1:2|0:0,0:0:0:0:
3,106,81689,1,0,1:0:0:0:
235,319,81840,1,12,0:0:0:0:
185,79,81997,1,0,1:0:0:0:
429,143,82154,5,8,0:3:0:0:
452,185,82232,1,8,0:3:0:0:
459,234,82311,1,8,0:3:0:0:
449,282,82389,1,8,0:3:0:0:
423,326,82468,6,0,B|382:325|356:313|356:313|327:324|308:342|308:342|271:319|222:318,1,202.500007724762,12|0,0:0|0:0,0:0:0:0:
169,276,82782,6,0,B|155:247|155:247|173:174,1,90,6|0,1:2|1:0,0:0:0:0:
214,2,83082,1,8,0:0:0:0:
358,172,83235,2,0,B|484:145|484:145|446:192,1,180,6|0,1:2|1:0,0:0:0:0:
325,329,83697,1,8,0:0:0:0:
338,82,83851,6,0,B|375:74|375:74|387:75|387:75|429:66,1,90,6|0,1:2|0:0,0:0:0:0:
269,197,84158,1,0,1:0:0:0:
233,16,84312,1,8,0:0:0:0:
70,167,84466,6,0,B|55:203|55:203|70:262,1,90,6|0,1:2|0:0,0:0:0:0:
269,197,84774,1,0,1:0:0:0:
269,197,84851,1,0,1:0:0:0:
269,197,84928,2,0,B|190:182|190:182|157:197|151:228,1,135,12|0,0:0|0:0,0:0:0:0:
171,296,85235,6,0,B|214:312|214:312|263:301,1,90,6|0,1:2|1:0,0:0:0:0:
444,265,85543,1,8,0:0:0:0:
318,66,85697,2,0,B|197:98|197:98|234:42,1,180,6|0,1:2|1:0,0:0:0:0:
422,3,86160,1,8,0:0:0:0:
357,210,86314,6,0,B|318:203|318:203|307:204|307:204|264:196,1,90,6|0,1:2|0:0,0:0:0:0:
448,128,86623,1,0,1:0:0:0:
355,327,86777,1,8,0:0:0:0:
175,187,86931,2,0,B|138:204|138:204|78:189,1,90,6|0,1:2|0:0,0:0:0:0:
303,4,87240,6,0,L|320:77,1,62.9999980773926,4|0,1:3|0:0,0:0:0:0:
268,197,87394,2,0,L|253:135,1,62.9999980773926,4|0,1:3|0:0,0:0:0:0:
153,34,87548,2,0,L|167:95,1,62.9999980773926,4|0,1:3|0:0,0:0:0:0:
90,192,87702,6,0,B|57:178|57:178|-1:193,1,90,6|0,1:2|1:0,0:0:0:0:
160,323,88009,1,8,0:0:0:0:
253,135,88163,2,0,B|322:148|322:148|348:171|348:171|426:186,1,180,6|0,1:2|1:0,0:0:0:0:
229,33,88625,1,8,0:0:0:0:
269,260,88778,6,0,B|245:382|245:382|290:338,1,180,6|0,1:2|1:0,0:0:0:0:
421,185,89240,1,8,0:0:0:0:
192,203,89394,6,0,B|152:197|152:197|139:202|139:202|92:194,1,90,6|0,1:2|0:0,0:0:0:0:
160,323,89702,1,0,1:0:0:0:
253,135,89855,2,0,P|208:114|159:117,1,90,8|0,0:0|0:0,0:0:0:0:
72,330,90163,6,0,B|112:324|112:324|125:329|125:329|160:323,1,90,6|0,1:2|0:0,0:0:0:0:
356,233,90471,1,8,0:0:0:0:
386,239,90548,1,0,3:0:0:0:
417,245,90625,1,0,3:0:0:0:
448,251,90702,1,0,3:0:0:0:
479,257,90778,5,8,0:0:0:0:
500,223,90855,1,0,3:0:0:0:
507,183,90932,1,0,3:0:0:0:
500,143,91009,1,0,3:0:0:0:
479,109,91086,6,0,L|426:121,1,45,8|0,0:2|0:0,0:0:0:0:
312,223,91240,2,0,L|355:232,1,45,10|0,0:2|0:0,0:0:0:0:
256,18,91548,5,8,0:0:0:0:
181,211,91702,1,8,0:0:0:0:
89,25,91855,1,8,0:0:0:0:
89,25,91932,1,8,0:0:0:0:
89,25,92009,6,0,P|40:25|14:38,2,60,8|8|8,0:0|3:0|0:3,0:0:0:0:
116,129,92317,2,0,P|92:164|86:201,2,60,4|4|8,0:3|3:0|0:3,0:0:0:0:
236,31,92625,5,6,1:2:0:0:
302,186,97547,6,0,B|254:177|254:177|213:196|213:196|144:184,1,144,6|0,1:2|1:0,0:0:0:0:
36,162,98008,1,8,0:0:0:0:
77,62,98162,2,0,P|112:53|163:61,1,72,0|0,1:0|0:0,0:0:0:0:
249,92,98470,1,0,1:0:0:0:
318,12,98623,1,2,0:0:0:0:
318,12,98700,1,2,0:0:0:0:
318,12,98777,5,0,1:0:0:0:
418,51,98931,2,0,P|407:121|397:202,1,144,8|0,0:0|0:0,0:0:0:0:
384,288,99393,1,0,1:0:0:0:
471,224,99547,1,0,1:0:0:0:
320,224,99700,2,0,P|280:231|234:240,1,72,8|0,0:0|0:0,0:0:0:0:
120,259,100008,5,2,1:2:0:0:
207,323,100161,1,0,1:0:0:0:
162,170,100314,2,0,B|176:135|176:135|167:95,1,72,12|0,0:0|0:0,0:0:0:0:
31,44,100620,5,0,1:0:0:0:
12,69,100696,1,0,1:0:0:0:
3,100,100773,1,0,1:0:0:0:
6,132,100849,1,0,1:0:0:0:
20,161,100926,2,0,L|57:151,1,36,12|0,0:0|0:0,0:0:0:0:
115,245,101079,2,0,L|80:235,1,36,2|0,0:0|0:0,0:0:0:0:
80,235,101850,5,8,0:0:0:0:
119,226,101927,1,8,1:3:0:0:
159,218,102005,1,8,1:3:0:0:
198,210,102082,1,8,1:3:0:0:
232,186,102159,5,0,1:3:0:0:
256,191,102237,1,0,1:3:0:0:
279,196,102314,1,0,1:3:0:0:
303,201,102391,1,0,1:3:0:0:
328,226,102469,6,0,B|309:258|309:258|324:315,1,90,6|0,1:2|1:0,0:0:0:0:
427,109,102776,1,8,0:0:0:0:
232,186,102930,1,0,1:0:0:0:
374,11,103084,1,8,0:0:0:0:
421,203,103238,1,0,1:0:0:0:
238,71,103392,1,8,0:0:0:0:
150,278,103545,6,0,B|50:304|50:304|11:279|24:224,1,180,6|0,1:2|1:0,0:0:0:0:
144,49,104007,1,8,0:0:0:0:
230,207,104161,1,0,1:0:0:0:
343,12,104315,1,8,0:0:0:0:
152,67,104469,1,0,1:0:0:0:
380,169,104622,1,8,0:0:0:0:
150,278,104776,1,0,1:0:0:0:
150,278,104853,1,0,1:0:0:0:
150,278,104930,6,0,B|110:273|110:273|98:277|98:277|53:271,1,90,12|0,0:0|1:0,0:0:0:0:
247,99,105238,1,8,0:0:0:0:
291,282,105392,1,0,1:0:0:0:
432,106,105545,1,8,0:0:0:0:
251,185,105699,1,0,1:0:0:0:
468,241,105853,1,8,0:0:0:0:
319,15,106007,6,0,B|276:19|249:31|249:31|212:9|212:9|184:21|133:26,1,180,6|0,1:2|1:0,0:0:0:0:
25,235,106469,1,12,0:0:0:0:
230,173,106622,1,0,1:0:0:0:
132,353,106776,1,8,1:3:0:0:
103,365,106853,1,8,1:3:0:0:
71,369,106930,1,8,1:3:0:0:
41,363,107007,1,8,1:3:0:0:
12,349,107084,2,0,L|25:253,1,90,12|0,0:0|1:0,0:0:0:0:
149,24,107392,5,6,1:2:0:0:
251,185,107545,1,0,1:0:0:0:
48,114,107699,1,8,0:0:0:0:
150,275,107853,1,0,1:0:0:0:
242,69,108007,2,0,P|282:55|336:59,1,90,8|0,0:0|1:0,0:0:0:0:
493,213,108315,1,8,0:0:0:0:
251,185,108469,6,0,B|187:199|187:199|143:180|143:180|65:198,1,180,6|0,1:2|1:0,0:0:0:0:
329,57,108930,1,8,0:0:0:0:
288,274,109084,1,0,1:0:0:0:
154,100,109238,1,8,0:0:0:0:
124,88,109315,1,8,1:3:0:0:
93,86,109392,1,8,1:3:0:0:
63,94,109469,1,8,1:3:0:0:
36,113,109545,2,0,L|60:218,1,90,8|0,0:0|1:0,0:0:0:0:
308,364,109853,5,12,0:0:0:0:
252,166,110008,1,0,1:0:0:0:
154,348,110163,1,0,1:0:0:0:
383,209,110318,5,12,0:0:0:0:
182,261,110473,1,0,1:0:0:0:
239,63,110628,1,0,1:0:0:0:
394,305,110783,5,12,0:0:0:0:
421,45,110938,1,0,1:0:0:0:
229,168,111093,1,0,1:0:0:0:
512,244,111244,5,12,0:0:0:0:
326,7,111396,1,0,1:0:0:0:
265,287,111547,1,0,1:0:0:0:
93,35,111699,6,0,L|39:49,1,45,12|8,0:0|1:3,0:0:0:0:
11,221,111852,1,8,1:3:0:0:
11,221,111929,1,8,1:3:0:0:
11,221,112006,2,0,B|52:237|52:237|109:218,1,90,12|0,0:0|1:0,0:0:0:0:
410,38,112314,6,0,B|382:75|354:91|354:91|397:165|390:253|390:253|372:273|372:273|361:337,1,323.999990112305,8|0,1:3|0:0,0:0:0:0:
141,331,112930,2,0,B|113:294|81:280|81:280|128:204|121:116|121:116|101:95|101:95|92:34,1,323.999990112305,8|0,1:3|0:0,0:0:0:0:
383,216,113547,6,0,L|362:331,1,107.999996704102,8|0,1:3|0:0,0:0:0:0:
141,331,113856,2,0,L|161:215,1,107.999996704102,8|0,1:3|0:0,0:0:0:0:
303,58,114164,2,0,B|284:158|284:158|274:169|274:169|256:285,1,215.999993408203,8|2,1:3|0:0,0:0:0:0:
259,268,114776,6,0,B|266:305|266:305|262:323|262:323|275:376,1,99.0000030212403,6|0,1:2|1:0,0:0:0:0:
396,131,115084,1,8,0:0:0:0:
182,135,115238,1,2,0:0:0:0:
182,135,115315,1,2,0:0:0:0:
182,135,115392,1,0,1:0:0:0:
368,219,115547,1,0,1:2:0:0:
227,32,115701,2,0,P|159:26|120:41,1,99.0000030212403,8|0,0:0|0:0,0:0:0:0:
22,265,116009,6,0,P|82:254|123:246,1,99.0000030212403,0|0,1:0|1:0,0:0:0:0:
366,210,116318,1,8,0:0:0:0:
206,359,116472,2,0,P|158:370|109:362,1,99.0000030212403,2|0,0:0|1:0,0:0:0:0:
0,185,116781,1,0,1:0:0:0:
242,171,116935,2,0,P|232:219|223:268,1,99.0000030212403,8|0,0:0|0:0,0:0:0:0:
156,37,117243,5,2,1:2:0:0:
379,118,117396,1,0,1:0:0:0:
137,173,117550,1,8,0:0:0:0:
272,29,117704,1,2,0:0:0:0:
308,257,117858,1,0,1:0:0:0:
468,109,118012,2,0,P|472:56|454:15,1,99.0000030212403,2|8,0:0|0:0,0:0:0:0:
222,93,118319,1,2,0:0:0:0:
318,277,118473,6,0,B|410:260|394:261|517:241,1,198.000006042481,0|8,1:2|0:0,0:0:0:0:
296,171,118935,1,2,0:0:0:0:
381,364,119089,1,0,1:2:0:0:
430,176,119240,1,0,1:0:0:0:
210,236,119392,2,0,B|172:230|172:230|155:220|155:220|109:213,1,99.0000030212403,12|0,0:0|0:0,0:0:0:0:
364,54,119695,6,0,B|506:21|506:21|479:39|469:71,1,198.000006042481,6|8,1:2|0:0,0:0:0:0:
282,186,120157,2,0,P|265:142|279:94,1,99.0000030212403,2|0,0:0|1:0,0:0:0:0:
415,258,120466,1,0,1:0:0:0:
167,201,120620,2,0,P|113:210|67:217,1,99.0000030212403,8|0,0:0|0:0,0:0:0:0:
236,370,120928,5,2,1:2:0:0:
282,186,121083,1,0,1:0:0:0:
421,366,121237,1,8,0:0:0:0:
209,280,121391,2,0,P|106:330|19:289,1,198.000006042481,2|0,0:0|1:0,0:0:0:0:
255,172,121854,1,8,0:0:0:0:
329,376,122008,1,2,0:0:0:0:
453,161,122162,6,0,P|441:98|433:61,1,99.0000030212403,0|0,1:2|1:0,0:0:0:0:
235,158,122469,1,8,0:0:0:0:
415,277,122623,2,0,P|477:282|524:262,1,99.0000030212403,2|0,0:0|1:0,0:0:0:0:
346,124,122931,1,0,1:0:0:0:
308,368,123085,1,8,0:0:0:0:
151,202,123238,6,0,P|105:212|52:223,1,99.0000030212403,2|0,0:0|1:0,0:0:0:0:
257,51,123546,1,2,0:0:0:0:
257,51,123623,1,2,0:0:0:0:
257,51,123700,1,8,0:0:0:0:
236,288,123854,1,0,1:0:0:0:
474,197,124008,5,8,1:3:0:0:
493,158,124085,1,0,1:2:0:0:
496,114,124162,1,0,1:2:0:0:
483,71,124238,1,0,1:2:0:0:
452,37,124315,2,0,B|410:42|410:42|397:37|397:37|347:44,1,99.0000030212403,12|0,0:0|0:0,0:0:0:0:
151,202,124623,6,0,B|201:216|201:216|253:201,1,99.0000030212403,6|0,1:2|1:0,0:0:0:0:
19,61,124931,1,12,0:0:0:0:
59,274,125085,1,2,0:0:0:0:
59,274,125162,1,2,0:0:0:0:
59,274,125238,1,0,1:0:0:0:
192,110,125392,1,0,1:0:0:0:
256,339,125546,2,0,P|306:344|354:324,1,99.0000030212403,8|0,0:0|0:0,0:0:0:0:
462,139,125854,6,0,P|416:121|367:126,1,99.0000030212403,2|0,1:2|0:0,0:0:0:0:
166,290,126162,1,8,0:0:0:0:
390,248,126315,2,0,P|439:257|495:269,1,99.0000030212403,2|0,0:0|1:0,0:0:0:0:
256,339,126623,1,0,1:0:0:0:
367,126,126777,2,0,P|357:76|346:21,1,99.0000030212403,8|0,0:0|0:0,0:0:0:0:
138,145,127085,6,0,B|217:168|217:168|258:154|267:118,1,148.50000453186,2|0,1:2|0:0,0:0:0:0:
235,50,127392,2,0,P|176:46|132:71,1,99.0000030212403,10|0,0:0|0:0,0:0:0:0:
7,259,127700,1,2,1:2:0:0:
215,196,127854,1,0,1:0:0:0:
12,70,128008,1,8,0:0:0:0:
109,297,128162,6,0,P|154:290|208:282,1,99.0000030212403,2|0,0:0|1:0,0:0:0:0:
424,253,128467,1,0,1:0:0:0:
236,379,128620,1,8,0:0:0:0:
311,163,128773,2,0,P|317:115|294:55,1,99.0000030212403,10|0,0:0|1:0,0:0:0:0:
122,210,129078,1,0,1:0:0:0:
335,335,129231,2,0,B|382:350|382:350|440:331,1,99.0000030212403,12|0,0:0|0:0,0:0:0:0:
422,75,129543,6,0,B|414:115|414:115|420:130|420:130|406:184,1,99.0000030212403,6|0,1:2|1:0,0:0:0:0:
194,272,129849,2,0,P|147:177|193:97,1,198.000006042481,8|0,0:0|1:0,0:0:0:0:
326,244,130309,1,0,1:0:0:0:
139,367,130463,2,0,P|87:356|33:345,1,99.0000030212403,8|0,0:0|0:0,0:0:0:0:
253,184,130769,5,2,1:2:0:0:
305,364,130923,1,0,1:0:0:0:
409,170,131076,1,8,0:0:0:0:
194,272,131229,2,0,P|142:261|88:250,1,99.0000030212403,2|0,0:0|1:0,0:0:0:0:
23,45,131536,1,0,1:0:0:0:
231,103,131689,2,0,P|283:92|337:81,1,99.0000030212403,8|0,0:0|0:0,0:0:0:0:
486,288,132004,6,0,B|451:278|429:277|429:277|400:256|400:256|366:254|335:245,1,148.50000453186,6|0,1:2|0:0,0:0:0:0:
267,234,132313,2,0,P|247:285|261:338,1,99.0000030212403,10|0,0:0|0:0,0:0:0:0:
368,164,132622,1,0,1:0:0:0:
171,192,132777,1,0,1:0:0:0:
326,372,132931,2,0,P|376:364|431:355,1,99.0000030212403,10|0,0:0|0:0,0:0:0:0:
175,215,133241,6,0,P|124:207|70:198,1,99.0000030212403,0|0,1:0|1:0,0:0:0:0:
331,84,133548,1,10,0:0:0:0:
234,336,133702,1,8,0:0:0:0:
234,336,133779,1,8,0:0:0:0:
234,336,133856,1,10,0:0:0:0:
184,72,134010,1,10,0:0:0:0:
420,197,134164,1,10,0:0:0:0:
141,295,134317,6,0,B|108:302|108:302|61:291,1,62.9999980773926,6|0,1:2|0:0,0:0:0:0:
24,242,134625,1,0,1:0:0:0:
69,181,134779,1,0,1:0:0:0:
144,190,134929,1,0,1:0:0:0:
293,265,135079,6,0,B|369:286|369:286|405:253,1,125.999996154785,12|0,0:0|0:0,0:0:0:0:
408,100,135540,6,0,B|379:94|379:94|372:97|372:97|330:90,1,62.9999980773926,6|0,1:2|0:0,0:0:0:0:
270,91,135847,1,0,1:0:0:0:
216,144,136001,1,0,1:0:0:0:
234,217,136155,1,0,1:0:0:0:
403,254,136309,6,0,B|487:230|487:230|466:276,1,125.999996154785,12|0,0:0|0:0,0:0:0:0:
298,348,136770,6,0,B|267:343|267:343|260:339|260:339|224:332,1,62.9999980773926,6|0,1:2|0:0,0:0:0:0:
162,319,137078,1,0,1:0:0:0:
106,267,137232,1,0,1:0:0:0:
127,194,137386,1,0,1:0:0:0:
289,142,137540,6,0,B|341:154|341:154|361:146|361:146|412:159,1,125.999996154785,12|0,0:0|0:0,0:0:0:0:
463,16,138001,6,0,B|426:25|426:25|390:16,1,62.9999980773926,6|0,1:2|0:0,0:0:0:0:
250,1,138309,2,0,P|209:51|218:131,1,125.999996154785,8|0,0:0|1:0,0:0:0:0:
286,284,138770,5,8,0:0:0:0:
350,150,138924,1,8,0:0:0:0:
286,284,139078,1,8,0:0:0:0:
468,251,139220,6,0,B|480:286|480:286|475:324,1,62.9999980773926,6|0,1:2|0:0,0:0:0:0:
413,353,139544,1,0,1:0:0:0:
334,349,139706,1,0,1:0:0:0:
286,284,139859,1,0,1:0:0:0:
373,138,140012,6,0,B|448:156|448:156|475:144|496:121,1,125.999996154785,12|0,0:0|0:0,0:0:0:0:
315,64,140471,6,0,B|283:74|283:74|245:66,1,62.9999980773926,6|0,1:2|0:0,0:0:0:0:
179,53,140777,1,0,1:0:0:0:
123,103,140930,1,0,1:0:0:0:
131,178,141083,1,0,1:0:0:0:
247,223,141236,6,0,P|276:217|313:211,1,62.9999980773926,8|0,0:2|1:0,0:0:0:0:
254,68,141544,1,8,0:0:0:0:
131,178,141698,6,0,B|145:228|145:228|133:270|133:270|147:326,1,144,6|0,1:2|0:0,0:0:0:0:
211,146,142160,1,8,0:0:0:0:
118,81,142314,2,0,P|72:81|30:100,1,72,2|0,0:0|1:0,0:0:0:0:
131,179,142623,1,2,0:0:0:0:
261,81,142777,2,0,P|253:44|242:-2,1,72,8|0,0:0|0:0,0:0:0:0:
216,168,143085,5,0,1:0:0:0:
351,89,143240,2,0,P|397:89|439:108,1,72,2|8,0:0|0:0,0:0:0:0:
510,181,143548,1,2,0:0:0:0:
427,270,143702,5,2,1:2:0:0:
401,266,143780,1,8,0:0:0:0:
376,263,143857,1,8,0:0:0:0:
351,260,143934,1,8,0:0:0:0:
320,242,144011,5,8,1:2:0:0:
284,247,144088,1,8,0:0:0:0:
248,252,144165,1,8,0:0:0:0:
213,258,144242,1,8,0:0:0:0:
186,283,144319,6,0,B|199:315|199:315|185:375,1,80.9999975280763,6|0,1:2|0:0,0:0:0:0:
35,240,144626,2,0,P|72:224|119:225,1,80.9999975280763,2|0,1:2|3:0,0:0:0:0:
98,85,144934,2,0,P|130:109|152:150,1,80.9999975280763,2|0,1:2|3:0,0:0:0:0:
268,70,145242,2,0,P|263:110|238:150,1,80.9999975280763,2|0,1:2|3:0,0:0:0:0:
111,247,145549,6,0,B|103:283|103:283|109:297|109:297|101:346,1,90,6|0,1:2|3:0,0:0:0:0:
17,115,145861,1,4,1:3:0:0:
213,258,146011,1,4,1:3:0:0:
180,16,146162,5,4,1:3:0:0:
111,247,146313,1,8,0:0:0:0:
367,72,146464,1,8,0:0:0:0:
301,352,146614,1,8,0:0:0:0:
150,143,146765,6,0,P|116:142|83:154,1,53.9999983520508,6|0,1:2|3:0,0:0:0:0:
196,80,147075,2,0,P|179:50|152:27,1,53.9999983520508,0|0,1:2|3:0,0:0:0:0:
273,87,147385,2,0,P|290:58|296:23,1,53.9999983520508,0|0,1:2|3:0,0:0:0:0:
307,157,147696,2,0,P|341:158|373:146,1,53.9999983520508,0|0,1:2|3:0,0:0:0:0:
468,252,148006,6,0,P|460:293|458:310,1,53.9999983520508,2|0,1:2|3:0,0:0:0:0:
382,252,148313,2,0,P|374:293|372:310,1,53.9999983520508,0|0,1:2|3:0,0:0:0:0:
297,252,148621,2,0,P|289:293|287:310,1,53.9999983520508,0|0,1:2|3:0,0:0:0:0:
211,252,148929,2,0,P|203:293|201:310,1,53.9999983520508,0|0,1:2|3:0,0:0:0:0:
67,282,149236,6,0,P|99:273|129:271,1,53.9999983520508,2|0,1:2|3:0,0:0:0:0:
52,199,149544,2,0,P|84:190|114:188,1,53.9999983520508,0|0,1:2|3:0,0:0:0:0:
37,117,149852,2,0,P|69:108|99:106,1,53.9999983520508,0|0,1:2|3:0,0:0:0:0:
22,34,150159,2,0,P|54:25|84:23,1,53.9999983520508,0|0,1:2|3:0,0:0:0:0:
201,85,150467,6,0,P|188:115|190:156,1,53.9999983520508,2|0,1:2|3:0,0:0:0:0:
272,132,150775,2,0,P|291:158|327:177,1,53.9999983520508,0|0,1:2|3:0,0:0:0:0:
348,92,151082,2,0,P|380:88|414:66,1,53.9999983520508,0|0,1:2|3:0,0:0:0:0:
466,23,151390,1,0,1:0:0:0:
511,96,151544,1,0,3:0:0:0:
455,162,151698,6,0,B|449:185|445:196|445:196|462:217|465:253,1,80.9999975280763,6|0,1:2|0:0,0:0:0:0:
453,257,152006,2,0,P|418:258|399:266,1,53.9999983520508,0|0,1:0|3:0,0:0:0:0:
320,368,152313,2,0,P|336:337|339:316,1,53.9999983520508,0|0,1:0|3:0,0:0:0:0:
290,198,152621,2,0,P|308:227|324:240,1,53.9999983520508,0|0,1:0|3:0,0:0:0:0:
348,92,152929,6,0,P|295:102|262:109,1,80.9999975280763,2|0,1:2|0:0,0:0:0:0:
247,112,153236,2,0,P|245:82|231:56,1,53.9999983520508,0|0,1:0|3:0,0:0:0:0:
137,45,153544,2,0,P|112:61|96:86,1,53.9999983520508,0|0,1:0|3:0,0:0:0:0:
132,172,153852,2,0,P|158:185|188:186,1,53.9999983520508,0|0,1:0|3:0,0:0:0:0:
323,239,154159,6,0,P|313:276|307:328,1,80.9999975280763,2|0,1:2|0:0,0:0:0:0:
298,338,154467,2,0,P|266:327|238:328,1,53.9999983520508,0|0,1:0|3:0,0:0:0:0:
90,349,154775,2,0,P|80:311|74:260,1,80.9999975280763,0|0,1:2|0:0,0:0:0:0:
65,250,155082,2,0,P|33:261|5:260,1,53.9999983520508,0|0,1:0|3:0,0:0:0:0:
172,111,155390,5,2,1:2:0:0:
172,111,155698,6,0,P|190:145|195:180,1,62.9999980773926,2|0,1:2|0:0,0:0:0:0:
271,295,156006,6,0,P|272:253|296:204,1,72,2|0,1:2|0:0,0:0:0:0:
373,85,156313,6,0,P|387:121|388:166,1,80.9999975280763,2|0,1:2|0:0,0:0:0:0:
180,273,156621,6,0,L|2:240,1,180,8|0,1:3|1:0,0:0:0:0:
194,168,157082,2,0,L|16:135,1,180,8|0,1:3|0:0,0:0:0:0:
180,273,157544,6,0,L|357:240,1,180,8|0,1:3|1:0,0:0:0:0:
356,240,158159,1,0,1:0:0:0:
455,89,158313,2,0,L|277:56,1,180,8|0,1:3|0:0,0:0:0:0:
116,32,158775,1,8,1:3:0:0:
219,157,158929,1,2,0:0:0:0:
43,120,159082,6,0,L|7:320,1,180,8|0,1:3|1:0,0:0:0:0:
133,139,159544,2,0,L|97:339,1,180,8|0,1:3|0:0,0:0:0:0:
265,202,160006,6,0,L|233:24,1,180,8|0,1:3|1:0,0:0:0:0:
233,24,160621,1,0,1:0:0:0:
413,24,160775,2,0,L|381:201,1,180,8|0,1:3|0:0,0:0:0:0:
349,360,161236,1,8,1:3:0:0:
479,263,161390,1,2,0:0:0:0:
281,284,161544,6,0,L|102:242,1,180,8|0,1:3|1:0,0:0:0:0:
293,181,162006,2,0,L|114:139,1,180,8|0,1:3|0:0,0:0:0:0:
17,304,162467,6,0,L|196:262,1,180,8|0,1:3|1:0,0:0:0:0:
190,262,163082,1,0,1:0:0:0:
271,81,163236,2,0,L|92:39,1,180,8|0,1:3|0:0,0:0:0:0:
2,216,163698,2,0,L|92:195,1,90,8|0,1:3|0:0,0:0:0:0:
286,163,164006,6,0,L|247:339,1,180,8|0,1:3|1:0,0:0:0:0:
398,211,164467,2,0,L|359:35,1,180,8|0,1:3|0:0,0:0:0:0:
196,150,164929,2,0,L|176:238,1,90,8|0,1:3|0:0,0:0:0:0:
76,45,165236,5,6,1:2:0:0:
124,319,166316,1,0,1:0:0:0:
124,319,166395,1,0,1:0:0:0:
124,319,166474,5,12,0:0:0:0:
124,319,167073,1,8,0:0:0:0:
22,204,167227,2,0,B|10:144|10:144|29:103,1,90,4|0,1:2|0:0,0:0:0:0:
244,14,167535,6,0,B|225:71|225:71|251:122|251:122|227:200,1,180,6|0,1:2|1:0,0:0:0:0:
333,352,167996,1,8,0:0:0:0:
373,373,168073,1,8,0:0:0:0:
417,376,168150,1,8,0:0:0:0:
459,360,168227,1,8,0:0:0:0:
491,328,168304,5,8,1:3:0:0:
471,303,168382,1,8,1:3:0:0:
445,286,168460,1,8,1:3:0:0:
414,278,168538,1,8,1:3:0:0:
383,281,168616,6,0,B|371:232|402:197|402:197|381:211|352:215,1,135,12|0,0:0|0:0,0:0:0:0:
282,192,168929,6,0,B|237:213|237:213|179:196,1,99.0000030212403,6|0,1:2|1:0,0:0:0:0:
426,71,169234,1,8,0:0:0:0:
274,297,169387,1,2,0:0:0:0:
226,86,169540,1,0,1:0:0:0:
423,196,169693,1,0,1:0:0:0:
170,211,169846,1,8,0:0:0:0:
344,373,169999,6,0,P|402:362|451:353,1,99.0000030212403,2|0,1:2|0:0,0:0:0:0:
349,133,170304,1,0,1:0:0:0:
189,322,170457,2,0,P|131:311|82:302,1,99.0000030212403,10|0,0:2|0:0,0:0:0:0:
201,81,170764,1,2,1:2:0:0:
303,284,170918,1,0,1:0:0:0:
339,38,171072,1,8,0:0:0:0:
193,213,171226,1,2,0:0:0:0:
460,216,171380,6,0,B|500:265|500:265|458:363,1,148.50000453186,6|0,1:2|0:0,0:0:0:0:
392,373,171690,2,0,P|344:379|294:358,1,99.0000030212403,10|0,0:0|0:0,0:0:0:0:
109,199,172001,1,2,1:2:0:0:
317,196,172157,1,0,1:0:0:0:
101,318,172312,1,8,0:0:0:0:
167,95,172468,1,2,0:0:0:0:
303,281,172623,6,0,P|291:330|280:389,1,99.0000030212403,0|0,1:2|1:0,0:0:0:0:
88,204,172934,2,0,P|78:155|67:107,1,99.0000030212403,10|0,0:2|0:0,0:0:0:0:
280,22,173239,1,2,1:2:0:0:
208,238,173392,1,0,1:0:0:0:
96,5,173544,1,12,0:0:0:0:
331,104,173697,1,0,1:0:0:0:
88,204,173850,5,6,1:2:0:0:
70,244,173926,1,0,1:3:0:0:
70,288,174003,1,0,1:3:0:0:
87,329,174080,1,0,1:3:0:0:
119,360,174157,1,0,1:3:0:0:
160,377,174234,1,0,1:3:0:0:
204,375,174311,5,6,1:2:0:0:
227,336,174388,1,0,1:0:0:0:
259,305,174464,1,0,1:0:0:0:
300,288,174541,1,0,1:0:0:0:
344,281,174618,1,0,1:0:0:0:
387,290,174695,1,0,1:0:0:0:
426,309,174772,2,0,P|430:333|420:366,1,49.5000015106202,10|0,0:0|0:0,0:0:0:0:
204,375,174926,6,0,B|183:369|168:361|168:361|137:379|88:371,1,99.0000030212403,6|0,1:2|0:0,0:0:0:0:
0,95,175233,1,10,0:0:0:0:
27,54,175310,1,4,0:3:0:0:
71,31,175387,1,0,1:3:0:0:
120,26,175464,1,0,1:3:0:0:
168,34,175541,1,0,1:3:0:0:
211,57,175618,1,0,1:3:0:0:
244,92,175694,6,0,B|265:188|195:154|217:259,1,161.999995056153,10|0,0:0|0:0,0:0:0:0:
217,261,176309,6,0,B|249:262|271:279|271:279|293:259|328:256,1,107.999996704102,6|0,1:2|1:0,0:0:0:0:
74,115,176617,1,10,0:0:0:0:
114,351,176771,2,0,P|164:368|216:355,1,107.999996704102,2|0,0:0|1:0,0:0:0:0:
312,146,177080,1,2,1:2:0:0:
86,221,177234,1,8,0:0:0:0:
324,348,177388,6,0,P|371:336|444:324,1,107.999996704102,2|0,1:2|0:0,0:0:0:0:
465,101,177697,1,2,1:2:0:0:
198,156,177851,2,0,P|189:210|206:267,1,107.999996704102,10|0,0:0|0:0,0:0:0:0:
450,326,178159,2,0,P|463:274|454:221,1,107.999996704102,2|0,1:2|1:0,0:0:0:0:
234,61,178468,1,8,0:0:0:0:
324,267,178622,1,2,0:0:0:0:
407,7,178776,5,0,1:2:0:0:
102,107,178931,1,0,1:0:0:0:
434,208,179085,1,8,0:0:0:0:
159,3,179239,1,2,0:0:0:0:
217,308,179393,1,0,1:2:0:0:
418,102,179548,1,0,1:0:0:0:
78,206,179702,1,8,0:0:0:0:
347,346,179856,6,0,P|401:348|450:326,1,107.999996704102,2|0,1:2|0:0,0:0:0:0:
267,118,180165,1,0,1:0:0:0:
128,375,180319,1,10,0:0:0:0:
24,96,180472,1,8,0:0:0:0:
285,243,180626,2,0,P|343:232|397:223,1,107.999996704102,2|0,1:2|1:0,0:0:0:0:
170,5,180934,1,12,0:0:0:0:
145,255,181088,1,2,0:0:0:0:
385,68,181242,6,0,B|438:18|511:55|511:55|475:81,1,161.999995056153,6|0,1:2|0:0,0:0:0:0:
426,129,181549,2,0,P|371:106|317:111,1,107.999996704102,10|0,0:0|0:0,0:0:0:0:
71,170,181857,1,2,1:2:0:0:
314,259,182011,1,0,1:0:0:0:
190,6,182165,2,0,P|134:18|70:30,1,107.999996704102,10|0,0:0|0:0,0:0:0:0:
222,248,182472,5,2,1:2:0:0:
309,23,182626,1,0,1:2:0:0:
463,258,182780,2,0,P|449:326|440:380,1,107.999996704102,10|0,0:0|0:0,0:0:0:0:
245,160,183088,1,2,0:0:0:0:
486,148,183242,1,0,1:0:0:0:
281,362,183395,2,0,B|231:380|231:380|177:362,1,107.999996704102,12|0,0:0|0:0,0:0:0:0:
28,98,183692,5,12,0:0:0:0:
299,254,183847,1,0,1:0:0:0:
299,254,183925,1,0,1:0:0:0:
299,254,184002,2,0,L|365:235,1,53.9999983520508,0|0,1:0|1:0,0:0:0:0:
494,129,184158,5,12,1:2:0:0:
478,88,184236,1,0,1:0:0:0:
452,54,184313,1,0,1:0:0:0:
417,30,184391,1,0,1:0:0:0:
376,16,184469,1,0,1:0:0:0:
333,16,184546,1,0,1:0:0:0:
291,28,184624,2,0,P|275:58|274:93,1,53.9999983520508,10|0,0:0|0:0,0:0:0:0:
299,254,184777,6,0,B|331:247|363:232|363:232|388:257|426:269|426:269|456:248|499:251,1,215.999993408203,6|0,1:2|1:0,0:0:0:0:
512,341,185161,1,0,1:0:0:0:
512,341,185238,2,0,P|479:355|452:356,1,53.9999983520508,10|0,0:0|0:0,0:0:0:0:
256,350,185392,6,0,B|252:308|237:282|237:282|276:225|276:225|261:190|251:130,1,215.999993408203,6|0,1:2|1:0,0:0:0:0:
178,122,185777,1,0,1:0:0:0:
178,122,185854,2,0,P|164:70|179:19,1,107.999996704102,10|0,0:0|0:0,0:0:0:0:
466,20,186161,5,6,1:2:0:0:
274,151,186315,1,0,1:0:0:0:
510,247,186470,2,0,P|498:300|487:367,1,107.999996704102,10|0,0:0|0:0,0:0:0:0:
212,305,186779,2,0,P|277:248|421:301,1,215.999993408203,2|8,1:2|0:0,0:0:0:0:
277,384,187243,1,2,0:0:0:0:
174,149,187398,5,0,1:2:0:0:
119,384,187552,1,0,1:0:0:0:
396,270,187707,1,8,0:0:0:0:
123,239,187862,2,0,P|69:255|1:267,1,107.999996704102,2|0,0:0|1:0,0:0:0:0:
290,103,188171,1,0,1:0:0:0:
232,381,188325,1,8,0:0:0:0:
94,119,188480,1,2,0:0:0:0:
355,279,188635,6,0,B|401:271|401:271|421:277|421:277|479:267,1,107.999996704102,6|0,1:2|1:0,0:0:0:0:
345,0,188941,1,8,0:0:0:0:
195,168,189094,2,0,P|207:234|232:383,1,215.999993408203,2|0,0:0|1:0,0:0:0:0:
399,174,189553,2,0,P|344:170|288:195,1,107.999996704102,8|0,0:0|0:0,0:0:0:0:
100,305,189859,5,0,1:2:0:0:
175,79,190012,1,0,1:0:0:0:
333,297,190165,1,8,0:0:0:0:
107,169,190318,2,0,P|44:171|-7:202,1,107.999996704102,8|0,0:0|1:0,0:0:0:0:
149,378,190624,1,0,1:0:0:0:
281,106,190777,2,0,B|255:4|255:4|304:31,1,161.999995056153,12|0,0:0|0:0,0:0:0:0:
383,70,191083,6,0,B|430:61|430:61|446:64|446:64|495:55,1,107.999996704102,6|0,1:2|1:0,0:0:0:0:
277,243,191392,2,0,B|230:230|230:230|217:233|217:233|161:219,1,107.999996704102,10|0,0:0|0:0,0:0:0:0:
402,159,191701,1,0,1:0:0:0:
315,384,191856,1,0,1:0:0:0:
259,112,192010,1,8,0:0:0:0:
487,256,192165,6,0,L|461:376,1,107.999996704102,2|0,0:0|1:0,0:0:0:0:
224,231,192473,1,0,1:0:0:0:
512,158,192626,1,8,0:0:0:0:
311,360,192780,2,0,B|260:379|260:379|192:360,1,107.999996704102,2|0,0:0|1:0,0:0:0:0:
37,196,193087,1,0,1:0:0:0:
341,253,193240,1,10,0:0:0:0:
130,10,193394,1,0,1:0:0:0:
130,10,193470,1,0,1:0:0:0:
130,10,193547,5,12,0:0:0:0:
124,333,193699,1,0,1:0:0:0:
334,45,193851,1,12,0:0:0:0:
16,110,194003,1,0,1:0:0:0:
306,342,194155,5,12,0:0:0:0:
224,28,194307,1,0,1:0:0:0:
31,327,194459,1,8,0:0:0:0:
363,197,194611,6,0,B|399:216|399:216|437:216|483:194,1,107.999996704102,6|0,1:2|0:0,0:0:0:0:
214,49,194915,1,0,1:0:0:0:
389,352,195067,2,0,B|433:344|433:344|451:350|451:350|501:341,1,107.999996704102,12|0,0:0|0:0,0:0:0:0:
504,40,195376,5,6,1:2:0:0:
458,24,195453,1,8,0:0:0:0:
409,27,195530,1,8,0:0:0:0:
365,46,195608,1,8,0:0:0:0:
332,81,195685,1,10,1:2:0:0:
286,96,195762,1,8,0:0:0:0:
237,93,195840,1,8,0:0:0:0:
193,74,195917,1,8,0:0:0:0:
160,39,195994,6,0,B|120:51|120:51|102:43|102:43|55:54,1,99.0000030212403,6|0,1:2|1:0,0:0:0:0:
222,257,196304,1,12,0:0:0:0:
266,13,196459,1,2,0:0:0:0:
123,176,196614,1,0,1:0:0:0:
339,201,196769,1,0,1:0:0:0:
160,39,196924,5,8,0:0:0:0:
246,250,197079,2,0,P|237:294|227:359,1,99.0000030212403,2|0,0:0|1:0,0:0:0:0:
23,243,197389,1,0,1:0:0:0:
256,153,197544,1,8,0:0:0:0:
126,326,197699,1,2,0:0:0:0:
62,96,197854,5,0,1:0:0:0:
246,250,198007,1,0,1:0:0:0:
304,19,198161,2,0,P|355:12|405:32,1,99.0000030212403,10|0,0:0|0:0,0:0:0:0:
478,221,198469,5,2,1:2:0:0:
259,132,198622,1,0,1:0:0:0:
496,118,198776,1,8,0:0:0:0:
388,296,198930,1,2,0:0:0:0:
255,110,199084,2,0,P|209:117|140:130,1,99.0000030212403,0|0,1:2|1:0,0:0:0:0:
398,27,199392,5,8,0:0:0:0:
314,211,199545,2,0,P|267:227|204:215,1,99.0000030212403,2|0,0:0|1:0,0:0:0:0:
28,136,199853,1,0,1:0:0:0:
165,342,200007,1,8,0:0:0:0:
255,110,200161,1,8,0:0:0:0:
55,257,200315,5,0,1:0:0:0:
154,30,200469,1,0,1:0:0:0:
322,235,200622,2,0,B|297:334|297:334|322:319|349:313,1,148.50000453186,12|0,0:0|0:0,0:0:0:0:
414,287,200930,6,0,B|445:291|471:308|471:308|488:293|519:286,1,99.0000030212403,6|0,1:2|1:0,0:0:0:0:
363,110,201245,2,0,P|316:120|266:130,1,99.0000030212403,10|0,0:0|0:0,0:0:0:0:
51,176,201552,1,2,1:2:0:0:
193,12,201706,1,0,1:0:0:0:
171,248,201860,2,0,P|181:295|191:344,1,99.0000030212403,10|0,0:0|0:0,0:0:0:0:
342,230,202168,5,2,1:2:0:0:
158,155,202319,1,0,1:0:0:0:
293,362,202471,1,8,0:0:0:0:
457,236,202623,2,0,B|435:129|445:182|413:29,1,198.000006042481,2|0,0:0|1:0,0:0:0:0:
169,3,203079,1,8,0:0:0:0:
326,153,203231,1,2,0:0:0:0:
81,114,203383,6,0,P|46:165|71:262,1,148.50000453186,0|0,1:2|0:0,0:0:0:0:
112,305,203690,2,0,P|158:293|213:285,1,99.0000030212403,10|0,0:0|1:0,0:0:0:0:
417,380,203998,2,0,P|368:372|320:360,1,99.0000030212403,10|0,0:0|1:0,0:0:0:0:
140,192,204306,1,2,1:2:0:0:
365,226,204459,6,0,B|498:195|498:195|463:265,1,198.000006042481,12|0,0:0|1:0,0:0:0:0:
272,118,204921,2,0,P|263:68|252:-3,1,99.0000030212403,12|0,0:0|0:0,0:0:0:0:
46,9,205232,5,10,0:0:0:0:
13,46,205310,1,0,1:0:0:0:
0,93,205387,1,0,1:0:0:0:
2,142,205465,1,0,1:0:0:0:
24,185,205543,2,0,B|65:173|65:173|82:176|82:176|128:164,1,99.0000030212403,12|2,0:0|0:0,0:0:0:0:
416,104,205854,5,6,1:2:0:0:
230,315,206007,1,0,1:0:0:0:
255,20,206161,1,10,0:0:0:0:
411,240,206315,1,0,1:0:0:0:
119,166,206468,2,0,P|106:114|131:48,1,107.999996704102,10|0,0:0|0:0,0:0:0:0:
404,129,206776,5,2,1:2:0:0:
108,263,206930,1,8,0:0:0:0:
260,40,207083,1,2,0:0:0:0:
348,329,207237,1,0,1:0:0:0:
106,113,207391,6,0,P|52:115|4:138,1,107.999996704102,10|0,0:0|0:0,0:0:0:0:
176,360,207698,1,0,1:0:0:0:
254,124,207852,1,0,1:0:0:0:
17,275,208006,1,8,0:0:0:0:
101,6,208160,1,2,0:0:0:0:
304,230,208313,6,0,B|349:219|349:219|371:225|371:225|429:212,1,107.999996704102,6|0,1:2|0:0,0:0:0:0:
197,366,208621,2,0,P|140:355|80:345,1,107.999996704102,10|0,0:0|1:0,0:0:0:0:
230,126,208928,5,10,0:0:0:0:
303,329,209082,1,0,1:0:0:0:
383,93,209236,1,0,1:0:0:0:
470,337,209390,1,8,0:0:0:0:
217,240,209543,6,0,P|117:260|41:179,1,215.999993408203,2|8,0:0|0:0,0:0:0:0:
188,11,210005,2,0,P|197:65|208:131,1,107.999996704102,2|0,0:0|1:0,0:0:0:0:
244,342,210312,1,0,1:0:0:0:
390,127,210466,2,0,P|452:125|500:147,1,107.999996704102,8|0,0:0|0:0,0:0:0:0:
354,374,210761,5,6,1:2:0:0:
209,145,210916,1,0,1:0:0:0:
459,294,211071,1,10,0:0:0:0:
222,356,211226,1,0,1:0:0:0:
370,117,211381,2,0,P|362:65|353:11,1,107.999996704102,10|0,0:0|1:0,0:0:0:0:
118,199,211691,5,6,1:2:0:0:
383,241,211846,1,8,0:0:0:0:
185,23,212001,5,2,1:2:0:0:
185,23,212104,2,0,P|136:27|104:44,1,71.9999978027344,8|8,0:0|0:0,0:0:0:0:
49,186,212311,1,8,0:2:0:0:
49,186,212414,2,0,P|82:198|118:199,1,71.9999978027344,8|8,0:0|0:0,0:0:0:0:
292,152,212621,5,8,1:3:0:0:
286,194,212724,1,8,1:3:0:0:
280,237,212828,1,8,1:3:0:0:
239,253,212931,5,0,1:3:0:0:
244,296,213032,1,0,1:3:0:0:
250,339,213133,1,0,1:3:0:0:
271,375,213234,6,0,B|175:341|158:238|182:194|251:140|314:131|371:180|371:180|340:261|258:296|138:226|125:166|125:166|151:114|210:86|210:86|163:62|143:8|143:8|112:75|68:84,1,1049.67358052187,6|0,1:2|0:0,0:0:0:0:
25,210,217852,6,0,B|20:241|5:264|5:264|29:291|33:334|33:334|38:311|56:286,1,180,12|0,0:2|0:0,0:0:0:0:
