osu file format v14

[General]
AudioFilename: audio.mp3
AudioLeadIn: 0
PreviewTime: 42162
Countdown: 0
SampleSet: Normal
StackLeniency: 0.7
Mode: 0
LetterboxInBreaks: 0
WidescreenStoryboard: 1

[Editor]
DistanceSpacing: 1.2
BeatDivisor: 4
GridSize: 4
TimelineZoom: 2.4

[Metadata]
Title:Ray (TV Size)
TitleUnicode:Ray (TV Size)
Artist:PassCode
ArtistUnicode:PassCode
Creator:tutuhaha
Version:Normal
Source:TO BE HEROINE
Tags:Frey HabiHolic opening jpop japanese anime 凸变英雄LEAF tu bian ying xiong LEAF
BeatmapID:1666433
BeatmapSetID:793436

[Difficulty]
HPDrainRate:3.5
CircleSize:3
OverallDifficulty:3.5
ApproachRate:5.5
SliderMultiplier:0.9
SliderTickRate:1

[Events]
//Background and Video events
0,0,"111.jpg",0,0
Video,0,"To Be Heroine.avi"
//Break Periods
//Storyboard Layer 0 (Background)
//Storyboard Layer 1 (Fail)
//Storyboard Layer 2 (Pass)
//Storyboard Layer 3 (Foreground)
//Storyboard Layer 4 (Overlay)
//Storyboard Sound Samples

[TimingPoints]
315,306.122448979592,4,1,1,34,1,0
11335,-100,4,1,1,57,0,0
53886,-100,4,1,1,47,0,0
54804,-100,4,1,1,40,0,0
55417,-100,4,1,1,30,0,0
57866,-100,4,1,1,57,0,1
87100,-100,4,1,1,57,0,0
87177,-100,4,2,1,5,0,0

[Colours]
Combo1 : 0,128,128
Combo2 : 129,112,123
Combo3 : 255,192,0
Combo4 : 157,88,177

[HitObjects]
304,360,5212,6,0,P|296:300|248:236,1,135,0|0,0:0|0:0,0:0:0:0:
164,176,5978,1,0,0:0:0:0:
68,224,6284,1,0,0:0:0:0:
24,124,6590,2,0,L|16:64,1,45,0|0,0:0|0:0,0:0:0:0:
116,32,7049,2,0,P|164:40|208:36,1,90,0|0,0:0|0:0,0:0:0:0:
216,144,7661,6,0,P|196:192|192:280,1,135,0|0,0:0|0:0,0:0:0:0:
276,340,8427,1,0,0:0:0:0:
356,268,8733,1,0,0:0:0:0:
404,172,9039,2,0,L|452:172,1,45,0|0,0:0|0:0,0:0:0:0:
484,68,9498,2,0,P|440:56|396:36,1,90,0|0,0:0|0:0,0:0:0:0:
56,328,11335,6,0,L|164:332,1,90,0|8,0:0|0:0,0:0:0:0:
148,224,11947,2,0,L|58:220,1,90,0|8,0:0|0:0,0:0:0:0:
12,120,12559,2,0,P|36:64|64:28,1,90,0|8,0:0|0:0,0:0:0:0:
104,28,13019,1,0,0:0:0:0:
156,36,13172,2,0,P|204:56|252:60,1,90,0|8,0:0|0:0,0:0:0:0:
344,32,13784,5,0,0:0:0:0:
440,80,14090,1,8,0:0:0:0:
444,188,14396,2,0,L|444:280,1,90,0|8,0:0|0:0,0:0:0:0:
344,320,15008,2,0,P|312:288|260:268,1,90,0|8,0:0|0:0,0:0:0:0:
220,256,15468,2,0,P|196:284|148:328,1,90,0|0,0:0|0:0,0:0:0:0:
108,340,15927,1,8,0:0:0:0:
56,248,16233,5,0,0:0:0:0:
124,164,16539,1,8,0:0:0:0:
32,108,16845,2,0,B|52:52|52:52|84:12,1,90,0|8,0:0|0:0,0:0:0:0:
176,56,17457,2,0,P|236:76|280:76,1,90,0|8,0:0|0:0,0:0:0:0:
316,88,17917,1,0,0:0:0:0:
368,92,18070,2,0,L|336:196,1,90,0|8,0:0|0:0,0:0:0:0:
244,220,18682,6,0,L|212:324,2,90,0|8|0,0:0|0:0|0:0,0:0:0:0:
156,156,19600,1,8,0:0:0:0:
56,192,19906,2,0,P|24:232|8:284,1,90,0|8,0:0|0:0,0:0:0:0:
24,320,20366,2,0,P|80:324|128:340,1,90,0|0,0:0|0:0,0:0:0:0:
164,348,20825,1,8,0:0:0:0:
244,276,21131,5,0,0:0:0:0:
176,128,21590,1,0,0:0:0:0:
336,144,22049,2,0,B|356:256|356:256|376:288,1,135,8|0,0:0|0:0,0:0:0:0:
452,76,23121,1,0,0:0:0:0:
404,48,23274,6,0,P|348:36|300:36,2,90,0|0|8,0:0|0:0|0:0,0:0:0:0:
432,152,24192,1,0,0:0:0:0:
452,260,24498,1,8,0:0:0:0:
376,336,24804,2,0,L|268:332,1,90,0|8,0:0|0:0,0:0:0:0:
208,256,25417,2,0,P|248:220|268:172,1,90,0|8,0:0|0:0,0:0:0:0:
244,140,25876,1,0,0:0:0:0:
208,100,26029,6,0,P|168:76|136:28,1,90,0|8,0:0|0:0,0:0:0:0:
36,44,26641,1,0,0:0:0:0:
64,148,26947,1,8,0:0:0:0:
96,252,27253,2,0,B|64:312|64:312|56:344,2,90,0|8|0,0:0|0:0|0:0,0:0:0:0:
204,232,28172,1,8,0:0:0:0:
312,224,28478,6,0,P|296:176|268:144,1,90,0|8,0:0|0:0,0:0:0:0:
240,104,28937,1,0,0:0:0:0:
224,52,29090,2,0,P|264:44|324:48,1,90,0|8,0:0|0:0,0:0:0:0:
420,48,29702,1,0,0:0:0:0:
372,144,30008,1,8,0:0:0:0:
448,224,30315,1,0,0:0:0:0:
388,312,30621,1,8,0:0:0:0:
300,248,30927,6,0,P|244:236|192:244,1,90,0|8,0:0|0:0,0:0:0:0:
160,332,31539,2,0,L|52:320,1,90,0|8,0:0|0:0,0:0:0:0:
32,284,31998,2,0,P|44:256|36:184,1,90,0|0,0:0|0:0,0:0:0:0:
20,148,32457,1,0,0:0:0:0:
76,56,32763,2,0,L|40:20,2,45,0|0|0,0:0|0:0|0:0,0:0:0:0:
172,108,33376,5,0,0:0:0:0:
252,36,33682,1,8,0:0:0:0:
276,140,33988,2,0,P|272:180|236:236,1,90,0|8,0:0|0:0,0:0:0:0:
200,248,34447,2,0,P|228:268|260:328,1,90,0|0,0:0|0:0,0:0:0:0:
284,360,34906,1,8,0:0:0:0:
364,288,35212,1,0,0:0:0:0:
456,340,35519,1,8,0:0:0:0:
452,232,35825,6,0,B|444:184|444:184|448:136,1,90,0|8,0:0|0:0,0:0:0:0:
448,36,36437,2,0,P|404:48|360:84,1,90,0|8,0:0|0:0,0:0:0:0:
332,112,36896,1,0,0:0:0:0:
292,148,37049,2,0,L|188:148,2,90,0|8|0,0:0|0:0|0:0,0:0:0:0:
272,256,37968,1,8,0:0:0:0:
380,244,38274,6,0,P|416:252|456:304,1,90,0|8,0:0|0:0,0:0:0:0:
428,340,38733,2,0,L|332:340,1,90,0|0,0:0|0:0,0:0:0:0:
232,348,39345,1,0,0:0:0:0:
188,316,39498,2,0,L|88:316,1,90,0|8,0:0|0:0,0:0:0:0:
44,316,39957,2,0,P|64:276|60:220,1,90,0|0,0:0|0:0,0:0:0:0:
81,124,40570,6,0,P|45:104|33:95,2,45
116,82,41029,2,0,P|144:62|204:46,1,90,8|8,0:0|0:0,0:0:0:0:
276,120,41641,1,0,0:0:0:0:
276,172,41794,2,0,L|276:272,1,90,0|0,0:0|0:0,0:0:0:0:
276,316,42253,1,8,0:0:0:0:
384,296,42559,1,0,0:0:0:0:
388,188,42866,1,8,0:0:0:0:
368,84,43172,5,4,0:0:0:0:
408,48,43325,2,0,P|444:48|504:36,2,90,0|8|0,0:0|0:0|0:0,0:0:0:0:
300,32,44243,2,0,P|264:28|192:32,1,90,0|0,0:0|0:0,0:0:0:0:
156,40,44702,1,8,0:0:0:0:
204,136,45008,1,0,0:0:0:0:
124,212,45315,1,0,0:0:0:0:
72,116,45621,6,0,P|56:68|56:28,2,90,8|8|0,0:0|0:0|0:0,0:0:0:0:
120,212,46539,1,8,0:0:0:0:
132,264,46692,2,0,P|172:288|208:328,1,90,8|0,0:0|0:0,0:0:0:0:
232,364,47151,2,0,L|336:352,1,90,8|0,0:0|0:0,0:0:0:0:
428,344,47763,1,8,0:0:0:0:
364,256,48070,5,4,0:0:0:0:
452,196,48376,1,8,0:0:0:0:
352,152,48682,2,0,P|328:112|316:52,1,90,8|8,0:0|0:0,0:0:0:0:
340,20,49141,2,0,L|440:20,1,90,8|0,0:0|0:0,0:0:0:0:
476,48,49600,1,8,0:0:0:0:
452,152,49906,1,8,0:0:0:0:
424,256,50212,1,8,0:0:0:0:
344,184,50519,6,0,P|324:216|316:268,1,90,4|8,0:0|0:0,0:0:0:0:
284,312,50978,2,0,P|236:304|180:316,1,90,0|0,0:0|0:0,0:0:0:0:
144,332,51437,1,8,0:0:0:0:
100,232,51743,2,0,L|4:232,2,90,0|8|0,0:0|0:0|0:0,0:0:0:0:
148,136,52661,1,0,0:0:0:0:
224,60,52968,6,0,P|248:96|256:148,1,90,4|8,0:0|0:0,0:0:0:0:
288,184,53427,2,0,P|332:192|380:180,1,90,0|0,0:0|0:0,0:0:0:0:
424,156,53886,2,0,L|436:312,2,135,8|8|8,0:0|0:0|0:0,0:0:0:0:
416,48,55110,1,8,0:0:0:0:
308,56,55417,5,4,0:2:0:0:
48,332,57866,6,0,P|68:280|100:248,1,90,4|8,0:0|0:0,0:0:0:0:
80,148,58478,2,0,P|112:112|132:60,1,90,0|8,0:0|0:0,0:0:0:0:
216,8,59090,1,0,0:0:0:0:
260,104,59396,1,8,0:0:0:0:
348,44,59702,2,0,L|448:48,1,90,0|8,0:0|0:0,0:0:0:0:
460,152,60315,6,0,L|370:148,1,90,0|8,0:0|0:0,0:0:0:0:
320,172,60774,1,0,0:0:0:0:
288,216,60927,2,0,P|264:264|264:312,1,90,0|8,0:0|0:0,0:0:0:0:
356,352,61539,1,0,0:0:0:0:
436,280,61845,1,8,0:0:0:0:
396,180,62151,1,0,0:0:0:0:
476,108,62457,1,8,0:0:0:0:
376,72,62763,6,0,P|328:64|284:32,1,90,0|8,0:0|0:0,0:0:0:0:
216,120,63376,2,0,P|168:128|124:160,1,90,0|8,0:0|0:0,0:0:0:0:
68,236,63988,2,0,P|124:252|156:280,1,90,0|8,0:0|0:0,0:0:0:0:
180,316,64447,1,0,0:0:0:0:
216,356,64600,2,0,L|316:352,1,90,0|8,0:0|0:0,0:0:0:0:
304,244,65212,6,0,P|300:192|272:144,1,90,0|8,0:0|0:0,0:0:0:0:
240,128,65672,2,0,P|196:116|148:80,1,90,0|0,0:0|0:0,0:0:0:0:
116,60,66131,1,8,0:0:0:0:
212,12,66437,2,0,L|320:12,1,90,0|0,0:0|0:0,0:0:0:0:
332,56,66896,2,0,L|440:56,1,90,0|0,0:0|0:0,0:0:0:0:
476,56,67355,1,0,0:0:0:0:
440,156,67661,6,0,P|420:208|420:248,1,90,4|8,0:0|0:0,0:0:0:0:
420,296,68121,1,0,0:0:0:0:
388,340,68274,2,0,P|348:320|316:284,1,90,0|8,0:0|0:0,0:0:0:0:
296,180,68886,1,0,0:0:0:0:
204,240,69192,1,8,0:0:0:0:
152,148,69498,2,0,L|48:148,1,90,0|8,0:0|0:0,0:0:0:0:
20,248,70110,6,0,L|110:248,1,90,0|8,0:0|0:0,0:0:0:0:
122,300,70570,1,0,0:0:0:0:
133,352,70723,2,0,L|223:352,1,90,0|8,0:0|0:0,0:0:0:0:
228,244,71335,1,0,0:0:0:0:
332,212,71641,1,8,0:0:0:0:
256,136,71947,1,0,0:0:0:0:
360,100,72253,1,8,0:0:0:0:
268,44,72559,6,0,P|236:44|184:80,2,90,0|8|0,0:0|0:0|0:0,0:0:0:0:
360,100,73478,1,8,0:0:0:0:
444,32,73784,2,0,P|460:60|464:124,1,90,0|8,0:0|0:0,0:0:0:0:
436,164,74243,1,0,0:0:0:0:
408,212,74396,2,0,P|400:256|416:304,1,90,0|8,0:0|0:0,0:0:0:0:
320,356,75008,6,0,B|280:336|280:336|228:332,1,90,0|8,0:0|0:0,0:0:0:0:
148,268,75621,2,0,B|108:248|108:248|56:244,1,90,0|8,0:0|0:0,0:0:0:0:
12,148,76233,1,0,0:0:0:0:
116,116,76539,1,8,0:0:0:0:
180,28,76845,2,0,P|209:61|222:104,1,90,0|0,0:0|0:0,0:0:0:0:
240,212,77457,1,4,0:0:0:0:
256,192,77534,12,0,79906,0:0:0:0:
232,156,81743,5,0,0:0:0:0:
224,264,82049,1,8,0:0:0:0:
324,224,82355,1,0,0:0:0:0:
256,192,82508,12,0,84804,0:0:0:0:
428,208,86029,6,0,P|400:168|360:136,1,90,0|8,0:0|0:0,0:0:0:0:
324,108,86488,2,0,P|276:96|232:68,1,90,0|0,0:0|0:0,0:0:0:0:
204,36,86947,2,0,L|144:36,1,45,8|0,0:0|0:0,0:0:0:0:
