osu file format v14

[General]
AudioFilename: audio.mp3
AudioLeadIn: 0
PreviewTime: 42162
Countdown: 0
SampleSet: Normal
StackLeniency: 0.7
Mode: 0
LetterboxInBreaks: 0
WidescreenStoryboard: 1

[Editor]
DistanceSpacing: 1.4
BeatDivisor: 4
GridSize: 4
TimelineZoom: 2.4

[Metadata]
Title:Ray (TV Size)
TitleUnicode:Ray (TV Size)
Artist:PassCode
ArtistUnicode:PassCode
Creator:tutuhaha
Version:Advanced
Source:TO BE HEROINE
Tags:Frey HabiHolic opening jpop japanese anime 凸变英雄LEAF tu bian ying xiong LEAF
BeatmapID:1666405
BeatmapSetID:793436

[Difficulty]
HPDrainRate:4.5
CircleSize:3.5
OverallDifficulty:4.5
ApproachRate:6.5
SliderMultiplier:1.2
SliderTickRate:1

[Events]
//Background and Video events
0,0,"111.jpg",0,0
Video,0,"To Be Heroine.avi"
//Break Periods
2,55617,56737
//Storyboard Layer 0 (Background)
//Storyboard Layer 1 (Fail)
//Storyboard Layer 2 (Pass)
//Storyboard Layer 3 (Foreground)
//Storyboard Layer 4 (Overlay)
//Storyboard Sound Samples

[TimingPoints]
315,306.122448979592,4,1,1,34,1,0
10110,-200,4,1,1,34,0,0
11335,-100,4,1,1,57,0,0
53886,-100,4,1,1,47,0,0
54804,-100,4,1,1,40,0,0
55417,-100,4,1,1,30,0,0
57866,-100,4,1,1,57,0,1
87100,-100,4,1,1,57,0,0
87177,-100,4,2,1,5,0,0

[Colours]
Combo1 : 0,128,128
Combo2 : 129,112,123
Combo3 : 255,192,0
Combo4 : 157,88,177

[HitObjects]
302,292,4906,6,0,L|322:248,2,30
192,344,5212,6,0,P|200:260|192:208,1,120,0|0,0:0|0:0,0:0:0:0:
124,180,5672,1,0,0:0:0:0:
40,196,5825,2,0,P|32:248|32:272,2,60
64,116,6284,1,0,0:0:0:0:
116,52,6437,2,0,P|145:58|175:60,2,60
281,141,7049,2,0,P|310:147|340:152,1,60
368,68,7355,2,0,L|436:84,1,60,0|0,0:0|0:0,0:0:0:0:
428,164,7661,6,0,P|424:232|440:292,1,120,0|0,0:0|0:0,0:0:0:0:
384,348,8121,1,0,0:0:0:0:
320,292,8274,2,0,P|280:256|256:240,2,60,0|0|0,0:0|0:0|0:0,0:0:0:0:
256,344,8733,2,0,P|212:336|128:332,1,120,0|0,0:0|0:0,0:0:0:0:
68,284,9192,1,0,0:0:0:0:
28,120,9498,1,0,0:0:0:0:
184,176,9804,1,0,0:0:0:0:
56,352,10110,6,0,L|96:172,1,180,0|0,0:0|0:0,0:0:0:0:
220,64,11335,6,0,P|184:76|88:48,2,120,0|8|0,0:0|0:0|0:0,0:0:0:0:
384,36,12253,1,8,0:0:0:0:
276,164,12559,2,0,P|244:208|240:236,1,60,0|0,0:0|0:0,0:0:0:0:
328,228,12866,2,0,P|372:240|392:256,1,60,8|0,0:0|0:0,0:0:0:0:
464,232,13172,2,0,P|456:192|432:152,2,60,0|0|8,0:0|0:0|0:0,0:0:0:0:
436,312,13631,1,0,0:0:0:0:
364,356,13784,6,0,B|280:340|280:340|220:340,1,120,0|8,0:0|0:0,0:0:0:0:
148,200,14396,2,0,B|64:216|64:216|4:216,1,120,0|8,0:0|0:0,0:0:0:0:
104,64,15008,2,0,P|68:52|40:32,2,60,0|0|8,0:0|0:0|0:0,0:0:0:0:
164,124,15468,2,0,P|216:76|280:64,1,120,0|0,0:0|0:0,0:0:0:0:
344,56,15927,2,0,L|348:116,1,60,8|0,0:0|0:0,0:0:0:0:
420,156,16233,6,0,P|444:96|480:52,1,120,0|8,0:0|0:0,0:0:0:0:
488,220,16845,2,0,P|456:244|372:284,1,120,0|8,0:0|0:0,0:0:0:0:
292,140,17457,2,0,P|304:96|304:60,1,60,0|0,0:0|0:0,0:0:0:0:
228,48,17763,1,8,0:0:0:0:
168,108,17917,2,0,P|156:160|156:188,2,60,0|0|0,0:0|0:0|0:0,0:0:0:0:
88,84,18376,2,0,P|88:48|80:16,1,60,8|0,0:0|0:0,0:0:0:0:
4,56,18682,6,0,P|8:104|36:184,1,120,0|8,0:0|0:0,0:0:0:0:
88,332,19294,1,0,0:0:0:0:
200,208,19600,1,8,0:0:0:0:
288,352,19906,2,0,P|244:344|212:344,2,60,0|0|8,0:0|0:0|0:0,0:0:0:0:
296,268,20366,2,0,P|344:276|436:256,1,120,0|0,0:0|0:0,0:0:0:0:
440,184,20825,2,0,P|408:176|372:172,1,60,8|0,0:0|0:0,0:0:0:0:
296,172,21131,5,0,0:0:0:0:
84,40,21590,1,0,0:0:0:0:
92,292,22049,2,0,P|112:216|196:132,1,180,8|0,0:0|0:0,0:0:0:0:
484,4,23121,1,0,0:0:0:0:
432,68,23274,2,0,L|452:144,1,60,0|0,0:0|0:0,0:0:0:0:
392,188,23580,6,0,P|372:156|336:124,1,60,0|0,0:0|0:0,0:0:0:0:
288,96,23886,2,0,P|248:84|220:68,1,60,8|0,0:0|0:0,0:0:0:0:
156,108,24192,2,0,P|168:164|200:232,1,120,0|8,0:0|0:0,0:0:0:0:
244,288,24651,1,0,0:0:0:0:
316,248,24804,2,0,P|364:192|420:156,1,120,0|8,0:0|0:0,0:0:0:0:
404,336,25417,1,0,0:0:0:0:
244,288,25723,1,8,0:0:0:0:
160,296,25876,6,0,P|76:312|24:340,1,120,0|0,0:0|0:0,0:0:0:0:
20,248,26335,2,0,P|16:196|16:168,1,60,8|0,0:0|0:0,0:0:0:0:
84,136,26641,2,0,P|96:180|104:204,1,60,0|0,0:0|0:0,0:0:0:0:
168,144,26947,2,0,P|176:104|192:72,1,60,8|0,0:0|0:0,0:0:0:0:
232,20,27253,1,0,0:0:0:0:
296,176,27559,1,8,0:0:0:0:
392,36,27866,1,0,0:0:0:0:
232,20,28172,1,8,0:0:0:0:
176,180,28478,6,0,P|204:208|232:248,1,60,0|0,0:0|0:0,0:0:0:0:
300,228,28784,2,0,P|324:272|336:300,1,60,8|0,0:0|0:0,0:0:0:0:
408,304,29090,2,0,P|412:244|432:164,1,120,0|8,0:0|0:0,0:0:0:0:
456,108,29549,1,0,0:0:0:0:
376,76,29702,2,0,P|364:40|344:-4,2,60,0|0|8,0:0|0:0|0:0,0:0:0:0:
304,120,30161,1,0,0:0:0:0:
228,80,30315,2,0,P|176:40|112:20,1,120,0|8,0:0|0:0,0:0:0:0:
72,88,30774,1,0,0:0:0:0:
40,164,30927,6,0,P|32:216|32:248,1,60,0|0,0:0|0:0,0:0:0:0:
108,260,31233,2,0,P|116:232|124:192,1,60,8|0,0:0|0:0,0:0:0:0:
208,200,31539,2,0,P|232:224|256:264,1,60,0|0,0:0|0:0,0:0:0:0:
212,320,31845,2,0,P|241:322|271:322,1,60,8|0,0:0|0:0,0:0:0:0:
328,260,32151,2,0,P|376:216|448:184,1,120,0|0,0:0|0:0,0:0:0:0:
472,260,32610,1,0,0:0:0:0:
404,312,32763,2,0,P|408:368|412:388,2,60,0|0|0,0:0|0:0|0:0,0:0:0:0:
276,200,33376,5,0,0:0:0:0:
416,108,33682,1,8,0:0:0:0:
268,32,33988,1,0,0:0:0:0:
128,124,34294,1,8,0:0:0:0:
128,124,34447,2,0,P|184:116|264:124,1,120,0|0,0:0|0:0,0:0:0:0:
276,200,34906,2,0,P|240:232|164:280,1,120,8|0,0:0|0:0,0:0:0:0:
24,340,35519,2,0,P|32:288|28:260,1,60,8|0,0:0|0:0,0:0:0:0:
40,196,35825,6,0,P|28:168|4:140,2,60,0|0|8,0:0|0:0|0:0,0:0:0:0:
108,248,36284,1,0,0:0:0:0:
148,172,36437,2,0,P|156:128|160:96,1,60,0|0,0:0|0:0,0:0:0:0:
216,52,36743,2,0,P|180:36|148:28,1,60,8|0,0:0|0:0,0:0:0:0:
76,32,37049,1,0,0:0:0:0:
36,196,37355,2,0,P|88:196|108:200,2,60,8|0|0,0:0|0:0|0:0,0:0:0:0:
144,324,37968,1,8,0:0:0:0:
168,244,38121,1,0,0:0:0:0:
224,308,38274,6,0,P|284:312|360:344,1,120,0|8,0:0|0:0,0:0:0:0:
416,364,38733,1,0,0:0:0:0:
360,208,39039,1,0,0:0:0:0:
224,308,39345,1,0,0:0:0:0:
200,228,39498,2,0,P|164:168|144:104,1,120,0|8,0:0|0:0,0:0:0:0:
84,68,39957,2,0,P|40:72|8:84,2,60,0|0|0,0:0|0:0|0:0,0:0:0:0:
164,40,40417,1,8,0:0:0:0:
224,96,40570,6,0,P|296:96|360:80,1,120,0|0,0:0|0:0,0:0:0:0:
404,28,41029,2,0,P|376:12|340:4,1,60,8|0,0:0|0:0,0:0:0:0:
342,85,41335,2,0,L|352:156,1,60,8|8,0:0|0:0,0:0:0:0:
368,228,41641,1,0,0:0:0:0:
412,300,41794,2,0,P|352:320|284:360,1,120,0|0,0:0|0:0,0:0:0:0:
232,300,42253,2,0,P|220:256|176:184,1,120,8|0,0:0|0:0,0:0:0:0:
112,148,42712,1,0,0:0:0:0:
32,124,42866,2,0,P|28:68|36:40,1,60,8|0,0:0|0:0,0:0:0:0:
112,64,43172,6,0,P|128:32|144:0,2,60,4|0|8,0:0|0:0|0:0,0:0:0:0:
112,148,43631,2,0,P|80:200|48:276,1,120,8|0,0:0|0:0,0:0:0:0:
180,364,44243,1,0,0:0:0:0:
252,212,44549,1,0,0:0:0:0:
252,212,44702,2,0,P|224:160|200:80,1,120,8|0,0:0|0:0,0:0:0:0:
348,16,45315,1,0,0:0:0:0:
360,184,45621,6,0,P|388:176|436:176,2,60,8|0|8,0:0|0:0|0:0,0:0:0:0:
380,264,46080,1,8,0:0:0:0:
312,312,46233,2,0,P|284:260|264:184,1,120,0|8,0:0|0:0,0:0:0:0:
280,120,46692,2,0,P|256:68|196:8,1,120,8|0,0:0|0:0,0:0:0:0:
156,80,47151,1,8,0:0:0:0:
128,160,47304,1,8,0:0:0:0:
76,92,47457,2,0,P|48:60|36:28,2,60,0|0|8,0:0|0:0|0:0,0:0:0:0:
128,160,47917,1,8,0:0:0:0:
52,192,48070,6,0,L|40:264,1,60,4|0,0:0|0:0,0:0:0:0:
120,284,48376,2,0,L|110:343,1,60,8|0,0:0|0:0,0:0:0:0:
196,344,48682,2,0,P|224:276|244:208,1,120,8|8,0:0|0:0,0:0:0:0:
188,164,49141,2,0,P|192:92|180:24,1,120,8|0,0:0|0:0,0:0:0:0:
268,36,49600,2,0,P|272:72|276:108,1,60,8|8,0:0|0:0,0:0:0:0:
300,176,49906,1,8,0:0:0:0:
432,68,50212,1,8,0:0:0:0:
268,36,50519,6,0,P|224:32|128:36,1,120,4|8,0:0|0:0,0:0:0:0:
72,68,50978,2,0,P|100:108|124:188,1,120,0|0,0:0|0:0,0:0:0:0:
112,260,51437,1,8,0:0:0:0:
92,340,51590,1,8,0:0:0:0:
252,296,51896,1,0,0:0:0:0:
224,216,52049,2,0,P|216:168|220:136,1,60,8|0,0:0|0:0,0:0:0:0:
276,100,52355,2,0,P|280:60|280:32,2,60,0|0|0,0:0|0:0|0:0,0:0:0:0:
312,176,52815,1,0,0:0:0:0:
360,244,52968,6,0,P|400:208|464:168,1,120,4|8,0:0|0:0,0:0:0:0:
476,252,53427,2,0,P|456:308|420:372,1,120,0|0,0:0|0:0,0:0:0:0:
352,328,53886,2,0,P|280:304|220:304,1,120,8|0,0:0|0:0,0:0:0:0:
164,348,54345,2,0,P|124:356|88:356,2,60,8|0|0,0:0|0:0|0:0,0:0:0:0:
156,264,54804,1,8,0:0:0:0:
308,188,55110,1,8,0:0:0:0:
148,136,55417,1,4,0:2:0:0:
148,136,57712,5,0,0:0:0:0:
228,112,57866,2,0,P|212:72|140:8,1,120,4|8,0:0|0:0,0:0:0:0:
84,56,58325,1,0,0:0:0:0:
48,132,58478,2,0,P|36:196|40:264,1,120,0|8,0:0|0:0,0:0:0:0:
88,316,58937,1,0,0:0:0:0:
156,268,59090,2,0,P|176:236|192:208,1,60,0|0,0:0|0:0,0:0:0:0:
228,144,59396,2,0,P|248:108|276:72,1,60,8|0,0:0|0:0,0:0:0:0:
332,52,59702,2,0,P|368:112|424:160,1,120,0|8,0:0|0:0,0:0:0:0:
464,204,60161,1,0,0:0:0:0:
464,288,60315,6,0,P|400:272|336:232,1,120,0|8,0:0|0:0,0:0:0:0:
288,196,60774,1,0,0:0:0:0:
204,184,60927,2,0,P|156:160|64:140,1,120,0|8,0:0|0:0,0:0:0:0:
40,208,61386,1,0,0:0:0:0:
84,280,61539,2,0,L|68:344,1,60,0|0,0:0|0:0,0:0:0:0:
152,356,61845,2,0,L|166:297,1,60,8|0,0:0|0:0,0:0:0:0:
240,252,62151,2,0,P|216:216|204:184,1,60,0|0,0:0|0:0,0:0:0:0:
224,120,62457,2,0,P|260:132|300:152,1,60,8|0,0:0|0:0,0:0:0:0:
344,192,62763,5,0,0:0:0:0:
396,32,63070,1,8,0:0:0:0:
228,28,63376,1,0,0:0:0:0:
176,188,63682,1,8,0:0:0:0:
344,192,63988,2,0,P|372:236|392:304,1,120,0|8,0:0|0:0,0:0:0:0:
468,332,64447,1,0,0:0:0:0:
468,332,64600,2,0,P|476:280|472:188,1,120,0|8,0:0|0:0,0:0:0:0:
336,120,65212,6,0,P|324:160|320:256,1,120,0|8,0:0|0:0,0:0:0:0:
268,304,65672,2,0,P|224:300|124:312,1,120,0|0,0:0|0:0,0:0:0:0:
68,328,66131,1,8,0:0:0:0:
28,164,66437,2,0,P|100:164|164:184,1,120,0|0,0:0|0:0,0:0:0:0:
200,112,66896,2,0,P|252:88|312:32,1,120,0|0,0:0|0:0,0:0:0:0:
380,20,67355,1,0,0:0:0:0:
388,188,67661,6,0,L|412:324,1,120,4|8,0:0|0:0,0:0:0:0:
336,348,68121,1,0,0:0:0:0:
316,268,68274,2,0,L|295:149,1,120,0|8,0:0|0:0,0:0:0:0:
212,144,68733,1,0,0:0:0:0:
216,228,68886,2,0,P|204:280|184:300,1,60,0|0,0:0|0:0,0:0:0:0:
124,256,69192,2,0,P|96:280|56:296,1,60,8|0,0:0|0:0,0:0:0:0:
48,212,69498,2,0,P|32:160|44:72,1,120,0|8,0:0|0:0,0:0:0:0:
100,40,69957,1,0,0:0:0:0:
168,88,70110,6,0,L|296:60,1,120,0|8,0:0|0:0,0:0:0:0:
352,116,70570,1,0,0:0:0:0:
276,152,70723,2,0,L|158:177,1,120,0|8,0:0|0:0,0:0:0:0:
132,256,71182,1,0,0:0:0:0:
216,272,71335,2,0,P|248:288|272:316,1,60,0|0,0:0|0:0,0:0:0:0:
344,272,71641,2,0,P|368:304|376:340,1,60,8|0,0:0|0:0,0:0:0:0:
456,344,71947,2,0,L|472:272,1,60,0|0,0:0|0:0,0:0:0:0:
416,220,72253,2,0,L|432:148,1,60,8|0,0:0|0:0,0:0:0:0:
444,80,72559,5,0,0:0:0:0:
324,200,72866,1,8,0:0:0:0:
172,132,73172,1,0,0:0:0:0:
288,12,73478,1,8,0:0:0:0:
444,80,73784,2,0,L|304:104,1,120,0|8,0:0|0:0,0:0:0:0:
244,84,74243,1,0,0:0:0:0:
172,132,74396,2,0,P|136:104|56:100,1,120,0|8,0:0|0:0,0:0:0:0:
16,260,75008,6,0,L|24:332,1,60,0|0,0:0|0:0,0:0:0:0:
108,328,75315,2,0,L|116:256,1,60,8|0,0:0|0:0,0:0:0:0:
196,256,75621,2,0,L|204:328,1,60,0|0,0:0|0:0,0:0:0:0:
288,324,75927,2,0,L|296:252,1,60,8|0,0:0|0:0,0:0:0:0:
308,184,76233,1,0,0:0:0:0:
420,308,76539,1,8,0:0:0:0:
474,149,76845,2,0,B|443:128|411:119|410:119,1,60
338,106,77151,2,0,P|304:106|267:111,1,60
308,184,77457,6,0,P|368:188|436:220,1,120,4|8,0:0|0:0,0:0:0:0:
288,312,78070,2,0,P|252:288|156:256,1,120,0|8,0:0|0:0,0:0:0:0:
52,152,78682,2,0,P|92:160|120:172,1,60,0|0,0:0|0:0,0:0:0:0:
172,112,78988,2,0,P|200:140|236:152,1,60,8|0,0:0|0:0,0:0:0:0:
252,72,79294,2,0,P|300:48|384:36,1,120,0|8,0:0|0:0,0:0:0:0:
488,148,79906,5,0,0:0:0:0:
332,212,80212,1,8,0:0:0:0:
428,352,80519,2,0,L|424:208,1,120,0|8,0:0|0:0,0:0:0:0:
332,92,81131,2,0,P|304:116|268:136,1,60,0|0,0:0|0:0,0:0:0:0:
200,140,81437,2,0,P|156:144|120:132,1,60,8|0,0:0|0:0,0:0:0:0:
68,96,81743,1,0,0:0:0:0:
164,232,82049,1,8,0:0:0:0:
160,64,82355,6,0,P|216:40|284:36,1,120,0|8,0:0|0:0,0:0:0:0:
368,176,82968,2,0,P|312:200|244:204,1,120,0|8,0:0|0:0,0:0:0:0:
96,152,83580,2,0,P|56:176|40:188,1,60,0|0,0:0|0:0,0:0:0:0:
32,268,83886,2,0,P|64:288|92:320,1,60,8|0,0:0|0:0,0:0:0:0:
164,320,84192,2,0,P|184:292|200:256,2,60,0|0|8,0:0|0:0|0:0,0:0:0:0:
240,356,84651,1,0,0:0:0:0:
288,284,84804,6,0,P|272:240|272:148,1,120,0|8,0:0|0:0,0:0:0:0:
404,64,85417,1,0,0:0:0:0:
244,16,85723,1,8,0:0:0:0:
164,164,86029,2,0,P|160:128|148:84,2,60,0|0|8,0:0|0:0|0:0,0:0:0:0:
120,236,86488,2,0,P|120:312|132:368,1,120,0|0,0:0|0:0,0:0:0:0:
212,344,86947,1,8,0:0:0:0:
280,296,87100,1,0,0:0:0:0:
