osu file format v14

[General]
AudioFilename: audio.mp3
AudioLeadIn: 0
PreviewTime: 33381
Countdown: 0
SampleSet: Soft
StackLeniency: 0.7
Mode: 0
LetterboxInBreaks: 0
WidescreenStoryboard: 1

[Editor]
Bookmarks: 11340,23585,33381,43177,52360,69809,77462,87258
DistanceSpacing: 0.7
BeatDivisor: 4
GridSize: 32
TimelineZoom: 3.099999

[Metadata]
Title:Ray (TV Size)
TitleUnicode:Ray (TV Size)
Artist:PassCode
ArtistUnicode:PassCode
Creator:bite you death
Version:Extra
Source:TO BE HEROINE
Tags:byd onegai soraka -nanoripe- akitoshi corinn -laura- pikaqours sanairrt opening j-pop jpop j-rock jrock japanese pop rock anime 凸变英雄LEAF tu bian ying xiong LEAF hero season 2
BeatmapID:0
BeatmapSetID:1867350

[Difficulty]
HPDrainRate:5
CircleSize:4
OverallDifficulty:8.4
ApproachRate:9
SliderMultiplier:1.7
SliderTickRate:1

[Events]
//Background and Video events
0,0,"aria.jpg",0,0
Video,0,"video.avi"
//Break Periods
//Storyboard Layer 0 (Background)
//Storyboard Layer 1 (Fail)
//Storyboard Layer 2 (Pass)
//Storyboard Layer 3 (Foreground)
//Storyboard Layer 4 (Overlay)
//Storyboard Sound Samples

[TimingPoints]
320,306.122448979592,4,2,2,35,1,0
5217,-166.666666666667,4,2,2,55,0,0
6748,-100,4,2,2,55,0,0
7513,-166.666666666667,4,2,2,55,0,0
8738,-125,4,2,2,55,0,0
9197,-100,4,2,2,55,0,0
9809,-83.3333333333333,4,2,2,55,0,0
11340,-83.3333333333333,4,2,2,75,0,0
11799,-90.9090909090909,4,2,2,75,0,0
21136,-90.9090909090909,4,2,2,65,0,0
23585,-90.9090909090909,4,2,2,55,0,0
32462,-181.818181818182,4,2,2,55,0,0
33381,-86.9565217391304,4,2,2,65,0,1
33993,-100,4,2,2,65,0,1
34452,-86.9565217391304,4,2,2,65,0,1
35830,-86.9565217391304,4,2,2,65,0,0
43330,-125,4,2,2,65,0,0
52360,-100,4,2,2,65,0,0
52973,-100,4,2,2,75,0,0
55422,-222.222222222221,4,2,2,40,0,0
57717,-80,4,2,2,75,0,0
57871,-80,4,2,2,85,0,0
77462,-80,4,2,2,75,0,0
87105,-399.999999999997,4,2,2,75,0,0

[Colours]
Combo1 : 159,0,80
Combo2 : 185,220,255
Combo3 : 233,210,255
Combo4 : 255,104,32

[HitObjects]
114,287,4605,6,0,P|119:261|128:226,3,42.5,2|2|2|2,0:3|0:3|0:3|0:3,0:0:0:0:
86,162,4911,2,0,P|100:224|114:287,1,127.5,4|0,0:0|0:0,0:0:0:0:
45,331,5217,6,0,P|116:322|172:377,1,152.999995330811,4|0,3:2|3:0,0:0:0:0:
168,382,5830,1,0,3:0:0:0:
234,326,5983,2,0,P|266:311|275:272,1,76.4999976654053,2|0,0:3|0:0,0:0:0:0:
282,271,6289,2,0,P|331:281|381:293,1,101.999996887207,2|0,3:0|0:0,0:0:0:0:
393,369,6748,38,0,B|394:328|414:309|424:314|456:299|452:253,1,127.5,2|0,3:0|0:0,0:0:0:0:
449,256,7054,1,0,0:0:0:0:
384,210,7207,2,0,P|379:185|373:160,2,42.5,2|2|0,0:3|0:3|3:0,0:0:0:0:
442,116,7513,5,0,0:0:0:0:
439,123,7666,2,0,P|365:131|312:79,1,152.999995330811,4|0,3:2|3:0,0:0:0:0:
316,73,8279,1,0,3:0:0:0:
204,0,8432,2,0,P|204:37|233:60,1,76.4999976654053,2|0,0:3|0:0,0:0:0:0:
228,68,8738,2,0,P|178:78|128:90,1,101.999996887207,2|0,3:0|0:0,0:0:0:0:
119,93,9044,1,0,0:0:0:0:
212,261,9197,37,8,0:0:0:0:
213,254,9274,1,8,0:0:0:0:
214,247,9350,2,0,P|219:222|225:197,1,42.5,8|8,0:3|0:3,0:0:0:0:
150,193,9503,2,0,P|145:217|138:242,3,42.5,4|0|8|8,0:3|0:0|0:3|0:3,0:0:0:0:
171,334,9809,6,0,P|224:282|297:290,1,152.999995330811,12|0,0:0|0:0,0:0:0:0:
302,297,10115,1,0,3:2:0:0:
512,108,11340,6,0,B|435:74|388:147|388:147|399:179|371:211,1,203.999993774414,4|8,3:2|0:0,0:0:0:0:
210,66,11799,1,0,0:0:0:0:
225,52,11876,1,8,0:0:0:0:
245,54,11952,1,0,3:0:0:0:
261,172,12105,1,0,3:0:0:0:
349,2,12258,2,0,B|358:24|358:24|324:112,1,93.5000028533936,8|0,0:0|0:0,0:0:0:0:
234,250,12564,6,0,P|173:221|168:154,1,140.25000428009,0|0,3:0|0:0,0:0:0:0:
176,148,12871,1,8,0:0:0:0:
328,243,13024,1,0,0:0:0:0:
229,366,13177,2,0,P|268:328|317:330,1,93.5000028533936,0|0,3:0|3:0,0:0:0:0:
441,204,13483,1,8,0:0:0:0:
406,293,13636,1,0,0:0:0:0:
236,248,13789,38,0,P|171:269|95:298,1,140.25000428009,0|0,3:0|0:0,0:0:0:0:
30,351,14095,2,0,B|9:329|9:329|23:261,1,93.5000028533936,8|0,0:0|0:0,0:0:0:0:
28,259,14325,1,8,0:0:0:0:
37,254,14401,1,0,3:0:0:0:
166,142,14554,1,0,0:0:0:0:
79,0,14707,2,0,B|66:3|53:16|53:16|91:15|124:51,1,93.5000028533936,8|0,0:0|0:0,0:0:0:0:
121,200,15013,6,0,P|54:155|83:84,1,140.25000428009,0|0,3:0|0:0,0:0:0:0:
69,104,15320,1,8,0:0:0:0:
269,164,15473,2,0,P|269:217|221:240,1,93.5000028533936,0|0,3:0|0:0,0:0:0:0:
208,22,15779,37,8,0:0:0:0:
211,30,15855,1,8,0:0:0:0:
213,39,15932,2,0,P|221:64|229:92,1,46.7500014266968,8|0,0:0|0:0,0:0:0:0:
426,58,16085,5,8,0:0:0:0:
408,52,16161,1,8,0:0:0:0:
391,45,16238,2,0,B|331:24|331:24|319:34|306:40,1,93.5000028533936,4|0,3:2|0:0,0:0:0:0:
373,179,16544,37,8,0:0:0:0:
507,110,16697,1,0,0:0:0:0:
505,119,16774,1,8,0:0:0:0:
502,128,16850,1,0,3:0:0:0:
359,83,17003,5,0,3:0:0:0:
476,233,17156,2,0,P|459:275|446:328,1,93.5000028533936,8|0,0:0|0:0,0:0:0:0:
337,381,17462,38,0,B|277:360|277:360|263:322|263:322|171:288,1,187.000005706787,0|8,3:0|0:0,0:0:0:0:
74,200,17922,1,0,0:0:0:0:
15,318,18075,2,0,P|-11:289|6:233,1,93.5000028533936,0|0,3:0|3:0,0:0:0:0:
182,160,18381,5,8,0:0:0:0:
116,333,18534,2,0,P|106:309|91:270,1,46.7500014266968,0|0,0:0|0:0,0:0:0:0:
135,83,18687,38,0,B|146:90|155:101|155:101|262:143,1,140.25000428009,0|0,3:0|0:0,0:0:0:0:
316,195,18993,2,0,P|344:149|326:105,1,93.5000028533936,8|0,0:0|0:0,0:0:0:0:
328,105,19223,1,8,0:0:0:0:
328,105,19299,1,0,3:0:0:0:
179,167,19452,5,0,0:0:0:0:
109,8,19605,2,0,P|99:52|126:89,1,93.5000028533936,12|0,0:0|0:0,0:0:0:0:
245,41,19911,37,0,3:0:0:0:
177,174,20064,2,0,P|128:184|67:228,1,93.5000028533936,12|0,0:0|0:0,0:0:0:0:
137,82,20371,5,0,3:0:0:0:
245,225,20524,2,0,P|271:261|262:306,1,93.5000028533936,12|0,0:0|3:0,0:0:0:0:
144,371,20830,37,12,0:0:0:0:
73,343,20983,1,0,3:0:0:0:
0,317,21136,5,4,3:2:0:0:
160,368,21595,37,4,3:2:0:0:
411,348,22054,5,4,3:2:0:0:
478,268,22360,37,0,3:0:0:0:
484,262,22437,2,0,L|462:185,1,46.7500014266968,0|8,3:0|0:0,0:0:0:0:
246,0,23585,22,0,L|224:77,1,46.7500014266968,4|0,3:2|0:0,0:0:0:0:
190,148,23738,2,0,L|177:103,1,46.7500014266968,0|0,3:0|0:0,0:0:0:0:
155,25,23891,5,8,0:0:0:0:
301,142,24197,1,0,0:0:0:0:
265,286,24503,1,8,0:0:0:0:
148,308,24809,38,0,L|71:286,1,46.7500014266968,4|0,3:2|0:0,0:0:0:0:
0,252,24962,2,0,L|44:239,1,46.7500014266968,0|0,3:0|0:0,0:0:0:0:
123,217,25115,5,8,0:0:0:0:
7,346,25422,1,0,0:0:0:0:
128,210,25728,1,8,0:0:0:0:
233,374,26034,38,0,L|310:352,1,46.7500014266968,4|0,3:2|0:0,0:0:0:0:
381,318,26187,2,0,L|336:305,1,46.7500014266968,0|0,3:0|0:0,0:0:0:0:
258,283,26340,5,8,0:0:0:0:
421,214,26646,1,0,0:0:0:0:
480,381,26952,1,8,0:0:0:0:
417,207,27258,38,0,L|439:130,1,46.7500014266968,4|0,3:2|0:0,0:0:0:0:
473,59,27411,2,0,L|485:103,1,46.7500014266968,0|0,3:0|0:0,0:0:0:0:
508,182,27564,5,8,0:0:0:0:
362,65,27871,1,0,0:0:0:0:
227,131,28177,1,8,0:0:0:0:
229,251,28483,38,0,L|152:273,1,46.7500014266968,4|0,3:2|0:0,0:0:0:0:
81,307,28636,2,0,L|125:319,1,46.7500014266968,0|0,3:0|0:0,0:0:0:0:
204,342,28789,5,8,0:0:0:0:
204,342,28942,1,0,0:0:0:0:
111,220,29095,2,0,P|49:148|0:108,1,140.25000428009,0|0,0:0|0:0,0:0:0:0:
6,120,29401,2,0,P|-6:91|33:47,1,93.5000028533936,8|0,0:0|0:0,0:0:0:0:
112,91,29707,38,0,L|189:69,1,46.7500014266968,4|0,3:2|0:0,0:0:0:0:
260,35,29860,2,0,L|215:22,1,46.7500014266968,0|0,3:0|0:0,0:0:0:0:
137,0,30013,5,8,0:0:0:0:
137,0,30166,1,0,0:0:0:0:
250,124,30320,2,0,B|284:184|370:177|398:104|336:63|297:100,1,187.000005706787,0|8,0:0|0:0,0:0:0:0:
330,88,30779,37,0,0:0:0:0:
368,229,30932,2,0,L|390:306,1,46.7500014266968,4|0,3:2|0:0,0:0:0:0:
424,377,31085,2,0,L|436:332,1,46.7500014266968,0|0,3:0|0:0,0:0:0:0:
459,254,31238,5,8,0:0:0:0:
459,254,31391,1,0,0:0:0:0:
316,350,31544,2,0,P|268:343|240:301,1,93.5000028533936,0|0,0:0|0:0,0:0:0:0:
181,259,31850,2,0,P|133:266|105:308,1,93.5000028533936,8|0,0:0|0:0,0:0:0:0:
175,372,32156,37,4,3:2:0:0:
175,372,32309,1,0,3:0:0:0:
175,372,32462,2,0,P|204:301|269:189,1,187.000005706787,8|0,0:0|0:0,0:0:0:0:
411,27,33381,6,0,B|428:20|449:38|449:38|388:28|355:86,1,146.62500279665,6|0,3:2|0:0,0:0:0:0:
349,77,33687,2,0,P|312:46|319:-13,1,97.7500018644333,10|0,0:0|0:0,0:0:0:0:
422,126,33993,2,0,P|441:168|456:215,1,85,2|0,3:2|0:0,0:0:0:0:
511,117,34299,1,8,0:0:0:0:
363,222,34452,1,2,0:0:0:0:
428,295,34605,38,0,P|485:307|510:339,1,97.7500018644333,0|0,3:0|3:0,0:0:0:0:
318,316,34911,2,0,P|341:266|358:220,1,97.7500018644333,10|0,0:0|0:0,0:0:0:0:
212,94,35217,1,2,3:2:0:0:
214,101,35371,1,0,0:0:0:0:
349,149,35524,2,0,B|305:145|285:187|290:189|276:224|214:220,1,146.62500279665,8|0,0:0|0:0,0:0:0:0:
220,214,35830,5,2,3:2:0:0:
125,43,35983,1,2,3:2:0:0:
31,119,36136,2,0,P|20:73|-7:15,1,97.7500018644333,8|2,0:0|0:0,0:0:0:0:
214,101,36442,1,2,3:2:0:0:
147,163,36595,2,0,P|126:207|115:254,1,97.7500018644333,2|10,0:0|0:0,0:0:0:0:
26,126,36901,1,2,0:0:0:0:
0,266,37054,38,0,P|75:273|117:341,1,146.62500279665,2|0,3:2|0:0,0:0:0:0:
115,332,37360,1,10,0:0:0:0:
270,272,37513,1,2,0:0:0:0:
188,384,37666,2,0,P|238:380|268:341,1,97.7500018644333,2|0,3:2|0:0,0:0:0:0:
375,172,37973,1,8,0:0:0:0:
460,249,38126,1,2,0:0:0:0:
300,198,38279,6,0,B|273:93|273:93|252:81|237:57,1,146.62500279665,6|0,3:2|0:0,0:0:0:0:
241,59,38585,1,10,0:0:0:0:
404,0,38738,2,0,P|402:64|359:89,1,97.7500018644333,2|0,0:0|3:0,0:0:0:0:
308,14,39044,1,2,0:0:0:0:
123,0,39197,38,0,P|119:70|176:111,1,146.62500279665,8|0,0:0|0:0,0:0:0:0:
180,106,39503,1,2,3:2:0:0:
111,230,39656,1,0,0:0:0:0:
13,156,39809,1,10,0:0:0:0:
227,195,39962,5,0,3:0:0:0:
248,228,40039,1,0,3:0:0:0:
236,265,40115,2,0,B|165:277|185:316|106:335,1,146.62500279665,8|0,0:0|0:0,0:0:0:0:
104,323,40422,37,4,0:3:0:0:
229,377,40575,1,4,0:3:0:0:
113,223,40728,21,4,3:0:0:0:
31,360,40881,2,0,P|11:290|-9:251,1,97.7500018644333,8|0,0:0|0:0,0:0:0:0:
181,80,41187,5,0,3:0:0:0:
17,167,41340,1,8,0:0:0:0:
44,93,41493,37,8,0:0:0:0:
227,195,41646,1,8,0:0:0:0:
130,24,41799,6,0,B|149:-17|149:-17|188:101,1,146.62500279665,4|0,3:2|0:0,0:0:0:0:
184,96,42105,1,8,0:0:0:0:
300,230,42258,6,0,P|363:253|410:300,1,97.7500018644333,0|8,3:0|0:0,0:0:0:0:
400,269,42488,1,8,0:0:0:0:
400,269,42564,1,8,0:0:0:0:
498,200,42717,5,8,0:3:0:0:
343,124,42871,1,4,0:3:0:0:
512,36,43024,37,4,0:3:0:0:
415,186,43177,1,6,3:2:0:0:
490,296,43330,2,0,P|480:331|473:369,2,68,2|0|2,3:2|0:0|3:2,0:0:0:0:
490,296,43789,1,8,0:0:0:0:
395,384,43942,6,0,P|347:371|320:321,1,102,2|0,3:2|0:0,0:0:0:0:
320,328,44248,2,0,P|284:318|247:311,1,68,2|0,3:2|0:0,0:0:0:0:
160,237,44554,1,2,3:2:0:0:
160,237,44707,2,0,P|168:270|173:303,1,68,2|0,3:2|3:0,0:0:0:0:
204,378,45013,5,10,0:0:0:0:
239,215,45166,2,0,P|244:181|252:148,1,68,0|0,3:2|0:0,0:0:0:0:
101,3,45626,21,2,3:2:0:0:
171,38,45779,2,0,P|178:71|183:104,2,68,0|2|0,3:0|3:2|3:0,0:0:0:0:
171,38,46238,1,10,0:0:0:0:
256,153,46391,6,0,P|304:140|331:90,1,102,0|0,3:0|0:0,0:0:0:0:
330,97,46698,2,0,P|363:89|396:84,1,68,2|0,3:2|0:0,0:0:0:0:
312,20,47003,1,2,3:2:0:0:
312,20,47156,2,0,P|345:15|378:7,1,68,2|2,3:2|3:2,0:0:0:0:
460,26,47462,5,8,0:0:0:0:
330,97,47615,1,8,0:0:0:0:
456,175,47768,1,8,0:0:0:0:
422,98,47922,1,8,0:0:0:0:
359,237,48075,22,0,P|369:272|376:310,1,68,6|2,3:2|3:2,0:0:0:0:
494,329,48381,2,0,P|484:294|477:256,1,68,2|0,3:2|3:0,0:0:0:0:
327,370,48687,5,10,0:0:0:0:
327,370,48840,2,0,P|279:357|252:307,1,102,0|0,3:0|0:0,0:0:0:0:
252,314,49146,2,0,P|216:304|179:297,1,68,2|0,3:2|0:0,0:0:0:0:
92,223,49452,1,2,3:2:0:0:
92,223,49605,2,0,P|100:256|105:289,1,68,2|0,3:2|3:0,0:0:0:0:
136,364,49911,37,10,0:0:0:0:
171,201,50064,2,0,P|176:167|184:134,1,68,0|2,3:0|0:0,0:0:0:0:
59,11,50524,5,6,3:2:0:0:
98,134,50677,1,2,3:2:0:0:
141,60,50830,1,2,3:2:0:0:
141,60,50983,2,0,P|175:55|208:47,1,68,2|8,3:2|0:0,0:0:0:0:
267,144,51289,2,0,P|301:149|334:157,1,68,2|0,3:2|0:0,0:0:0:0:
412,76,51595,2,0,P|460:89|487:139,1,102,0|0,3:0|0:0,0:0:0:0:
486,131,51901,1,0,3:0:0:0:
445,206,52054,2,0,P|452:239|457:272,1,68,8|0,0:0|0:0,0:0:0:0:
348,366,52360,37,8,0:0:0:0:
346,361,52437,1,8,0:0:0:0:
345,356,52513,2,0,L|403:375,1,42.5,8|4,0:3|0:3,0:0:0:0:
289,238,52666,5,0,3:0:0:0:
259,220,52743,1,0,3:0:0:0:
224,226,52820,1,0,3:0:0:0:
202,252,52896,1,0,3:0:0:0:
196,286,52973,5,14,0:0:0:0:
31,384,53126,1,0,0:0:0:0:
41,234,53279,5,2,3:2:0:0:
134,379,53432,2,0,P|121:338|107:298,1,85,14|0,0:0|0:0,0:0:0:0:
184,127,53738,37,2,3:2:0:0:
10,146,53891,2,0,B|24:138|24:138|88:162,2,85,14|0|0,0:0|0:0|0:0,0:0:0:0:
153,0,54350,5,14,0:0:0:0:
229,39,54503,2,0,P|272:28|337:10,1,85,2|0,3:2|0:0,0:0:0:0:
445,209,54809,37,14,0:0:0:0:
344,81,54962,1,0,0:0:0:0:
287,151,55115,5,14,0:0:0:0:
475,20,55268,1,0,0:0:0:0:
425,79,55422,6,0,L|437:121,2,38.2499988327027,4|0|0,3:2|0:0|0:0,0:0:0:0:
370,222,55881,2,0,L|359:185,2,38.2499988327027,2|0|0,0:0|0:0|0:0,0:0:0:0:
512,237,56340,5,2,0:0:0:0:
447,203,56493,1,0,0:0:0:0:
511,229,56646,1,0,0:0:0:0:
447,196,56799,1,0,0:0:0:0:
359,349,56952,38,0,P|376:340|393:332,1,38.2499988327027,2|0,0:0|0:0,0:0:0:0:
452,287,57258,1,2,0:0:0:0:
455,295,57411,1,2,0:0:0:0:
111,361,57717,21,2,0:0:0:0:
192,375,57871,2,0,B|216:307|147:282|145:285|143:288|85:275|93:206,1,212.5,6|8,3:2|0:0,0:0:0:0:
184,65,58330,1,2,0:0:0:0:
3,184,58483,5,6,3:2:0:0:
186,160,58636,2,0,L|127:139,1,53.125,0|0,0:0|0:0,0:0:0:0:
35,14,58789,2,0,P|30:73|76:103,1,106.25,8|2,0:0|0:0,0:0:0:0:
270,117,59095,38,0,B|375:77|375:77|393:93|427:98,1,159.375,6|0,3:2|0:0,0:0:0:0:
489,57,59401,2,0,B|506:38|500:20|481:5|481:5|490:31|475:58,1,106.25,14|0,0:0|0:0,0:0:0:0:
304,89,59707,2,0,P|273:47|283:-3,1,106.25,6|0,3:2|0:0,0:0:0:0:
457,165,60013,1,8,0:0:0:0:
361,31,60166,1,2,0:0:0:0:
280,199,60320,6,0,P|298:250|314:306,1,106.25,6|0,3:2|0:0,0:0:0:0:
480,288,60626,1,10,0:0:0:0:
381,188,60779,1,2,0:0:0:0:
378,357,60932,2,0,B|329:375|306:332|311:329|288:280|223:314,1,159.375,4|0,3:2|0:0,0:0:0:0:
236,316,61238,1,8,0:0:0:0:
39,180,61391,37,2,0:0:0:0:
39,180,61467,1,2,0:0:0:0:
39,180,61544,1,6,3:2:0:0:
114,338,61697,1,0,3:0:0:0:
205,222,61850,2,0,P|221:175|186:123,1,106.25,14|0,0:0|0:0,0:0:0:0:
10,276,62156,6,0,B|0:285|0:303|0:303|25:263|63:265,1,106.25,6|0,3:2|3:0,0:0:0:0:
121,55,62462,2,0,P|74:79|10:91,1,106.25,14|0,0:0|0:0,0:0:0:0:
194,128,62768,38,0,P|266:87|358:79,1,159.375,6|0,3:2|0:0,0:0:0:0:
391,136,63075,2,0,P|424:98|404:33,1,106.25,10|2,0:0|0:3,0:0:0:0:
296,173,63381,1,2,3:2:0:0:
206,26,63534,1,2,3:0:0:0:
300,183,63687,2,0,P|316:234|331:291,1,106.25,10|2,0:0|0:3,0:0:0:0:
492,367,63993,5,6,3:2:0:0:
456,197,64146,1,0,0:0:0:0:
333,291,64299,1,8,0:0:0:0:
433,287,64452,37,2,0:0:0:0:
333,384,64605,2,0,P|287:359|237:341,1,106.25,2|0,3:2|0:0,0:0:0:0:
40,240,64911,2,0,P|56:310|141:307,1,159.375,8|0,0:0|0:0,0:0:0:0:
138,310,65217,6,0,P|144:281|152:247,1,53.125,6|0,3:2|0:0,0:0:0:0:
159,85,65371,1,0,0:0:0:0:
238,204,65524,1,8,0:0:0:0:
103,28,65677,38,0,B|-18:87|-18:87|40:106|75:139,1,212.5,6|0,3:2|3:0,0:0:0:0:
260,124,66136,2,0,P|284:73|247:11,1,106.25,14|0,0:0|0:0,0:0:0:0:
99,183,66442,5,6,3:2:0:0:
159,85,66595,37,8,0:0:0:0:
163,94,66672,1,8,0:0:0:0:
165,104,66748,2,0,L|185:166,1,53.125,8|8,0:0|0:0,0:0:0:0:
283,227,66901,2,0,P|261:208|226:206,1,53.125,4|4,0:3|0:3,0:0:0:0:
138,310,67054,5,8,0:3:0:0:
158,304,67131,1,8,0:3:0:0:
177,312,67207,1,4,0:3:0:0:
189,330,67284,1,4,0:3:0:0:
217,343,67360,37,8,0:0:0:0:
246,331,67437,1,8,0:0:0:0:
275,319,67513,1,8,0:0:0:0:
306,310,67590,1,8,0:0:0:0:
373,345,67666,6,0,P|432:362|502:387,1,106.25,6|0,3:2|0:0,0:0:0:0:
405,197,67973,2,0,B|396:207|396:207|407:255,1,53.125,8|0,0:0|0:0,0:0:0:0:
470,299,68126,1,2,0:0:0:0:
471,121,68279,38,0,P|415:113|367:66,1,106.25,6|0,3:2|0:0,0:0:0:0:
494,208,68585,1,8,0:0:0:0:
470,108,68738,1,2,0:0:0:0:
318,171,68891,6,0,P|265:177|224:209,1,106.25,6|0,3:2|3:0,0:0:0:0:
153,80,69197,1,14,0:0:0:0:
73,237,69350,1,0,0:0:0:0:
73,237,69427,1,0,0:0:0:0:
73,237,69503,2,0,P|37:180|52:137,1,106.25,6|0,3:2|3:0,0:0:0:0:
224,208,69809,2,0,P|195:217|153:223,1,53.125,8|0,0:0|0:0,0:0:0:0:
87,358,69962,37,2,0:0:0:0:
95,349,70039,1,0,0:0:0:0:
86,341,70115,2,0,P|138:321|203:305,1,106.25,6|0,3:2|0:0,0:0:0:0:
385,351,70422,1,8,0:0:0:0:
246,171,70575,6,0,P|256:197|264:229,1,53.125,2|0,0:0|0:0,0:0:0:0:
266,384,70728,2,0,B|260:352|284:335|285:337|286:338|310:323|307:286,1,106.25,6|0,3:2|0:0,0:0:0:0:
193,90,71034,38,0,B|181:100|176:124|176:124|202:82|272:85,1,106.25,8|2,0:0|0:0,0:0:0:0:
331,17,71263,5,0,0:0:0:0:
343,14,71340,2,0,P|323:66|307:131,1,106.25,6|0,3:2|3:0,0:0:0:0:
470,213,71646,2,0,P|490:161|506:96,1,106.25,14|0,0:0|0:0,0:0:0:0:
502,112,71876,1,0,0:0:0:0:
502,112,71952,1,6,3:2:0:0:
409,140,72105,1,0,3:0:0:0:
496,298,72258,2,0,B|511:310|517:340|517:340|484:288|397:291,1,159.375,14|0,0:0|0:0,0:0:0:0:
358,347,72564,38,0,P|301:324|289:273,1,106.25,6|0,3:2|0:0,0:0:0:0:
100,171,72871,2,0,P|120:223|136:288,1,106.25,8|2,0:0|0:3,0:0:0:0:
313,207,73177,5,2,3:2:0:0:
267,141,73330,1,2,3:0:0:0:
141,274,73483,38,0,P|199:256|223:210,1,106.25,10|2,0:0|0:3,0:0:0:0:
357,53,73789,6,0,B|368:38|398:32|398:32|346:65|349:152,1,159.375,6|0,3:2|0:0,0:0:0:0:
350,127,74095,1,8,0:0:0:0:
263,50,74248,1,2,0:0:0:0:
446,113,74401,2,0,B|477:121|482:150|480:150|479:150|482:178|517:191,2,106.25,2|0|8,3:2|0:0|0:0,0:0:0:0:
262,280,74860,38,0,P|335:254|438:227,1,159.375,4|0,3:2|0:0,0:0:0:0:
413,232,75166,1,0,0:0:0:0:
343,137,75320,6,0,P|314:183|334:236,1,106.25,10|0,0:0|0:0,0:0:0:0:
263,360,75626,2,0,P|212:351|185:307,1,106.25,6|0,3:2|3:0,0:0:0:0:
262,280,75932,1,10,0:0:0:0:
103,152,76085,37,0,0:0:0:0:
95,161,76162,1,0,0:0:0:0:
104,169,76238,2,0,P|52:182|3:201,1,106.25,6|0,3:2|0:0,0:0:0:0:
95,27,76544,6,0,P|179:31|205:106,1,159.375,8|0,0:0|0:0,0:0:0:0:
201,99,76850,38,0,P|226:105|251:115,1,53.125,6|0,3:2|0:0,0:0:0:0:
371,53,77003,5,8,0:0:0:0:
376,64,77080,1,8,0:0:0:0:
361,85,77156,37,8,0:3:0:0:
412,81,77233,1,4,0:3:0:0:
454,112,77309,1,8,0:0:0:0:
466,162,77385,1,8,0:0:0:0:
443,209,77462,22,0,P|394:222|327:244,1,106.25,6|0,3:2|0:0,0:0:0:0:
214,371,77768,2,0,P|250:310|297:313,1,106.25,8|0,0:0|0:0,0:0:0:0:
282,312,77998,1,0,0:0:0:0:
283,316,78075,1,0,3:0:0:0:
384,347,78228,6,0,B|409:350|409:350|385:334,1,53.125,0|0,3:0|0:0,0:0:0:0:
243,193,78381,1,8,0:0:0:0:
346,242,78534,2,0,P|338:214|333:190,1,53.125,0|0,0:0|0:0,0:0:0:0:
195,41,78687,37,2,3:2:0:0:
190,61,78763,1,0,0:0:0:0:
201,79,78840,1,0,0:0:0:0:
369,8,78993,1,8,0:0:0:0:
399,96,79146,1,0,0:0:0:0:
268,3,79299,6,0,P|293:52|272:117,1,106.25,2|0,3:2|3:0,0:0:0:0:
137,206,79605,2,0,B|68:177|68:177|62:163|52:144,1,106.25,10|0,0:0|0:0,0:0:0:0:
260,226,79911,38,0,B|209:247|228:278|162:304,2,106.25,6|0|8,3:2|0:0|0:0,0:0:0:0:
78,283,80371,1,0,0:0:0:0:
81,278,80447,1,0,0:0:0:0:
85,281,80524,2,0,P|108:333|122:380,1,106.25,0|0,3:0|3:0,0:0:0:0:
309,287,80830,2,0,P|342:236|312:181,1,106.25,8|0,0:0|0:0,0:0:0:0:
206,28,81136,5,0,3:0:0:0:
320,116,81289,1,0,3:0:0:0:
182,170,81442,1,8,0:0:0:0:
231,106,81595,1,0,0:0:0:0:
367,0,81748,38,0,B|417:19|417:19|429:57|429:57|507:87,1,159.375,2|0,3:2|0:0,0:0:0:0:
504,77,82054,2,0,P|460:81|422:148,1,106.25,10|0,0:0|0:0,0:0:0:0:
479,175,82284,5,8,0:0:0:0:
481,182,82360,1,6,3:2:0:0:
357,320,82513,1,0,0:0:0:0:
340,155,82666,1,8,0:0:0:0:
502,285,82820,38,0,P|474:274|444:264,1,53.125,0|0,0:0|0:0,0:0:0:0:
257,363,82973,2,0,P|309:343|380:323,1,106.25,0|0,3:0|3:0,0:0:0:0:
251,138,83279,6,0,B|242:155|242:155|257:195,1,53.125,8|0,0:0|0:0,0:0:0:0:
259,196,83432,1,0,0:0:0:0:
144,373,83585,37,2,3:2:0:0:
129,351,83661,1,0,0:0:0:0:
135,325,83738,1,0,0:0:0:0:
255,284,83891,2,0,P|237:272|188:259,1,53.125,8|0,0:0|0:0,0:0:0:0:
40,223,84044,1,0,0:0:0:0:
132,42,84197,6,0,B|136:57|148:72|148:72|124:146,1,106.25,0|0,3:0|3:0,0:0:0:0:
42,228,84503,1,8,0:0:0:0:
208,120,84656,5,0,0:0:0:0:
214,111,84733,1,0,0:0:0:0:
219,119,84809,2,0,P|275:138|322:175,1,106.25,12|0,0:0|0:0,0:0:0:0:
475,49,85115,5,0,3:0:0:0:
364,92,85269,2,0,P|360:38|411:0,1,106.25,12|0,0:0|0:0,0:0:0:0:
504,211,85575,37,0,3:0:0:0:
442,128,85728,2,0,P|421:175|392:250,1,106.25,14|0,0:0|0:0,0:0:0:0:
331,381,86034,5,0,3:0:0:0:
452,276,86187,2,0,P|386:272|352:321,1,106.25,14|0,0:0|0:0,0:0:0:0:
132,215,86493,37,0,0:0:0:0:
269,335,86646,1,8,0:3:0:0:
267,246,86799,21,2,3:2:0:0:
165,384,86952,1,2,3:2:0:0:
36,320,87105,6,0,P|33:308|30:295,1,21.25,10|0,0:0|0:0,0:0:0:0:
