osu file format v14

[General]
AudioFilename: audio.mp3
AudioLeadIn: 0
PreviewTime: 57729
Countdown: 0
SampleSet: Soft
StackLeniency: 0.2
Mode: 0
LetterboxInBreaks: 0
WidescreenStoryboard: 1

[Editor]
Bookmarks: 408,5305,10203,11428,21224,23673,33469,40816,43265,53061,55510,57959,77550,87346,95918,97142,104489,106938,116734,119183,121632,141224,151020,168163,170612,173061,181632,182856,192652,202448,209795,212244,221887
DistanceSpacing: 0.3
BeatDivisor: 4
GridSize: 4
TimelineZoom: 4.599997

[Metadata]
Title:Ray
TitleUnicode:Ray
Artist:PassCode
ArtistUnicode:PassCode
Creator:SkyFlame
Version:Callie's Expert
Source:TO BE HEROINE
Tags:seni calliecube allice lyruke riene full ver version opening anime jpop pop jrock rock j-pop j-rock japanese female vocal ex libris 凸变英雄LEAF tu bian ying xiong LEAF 高嶋楓 Takashima Kaede 南菜生 Minami Nao 今田夢菜 Imada Yuna 大上陽奈子 Oogami Hinako NAT 2020 Semifinals sf NM1 north america tournament
BeatmapID:2690880
BeatmapSetID:1180927

[Difficulty]
HPDrainRate:5
CircleSize:4
OverallDifficulty:8.5
ApproachRate:9.3
SliderMultiplier:2
SliderTickRate:1

[Events]
//Background and Video events
0,0,"background.png",0,0
//Break Periods
2,141424,150772
2,173260,181078
//Storyboard Layer 0 (Background)
//Storyboard Layer 1 (Fail)
//Storyboard Layer 2 (Pass)
//Storyboard Layer 3 (Foreground)
//Storyboard Layer 4 (Overlay)
//Storyboard Sound Samples

[TimingPoints]
408,306.122448979592,4,2,1,50,1,0
408,-133.333333333333,4,2,1,50,0,0
4999,-153.846153846154,4,2,1,50,0,0
5305,-125,4,2,1,55,0,0
5458,-125,4,2,1,50,0,0
5765,-125,4,2,1,55,0,0
5918,-125,4,2,1,50,0,0
6071,-125,4,2,1,55,0,0
6224,-125,4,2,1,50,0,0
6377,-125,4,2,1,55,0,0
6530,-125,4,2,1,50,0,0
6683,-125,4,2,1,55,0,0
6989,-125,4,2,1,50,0,0
7142,-125,4,2,1,55,0,0
7601,-125,4,2,1,50,0,0
7754,-125,4,2,1,55,0,0
7907,-125,4,2,1,50,0,0
8214,-125,4,2,1,55,0,0
8367,-125,4,2,1,50,0,0
8520,-166.666666666667,4,2,1,55,0,0
8673,-166.666666666667,4,2,1,50,0,0
8826,-166.666666666667,4,2,1,55,0,0
8979,-166.666666666667,4,2,1,50,0,0
9132,-166.666666666667,4,2,1,55,0,0
9285,-166.666666666667,4,2,1,65,0,0
9897,-100,4,2,1,65,0,0
10203,-100,4,2,1,60,0,0
11122,-200,4,2,1,80,0,0
11428,-83.3333333333333,4,2,1,70,0,0
12754,-83.3333333333333,4,2,1,50,0,0
12959,-83.3333333333333,4,2,1,70,0,0
13571,-100,4,2,1,70,0,0
13877,-83.3333333333333,4,2,1,70,0,0
14183,-100,4,2,1,70,0,0
14795,-100,4,2,1,70,0,0
15024,-100,4,2,1,50,0,0
15101,-100,4,2,1,70,0,0
15561,-100,4,2,1,70,0,0
16326,-83.3333333333333,4,2,1,70,0,0
18469,-100,4,2,1,70,0,0
18775,-83.3333333333333,4,2,1,70,0,0
19081,-100,4,2,1,70,0,0
19693,-66.6666666666667,4,2,1,70,0,0
21224,-80,4,2,1,65,0,0
21530,-80,4,2,1,50,0,0
21683,-80,4,2,1,65,0,0
21989,-80,4,2,1,50,0,0
22142,-80,4,2,1,65,0,0
23214,-80,4,2,1,80,0,0
23367,-100,4,2,1,80,0,0
23673,-83.3333333333333,4,2,1,60,0,0
23979,-250,4,2,1,60,0,0
32550,-142.857142857143,4,2,1,60,0,0
33315,-142.857142857143,4,2,1,50,0,0
33469,-100,4,2,1,65,0,0
33622,-100,4,2,1,50,0,0
33775,-100,4,2,1,65,0,0
33928,-100,4,2,1,50,0,0
34081,-100,4,2,1,65,0,0
34234,-100,4,2,1,50,0,0
34387,-100,4,2,1,65,0,0
34540,-83.3333333333333,4,2,1,65,0,0
34999,-100,4,2,1,65,0,0
35152,-100,4,2,1,50,0,0
35305,-100,4,2,1,65,0,0
35458,-100,4,2,1,50,0,0
35612,-100,4,2,1,65,0,0
37371,-100,4,2,1,50,0,0
37448,-100,4,2,1,65,0,0
37754,-83.3333333333333,4,2,1,65,0,0
37983,-83.3333333333333,4,2,1,50,0,0
38061,-83.3333333333333,4,2,1,65,0,0
38290,-83.3333333333333,4,2,1,50,0,0
38367,-100,4,2,1,65,0,0
40203,-125,4,2,1,65,0,0
40510,-166.666666666667,4,2,1,65,0,0
40816,-166.666666666667,4,2,1,68,0,0
41887,-83.3333333333333,4,2,1,68,0,0
53061,-83.3333333333333,4,2,1,74,0,0
55510,-166.666666666667,4,2,1,62,0,0
57959,-83.3333333333333,4,2,1,80,0,0
58188,-83.3333333333333,4,2,1,50,0,0
58265,-83.3333333333333,4,2,1,80,0,0
59489,-71.4285714285714,4,2,1,80,0,0
60101,-83.3333333333333,4,2,1,80,0,0
60637,-83.3333333333333,4,2,1,50,0,0
60714,-83.3333333333333,4,2,1,80,0,0
61938,-71.4285714285714,4,2,1,80,0,0
62550,-83.3333333333333,4,2,1,80,0,0
64081,-100,4,2,1,80,0,0
67754,-83.3333333333333,4,2,1,80,0,0
67983,-83.3333333333333,4,2,1,50,0,0
68061,-83.3333333333333,4,2,1,80,0,0
69285,-71.4285714285714,4,2,1,80,0,0
69897,-83.3333333333333,4,2,1,80,0,0
70432,-83.3333333333333,4,2,1,50,0,0
70510,-83.3333333333333,4,2,1,80,0,0
71734,-71.4285714285714,4,2,1,80,0,0
72346,-83.3333333333333,4,2,1,80,0,0
73877,-100,4,2,1,80,0,0
74948,-133.333333333333,4,2,1,80,0,0
75408,-100,4,2,1,80,0,0
75561,-100,4,2,1,50,0,0
75714,-100,4,2,1,80,0,0
76632,-83.3333333333333,4,2,1,80,0,0
77550,-71.4285714285714,4,2,1,80,0,0
78928,-83.3333333333333,4,2,1,80,0,0
79387,-71.4285714285714,4,2,1,80,0,0
79616,-71.4285714285714,4,2,1,50,0,0
79693,-66.6666666666667,4,2,1,80,0,0
79922,-66.6666666666667,4,2,1,50,0,0
79999,-71.4285714285714,4,2,1,80,0,0
82065,-71.4285714285714,4,2,1,50,0,0
82142,-66.6666666666667,4,2,1,80,0,0
82448,-71.4285714285714,4,2,1,80,0,0
84285,-83.3333333333333,4,2,1,80,0,0
87040,-71.4285714285714,4,2,1,80,0,0
87269,-71.4285714285714,4,2,1,50,0,0
87346,-71.4285714285714,4,2,1,60,0,0
87652,-250,4,2,1,60,0,0
97142,-100,4,2,1,65,0,0
98214,-83.3333333333333,4,2,1,65,0,0
98673,-100,4,2,1,65,0,0
101045,-100,4,2,1,50,0,0
101122,-100,4,2,1,65,0,0
101428,-83.3333333333333,4,2,1,65,0,0
101657,-83.3333333333333,4,2,1,50,0,0
101734,-83.3333333333333,4,2,1,65,0,0
102040,-100,4,2,1,65,0,0
103877,-125,4,2,1,65,0,0
104183,-166.666666666667,4,2,1,65,0,0
104489,-166.666666666667,4,2,1,68,0,0
105561,-83.3333333333333,4,2,1,68,0,0
116734,-83.3333333333333,4,2,1,72,0,0
119183,-83.3333333333333,4,2,1,75,0,0
119642,-133.333333333333,4,2,1,75,0,0
121326,-100,4,2,1,75,0,0
121632,-83.3333333333333,4,2,1,80,0,0
121861,-83.3333333333333,4,2,1,50,0,0
121938,-83.3333333333333,4,2,1,80,0,0
123163,-71.4285714285714,4,2,1,80,0,0
123775,-83.3333333333333,4,2,1,80,0,0
124310,-83.3333333333333,4,2,1,50,0,0
124387,-83.3333333333333,4,2,1,80,0,0
125612,-71.4285714285714,4,2,1,80,0,0
126224,-83.3333333333333,4,2,1,80,0,0
127754,-100,4,2,1,80,0,0
131428,-83.3333333333333,4,2,1,80,0,0
131657,-83.3333333333333,4,2,1,50,0,0
131734,-83.3333333333333,4,2,1,80,0,0
132959,-71.4285714285714,4,2,1,80,0,0
133571,-83.3333333333333,4,2,1,80,0,0
134106,-83.3333333333333,4,2,1,50,0,0
134183,-83.3333333333333,4,2,1,80,0,0
135408,-71.4285714285714,4,2,1,80,0,0
136020,-83.3333333333333,4,2,1,80,0,0
137550,-100,4,2,1,80,0,0
138622,-133.333333333333,4,2,1,80,0,0
139081,-100,4,2,1,80,0,0
139234,-100,4,2,1,50,0,0
139387,-100,4,2,1,80,0,0
139999,-66.6666666666667,4,2,1,80,0,0
140918,-100,4,2,1,80,0,0
141224,-100,4,2,1,65,0,0
151326,-83.3333333333333,4,2,1,68,0,0
152091,-100,4,2,1,68,0,0
152550,-83.3333333333333,4,2,1,68,0,0
154540,-100,4,2,1,68,0,0
154999,-83.3333333333333,4,2,1,68,0,0
156989,-66.6666666666667,4,2,1,68,0,0
157448,-83.3333333333333,4,2,1,68,0,0
158214,-83.3333333333333,4,2,1,50,0,0
158367,-100,4,2,1,68,0,0
160510,-133.333333333333,4,2,1,68,0,0
160816,-83.3333333333333,4,2,1,68,0,0
162346,-83.3333333333333,4,2,1,50,0,0
162499,-83.3333333333333,4,2,1,68,0,0
165254,-133.333333333333,4,2,1,68,0,0
165636,-133.333333333333,4,2,1,50,0,0
165714,-83.3333333333333,4,2,1,68,0,0
166938,-66.6666666666667,4,2,1,68,0,0
168163,-83.3333333333333,4,2,1,70,0,0
169081,-71.4285714285714,4,2,1,70,0,0
169693,-83.3333333333333,4,2,1,70,0,0
170101,-100,4,2,1,70,0,0
170408,-133.333333333333,4,2,1,70,0,0
170612,-133.333333333333,4,2,1,60,0,0
173060,-133.333333333333,4,2,1,50,0,0
181632,-133.333333333333,4,2,1,65,0,0
181938,-133.333333333333,4,2,1,50,0,0
182091,-133.333333333333,4,2,1,65,0,0
182244,-133.333333333333,4,2,1,50,0,0
182856,-83.3333333333333,4,2,1,82,0,0
183085,-83.3333333333333,4,2,1,50,0,0
183163,-83.3333333333333,4,2,1,82,0,0
184387,-71.4285714285714,4,2,1,82,0,0
184999,-83.3333333333333,4,2,1,82,0,0
185534,-83.3333333333333,4,2,1,50,0,0
185612,-83.3333333333333,4,2,1,82,0,0
186836,-71.4285714285714,4,2,1,82,0,0
187448,-83.3333333333333,4,2,1,82,0,0
188979,-100,4,2,1,82,0,0
192652,-83.3333333333333,4,2,1,82,0,0
192881,-83.3333333333333,4,2,1,50,0,0
192959,-83.3333333333333,4,2,1,82,0,0
194183,-71.4285714285714,4,2,1,82,0,0
194795,-83.3333333333333,4,2,1,82,0,0
195330,-83.3333333333333,4,2,1,50,0,0
195408,-83.3333333333333,4,2,1,82,0,0
198775,-100,4,2,1,82,0,0
202448,-71.4285714285714,4,2,1,90,0,0
211020,-71.4285714285714,4,2,1,78,0,0
211632,-200,4,2,1,74,0,0
212167,-200,4,2,1,50,0,0
212244,-71.4285714285714,4,2,1,82,0,0
213571,-71.4285714285714,4,2,1,50,0,0
213775,-71.4285714285714,4,2,1,82,0,0
214310,-71.4285714285714,4,2,1,50,0,0
214387,-66.6666666666667,4,2,1,82,0,0
214616,-66.6666666666667,4,2,1,50,0,0
214693,-71.4285714285714,4,2,1,82,0,0

[Colours]
Combo1 : 244,244,159
Combo2 : 148,56,177
Combo3 : 201,114,56
Combo4 : 137,160,182
SliderBorder : 208,165,133

[HitObjects]
32,19,408,6,0,P|40:55|63:84,2,75.0000028610231,2|0|0,2:0|2:0|2:0,2:0:0:0:
103,158,867,2,0,P|131:133|144:99,2,75.0000028610231,2|0|0,2:0|2:0|2:0,2:0:0:0:
114,21,1326,5,2,2:0:0:0:
79,232,1479,1,0,2:0:0:0:
31,169,1632,6,0,P|68:154|117:162,1,75.0000028610231,0|0,2:0|2:0,2:0:0:0:
176,282,1938,2,0,P|159:242|164:183,2,75.0000028610231,2|0|0,2:0|2:0|2:0,0:0:0:0:
196,65,2397,2,0,P|193:102|177:136,2,75.0000028610231,2|0|0,2:0|2:0|2:0,0:0:0:0:
226,192,2856,6,0,P|194:209|157:210,2,75.0000028610231,2|0|0,2:0|2:0|2:0,2:0:0:0:
285,56,3316,2,0,P|271:90|275:129,2,75.0000028610231,2|0|0,2:0|2:0|2:0,2:0:0:0:
307,204,3775,5,2,2:0:0:0:
102,156,3928,1,0,2:0:0:0:
130,82,4081,6,0,P|162:104|177:136,1,75.0000028610231,0|0,2:0|2:0,2:0:0:0:
27,182,4387,2,0,P|23:142|38:110,1,75.0000028610231,2|0,2:0|2:0,0:0:0:0:
163,207,4693,1,0,3:0:0:0:
145,221,4769,1,0,3:0:0:0:
123,231,4846,1,0,3:0:0:0:
100,235,4922,1,0,3:0:0:0:
77,233,4999,6,0,P|100:237|166:283,1,97.4999955368044,4|0,2:0|2:0,2:0:0:0:
220,382,5305,6,0,L|228:302,1,80,6|0,1:2|2:0,0:0:0:0:
239,227,5612,1,0,2:0:0:0:
295,109,5765,1,2,1:2:0:0:
318,238,5918,1,0,2:0:0:0:
353,165,6071,1,2,1:2:0:0:
145,136,6224,2,0,L|225:147,1,80,0|2,2:0|1:2,0:0:0:0:
394,236,6530,6,0,P|356:248|318:237,1,80,0|2,0:0|2:0,0:0:0:0:
295,109,6836,1,2,1:2:0:0:
239,227,6989,1,0,2:0:0:0:
353,165,7142,1,2,3:0:0:0:
225,69,7295,1,2,3:0:0:0:
225,69,7371,1,2,3:0:0:0:
225,69,7448,2,0,P|215:108|224:146,1,80,2|0,1:2|2:0,2:0:0:0:
367,85,7754,6,0,P|327:87|294:108,1,80,6|0,1:2|2:0,0:0:0:0:
239,227,8061,1,0,2:0:0:0:
353,165,8214,1,2,1:2:0:0:
318,237,8367,1,0,2:0:0:0:
164,140,8520,6,0,L|223:145,1,59.9999981689454,2|0,1:2|2:0,2:0:0:0:
358,314,8826,2,0,L|298:319,1,59.9999981689454,2|0,1:2|0:0,0:0:0:0:
223,327,9132,1,2,1:2:0:0:
390,151,9285,5,10,2:0:0:0:
393,180,9361,1,8,2:0:0:0:
396,210,9438,1,10,2:3:0:0:
384,221,9515,1,8,2:3:0:0:
372,232,9591,5,6,2:3:0:0:
411,249,9668,1,4,2:3:0:0:
433,275,9744,1,2,1:2:0:0:
443,302,9821,1,0,1:2:0:0:
443,326,9897,2,0,P|384:338|353:301,1,100,14|2,2:0|2:0,2:0:0:0:
256,94,10203,5,2,2:0:0:0:
145,145,10356,5,2,2:0:0:0:
180,147,10433,5,2,2:0:0:0:
200,177,10510,5,2,2:0:0:0:
236,179,10586,5,2,2:0:0:0:
256,209,10663,5,2,2:0:0:0:
276,179,10739,5,2,2:0:0:0:
312,177,10815,5,2,2:0:0:0:
332,147,10892,5,2,2:0:0:0:
367,145,10969,5,2,2:0:0:0:
426,49,11122,6,0,L|420:-14,1,50,2|2,2:0|2:0,2:0:0:0:
473,168,11428,6,0,L|458:289,1,119.999996337891,6|2,1:2|2:0,0:0:0:0:
261,299,11734,2,0,P|336:279|379:310,1,119.999996337891,10|2,2:0|1:2,0:0:0:0:
380,311,11964,1,8,2:0:0:0:
386,327,12040,1,2,1:2:0:0:
256,209,12193,1,2,1:2:0:0:
317,354,12346,1,10,2:0:0:0:
316,363,12499,1,2,2:0:0:0:
118,245,12652,6,0,B|147:242|147:242|171:259|171:259|194:253,2,79.9999975585938,2|2|2,1:2|0:0|0:0,0:0:0:0:
42,290,12959,5,10,2:0:0:0:
125,328,13112,1,2,2:0:0:0:
0,156,13265,2,0,L|144:172,1,119.999996337891,2|2,1:2|1:2,0:0:0:0:
42,290,13571,2,0,L|28:190,1,100,10|2,2:0|2:0,0:0:0:0:
75,67,13877,6,0,B|104:51|141:59|124:72|161:79|190:66,1,119.999996337891,2|0,1:2|1:2,2:0:0:0:
202,217,14183,2,0,B|186:193|156:183|163:200|133:189|118:167,1,100,10|0,2:0|1:2,0:0:0:0:
108,154,14413,1,8,2:0:0:0:
104,140,14489,1,2,1:2:0:0:
142,270,14642,1,0,1:2:0:0:
293,222,14795,2,0,B|307:216|313:196|313:196|287:212|243:212|265:200|226:199|202:216,1,150,10|0,2:0|0:0,2:0:0:0:
242,287,15101,5,2,1:2:0:0:
270,129,15254,1,2,1:2:0:0:
370,146,15408,1,10,2:0:0:0:
142,270,15561,6,0,B|166:285|166:285|166:332|202:377|264:376|299:338,1,200,2|10,2:0|2:0,2:0:0:0:
301,339,15943,1,8,2:0:0:0:
309,326,16020,1,10,2:0:0:0:
413,229,16173,1,10,2:0:0:0:
398,229,16249,1,8,2:0:0:0:
384,235,16326,6,0,B|382:278|382:278|399:326|385:364,1,119.999996337891,6|2,1:2|1:2,0:0:0:0:
492,193,16632,2,0,P|460:157|375:155,1,119.999996337891,10|2,2:0|1:2,0:0:0:0:
373,152,16862,1,8,2:0:0:0:
355,156,16938,1,2,1:2:0:0:
481,275,17091,1,2,1:2:0:0:
510,98,17244,1,10,2:0:0:0:
512,83,17397,1,2,1:2:0:0:
304,216,17550,5,2,1:2:0:0:
304,216,17627,1,2,1:2:0:0:
304,216,17703,1,2,1:2:0:0:
352,368,17856,1,10,2:0:0:0:
378,276,18010,1,2,2:0:0:0:
176,287,18163,6,0,L|304:302,1,119.999996337891,2|2,1:2|1:2,0:0:0:0:
395,187,18469,2,0,L|297:208,1,100,10|2,2:0|1:2,0:0:0:0:
144,382,18775,6,0,B|163:384|163:384|152:231,1,119.999996337891,2|0,1:2|1:2,2:0:0:0:
106,145,19081,2,0,B|87:139|87:139|71:259,1,100,10|0,2:0|1:2,0:0:0:0:
74,234,19311,1,8,2:0:0:0:
72,248,19387,1,2,1:2:0:0:
208,207,19540,1,0,1:2:0:0:
36,335,19693,2,0,B|105:349|105:349|156:283|156:283|232:298|232:298|291:245,1,300.000011444092,14|2,2:0|1:2,2:0:0:0:
429,105,20152,5,14,2:0:0:0:
228,52,20305,1,2,2:0:0:0:
313,136,20459,1,2,1:2:0:0:
82,199,20612,5,12,2:0:0:0:
283,252,20765,1,2,1:2:0:0:
198,168,20919,1,14,2:0:0:0:
167,283,21071,1,2,2:0:0:0:
85,82,21224,6,0,B|67:54|79:24|111:19|135:44|125:75|125:75|76:216,1,250,6|0,1:2|2:0,2:0:0:0:
64,338,21683,2,0,B|48:367|16:372|-3:346|6:313|37:306|37:306|184:278,1,250,6|0,1:2|2:0,2:0:0:0:
355,253,22142,2,0,P|338:361|268:299,1,250,6|0,1:2|1:2,2:0:0:0:
283,263,22525,1,0,1:2:0:0:
316,246,22601,1,10,2:0:0:0:
316,246,23214,5,2,2:0:0:0:
203,333,23367,2,0,L|210:395,1,50,2|2,2:0|2:0,0:0:0:0:
130,261,23520,1,2,2:0:0:0:
70,312,23673,5,6,1:2:0:0:
294,329,23826,1,2,1:2:0:0:
398,273,23979,6,0,P|378:316|381:365,1,80,10|2,2:0|1:2,0:0:0:0:
467,334,24591,1,10,2:0:0:0:
467,334,24897,5,2,1:2:0:0:
219,382,25050,1,0,1:2:0:0:
89,312,25203,6,0,P|142:311|173:329,1,80,10|2,2:0|1:2,0:0:0:0:
117,382,25816,1,8,2:0:0:0:
117,382,26122,5,0,1:2:0:0:
366,342,26275,1,2,1:2:0:0:
483,253,26428,6,0,P|451:276|433:312,1,80,8|2,2:0|1:2,0:0:0:0:
509,327,27040,1,10,2:0:0:0:
509,327,27346,5,2,1:2:0:0:
256,382,27499,1,0,1:2:0:0:
203,254,27652,6,0,P|192:288|198:337,1,80,10|2,2:0|1:2,0:0:0:0:
276,299,28265,1,12,2:0:0:0:
40,285,28571,5,4,1:2:0:0:
256,382,28724,1,2,1:2:0:0:
352,290,28877,6,0,P|338:252|307:228,1,80,10|2,2:0|1:2,0:0:0:0:
276,299,29489,1,10,2:0:0:0:
276,299,29795,5,2,1:2:0:0:
0,255,29948,1,0,1:2:0:0:
61,382,30101,6,0,P|53:340|63:297,1,80,10|2,2:0|1:2,0:0:0:0:
130,341,30714,1,8,2:0:0:0:
130,341,31020,5,2,1:2:0:0:
363,234,31173,1,2,1:2:0:0:
325,378,31326,6,0,P|310:341|312:302,1,80,10|2,2:0|1:2,0:0:0:0:
389,325,31938,1,10,2:0:0:0:
389,325,32244,5,0,1:2:0:0:
149,253,32397,1,0,1:2:0:0:
325,378,32550,6,0,B|290:324|328:265|328:265|356:218|338:174|338:174|323:135|344:102|344:102|361:74|349:45,1,349.999989318848,8|0,2:0|0:0,0:0:0:0:
173,176,33469,6,0,P|215:201|264:209,1,100,6|0,1:2|2:0,2:0:0:0:
502,111,33775,2,0,P|452:118|410:144,1,100,10|0,2:0|2:0,2:0:0:0:
330,362,34081,2,0,L|334:259,1,100,2|0,1:2|0:0,2:0:0:0:
345,90,34387,1,8,2:0:0:0:
442,320,34540,6,0,B|458:320|468:309|468:309|472:242|472:242|435:229|394:246|417:253|376:270|334:262,1,239.999992675781,2|0,2:0|1:2,2:0:0:0:
175,279,34999,6,0,P|215:306|265:306,1,100,10|0,2:0|2:0,2:0:0:0:
357,179,35305,2,0,P|304:180|262:213,1,100,2|0,1:2|0:0,2:0:0:0:
318,382,35612,1,8,2:0:0:0:
60,153,35918,5,2,1:2:0:0:
175,279,36071,2,0,L|161:161,1,100,2|8,1:2|2:0,2:0:0:0:
147,72,36377,1,2,2:0:0:0:
89,236,36530,5,2,1:2:0:0:
88,251,36683,1,2,2:0:0:0:
240,153,36836,1,10,2:0:0:0:
239,138,36989,1,2,2:0:0:0:
48,96,37142,6,0,B|34:62|34:62|146:71,1,150,2|0,1:2|0:0,2:0:0:0:
226,58,37448,1,10,2:0:0:0:
159,151,37601,1,2,2:0:0:0:
357,167,37754,2,0,B|373:126|373:126|238:137,1,179.999994506836,2|0,1:2|0:0,2:0:0:0:
159,151,38061,6,0,P|239:138|243:224,1,179.999994506836,12|0,2:0|0:0,0:0:0:0:
161,326,38367,6,0,L|172:227,1,100,6|0,1:2|1:2,2:0:0:0:
189,88,38673,1,10,2:0:0:0:
22,169,38826,2,0,B|61:206|61:206|120:196,1,100,2|0,2:0|1:2,2:0:0:0:
209,19,39132,2,0,B|164:12|164:12|125:49,2,100,2|8|2,2:0|2:0|2:0,2:0:0:0:
426,128,39591,6,0,L|326:136,1,100,2|0,1:2|1:2,2:0:0:0:
159,151,39897,1,10,2:0:0:0:
272,18,40050,1,2,1:2:0:0:
272,18,40127,1,0,1:2:0:0:
272,18,40203,2,0,L|265:97,1,80,8|10,2:0|2:3,0:0:0:0:
234,220,40510,2,0,L|230:161,1,59.9999981689454,8|10,2:3|2:3,0:0:0:0:
244,292,40816,5,4,1:2:0:0:
191,99,40969,1,10,2:0:0:0:
321,172,41122,1,0,0:0:0:0:
347,75,41275,1,2,1:2:0:0:
134,225,41428,5,10,2:0:0:0:
211,223,41581,1,8,2:0:0:0:
244,292,41734,1,0,1:2:0:0:
115,369,41887,6,0,L|90:90,1,239.999992675781,6|8,1:2|1:2,2:0:0:0:
163,302,42346,1,2,1:2:0:0:
275,184,42499,1,8,2:0:0:0:
258,149,42576,1,8,2:0:0:0:
220,150,42652,5,10,2:0:0:0:
262,259,42805,1,10,2:0:0:0:
382,252,42959,1,10,2:0:0:0:
411,138,43112,1,10,2:0:0:0:
313,74,43265,5,6,1:2:0:0:
401,141,43418,1,2,1:2:0:0:
375,244,43571,1,2,1:2:0:0:
267,250,43725,1,2,1:2:0:0:
229,152,43878,5,8,2:0:0:0:
476,214,44030,1,2,1:2:0:0:
491,217,44335,1,2,1:2:0:0:
506,220,44642,5,2,1:2:0:0:
401,354,44795,1,2,1:2:0:0:
267,250,44948,1,0,1:2:0:0:
371,115,45101,5,14,2:0:0:0:
299,345,45254,1,2,1:2:0:0:
299,345,45714,5,6,1:2:0:0:
368,256,45867,1,0,1:2:0:0:
304,162,46020,1,2,1:2:0:0:
195,193,46173,1,0,1:2:0:0:
192,307,46326,5,10,2:0:0:0:
232,116,46479,1,0,1:2:0:0:
237,92,46785,1,2,1:2:0:0:
242,68,47091,5,2,1:2:0:0:
326,171,47244,1,2,1:2:0:0:
195,193,47397,1,2,1:2:0:0:
111,90,47550,5,8,2:0:0:0:
144,85,47703,1,10,2:0:0:0:
165,110,47856,1,8,2:0:0:0:
132,116,48009,1,10,2:0:0:0:
111,90,48163,5,6,1:2:0:0:
74,195,48316,1,2,1:2:0:0:
162,262,48469,1,2,1:2:0:0:
253,198,48622,1,0,1:2:0:0:
221,92,48775,5,10,2:0:0:0:
246,283,48928,1,0,1:2:0:0:
249,306,49234,1,2,1:2:0:0:
252,329,49540,5,2,1:2:0:0:
173,175,49693,1,2,1:2:0:0:
327,96,49846,1,0,1:2:0:0:
406,250,49999,5,14,2:0:0:0:
237,107,50152,1,0,1:2:0:0:
237,107,50612,5,6,1:2:0:0:
253,224,50765,1,0,1:2:0:0:
146,275,50918,1,2,1:2:0:0:
64,189,51071,1,2,1:2:0:0:
120,85,51224,5,8,2:0:0:0:
68,268,51377,1,2,1:2:0:0:
61,290,51683,1,0,1:2:0:0:
54,312,51989,5,0,1:2:0:0:
227,309,52142,1,8,2:0:0:0:
51,139,52295,1,0,1:2:0:0:
224,136,52448,1,8,2:0:0:0:
126,285,52601,5,4,2:3:0:0:
117,267,52677,1,8,2:3:0:0:
126,250,52754,1,0,1:2:0:0:
146,249,52830,1,8,2:3:0:0:
158,263,52907,1,0,1:2:0:0:
153,281,52983,1,0,1:2:0:0:
136,288,53061,6,0,L|142:135,1,119.999996337891,14|4,2:0|2:3,0:0:0:0:
143,92,53367,1,2,1:2:0:0:
58,256,53520,6,0,L|64:103,1,119.999996337891,14|0,2:0|1:2,0:0:0:0:
65,60,53826,1,2,1:2:0:0:
218,261,53979,6,0,L|224:108,1,119.999996337891,14|4,2:0|2:3,0:0:0:0:
225,65,54285,1,0,1:2:0:0:
300,230,54438,6,0,L|306:77,1,119.999996337891,12|2,2:0|1:2,0:0:0:0:
307,34,54744,1,0,1:2:0:0:
143,92,54897,5,14,2:0:0:0:
225,65,55050,1,0,1:2:0:0:
65,60,55203,2,0,L|59:213,1,119.999996337891,14|2,2:0|1:2,0:0:0:0:
2,333,55510,6,0,B|-20:304|-14:266|15:245|15:245|59:270|103:247|103:247|123:303|95:358|95:358|254:376|254:376|279:283|258:223|258:223|214:207|176:218|176:218|196:274|185:305,1,779.99997619629,6|2,1:2|2:0,0:0:0:0:
188,290,57805,1,2,2:0:0:0:
60,179,57959,6,0,P|131:144|246:134,1,179.999994506836,6|0,1:2|0:0,2:0:0:0:
307,194,58265,2,0,P|260:153|251:83,1,119.999996337891,8|2,2:0|2:0,0:0:0:0:
253,7,58571,5,2,1:2:0:0:
205,210,58724,1,0,1:2:0:0:
447,116,58877,2,0,B|416:112|394:89|394:89|363:89|337:108,1,119.999996337891,8|2,2:0|2:0,0:0:0:0:
318,313,59183,6,0,L|302:153,1,119.999996337891,2|0,1:2|1:2,2:0:0:0:
399,321,59489,2,0,L|385:181,1,139.999995727539,10|0,2:0|1:2,2:0:0:0:
351,381,59795,1,2,1:2:0:0:
471,281,59948,1,0,1:2:0:0:
240,285,60101,2,0,B|208:297|181:289|181:289|214:313|235:309,1,119.999996337891,8|2,2:0|2:0,0:0:0:0:
258,100,60408,6,0,B|226:110|193:95|193:95|203:215,1,179.999994506836,2|0,1:2|0:0,2:0:0:0:
105,252,60714,2,0,P|145:209|204:209,1,119.999996337891,8|2,2:0|2:0,0:0:0:0:
320,272,61020,5,2,1:2:0:0:
114,329,61173,1,0,1:2:0:0:
113,79,61326,2,0,B|117:134|117:134|84:145|58:177,1,119.999996337891,8|2,2:0|2:0,0:0:0:0:
203,208,61632,6,0,P|144:209|105:251,1,119.999996337891,2|0,1:2|1:2,2:0:0:0:
286,212,61938,2,0,P|260:149|197:124,1,139.999995727539,10|0,2:0|1:2,2:0:0:0:
105,251,62244,6,0,B|203:208|203:208|170:201,1,139.999995727539,2|0,1:2|1:2,0:0:0:0:
33,285,62550,2,0,B|0:291|0:291|96:334,1,119.999996337891,10|0,2:0|1:2,2:0:0:0:
168,364,62856,5,6,1:2:0:0:
163,324,63010,1,0,1:2:0:0:
259,363,63163,5,10,2:0:0:0:
235,285,63317,1,0,1:2:0:0:
352,336,63469,5,2,1:2:0:0:
296,227,63623,1,0,1:2:0:0:
425,83,63775,5,10,2:0:0:0:
434,267,63929,1,0,1:2:0:0:
282,25,64081,6,0,B|327:36|341:78|341:78|351:108|351:108|366:152|413:159,1,200,2|8,1:2|2:0,2:0:0:0:
488,169,64540,1,2,2:0:0:0:
263,105,64693,2,0,B|216:112|201:156|201:156|191:186|191:186|177:228|131:239,1,200,2|8,1:2|2:0,2:0:0:0:
379,15,65305,6,0,B|354:151|354:151|349:184|363:211,1,200,2|8,1:2|2:0,0:0:0:0:
459,120,65765,2,0,B|322:95|322:95|289:90|262:104,1,200,2|0,2:0|1:2,2:0:0:0:
304,177,66224,2,0,L|409:195,1,100,10|0,2:0|1:2,2:0:0:0:
492,212,66530,1,2,1:2:0:0:
291,28,66683,5,8,2:0:0:0:
294,64,66759,1,8,2:0:0:0:
297,102,66836,1,8,2:0:0:0:
300,139,66912,1,8,2:0:0:0:
304,177,66989,5,2,1:2:0:0:
320,165,67066,1,0,1:2:0:0:
344,148,67142,1,8,2:3:0:0:
347,177,67219,1,8,2:3:0:0:
349,205,67295,1,4,2:3:0:0:
352,234,67372,1,4,2:3:0:0:
355,263,67448,5,8,2:0:0:0:
319,256,67524,1,8,2:0:0:0:
281,249,67601,1,8,2:0:0:0:
245,242,67677,1,8,2:0:0:0:
209,235,67754,6,0,B|348:177|348:177|384:207,1,179.999994506836,6|0,1:2|0:0,2:0:0:0:
406,320,68061,2,0,B|441:326|441:326|430:241,1,119.999996337891,8|2,2:0|2:0,0:0:0:0:
418,137,68367,5,2,1:2:0:0:
512,301,68520,1,0,1:2:0:0:
498,100,68673,2,0,B|513:81|513:81|494:211,1,119.999996337891,8|2,2:0|2:0,0:0:0:0:
345,273,68979,6,0,P|379:225|436:250,1,119.999996337891,2|0,1:2|1:2,2:0:0:0:
291,177,69285,2,0,P|348:139|418:137,1,139.999995727539,10|0,2:0|1:2,2:0:0:0:
266,252,69591,1,2,1:2:0:0:
483,183,69744,1,0,1:2:0:0:
211,191,69897,2,0,B|176:195|156:171|156:171|187:160|213:177,1,119.999996337891,8|2,2:0|2:0,0:0:0:0:
278,342,70203,6,0,B|209:338|184:281|184:281|179:350,1,179.999994506836,2|0,1:2|0:0,2:0:0:0:
277,341,70510,2,0,P|304:292|266:252,1,119.999996337891,8|2,2:0|2:0,0:0:0:0:
113,240,70816,1,2,1:2:0:0:
291,177,70969,1,0,1:2:0:0:
386,337,71122,2,0,P|390:277|368:223,1,119.999996337891,8|2,2:0|2:0,0:0:0:0:
301,57,71428,6,0,L|289:192,1,119.999996337891,2|0,1:2|1:2,2:0:0:0:
380,83,71734,2,0,L|366:232,1,139.999995727539,10|0,2:0|1:2,2:0:0:0:
166,209,72040,6,0,B|202:207|231:235|231:235|259:260|292:260,1,139.999995727539,2|0,1:2|1:2,0:0:0:0:
477,279,72346,2,0,B|446:271|417:291|417:291|389:308|362:303,1,119.999996337891,10|0,2:0|1:2,2:0:0:0:
288,341,72652,5,6,1:2:0:0:
244,333,72805,1,0,1:2:0:0:
270,232,72959,5,10,2:0:0:0:
182,248,73112,1,0,1:2:0:0:
253,111,73265,5,2,1:2:0:0:
131,168,73418,1,0,1:2:0:0:
25,83,73571,5,10,2:0:0:0:
240,10,73724,1,0,1:2:0:0:
302,186,73877,6,0,B|262:188|234:157|234:157|195:113|195:113|173:89|137:87,1,200,2|8,1:2|2:0,2:0:0:0:
55,87,74336,1,2,2:0:0:0:
300,106,74489,2,0,B|339:108|367:77|367:77|406:33|406:33|428:9|464:7,1,200,2|8,1:2|2:0,2:0:0:0:
467,90,74948,6,0,B|421:142|421:142|389:176|341:181,1,150.000005722046,2|0,1:2|1:2,0:0:0:0:
269,183,75408,2,0,P|229:147|217:92,1,100,10|0,2:0|2:0,2:0:0:0:
406,248,75714,2,0,P|360:266|311:258,1,100,2|0,1:2|1:2,2:0:0:0:
214,285,76020,2,0,P|206:249|226:279,1,100,10|0,2:0|1:2,2:0:0:0:
194,368,76326,5,2,1:2:0:0:
132,198,76479,1,0,1:2:0:0:
311,257,76632,2,0,P|286:202|232:173,1,119.999996337891,8|0,2:0|1:2,2:0:0:0:
55,245,76938,5,10,2:3:0:0:
86,276,77014,1,4,0:3:0:0:
129,290,77091,1,4,2:3:0:0:
173,284,77167,1,4,2:3:0:0:
210,260,77244,1,8,2:0:0:0:
214,213,77321,1,8,2:0:0:0:
236,174,77397,1,8,2:0:0:0:
273,151,77474,1,8,2:0:0:0:
318,146,77550,6,0,B|287:188|235:173|235:173|190:159,1,139.999995727539,6|2,1:2|2:0,0:0:0:0:
117,130,77856,1,10,2:0:0:0:
323,65,78010,2,0,P|390:101|398:167,1,139.999995727539,2|2,1:2|1:2,0:0:0:0:
378,302,78316,1,2,1:2:0:0:
318,146,78469,1,10,2:0:0:0:
430,237,78622,1,2,2:0:0:0:
234,214,78775,5,2,1:2:0:0:
251,213,78852,1,2,1:2:0:0:
267,218,78928,2,0,P|298:265|268:314,1,119.999996337891,2|10,1:2|2:0,0:0:0:0:
318,146,79234,1,2,2:0:0:0:
64,319,79387,6,0,B|120:320|165:272|139:265|176:216|234:214,1,209.999993591309,2|0,1:2|0:0,0:0:0:0:
257,216,79693,2,0,B|197:218|148:166|176:158|136:106|74:104,1,225.000008583069,10|0,2:0|0:0,0:0:0:0:
21,198,79999,6,0,L|161:209,1,139.999995727539,2|0,1:2|1:2,0:0:0:0:
257,216,80305,1,10,2:0:0:0:
180,38,80459,1,0,1:2:0:0:
344,209,80612,2,0,P|314:148|250:127,1,139.999995727539,2|0,1:2|1:2,0:0:0:0:
308,290,80918,2,0,P|376:290|425:243,1,139.999995727539,10|0,2:0|1:2,2:0:0:0:
442,92,81224,5,2,1:2:0:0:
344,209,81377,1,2,1:2:0:0:
510,280,81530,1,10,2:0:0:0:
509,176,81683,1,2,2:0:0:0:
308,290,81836,6,0,B|256:285|256:285|224:186|224:186|170:181,1,209.999993591309,0|0,1:2|0:0,0:0:0:0:
104,224,82142,2,0,B|159:219|159:219|193:113|193:113|250:108,1,225.000008583069,10|8,2:0|2:0,0:0:0:0:
393,198,82448,6,0,L|253:189,1,139.999995727539,6|2,1:2|1:2,0:0:0:0:
101,143,82754,1,10,2:0:0:0:
250,108,82908,1,2,1:2:0:0:
104,224,83061,2,0,B|148:214|148:214|224:270,1,139.999995727539,2|2,1:2|1:2,0:0:0:0:
321,308,83367,2,0,B|244:364|244:364|200:354,1,139.999995727539,10|2,2:0|1:2,0:0:0:0:
0,326,83673,5,2,1:2:0:0:
0,326,83749,1,2,1:2:0:0:
0,326,83826,2,0,L|148:302,1,139.999995727539,2|10,1:2|2:0,0:0:0:0:
224,270,84132,1,2,2:0:0:0:
27,238,84285,2,0,P|44:173|103:145,1,119.999996337891,2|2,1:2|1:2,0:0:0:0:
164,172,84591,1,10,2:0:0:0:
104,224,84744,1,2,1:2:0:0:
40,50,84897,6,0,L|159:61,1,119.999996337891,2|0,1:2|1:2,2:0:0:0:
366,181,85203,2,0,L|246:192,1,119.999996337891,10|0,2:0|1:2,2:0:0:0:
49,70,85510,6,0,L|168:81,1,119.999996337891,2|0,1:2|1:2,0:0:0:0:
357,201,85816,2,0,L|237:212,1,119.999996337891,14|0,2:0|1:2,0:0:0:0:
219,215,86045,1,0,1:2:0:0:
201,217,86122,5,10,2:0:0:0:
412,265,86275,1,2,1:2:0:0:
292,301,86428,1,2,1:2:0:0:
266,117,86581,5,10,2:0:0:0:
477,165,86734,1,0,1:2:0:0:
357,201,86887,1,2,1:2:0:0:
433,66,87040,6,0,B|447:105|447:105|402:221|402:221|411:267,1,209.999993591309,10|0,2:0|0:0,0:0:0:0:
434,337,87346,5,6,1:2:0:0:
362,110,87499,1,0,1:2:0:0:
366,26,87652,6,0,P|404:37|432:65,1,80,10|2,2:0|1:2,0:0:0:0:
435,140,88265,1,10,2:0:0:0:
435,140,88571,5,2,1:2:0:0:
313,384,88724,1,0,1:2:0:0:
298,305,88877,6,0,P|334:304|374:330,1,80,10|2,2:0|1:2,0:0:0:0:
426,384,89489,1,8,2:0:0:0:
426,384,89795,5,2,1:2:0:0:
300,151,89948,1,2,1:2:0:0:
285,72,90101,6,0,P|324:74|359:97,1,80,10|2,2:0|1:2,2:0:0:0:
383,169,90714,1,10,2:0:0:0:
383,169,91020,5,2,1:2:0:0:
478,377,91173,1,0,1:2:0:0:
488,291,91326,6,0,P|452:294|410:326,1,80,10|2,2:0|1:2,0:0:0:0:
478,377,91785,5,0,1:2:0:0:
512,73,91938,1,12,2:0:0:0:
512,73,92244,5,4,1:2:0:0:
369,251,92397,1,0,1:2:0:0:
300,217,92550,6,0,P|335:182|382:175,1,80,10|2,2:0|1:2,0:0:0:0:
434,199,93163,1,10,2:0:0:0:
434,199,93469,5,2,1:2:0:0:
333,0,93622,1,0,1:2:0:0:
402,27,93775,6,0,P|383:55|337:74,1,80,10|2,2:0|1:2,0:0:0:0:
274,41,94387,1,8,2:0:0:0:
274,41,94693,5,2,1:2:0:0:
341,307,94846,1,2,1:2:0:0:
286,249,94999,6,0,P|320:229|360:228,1,80,10|2,2:0|1:2,0:0:0:0:
341,307,95459,5,2,2:0:0:0:
459,125,95612,1,10,2:0:0:0:
457,144,95688,1,8,2:3:0:0:
455,164,95765,1,8,2:3:0:0:
453,184,95841,1,8,2:3:0:0:
452,204,95918,5,12,2:0:0:0:
186,276,96071,1,12,2:0:0:0:
186,276,97142,6,0,P|230:242|290:235,1,100,6|0,1:2|1:2,2:0:0:0:
363,384,97448,2,0,P|314:372|276:341,1,100,10|0,2:0|1:2,2:0:0:0:
198,50,97754,2,0,L|193:160,1,100,2|0,1:2|0:0,2:0:0:0:
186,276,98061,1,8,2:0:0:0:
359,277,98214,6,0,B|363:175|363:175|274:184|274:184|272:233,1,239.999992675781,2|0,2:0|1:2,2:0:0:0:
445,234,98673,2,0,L|448:132,1,100,10|0,2:0|1:2,2:0:0:0:
357,0,98979,2,0,L|360:102,1,100,2|0,1:2|1:2,2:0:0:0:
365,191,99285,1,8,2:0:0:0:
364,176,99438,1,2,2:0:0:0:
375,352,99591,5,2,1:2:0:0:
512,278,99744,2,0,P|448:268|392:294,1,100,2|8,1:2|2:0,2:0:0:0:
375,352,100050,1,2,2:0:0:0:
257,277,100203,5,2,1:2:0:0:
258,292,100356,1,2,2:0:0:0:
366,176,100510,1,10,2:0:0:0:
365,191,100663,1,2,2:0:0:0:
26,273,100816,6,0,B|51:301|84:298|84:298|167:289,1,150,2|0,1:2|0:0,2:0:0:0:
257,277,101122,1,10,2:0:0:0:
179,379,101275,1,2,2:0:0:0:
440,352,101428,2,0,B|414:380|381:377|381:377|265:366,1,179.999994506836,2|0,1:2|0:0,2:0:0:0:
179,379,101734,1,12,2:0:0:0:
260,254,101887,1,2,2:0:0:0:
258,265,101964,1,8,2:0:0:0:
257,277,102040,6,0,L|242:143,1,100,6|0,1:2|1:2,0:0:0:0:
227,38,102346,1,10,2:0:0:0:
84,119,102499,2,0,P|139:105|192:129,1,100,2|0,2:0|1:2,2:0:0:0:
340,178,102805,2,0,P|285:164|232:188,1,100,2|8,2:0|2:0,2:0:0:0:
186,244,103112,1,2,2:0:0:0:
351,78,103265,6,0,L|336:212,1,100,2|0,1:2|1:2,2:0:0:0:
320,325,103571,1,10,2:0:0:0:
186,244,103724,1,2,1:2:0:0:
186,244,103800,1,0,1:2:0:0:
186,244,103877,2,0,L|269:251,1,80,8|10,2:0|2:3,0:0:0:0:
136,320,104183,2,0,L|52:327,1,59.9999981689454,8|10,2:3|2:3,0:0:0:0:
0,336,104489,5,4,1:2:0:0:
61,127,104642,1,10,2:0:0:0:
98,242,104795,1,10,0:0:0:0:
21,205,104948,1,2,1:2:0:0:
290,182,105101,5,10,2:0:0:0:
213,175,105254,1,8,2:0:0:0:
136,169,105408,1,0,1:2:0:0:
375,147,105561,6,0,L|135:168,1,239.999992675781,6|8,1:2|1:2,2:0:0:0:
309,103,106020,1,2,1:2:0:0:
243,284,106173,1,8,2:0:0:0:
204,280,106249,1,8,2:0:0:0:
166,277,106326,5,10,2:0:0:0:
213,175,106479,1,10,2:3:0:0:
324,188,106632,1,6,2:3:0:0:
345,297,106785,1,6,2:3:0:0:
247,350,106938,5,6,1:2:0:0:
217,183,107091,1,2,1:2:0:0:
336,293,107244,1,2,1:2:0:0:
175,275,107397,1,0,1:2:0:0:
317,195,107550,5,10,2:0:0:0:
127,198,107703,1,0,1:2:0:0:
103,198,108009,1,2,1:2:0:0:
79,198,108316,5,2,1:2:0:0:
141,353,108469,1,2,1:2:0:0:
234,136,108622,1,0,1:2:0:0:
296,291,108775,5,14,2:0:0:0:
139,122,108928,1,2,1:2:0:0:
139,122,109387,5,6,1:2:0:0:
300,202,109540,1,0,1:2:0:0:
123,232,109693,1,2,1:2:0:0:
248,103,109846,1,0,1:2:0:0:
223,281,109999,5,10,2:0:0:0:
182,46,110152,1,0,1:2:0:0:
178,27,110459,1,2,1:2:0:0:
174,8,110765,5,2,1:2:0:0:
206,187,110918,1,2,1:2:0:0:
346,70,111071,1,2,1:2:0:0:
346,70,111147,1,0,1:2:0:0:
346,70,111224,5,8,2:0:0:0:
354,114,111377,1,10,2:0:0:0:
396,129,111530,1,8,2:0:0:0:
404,173,111683,1,10,2:0:0:0:
446,188,111836,5,6,1:2:0:0:
393,15,111989,1,2,1:2:0:0:
335,187,112142,1,2,1:2:0:0:
484,82,112295,1,2,1:2:0:0:
302,80,112448,5,10,2:0:0:0:
397,258,112601,1,0,1:2:0:0:
408,280,112907,1,2,1:2:0:0:
419,302,113214,5,2,1:2:0:0:
241,327,113367,1,2,1:2:0:0:
394,124,113520,1,0,1:2:0:0:
216,149,113673,5,14,2:0:0:0:
454,209,113826,1,0,1:2:0:0:
454,209,114285,5,6,1:2:0:0:
335,337,114438,1,0,1:2:0:0:
507,304,114591,1,2,1:2:0:0:
349,230,114744,1,2,1:2:0:0:
434,383,114897,5,8,2:0:0:0:
388,154,115050,1,2,1:2:0:0:
383,130,115356,1,0,1:2:0:0:
378,106,115663,5,0,1:2:0:0:
329,321,115816,1,8,2:0:0:0:
461,238,115969,1,0,1:2:0:0:
246,189,116122,6,0,L|327:177,1,59.9999981689454,8|8,2:0|2:3,0:0:0:0:
454,154,116275,1,4,2:3:0:0:
467,109,116351,1,4,2:3:0:0:
461,72,116428,1,0,1:2:0:0:
445,47,116504,1,8,2:3:0:0:
427,31,116581,1,0,1:2:0:0:
411,23,116658,1,0,1:2:0:0:
398,19,116734,6,0,L|246:32,1,119.999996337891,14|0,2:0|1:2,0:0:0:0:
158,39,117040,1,2,1:2:0:0:
467,109,117193,6,0,L|315:122,1,119.999996337891,14|0,2:0|1:2,2:0:0:0:
227,129,117499,1,10,1:2:0:0:
506,185,117652,1,14,2:0:0:0:
445,244,117805,1,0,1:2:0:0:
494,29,117959,5,12,2:0:0:0:
370,214,118112,1,0,1:2:0:0:
242,42,118265,5,14,2:0:0:0:
366,227,118418,1,0,1:2:0:0:
193,147,118571,5,14,2:0:0:0:
234,179,118647,1,8,2:3:0:0:
280,182,118724,1,4,2:3:0:0:
310,167,118800,1,4,2:3:0:0:
327,152,118877,1,2,1:2:0:0:
350,140,118953,1,8,2:3:0:0:
368,138,119030,1,0,1:2:0:0:
385,139,119106,1,0,1:2:0:0:
396,143,119183,1,14,2:0:0:0:
202,219,119336,5,0,1:2:0:0:
199,201,119412,1,0,1:0:0:0:
197,183,119489,1,6,2:3:0:0:
195,165,119565,1,4,2:3:0:0:
193,147,119642,2,0,L|188:99,1,37.5000014305115,8|8,2:0|2:3,2:0:0:0:
310,219,119795,5,2,1:2:0:0:
313,201,119871,1,0,1:2:0:0:
315,183,119948,1,6,2:3:0:0:
317,165,120024,1,4,2:3:0:0:
319,147,120101,2,0,L|324:99,1,37.5000014305115,12|8,2:0|2:3,0:0:0:0:
125,231,120254,5,2,1:2:0:0:
122,213,120330,1,4,2:3:0:0:
120,195,120407,1,0,1:2:0:0:
118,177,120483,1,0,1:2:0:0:
116,159,120560,2,0,L|111:111,1,37.5000014305115,10|8,2:0|2:3,0:0:0:0:
136,315,120714,2,0,L|141:363,2,37.5000014305115,10|8|0,2:0|2:3|1:2,0:0:0:0:
249,182,121020,6,0,L|185:174,1,37.5000014305115,14|8,2:0|2:0,0:0:0:0:
0,267,121173,2,0,L|64:259,1,37.5000014305115,8|8,2:0|2:0,0:0:0:0:
255,265,121326,2,0,L|205:258,1,50,10|8,2:0|2:0,0:0:0:0:
0,189,121479,2,0,L|49:182,1,50,10|8,2:0|2:0,0:0:0:0:
249,182,121632,6,0,P|274:68|367:29,1,179.999994506836,6|0,1:2|0:0,2:0:0:0:
402,102,121938,2,0,P|345:133|268:123,1,119.999996337891,8|2,2:0|2:0,0:0:0:0:
158,53,122244,5,2,1:2:0:0:
321,35,122397,1,0,1:2:0:0:
224,191,122550,2,0,B|197:174|193:133|193:133|155:148|122:130,1,119.999996337891,8|2,2:0|2:0,0:0:0:0:
28,6,122856,6,0,L|43:153,1,119.999996337891,2|0,1:2|1:2,2:0:0:0:
128,277,123163,2,0,L|142:137,1,139.999995727539,10|0,2:0|1:2,2:0:0:0:
35,259,123469,1,2,1:2:0:0:
223,170,123622,1,0,1:2:0:0:
161,353,123775,2,0,B|125:363|98:351|98:351|120:370|148:375,1,119.999996337891,8|2,2:0|2:0,0:0:0:0:
323,384,124081,6,0,B|307:354|258:343|258:343|213:369|158:352,1,179.999994506836,2|0,1:2|0:0,2:0:0:0:
191,257,124387,2,0,P|202:313|160:353,1,119.999996337891,8|2,2:0|2:0,0:0:0:0:
35,259,124693,5,2,1:2:0:0:
199,144,124846,1,0,1:2:0:0:
323,384,124999,2,0,P|311:327|353:288,1,119.999996337891,8|2,2:0|2:0,0:0:0:0:
512,276,125305,6,0,P|475:322|417:331,1,119.999996337891,2|0,1:2|1:2,2:0:0:0:
437,117,125612,2,0,P|460:181|436:245,1,139.999995727539,10|0,2:0|1:2,2:0:0:0:
352,288,125918,1,2,1:2:0:0:
368,177,126071,1,2,1:2:0:0:
246,95,126224,2,0,L|267:245,1,119.999996337891,10|0,2:0|1:2,2:0:0:0:
292,384,126530,5,6,1:2:0:0:
287,342,126683,1,0,1:2:0:0:
207,372,126836,5,10,2:0:0:0:
217,288,126989,1,0,1:2:0:0:
371,347,127142,5,2,1:2:0:0:
356,221,127295,1,0,1:2:0:0:
166,132,127448,5,10,2:0:0:0:
143,321,127601,1,0,1:2:0:0:
352,70,127754,6,0,B|322:39|274:42|274:42|119:50,1,200,2|8,1:2|2:0,2:0:0:0:
82,57,128214,1,2,2:0:0:0:
436,145,128367,2,0,B|406:114|358:117|358:117|203:125,1,200,2|8,1:2|2:0,0:0:0:0:
509,286,128979,6,0,B|484:238|505:189|505:189|527:138|498:94,1,200,2|8,1:2|2:0,2:0:0:0:
244,134,129438,2,0,B|288:163|339:141|339:141|388:120|436:145,1,200,2|0,2:0|1:2,2:0:0:0:
479,223,129897,6,0,P|431:233|384:215,1,100,10|0,2:0|1:2,2:0:0:0:
297,63,130203,5,2,1:2:0:0:
296,96,130279,1,8,2:0:0:0:
296,129,130356,1,8,2:0:0:0:
296,162,130432,1,8,2:0:0:0:
295,196,130509,1,8,2:0:0:0:
295,229,130585,1,8,2:0:0:0:
295,262,130663,5,2,1:2:0:0:
277,244,130739,1,0,1:2:0:0:
256,232,130816,1,8,2:3:0:0:
231,227,130892,1,8,2:3:0:0:
207,229,130969,1,4,2:3:0:0:
183,238,131045,1,4,2:3:0:0:
164,252,131122,6,0,L|168:312,1,50,8|8,2:0|2:0,0:0:0:0:
24,197,131275,2,0,L|28:147,1,50,8|8,2:0|2:0,0:0:0:0:
165,79,131428,6,0,P|99:156|16:139,1,179.999994506836,6|0,1:2|0:0,2:0:0:0:
71,18,131734,2,0,P|128:32|165:79,1,119.999996337891,8|2,2:0|2:0,0:0:0:0:
207,189,132040,5,2,1:2:0:0:
28,147,132193,1,0,1:2:0:0:
241,116,132346,2,0,B|267:127|278:154|278:154|307:173|350:158,1,119.999996337891,8|2,2:0|2:0,0:0:0:0:
456,64,132652,6,0,L|336:72,1,119.999996337891,2|0,1:2|1:2,2:0:0:0:
270,252,132959,2,0,L|410:263,1,139.999995727539,10|0,2:0|1:2,2:0:0:0:
207,189,133265,1,2,1:2:0:0:
433,168,133418,1,0,1:2:0:0:
179,270,133571,2,0,B|158:303|175:326|175:326|195:308|186:270,1,119.999996337891,8|2,2:0|2:0,0:0:0:0:
188,52,133877,6,0,B|192:107|192:107|123:130|127:201,1,179.999994506836,2|0,1:2|0:0,2:0:0:0:
175,300,134183,2,0,B|179:270|179:270|212:239|207:189,1,119.999996337891,8|2,2:0|2:0,0:0:0:0:
112,61,134489,5,2,1:2:0:0:
96,278,134642,1,0,1:2:0:0:
286,165,134795,2,0,P|250:118|193:106,1,119.999996337891,8|2,2:0|2:0,0:0:0:0:
43,133,135101,5,2,1:2:0:0:
207,189,135254,1,2,1:2:0:0:
409,26,135408,2,0,L|253:39,1,139.999995727539,10|2,2:0|1:2,0:0:0:0:
124,162,135714,2,0,P|171:112|239:112,1,139.999995727539,2|0,1:2|1:2,2:0:0:0:
397,212,136020,2,0,P|350:176|291:179,1,119.999996337891,10|0,2:0|1:2,2:0:0:0:
324,256,136326,5,6,1:2:0:0:
275,263,136479,1,0,1:2:0:0:
493,307,136632,5,10,2:0:0:0:
395,293,136785,1,0,1:2:0:0:
505,125,136938,5,2,1:2:0:0:
358,146,137091,1,0,1:2:0:0:
354,373,137244,5,10,2:0:0:0:
451,228,137397,1,0,1:2:0:0:
285,109,137550,6,0,B|276:135|284:161|284:161|312:253|312:253|319:278|311:303,1,200,2|8,1:2|2:0,2:0:0:0:
251,352,138010,1,2,2:0:0:0:
45,248,138163,2,0,B|69:239|94:246|94:246|186:274|186:274|212:282|239:274,1,200,2|8,1:2|2:0,0:0:0:0:
211,195,138622,6,0,B|112:164|112:164|90:157|66:159,1,150.000005722046,2|0,1:2|1:2,0:0:0:0:
7,336,139081,2,0,P|45:259|34:212,1,100,10|0,2:0|2:0,2:0:0:0:
28,70,139387,2,0,P|35:119|66:159,1,100,2|0,1:2|1:2,2:0:0:0:
228,73,139693,2,0,L|129:79,1,100,10|0,2:0|1:2,2:0:0:0:
259,184,139999,6,0,B|240:190|240:190|211:179|211:179|240:172|240:172|259:177,2,100.000003814697,2|8|8,1:2|2:0|2:0,2:0:0:0:
325,116,140305,6,0,B|319:97|319:97|330:68|330:68|337:97|337:97|332:116,2,100.000003814697,8|8|8,2:0|2:0|2:0,2:0:0:0:
393,182,140612,6,0,B|412:176|412:176|441:187|441:187|412:194|412:194|393:189,2,100.000003814697,10|8|8,2:0|2:0|2:3,2:0:0:0:
320,250,140918,6,0,L|316:316,1,66.6666666666667,8|4,2:3|2:3,2:0:0:0:
330,68,141224,5,6,1:2:0:0:
8,155,151326,6,0,B|28:140|56:145|56:145|152:159,1,119.999996337891,2|0,1:2|1:2,2:0:0:0:
339,192,151632,2,0,B|319:177|291:182|291:182|195:196,1,119.999996337891,10|0,2:0|1:2,2:0:0:0:
146,245,151938,1,2,2:0:0:0:
256,2,152091,2,0,B|249:74|249:74|247:102|209:115|174:96|177:68|177:68|179:41,1,200,2|0,1:2|1:2,2:0:0:0:
178,46,152550,2,0,B|158:31|130:36|130:36|34:50,1,119.999996337891,2|0,1:2|1:2,2:0:0:0:
272,76,152856,2,0,B|247:79|230:102|230:102|173:180,1,119.999996337891,10|0,2:0|1:2,2:0:0:0:
359,30,153163,2,0,B|344:49|349:78|349:78|382:278,1,239.999992675781,2|4,2:0|1:2,2:0:0:0:
454,43,153775,6,0,P|410:7|358:29,1,119.999996337891,2|0,1:2|1:2,2:0:0:0:
283,278,154081,2,0,P|335:300|379:264,1,119.999996337891,10|0,2:0|1:2,0:0:0:0:
399,178,154387,1,2,2:0:0:0:
147,175,154540,2,0,B|164:208|207:212|230:182|230:182|252:152|295:156|313:189,1,200,2|0,1:2|1:2,2:0:0:0:
312,189,154999,2,0,P|267:220|209:196,1,119.999996337891,2|0,1:2|1:2,2:0:0:0:
25,44,155305,2,0,P|77:21|121:57,1,119.999996337891,10|0,2:0|1:2,2:0:0:0:
61,234,155612,2,0,P|64:149|100:230,1,239.999992675781,2|4,2:0|1:2,2:0:0:0:
0,384,156224,6,0,L|119:368,1,119.999996337891,2|0,1:2|1:2,2:0:0:0:
387,339,156530,2,0,L|268:323,1,119.999996337891,10|0,2:0|1:2,2:0:0:0:
180,296,156836,1,2,2:0:0:0:
374,80,156989,2,0,B|420:21|420:21|398:245,1,300.000011444092,2|0,1:2|1:2,2:0:0:0:
279,144,157448,2,0,B|288:115|288:115|310:202,1,119.999996337891,2|0,1:2|1:2,2:0:0:0:
198,233,157754,2,0,B|196:203|196:203|247:277,1,119.999996337891,10|0,2:0|1:2,2:0:0:0:
152,344,158061,2,0,B|140:316|140:316|214:368,1,119.999996337891,2|0,2:0|2:0,2:0:0:0:
13,263,158367,6,0,B|34:342|34:342|123:27,1,400,6|8,1:2|2:0,2:0:0:0:
139,304,159285,2,0,L|170:203,1,100,2|2,2:0|1:2,0:0:0:0:
114,384,159591,5,2,2:0:0:0:
259,181,159744,1,8,2:0:0:0:
168,208,159897,1,0,1:2:0:0:
237,274,160050,1,2,2:0:0:0:
326,36,160203,5,12,2:0:0:0:
326,36,160305,6,0,L|336:131,1,66.6666666666667,8|8,2:0|2:3,0:0:0:0:
368,210,160510,6,0,L|362:259,2,50.0000019073487,4|4|4,2:3|2:3|2:3,2:0:0:0:
426,69,160816,6,0,B|458:49|476:-1|476:-1|452:81|481:136|486:103|503:196|483:254|483:254|452:289|391:289|358:255,1,479.999985351563,6|8,1:2|2:0,2:0:0:0:
223,194,161581,1,2,1:2:0:0:
325,157,161734,1,2,2:0:0:0:
362,259,161887,1,2,1:2:0:0:
113,283,162040,6,0,B|115:225|115:225|131:286|199:321|259:295,1,239.999992675781,6|0,3:2|2:0,2:0:0:0:
214,80,162499,2,0,P|201:134|231:202,1,119.999996337891,2|8,1:2|2:0,0:0:0:0:
30,83,163265,6,0,B|-4:24|-4:24|325:109|325:109|286:49,1,479.999985351563,6|8,1:2|2:0,2:0:0:0:
263,173,164030,1,2,1:2:0:0:
387,196,164183,1,2,2:0:0:0:
410,72,164336,1,2,1:2:0:0:
302,297,164489,6,0,B|286:353|286:353|262:166,1,239.999992675781,6|4,3:2|1:2,0:0:0:0:
246,42,164948,1,10,2:0:0:0:
266,46,165025,1,8,2:0:0:0:
285,49,165101,1,8,2:0:0:0:
144,153,165254,6,0,P|158:87|147:154,1,187.500007152558,8|0,2:3|0:0,0:0:0:0:
32,200,165714,6,0,B|132:311|294:259|222:200|366:127|467:222,1,479.999985351563,6|8,1:2|2:0,2:0:0:0:
258,312,166632,2,0,P|259:252|291:202,1,119.999996337891,2|0,2:0|1:2,0:0:0:0:
495,81,166938,6,0,P|447:136|374:149,1,150.000005722046,2|0,2:0|1:2,0:0:0:0:
229,136,167244,1,8,2:0:0:0:
351,282,167397,1,0,1:2:0:0:
165,208,167550,1,10,2:0:0:0:
158,237,167626,1,8,2:3:0:0:
156,267,167703,1,4,2:3:0:0:
157,297,167779,1,4,2:3:0:0:
162,326,167856,1,10,2:0:0:0:
512,110,168163,6,0,L|368:122,1,119.999996337891,6|0,1:2|1:2,0:0:0:0:
229,136,168469,1,8,2:0:0:0:
354,191,168622,1,0,1:2:0:0:
319,0,168775,6,0,L|311:132,1,119.999996337891,2|0,1:2|1:2,0:0:0:0:
362,330,169081,2,0,L|353:190,1,139.999995727539,14|0,2:0|1:2,2:0:0:0:
236,148,169387,2,0,P|285:195|352:189,1,139.999995727539,6|0,1:2|1:2,2:0:0:0:
489,71,169693,2,0,P|430:76|391:120,1,119.999996337891,10|0,2:0|1:2,2:0:0:0:
364,343,169999,5,14,2:0:0:0:
364,343,170101,6,0,L|359:276,1,66.6666666666667,8|8,2:0|2:3,2:0:0:0:
481,287,170305,5,6,2:3:0:0:
481,287,170408,6,0,L|477:336,1,50.0000019073487,4|4,2:3|2:3,2:0:0:0:
391,119,170612,6,0,B|380:169|406:205|406:205|344:166|273:210|270:277|270:277|273:210|273:210|308:148|286:73|286:73|219:93|150:68|150:68|129:151|156:207|156:207|154:278|154:278|130:336|62:378|-8:350|-36:312|-58:253|-18:200|57:200|66:256,1,1200.00004577637,6|6,1:2|1:2,0:0:0:0:
502,365,181632,6,0,B|486:332|486:332|450:320|450:320|462:356|462:356|496:372,1,150.000005722046,2|0,1:2|0:0,0:0:0:0:
493,250,182091,2,0,B|455:236|455:236|411:248,1,75.0000028610231,2|0,3:2|3:2,0:0:0:0:
363,312,182397,2,0,L|378:360,2,37.5000014305115,2|2|2,3:2|3:2|3:2,0:0:0:0:
335,229,182703,1,2,3:2:0:0:
101,175,182856,6,0,P|161:243|293:231,1,179.999994506836,6|0,1:2|0:0,2:0:0:0:
290,150,183163,2,0,P|250:194|245:253,1,119.999996337891,8|2,2:0|2:0,0:0:0:0:
263,373,183469,5,2,1:2:0:0:
335,229,183622,1,0,1:2:0:0:
111,293,183775,2,0,B|98:267|107:226|107:226|101:175,1,119.999996337891,8|2,2:0|2:0,0:0:0:0:
174,27,184081,6,0,L|55:13,1,119.999996337891,2|0,1:2|1:2,2:0:0:0:
172,105,184387,2,0,L|34:88,1,139.999995727539,10|0,2:0|1:2,2:0:0:0:
241,68,184693,1,2,1:2:0:0:
0,156,184846,1,0,1:2:0:0:
239,149,184999,2,0,B|219:178|185:183|185:183|219:193|257:182,1,119.999996337891,8|2,2:0|2:0,0:0:0:0:
361,21,185305,6,0,B|329:42|327:79|327:79|322:188,1,179.999994506836,2|0,1:2|0:0,2:0:0:0:
430,240,185612,2,0,B|398:238|375:258|375:258|352:278|319:275,1,119.999996337891,8|2,2:0|2:0,0:0:0:0:
239,186,185918,1,2,1:2:0:0:
398,358,186071,1,0,1:2:0:0:
122,237,186224,2,0,B|153:235|176:255|176:255|199:275|232:272,1,119.999996337891,8|2,2:0|2:0,0:0:0:0:
371,84,186530,6,0,P|333:130|321:188,1,119.999996337891,2|0,1:2|1:2,2:0:0:0:
202,56,186836,2,0,P|236:117|237:187,1,139.999995727539,10|0,2:0|1:2,2:0:0:0:
27,115,187142,2,0,P|96:107|152:146,1,139.999995727539,2|0,1:2|1:2,0:0:0:0:
115,268,187448,2,0,P|56:271|5:240,1,119.999996337891,10|0,2:0|1:2,2:0:0:0:
95,194,187754,5,6,1:2:0:0:
55,186,187908,1,0,1:2:0:0:
197,264,188061,5,10,2:0:0:0:
115,268,188215,1,0,1:2:0:0:
356,300,188367,5,2,1:2:0:0:
237,337,188521,1,0,1:2:0:0:
447,117,188673,5,10,2:0:0:0:
431,348,188826,1,0,1:2:0:0:
266,169,188979,6,0,B|284:212|331:215|331:215|362:217|362:217|407:220|429:260,1,200,2|8,1:2|2:0,2:0:0:0:
431,348,189438,1,2,2:0:0:0:
191,135,189591,2,0,B|209:91|256:88|256:88|287:86|287:86|332:83|354:43,1,200,2|8,1:2|2:0,0:0:0:0:
354,68,189974,1,8,2:3:0:0:
354,92,190050,1,4,2:3:0:0:
355,117,190127,1,4,2:3:0:0:
356,141,190203,5,14,2:0:0:0:
183,26,190356,1,0,1:2:0:0:
283,5,190510,1,2,1:2:0:0:
319,231,190663,5,12,2:0:0:0:
146,116,190816,1,2,1:2:0:0:
246,95,190970,1,0,1:2:0:0:
73,252,191122,5,14,2:0:0:0:
246,137,191275,1,0,1:2:0:0:
146,116,191429,1,2,1:2:0:0:
110,342,191582,5,12,2:0:0:0:
283,227,191735,1,2,1:2:0:0:
183,206,191887,1,0,1:2:0:0:
376,253,192040,6,0,P|332:314|254:322,1,150,14|0,2:0|1:2,0:0:0:0:
261,324,192346,1,8,2:0:0:0:
443,196,192499,1,2,1:2:0:0:
443,196,192576,1,8,1:2:0:0:
443,196,192652,6,0,B|405:163|357:166|357:166|323:132|335:87,1,179.999994506836,6|0,1:2|0:0,2:0:0:0:
437,47,192959,2,0,B|415:79|415:79|334:86,1,119.999996337891,8|2,2:0|2:0,0:0:0:0:
194,99,193265,5,2,1:2:0:0:
371,0,193418,1,0,1:2:0:0:
260,143,193571,2,0,P|209:177|145:164,1,119.999996337891,8|2,2:0|2:0,0:0:0:0:
79,0,193877,6,0,L|99:152,1,119.999996337891,2|0,1:2|1:2,2:0:0:0:
22,312,194183,2,0,L|42:160,1,139.999995727539,10|0,2:0|1:2,2:0:0:0:
98,341,194489,1,2,1:2:0:0:
19,99,194642,1,0,1:2:0:0:
106,261,194795,2,0,B|135:260|158:285|158:285|143:247|118:242,1,119.999996337891,8|2,2:0|2:0,0:0:0:0:
225,341,195101,6,0,B|251:301|237:255|237:255|224:207|246:165,1,179.999994506836,2|0,1:2|0:0,2:0:0:0:
395,145,195408,2,0,P|368:197|314:221,1,119.999996337891,8|2,2:0|2:0,0:0:0:0:
163,165,195714,1,2,1:2:0:0:
323,298,195867,1,0,1:2:0:0:
214,94,196020,2,0,P|273:93|315:135,1,119.999996337891,8|2,2:0|2:0,0:0:0:0:
361,376,196326,6,0,P|302:381|251:346,1,119.999996337891,2|0,1:2|1:2,2:0:0:0:
240,172,196632,1,10,2:0:0:0:
323,298,196785,1,2,1:2:0:0:
187,249,196938,1,2,1:2:0:0:
253,349,197091,1,2,1:2:0:0:
279,97,197244,2,0,P|220:91|171:123,1,119.999996337891,10|0,2:0|1:2,0:0:0:0:
161,139,197474,1,8,2:0:0:0:
151,154,197550,5,6,1:2:0:0:
187,249,197703,1,0,1:2:0:0:
279,97,197856,5,10,2:0:0:0:
291,218,198009,1,0,1:2:0:0:
402,72,198163,5,2,1:2:0:0:
398,231,198316,1,0,1:2:0:0:
224,169,198469,5,10,2:0:0:0:
460,149,198622,1,0,1:2:0:0:
327,331,198775,6,0,B|301:379|248:375|248:375|125:364,1,200,2|8,1:2|2:0,2:0:0:0:
65,354,199234,1,2,2:0:0:0:
222,116,199387,2,0,B|270:142|266:195|266:195|255:318,1,200,2|8,1:2|2:0,0:0:0:0:
0,179,199999,6,0,B|43:216|109:193|86:176|144:152|187:188,1,200,2|8,1:2|2:0,0:0:0:0:
325,267,200459,2,0,B|281:230|223:254|246:271|180:294|137:257,1,200,2|0,2:0|1:2,2:0:0:0:
94,187,200918,2,0,P|140:172|186:188,1,100,10|0,2:0|1:2,2:0:0:0:
277,332,201224,5,2,1:2:0:0:
260,167,201377,1,8,2:0:0:0:
297,168,201453,1,8,2:0:0:0:
333,177,201530,1,8,2:0:0:0:
366,195,201606,1,8,2:0:0:0:
393,221,201683,5,2,1:2:0:0:
393,202,201759,1,0,1:2:0:0:
392,183,201836,1,8,2:3:0:0:
391,164,201912,1,8,2:3:0:0:
391,146,201989,1,4,2:3:0:0:
390,127,202065,1,4,2:3:0:0:
390,108,202142,5,8,2:0:0:0:
277,332,202295,1,8,2:0:0:0:
474,248,202448,6,0,P|429:299|362:300,1,139.999995727539,6|0,1:2|1:2,0:0:0:0:
165,194,202754,1,8,2:0:0:0:
277,332,202908,1,2,1:2:0:0:
132,114,203061,6,0,P|199:114|244:165,1,139.999995727539,10|0,2:0|1:2,0:0:0:0:
91,384,203367,1,8,2:0:0:0:
165,194,203520,1,2,1:2:0:0:
165,194,203596,1,0,1:2:0:0:
165,194,203673,5,10,2:0:0:0:
378,264,203826,1,0,1:2:0:0:
232,257,203979,5,10,2:0:0:0:
281,74,204132,1,0,1:2:0:0:
381,348,204285,6,0,B|343:344|318:325|318:325|278:319|240:353,1,139.999995727539,10|0,2:0|1:2,0:0:0:0:
234,357,204515,1,0,1:2:0:0:
222,374,204591,1,8,2:0:0:0:
393,221,204744,1,2,1:2:0:0:
252,25,204897,6,0,L|242:184,1,139.999995727539,14|0,2:0|1:2,0:0:0:0:
222,374,205203,1,8,2:0:0:0:
309,207,205356,1,2,1:2:0:0:
143,314,205510,6,0,L|133:154,1,139.999995727539,10|0,2:0|1:2,0:0:0:0:
120,0,205816,1,8,2:0:0:0:
216,163,205969,1,2,1:2:0:0:
60,80,206122,5,10,2:0:0:0:
252,25,206275,1,0,1:2:0:0:
58,160,206428,5,10,2:0:0:0:
274,105,206581,1,0,1:2:0:0:
274,105,206658,1,0,1:2:0:0:
274,105,206734,5,10,2:0:0:0:
274,286,206887,1,0,1:2:0:0:
395,120,207040,5,10,2:0:0:0:
364,284,207193,1,0,1:2:0:0:
216,152,207346,5,14,2:0:0:0:
318,218,207499,1,0,1:2:0:0:
321,129,207652,5,10,2:0:0:0:
222,231,207805,1,0,1:2:0:0:
149,184,207959,5,10,2:0:0:0:
274,292,208112,1,0,1:2:0:0:
391,157,208265,5,10,2:0:0:0:
189,298,208418,1,0,1:2:0:0:
470,236,208571,6,0,B|376:240|347:307|387:303|336:397|254:381,1,279.999991455078,10|8,2:0|2:0,0:0:0:0:
452,333,209030,1,2,1:2:0:0:
387,141,209183,2,0,B|293:145|264:212|304:208|253:302|171:286,1,279.999991455078,10|0,2:0|1:2,0:0:0:0:
32,291,209642,1,2,1:2:0:0:
32,291,209719,1,0,1:2:0:0:
32,291,209795,1,10,2:0:0:0:
32,8,210101,5,10,2:0:0:0:
24,42,210177,1,8,0:0:0:0:
17,76,210254,1,4,2:3:0:0:
9,110,210330,1,4,2:3:0:0:
2,144,210407,1,10,2:0:0:0:
31,162,210484,1,4,2:3:0:0:
62,179,210561,1,8,2:0:0:0:
91,197,210637,1,8,2:0:0:0:
122,214,210714,1,10,2:0:0:0:
148,191,210790,1,8,2:0:0:0:
173,167,210867,1,8,2:0:0:0:
199,145,210943,1,8,2:0:0:0:
225,121,211020,5,14,2:0:0:0:
219,147,211632,6,0,P|222:88|233:147,1,175,2|0,2:0|2:0,2:0:0:0:
145,205,212244,6,0,P|206:235|274:224,1,139.999995727539,6|2,1:2|2:0,0:0:0:0:
353,173,212550,1,10,2:0:0:0:
126,59,212703,2,0,B|110:92|111:125|111:125|76:139|61:182,1,139.999995727539,2|2,1:2|1:2,0:0:0:0:
41,355,213010,1,2,1:2:0:0:
145,205,213163,1,10,2:0:0:0:
0,288,213316,1,2,2:0:0:0:
210,282,213469,6,0,B|184:274|184:274|159:293|159:293|125:283,2,93.3333304850261,2|2|2,1:2|0:0|0:0,0:0:0:0:
202,360,213775,5,10,2:0:0:0:
277,127,213928,5,2,1:2:0:0:
277,127,214004,1,8,2:0:0:0:
277,127,214081,2,0,B|255:161|270:203|270:203|325:252|301:321,1,209.999993591309,2|0,1:2|0:0,0:0:0:0:
278,316,214387,2,0,B|299:235|381:230|381:230|415:201|411:160,1,225.000008583069,10|0,2:0|0:0,0:0:0:0:
389,39,214693,6,0,P|372:105|413:160,1,139.999995727539,2|0,1:2|1:2,0:0:0:0:
512,178,214999,1,10,2:0:0:0:
303,7,215152,1,0,1:2:0:0:
303,7,215229,1,8,2:0:0:0:
303,7,215305,2,0,P|284:81|299:165,1,139.999995727539,2|0,1:2|1:2,0:0:0:0:
512,178,215612,2,0,P|450:158|362:178,1,139.999995727539,10|0,2:0|1:2,2:0:0:0:
239,218,215918,5,2,1:2:0:0:
400,351,216071,1,2,1:2:0:0:
437,253,216224,1,10,2:0:0:0:
316,317,216377,1,2,2:0:0:0:
291,143,216530,6,0,B|240:118|195:139|195:139|154:135,1,139.999995727539,0|10,1:2|2:0,0:0:0:0:
119,132,216760,1,8,2:0:0:0:
84,137,216836,1,10,2:0:0:0:
53,155,216913,1,8,2:0:0:0:
30,181,216989,1,10,2:0:0:0:
19,214,217066,1,8,2:0:0:0:
18,248,217142,6,0,P|108:281|172:251,1,139.999995727539,6|2,2:0|1:2,0:0:0:0:
239,218,217448,1,10,2:0:0:0:
59,88,217601,1,2,1:2:0:0:
59,88,217678,1,8,2:0:0:0:
59,88,217754,2,0,B|78:69|78:69|94:180,1,139.999995727539,2|2,1:2|1:2,0:0:0:0:
111,362,218061,2,0,B|130:380|130:380|146:269,1,139.999995727539,10|2,2:0|1:2,0:0:0:0:
221,119,218367,5,2,1:2:0:0:
240,113,218443,1,2,1:2:0:0:
262,116,218520,2,0,P|320:152|336:223,1,139.999995727539,2|10,1:2|2:0,0:0:0:0:
328,376,218826,1,2,2:0:0:0:
215,264,218979,2,0,P|268:220|337:217,1,139.999995727539,2|2,1:2|1:2,0:0:0:0:
473,262,219285,1,10,2:0:0:0:
472,279,219361,1,8,2:3:0:0:
471,296,219438,1,6,2:3:0:0:
470,314,219514,1,4,2:3:0:0:
470,331,219591,5,6,1:2:0:0:
423,122,219744,1,0,1:2:0:0:
512,176,219897,1,2,1:2:0:0:
289,7,220050,5,12,2:0:0:0:
336,216,220203,1,2,1:2:0:0:
241,177,220356,1,0,1:2:0:0:
480,52,220510,2,0,P|414:33|354:65,1,139.999995727539,14|0,2:0|1:2,2:0:0:0:
130,310,220816,5,2,1:2:0:0:
142,122,220969,1,14,1:2:0:0:
330,134,221122,1,2,1:2:0:0:
318,321,221275,2,0,B|290:308|290:308|267:173,1,139.999995727539,2|12,1:2|2:0,0:0:0:0:
245,33,221581,5,2,1:2:0:0:
495,94,221734,1,2,1:2:0:0:
355,215,221887,1,14,2:0:0:0:
