osu file format v14

[General]
AudioFilename: audio.mp3
AudioLeadIn: 0
PreviewTime: -1
Countdown: 1
SampleSet: Normal
StackLeniency: 0.7
Mode: 3
LetterboxInBreaks: 0
SpecialStyle: 0
WidescreenStoryboard: 0

[Editor]
DistanceSpacing: 1
BeatDivisor: 4
GridSize: 32
TimelineZoom: 1.3

[Metadata]
Title:Miss Unlimited
TitleUnicode:Miss Unlimited
Artist:PassCode
ArtistUnicode:PassCode
Creator:L A U R A
Version:Insane
Source:
Tags:
BeatmapID:1463906
BeatmapSetID:691797

[Difficulty]
HPDrainRate:8
CircleSize:4
OverallDifficulty:7
ApproachRate:5
SliderMultiplier:1.4
SliderTickRate:1

[Events]
//Background and Video events
0,0,"fdc43a315389883f38a7b624564041ea.jpg",0,0
//Break Periods
//Storyboard Layer 0 (Background)
//Storyboard Layer 1 (Fail)
//Storyboard Layer 2 (Pass)
//Storyboard Layer 3 (Foreground)
//Storyboard Sound Samples

[TimingPoints]
94,300,4,1,0,50,1,0

[HitObjects]
192,192,2494,5,0,0:0:0:0:
448,192,2794,1,0,0:0:0:0:
192,192,3094,1,0,0:0:0:0:
320,192,3394,1,0,0:0:0:0:
192,192,3544,1,0,0:0:0:0:
64,192,3694,1,0,0:0:0:0:
448,192,3994,1,0,0:0:0:0:
64,192,4294,1,0,0:0:0:0:
64,192,4444,1,0,0:0:0:0:
320,192,4594,1,0,0:0:0:0:
192,192,4744,1,0,0:0:0:0:
448,192,4894,128,0,5794:0:0:0:0:
64,192,4894,1,0,0:0:0:0:
320,192,5194,1,0,0:0:0:0:
64,192,5494,1,0,0:0:0:0:
192,192,5494,1,0,0:0:0:0:
320,192,5794,1,0,0:0:0:0:
64,192,5944,1,0,0:0:0:0:
192,192,6094,1,0,0:0:0:0:
320,192,6094,1,0,0:0:0:0:
448,192,6244,1,0,0:0:0:0:
320,192,6319,1,0,0:0:0:0:
192,192,6394,1,0,0:0:0:0:
64,192,6544,128,0,6994:0:0:0:0:
320,192,6694,1,0,0:0:0:0:
448,192,6694,1,0,0:0:0:0:
192,192,6994,1,0,0:0:0:0:
320,192,7144,1,0,0:0:0:0:
64,192,7294,128,0,7594:0:0:0:0:
448,192,7294,1,0,0:0:0:0:
448,192,7594,128,0,7894:0:0:0:0:
64,192,7894,1,0,0:0:0:0:
320,192,7894,1,0,0:0:0:0:
192,192,8044,128,0,8494:0:0:0:0:
448,192,8194,1,0,0:0:0:0:
320,192,8344,1,0,0:0:0:0:
64,192,8494,128,0,8794:0:0:0:0:
448,192,8494,1,0,0:0:0:0:
448,192,8794,128,0,9094:0:0:0:0:
192,192,8794,1,0,0:0:0:0:
64,192,9094,128,0,9394:0:0:0:0:
320,192,9094,1,0,0:0:0:0:
192,192,9394,128,0,9544:0:0:0:0:
448,192,9544,128,0,9694:0:0:0:0:
320,192,9694,1,0,0:0:0:0:
192,192,9731,1,0,0:0:0:0:
64,192,9769,1,0,0:0:0:0:
320,192,9994,1,0,0:0:0:0:
192,192,10144,1,0,0:0:0:0:
448,192,10294,1,0,0:0:0:0:
64,192,10294,1,0,0:0:0:0:
448,192,10444,1,0,0:0:0:0:
192,192,10594,1,0,0:0:0:0:
320,192,10744,1,0,0:0:0:0:
64,192,10894,1,0,0:0:0:0:
448,192,10894,1,0,0:0:0:0:
192,192,11044,1,0,0:0:0:0:
192,192,11194,1,0,0:0:0:0:
320,192,11344,1,0,0:0:0:0:
64,192,11494,128,0,11794:0:0:0:0:
192,192,11794,1,0,0:0:0:0:
448,192,11944,1,0,0:0:0:0:
64,192,12094,1,0,0:0:0:0:
448,192,12094,1,0,0:0:0:0:
192,192,12244,1,0,0:0:0:0:
320,192,12394,1,0,0:0:0:0:
64,192,12694,1,0,0:0:0:0:
192,192,12694,1,0,0:0:0:0:
320,192,12994,1,0,0:0:0:0:
64,192,13294,1,0,0:0:0:0:
448,192,13294,1,0,0:0:0:0:
320,192,13444,1,0,0:0:0:0:
64,192,13444,1,0,0:0:0:0:
192,192,13594,1,0,0:0:0:0:
320,192,13594,1,0,0:0:0:0:
448,192,13744,1,0,0:0:0:0:
192,192,13744,1,0,0:0:0:0:
64,192,13894,1,0,0:0:0:0:
448,192,13894,1,0,0:0:0:0:
64,192,14494,1,0,0:0:0:0:
192,192,14494,1,0,0:0:0:0:
448,192,14494,1,0,0:0:0:0:
192,192,14694,1,0,0:0:0:0:
320,192,14794,1,0,0:0:0:0:
448,192,14794,1,0,0:0:0:0:
64,192,14994,1,0,0:0:0:0:
192,192,14994,1,0,0:0:0:0:
448,192,15094,1,0,0:0:0:0:
64,192,15294,1,0,0:0:0:0:
192,192,15394,1,0,0:0:0:0:
448,192,15494,1,0,0:0:0:0:
320,192,15594,1,0,0:0:0:0:
64,192,15694,1,0,0:0:0:0:
192,192,15694,1,0,0:0:0:0:
448,192,15894,1,0,0:0:0:0:
320,192,15994,1,0,0:0:0:0:
64,192,15994,1,0,0:0:0:0:
192,192,16194,1,0,0:0:0:0:
320,192,16294,1,0,0:0:0:0:
448,192,16294,1,0,0:0:0:0:
192,192,16494,1,0,0:0:0:0:
64,192,16594,1,0,0:0:0:0:
320,192,16694,1,0,0:0:0:0:
448,192,16794,1,0,0:0:0:0:
64,192,16894,1,0,0:0:0:0:
192,192,16894,1,0,0:0:0:0:
320,192,17094,1,0,0:0:0:0:
64,192,17194,1,0,0:0:0:0:
448,192,17194,1,0,0:0:0:0:
192,192,17394,1,0,0:0:0:0:
320,192,17394,1,0,0:0:0:0:
64,192,17494,1,0,0:0:0:0:
448,192,17694,1,0,0:0:0:0:
320,192,17794,1,0,0:0:0:0:
64,192,17894,1,0,0:0:0:0:
192,192,17994,1,0,0:0:0:0:
320,192,18094,1,0,0:0:0:0:
448,192,18094,1,0,0:0:0:0:
64,192,18294,1,0,0:0:0:0:
192,192,18394,1,0,0:0:0:0:
448,192,18394,1,0,0:0:0:0:
320,192,18594,1,0,0:0:0:0:
64,192,18594,1,0,0:0:0:0:
448,192,18694,1,0,0:0:0:0:
192,192,18894,1,0,0:0:0:0:
64,192,18994,1,0,0:0:0:0:
320,192,19094,1,0,0:0:0:0:
448,192,19194,1,0,0:0:0:0:
64,192,19294,1,0,0:0:0:0:
192,192,19294,1,0,0:0:0:0:
320,192,19444,1,0,0:0:0:0:
448,192,19519,1,0,0:0:0:0:
192,192,19594,1,0,0:0:0:0:
320,192,19594,1,0,0:0:0:0:
64,192,19744,1,0,0:0:0:0:
192,192,19894,1,0,0:0:0:0:
448,192,19894,1,0,0:0:0:0:
64,192,20044,1,0,0:0:0:0:
448,192,20194,1,0,0:0:0:0:
320,192,20194,1,0,0:0:0:0:
192,192,20344,1,0,0:0:0:0:
448,192,20494,1,0,0:0:0:0:
64,192,20494,1,0,0:0:0:0:
320,192,20569,1,0,0:0:0:0:
192,192,20644,1,0,0:0:0:0:
64,192,20719,1,0,0:0:0:0:
320,192,20794,1,0,0:0:0:0:
448,192,20794,1,0,0:0:0:0:
64,192,20944,1,0,0:0:0:0:
192,192,20944,1,0,0:0:0:0:
448,192,21094,1,0,0:0:0:0:
320,192,21169,1,0,0:0:0:0:
64,192,21244,1,0,0:0:0:0:
192,192,21319,1,0,0:0:0:0:
320,192,21394,1,0,0:0:0:0:
448,192,21469,1,0,0:0:0:0:
64,192,21544,1,0,0:0:0:0:
192,192,21619,1,0,0:0:0:0:
448,192,21694,1,0,0:0:0:0:
320,192,21694,1,0,0:0:0:0:
192,192,21994,1,0,0:0:0:0:
320,192,21994,1,0,0:0:0:0:
64,192,22294,1,0,0:0:0:0:
192,192,22369,1,0,0:0:0:0:
320,192,22444,1,0,0:0:0:0:
448,192,22519,1,0,0:0:0:0:
192,192,22594,1,0,0:0:0:0:
64,192,22669,1,0,0:0:0:0:
320,192,22744,1,0,0:0:0:0:
448,192,22819,1,0,0:0:0:0:
64,192,22894,1,0,0:0:0:0:
192,192,22894,1,0,0:0:0:0:
64,192,23194,1,0,0:0:0:0:
448,192,23194,1,0,0:0:0:0:
320,192,23344,1,0,0:0:0:0:
192,192,23344,1,0,0:0:0:0:
64,192,23644,1,0,0:0:0:0:
192,192,23644,1,0,0:0:0:0:
448,192,23644,1,0,0:0:0:0:
448,192,23944,1,0,0:0:0:0:
320,192,24019,1,0,0:0:0:0:
64,192,24094,1,0,0:0:0:0:
192,192,24094,1,0,0:0:0:0:
320,192,24244,1,0,0:0:0:0:
64,192,24394,1,0,0:0:0:0:
192,192,24394,1,0,0:0:0:0:
448,192,24544,1,0,0:0:0:0:
320,192,24619,1,0,0:0:0:0:
64,192,24694,1,0,0:0:0:0:
448,192,24694,1,0,0:0:0:0:
192,192,24844,1,0,0:0:0:0:
320,192,24919,1,0,0:0:0:0:
192,192,24994,1,0,0:0:0:0:
64,192,24994,1,0,0:0:0:0:
448,192,25144,1,0,0:0:0:0:
320,192,25294,1,0,0:0:0:0:
64,192,25294,1,0,0:0:0:0:
448,192,25444,1,0,0:0:0:0:
192,192,25594,1,0,0:0:0:0:
320,192,25594,1,0,0:0:0:0:
64,192,25744,1,0,0:0:0:0:
192,192,25894,1,0,0:0:0:0:
448,192,25894,1,0,0:0:0:0:
320,192,26044,1,0,0:0:0:0:
192,192,26194,1,0,0:0:0:0:
64,192,26194,1,0,0:0:0:0:
320,192,26344,1,0,0:0:0:0:
192,192,26419,1,0,0:0:0:0:
320,192,26494,1,0,0:0:0:0:
448,192,26494,1,0,0:0:0:0:
192,192,26644,1,0,0:0:0:0:
64,192,26794,1,0,0:0:0:0:
448,192,26794,1,0,0:0:0:0:
192,192,26944,1,0,0:0:0:0:
320,192,27019,1,0,0:0:0:0:
192,192,27094,1,0,0:0:0:0:
64,192,27094,128,0,27394:0:0:0:0:
448,192,27394,128,0,27694:0:0:0:0:
192,192,27394,1,0,0:0:0:0:
64,192,27694,1,0,0:0:0:0:
192,192,27694,1,0,0:0:0:0:
320,192,27844,1,0,0:0:0:0:
192,192,27919,1,0,0:0:0:0:
448,192,27994,1,0,0:0:0:0:
320,192,27994,1,0,0:0:0:0:
64,192,28144,1,0,0:0:0:0:
448,192,28294,1,0,0:0:0:0:
320,192,28294,1,0,0:0:0:0:
192,192,28294,1,0,0:0:0:0:
64,192,28444,1,0,0:0:0:0:
192,192,28519,1,0,0:0:0:0:
320,192,28594,1,0,0:0:0:0:
448,192,28594,1,0,0:0:0:0:
448,192,28744,1,0,0:0:0:0:
320,192,28819,1,0,0:0:0:0:
192,192,28894,1,0,0:0:0:0:
64,192,28894,1,0,0:0:0:0:
448,192,28894,1,0,0:0:0:0:
64,192,29194,1,0,0:0:0:0:
448,192,29194,1,0,0:0:0:0:
320,192,29344,1,0,0:0:0:0:
192,192,29419,1,0,0:0:0:0:
320,192,29494,1,0,0:0:0:0:
448,192,29494,1,0,0:0:0:0:
192,192,29644,1,0,0:0:0:0:
64,192,29719,1,0,0:0:0:0:
192,192,29794,1,0,0:0:0:0:
448,192,29794,1,0,0:0:0:0:
320,192,29944,1,0,0:0:0:0:
64,192,30094,1,0,0:0:0:0:
448,192,30094,1,0,0:0:0:0:
192,192,30244,1,0,0:0:0:0:
320,192,30319,1,0,0:0:0:0:
64,192,30394,1,0,0:0:0:0:
192,192,30394,1,0,0:0:0:0:
448,192,30544,1,0,0:0:0:0:
64,192,30694,1,0,0:0:0:0:
320,192,30694,1,0,0:0:0:0:
192,192,30844,1,0,0:0:0:0:
320,192,30994,1,0,0:0:0:0:
448,192,30994,1,0,0:0:0:0:
192,192,31144,1,0,0:0:0:0:
64,192,31219,1,0,0:0:0:0:
192,192,31294,1,0,0:0:0:0:
320,192,31294,1,0,0:0:0:0:
448,192,31444,1,0,0:0:0:0:
64,192,31594,1,0,0:0:0:0:
320,192,31594,1,0,0:0:0:0:
192,192,31744,1,0,0:0:0:0:
448,192,31894,1,0,0:0:0:0:
64,192,31894,1,0,0:0:0:0:
320,192,31969,1,0,0:0:0:0:
192,192,31969,1,0,0:0:0:0:
64,192,32044,1,0,0:0:0:0:
448,192,32044,1,0,0:0:0:0:
192,192,32119,1,0,0:0:0:0:
320,192,32119,1,0,0:0:0:0:
448,192,32194,1,0,0:0:0:0:
64,192,32194,1,0,0:0:0:0:
192,192,32269,1,0,0:0:0:0:
320,192,32269,1,0,0:0:0:0:
448,192,32344,1,0,0:0:0:0:
64,192,32344,1,0,0:0:0:0:
192,192,32494,1,0,0:0:0:0:
320,192,32494,1,0,0:0:0:0:
64,192,32644,1,0,0:0:0:0:
192,192,32719,1,0,0:0:0:0:
320,192,32794,1,0,0:0:0:0:
448,192,32794,1,0,0:0:0:0:
448,192,32944,1,0,0:0:0:0:
320,192,33019,1,0,0:0:0:0:
64,192,33094,1,0,0:0:0:0:
192,192,33094,1,0,0:0:0:0:
192,192,33394,1,0,0:0:0:0:
64,192,33394,1,0,0:0:0:0:
448,192,33544,1,0,0:0:0:0:
320,192,33544,1,0,0:0:0:0:
192,192,33544,1,0,0:0:0:0:
64,192,33844,1,0,0:0:0:0:
192,192,33994,1,0,0:0:0:0:
320,192,33994,1,0,0:0:0:0:
448,192,34144,1,0,0:0:0:0:
320,192,34294,1,0,0:0:0:0:
64,192,34444,1,0,0:0:0:0:
192,192,34594,1,0,0:0:0:0:
320,192,34594,1,0,0:0:0:0:
448,192,34744,1,0,0:0:0:0:
320,192,34894,1,0,0:0:0:0:
192,192,35044,1,0,0:0:0:0:
64,192,35194,1,0,0:0:0:0:
448,192,35194,1,0,0:0:0:0:
320,192,35344,1,0,0:0:0:0:
64,192,35494,1,0,0:0:0:0:
320,192,35644,1,0,0:0:0:0:
192,192,35719,1,0,0:0:0:0:
448,192,35794,1,0,0:0:0:0:
320,192,35794,1,0,0:0:0:0:
64,192,35944,1,0,0:0:0:0:
192,192,35944,1,0,0:0:0:0:
448,192,35944,1,0,0:0:0:0:
320,192,36244,1,0,0:0:0:0:
64,192,36394,1,0,0:0:0:0:
192,192,36394,1,0,0:0:0:0:
448,192,36544,1,0,0:0:0:0:
320,192,36694,1,0,0:0:0:0:
192,192,36844,1,0,0:0:0:0:
64,192,36994,1,0,0:0:0:0:
448,192,36994,1,0,0:0:0:0:
320,192,37144,1,0,0:0:0:0:
192,192,37294,1,0,0:0:0:0:
320,192,37444,1,0,0:0:0:0:
448,192,37444,1,0,0:0:0:0:
192,192,37594,1,0,0:0:0:0:
320,192,37744,1,0,0:0:0:0:
64,192,37894,1,0,0:0:0:0:
448,192,37894,1,0,0:0:0:0:
192,192,37969,1,0,0:0:0:0:
448,192,38044,1,0,0:0:0:0:
320,192,38119,1,0,0:0:0:0:
64,192,38194,1,0,0:0:0:0:
192,192,38194,1,0,0:0:0:0:
320,192,38344,1,0,0:0:0:0:
448,192,38344,1,0,0:0:0:0:
64,192,38344,1,0,0:0:0:0:
448,192,38644,1,0,0:0:0:0:
192,192,38794,1,0,0:0:0:0:
64,192,38794,1,0,0:0:0:0:
448,192,38794,1,0,0:0:0:0:
192,192,38944,1,0,0:0:0:0:
192,192,39094,1,0,0:0:0:0:
64,192,39094,1,0,0:0:0:0:
320,192,39094,1,0,0:0:0:0:
448,192,39244,1,0,0:0:0:0:
320,192,39319,1,0,0:0:0:0:
64,192,39394,1,0,0:0:0:0:
192,192,39394,1,0,0:0:0:0:
320,192,39544,1,0,0:0:0:0:
448,192,39544,1,0,0:0:0:0:
64,192,39544,1,0,0:0:0:0:
192,192,39844,1,0,0:0:0:0:
320,192,39994,1,0,0:0:0:0:
192,192,39994,1,0,0:0:0:0:
64,192,39994,1,0,0:0:0:0:
448,192,40144,1,0,0:0:0:0:
64,192,40294,1,0,0:0:0:0:
448,192,40294,1,0,0:0:0:0:
320,192,40294,1,0,0:0:0:0:
192,192,40444,1,0,0:0:0:0:
448,192,40594,1,0,0:0:0:0:
192,192,40594,1,0,0:0:0:0:
320,192,40594,1,0,0:0:0:0:
64,192,40744,1,0,0:0:0:0:
192,192,40819,1,0,0:0:0:0:
448,192,40894,1,0,0:0:0:0:
320,192,40894,1,0,0:0:0:0:
64,192,41194,1,0,0:0:0:0:
192,192,41194,1,0,0:0:0:0:
448,192,41344,1,0,0:0:0:0:
320,192,41494,1,0,0:0:0:0:
64,192,41644,1,0,0:0:0:0:
192,192,41719,1,0,0:0:0:0:
448,192,41794,1,0,0:0:0:0:
320,192,41794,1,0,0:0:0:0:
64,192,41944,1,0,0:0:0:0:
192,192,41944,1,0,0:0:0:0:
448,192,41944,1,0,0:0:0:0:
192,192,42244,1,0,0:0:0:0:
320,192,42244,1,0,0:0:0:0:
64,192,42394,1,0,0:0:0:0:
448,192,42394,1,0,0:0:0:0:
192,192,42544,1,0,0:0:0:0:
320,192,42544,1,0,0:0:0:0:
448,192,42544,1,0,0:0:0:0:
64,192,42844,1,0,0:0:0:0:
192,192,42844,1,0,0:0:0:0:
320,192,42844,1,0,0:0:0:0:
320,192,43144,1,0,0:0:0:0:
448,192,43144,1,0,0:0:0:0:
64,192,43144,1,0,0:0:0:0:
192,192,43444,1,0,0:0:0:0:
320,192,43594,1,0,0:0:0:0:
448,192,43594,1,0,0:0:0:0:
64,192,43744,1,0,0:0:0:0:
320,192,43894,1,0,0:0:0:0:
192,192,44044,1,0,0:0:0:0:
320,192,44194,1,0,0:0:0:0:
448,192,44194,1,0,0:0:0:0:
64,192,44344,1,0,0:0:0:0:
192,192,44494,1,0,0:0:0:0:
320,192,44644,1,0,0:0:0:0:
64,192,44794,1,0,0:0:0:0:
448,192,44794,1,0,0:0:0:0:
320,192,44944,1,0,0:0:0:0:
64,192,45094,1,0,0:0:0:0:
192,192,45169,1,0,0:0:0:0:
448,192,45244,1,0,0:0:0:0:
320,192,45244,1,0,0:0:0:0:
64,192,45394,1,0,0:0:0:0:
192,192,45394,1,0,0:0:0:0:
320,192,45544,1,0,0:0:0:0:
448,192,45544,1,0,0:0:0:0:
64,192,45544,1,0,0:0:0:0:
192,192,45844,1,0,0:0:0:0:
320,192,45994,1,0,0:0:0:0:
448,192,45994,1,0,0:0:0:0:
64,192,46144,1,0,0:0:0:0:
448,192,46294,1,0,0:0:0:0:
320,192,46444,1,0,0:0:0:0:
64,192,46594,1,0,0:0:0:0:
192,192,46594,1,0,0:0:0:0:
448,192,46744,1,0,0:0:0:0:
320,192,46894,1,0,0:0:0:0:
192,192,47044,1,0,0:0:0:0:
64,192,47194,1,0,0:0:0:0:
448,192,47194,1,0,0:0:0:0:
320,192,47344,1,0,0:0:0:0:
64,192,47494,1,0,0:0:0:0:
192,192,47569,1,0,0:0:0:0:
448,192,47644,1,0,0:0:0:0:
320,192,47719,1,0,0:0:0:0:
192,192,47794,1,0,0:0:0:0:
64,192,47794,1,0,0:0:0:0:
320,192,47869,1,0,0:0:0:0:
448,192,47869,1,0,0:0:0:0:
64,192,47944,1,0,0:0:0:0:
192,192,48019,1,0,0:0:0:0:
320,192,48094,1,0,0:0:0:0:
448,192,48094,1,0,0:0:0:0:
192,192,48394,1,0,0:0:0:0:
448,192,48394,1,0,0:0:0:0:
64,192,48394,1,0,0:0:0:0:
320,192,48694,1,0,0:0:0:0:
448,192,48694,128,0,49294:0:0:0:0:
64,192,48994,1,0,0:0:0:0:
192,192,48994,1,0,0:0:0:0:
64,192,49294,128,0,49594:0:0:0:0:
320,192,49294,1,0,0:0:0:0:
320,192,49594,128,0,49894:0:0:0:0:
192,192,49594,1,0,0:0:0:0:
192,192,49894,1,0,0:0:0:0:
448,192,49894,1,0,0:0:0:0:
64,192,50044,1,0,0:0:0:0:
192,192,50194,1,0,0:0:0:0:
320,192,50194,1,0,0:0:0:0:
64,192,50494,1,0,0:0:0:0:
320,192,50494,1,0,0:0:0:0:
448,192,50494,128,0,50794:0:0:0:0:
192,192,50794,1,0,0:0:0:0:
320,192,50794,1,0,0:0:0:0:
64,192,51094,128,0,51394:0:0:0:0:
448,192,51094,1,0,0:0:0:0:
320,192,51244,1,0,0:0:0:0:
192,192,51394,1,0,0:0:0:0:
448,192,51394,1,0,0:0:0:0:
320,192,51694,1,0,0:0:0:0:
448,192,51694,1,0,0:0:0:0:
64,192,51844,1,0,0:0:0:0:
192,192,51844,1,0,0:0:0:0:
320,192,51994,1,0,0:0:0:0:
64,192,52144,1,0,0:0:0:0:
448,192,52144,1,0,0:0:0:0:
192,192,52219,1,0,0:0:0:0:
320,192,52219,1,0,0:0:0:0:
64,192,52294,1,0,0:0:0:0:
448,192,52294,1,0,0:0:0:0:
192,192,52444,1,0,0:0:0:0:
320,192,52594,1,0,0:0:0:0:
448,192,52594,1,0,0:0:0:0:
64,192,52894,1,0,0:0:0:0:
192,192,52894,1,0,0:0:0:0:
448,192,52894,1,0,0:0:0:0:
320,192,53194,1,0,0:0:0:0:
448,192,53194,1,0,0:0:0:0:
320,192,53494,1,0,0:0:0:0:
448,192,53494,1,0,0:0:0:0:
320,192,53794,1,0,0:0:0:0:
448,192,53794,1,0,0:0:0:0:
320,192,54094,1,0,0:0:0:0:
448,192,54094,1,0,0:0:0:0:
320,192,54394,1,0,0:0:0:0:
448,192,54394,1,0,0:0:0:0:
320,192,54694,1,0,0:0:0:0:
448,192,54694,1,0,0:0:0:0:
320,192,54994,1,0,0:0:0:0:
448,192,54994,1,0,0:0:0:0:
64,192,55294,1,0,0:0:0:0:
192,192,55294,1,0,0:0:0:0:
320,192,55369,1,0,0:0:0:0:
448,192,55369,1,0,0:0:0:0:
64,192,55444,1,0,0:0:0:0:
192,192,55519,1,0,0:0:0:0:
448,192,55594,1,0,0:0:0:0:
320,192,55594,1,0,0:0:0:0:
64,192,55669,1,0,0:0:0:0:
192,192,55669,1,0,0:0:0:0:
320,192,55744,1,0,0:0:0:0:
448,192,55744,1,0,0:0:0:0:
64,192,55819,1,0,0:0:0:0:
192,192,55819,1,0,0:0:0:0:
448,192,55894,1,0,0:0:0:0:
320,192,55969,1,0,0:0:0:0:
192,192,56044,1,0,0:0:0:0:
64,192,56119,1,0,0:0:0:0:
448,192,56194,1,0,0:0:0:0:
320,192,56269,1,0,0:0:0:0:
64,192,56344,1,0,0:0:0:0:
192,192,56419,1,0,0:0:0:0:
320,192,56494,1,0,0:0:0:0:
448,192,56494,1,0,0:0:0:0:
64,192,57694,1,0,0:0:0:0:
192,192,57694,1,0,0:0:0:0:
448,192,57694,128,0,58894:0:0:0:0:
320,192,58144,1,0,0:0:0:0:
192,192,58294,1,0,0:0:0:0:
64,192,58294,1,0,0:0:0:0:
320,192,58444,1,0,0:0:0:0:
64,192,58894,128,0,60094:0:0:0:0:
320,192,58894,1,0,0:0:0:0:
192,192,59344,1,0,0:0:0:0:
320,192,59494,1,0,0:0:0:0:
448,192,59494,1,0,0:0:0:0:
192,192,59644,1,0,0:0:0:0:
192,192,60094,128,0,61294:0:0:0:0:
448,192,60094,1,0,0:0:0:0:
64,192,60544,1,0,0:0:0:0:
320,192,60694,1,0,0:0:0:0:
448,192,60694,1,0,0:0:0:0:
64,192,60844,1,0,0:0:0:0:
448,192,61294,128,0,62494:0:0:0:0:
64,192,61294,1,0,0:0:0:0:
320,192,61294,1,0,0:0:0:0:
192,192,61444,1,0,0:0:0:0:
320,192,61744,1,0,0:0:0:0:
192,192,61894,1,0,0:0:0:0:
64,192,61894,1,0,0:0:0:0:
320,192,62044,1,0,0:0:0:0:
64,192,62494,128,0,63694:0:0:0:0:
192,192,62494,1,0,0:0:0:0:
320,192,62494,1,0,0:0:0:0:
320,192,62944,1,0,0:0:0:0:
192,192,63094,1,0,0:0:0:0:
448,192,63094,1,0,0:0:0:0:
320,192,63244,1,0,0:0:0:0:
320,192,63694,128,0,64894:0:0:0:0:
448,192,63694,1,0,0:0:0:0:
64,192,64144,1,0,0:0:0:0:
192,192,64294,1,0,0:0:0:0:
448,192,64294,1,0,0:0:0:0:
64,192,64444,1,0,0:0:0:0:
192,192,64894,128,0,66094:0:0:0:0:
448,192,64894,1,0,0:0:0:0:
448,192,65344,1,0,0:0:0:0:
64,192,65494,1,0,0:0:0:0:
320,192,65494,1,0,0:0:0:0:
448,192,65644,1,0,0:0:0:0:
448,192,66094,1,0,0:0:0:0:
320,192,66169,1,0,0:0:0:0:
64,192,66244,1,0,0:0:0:0:
192,192,66244,1,0,0:0:0:0:
320,192,66319,1,0,0:0:0:0:
448,192,66319,1,0,0:0:0:0:
64,192,66394,1,0,0:0:0:0:
192,192,66469,1,0,0:0:0:0:
448,192,66544,1,0,0:0:0:0:
320,192,66619,1,0,0:0:0:0:
64,192,66694,1,0,0:0:0:0:
192,192,66694,1,0,0:0:0:0:
448,192,66844,1,0,0:0:0:0:
320,192,66844,1,0,0:0:0:0:
64,192,66844,1,0,0:0:0:0:
64,192,67294,1,0,0:0:0:0:
192,192,67294,1,0,0:0:0:0:
448,192,67294,128,0,68494:0:0:0:0:
320,192,67744,1,0,0:0:0:0:
192,192,67894,1,0,0:0:0:0:
64,192,67894,1,0,0:0:0:0:
320,192,68044,1,0,0:0:0:0:
64,192,68494,128,0,69694:0:0:0:0:
192,192,68494,1,0,0:0:0:0:
320,192,68944,1,0,0:0:0:0:
192,192,69094,1,0,0:0:0:0:
448,192,69094,1,0,0:0:0:0:
320,192,69244,1,0,0:0:0:0:
320,192,69694,128,0,70894:0:0:0:0:
448,192,69694,1,0,0:0:0:0:
64,192,70144,1,0,0:0:0:0:
192,192,70294,1,0,0:0:0:0:
448,192,70294,1,0,0:0:0:0:
64,192,70444,1,0,0:0:0:0:
64,192,70894,128,0,72094:0:0:0:0:
448,192,70894,1,0,0:0:0:0:
448,192,71344,1,0,0:0:0:0:
320,192,71494,1,0,0:0:0:0:
192,192,71494,1,0,0:0:0:0:
192,192,71794,1,0,0:0:0:0:
448,192,71794,1,0,0:0:0:0:
320,192,71944,1,0,0:0:0:0:
192,192,72019,1,0,0:0:0:0:
320,192,72094,1,0,0:0:0:0:
448,192,72094,1,0,0:0:0:0:
64,192,72394,1,0,0:0:0:0:
192,192,72469,1,0,0:0:0:0:
448,192,72544,1,0,0:0:0:0:
320,192,72619,1,0,0:0:0:0:
64,192,72694,1,0,0:0:0:0:
192,192,72769,1,0,0:0:0:0:
448,192,72844,1,0,0:0:0:0:
320,192,72919,1,0,0:0:0:0:
192,192,72994,1,0,0:0:0:0:
64,192,72994,1,0,0:0:0:0:
448,192,73069,1,0,0:0:0:0:
320,192,73144,1,0,0:0:0:0:
192,192,73219,1,0,0:0:0:0:
320,192,73294,1,0,0:0:0:0:
448,192,73294,1,0,0:0:0:0:
64,192,73369,1,0,0:0:0:0:
192,192,73444,1,0,0:0:0:0:
320,192,73519,1,0,0:0:0:0:
64,192,73594,1,0,0:0:0:0:
192,192,73594,1,0,0:0:0:0:
448,192,73669,1,0,0:0:0:0:
320,192,73744,1,0,0:0:0:0:
192,192,73819,1,0,0:0:0:0:
320,192,73894,1,0,0:0:0:0:
448,192,73894,1,0,0:0:0:0:
64,192,73969,1,0,0:0:0:0:
192,192,74044,1,0,0:0:0:0:
320,192,74119,1,0,0:0:0:0:
64,192,74194,1,0,0:0:0:0:
192,192,74194,1,0,0:0:0:0:
320,192,74269,1,0,0:0:0:0:
448,192,74269,1,0,0:0:0:0:
192,192,74344,1,0,0:0:0:0:
64,192,74344,1,0,0:0:0:0:
320,192,74419,1,0,0:0:0:0:
448,192,74419,1,0,0:0:0:0:
64,192,74494,1,0,0:0:0:0:
192,192,74494,1,0,0:0:0:0:
448,192,74494,1,0,0:0:0:0:
320,192,74794,1,0,0:0:0:0:
448,192,75094,1,0,0:0:0:0:
320,192,75244,1,0,0:0:0:0:
64,192,75394,1,0,0:0:0:0:
192,192,75469,1,0,0:0:0:0:
448,192,75544,1,0,0:0:0:0:
320,192,75619,1,0,0:0:0:0:
192,192,75694,1,0,0:0:0:0:
64,192,75844,1,0,0:0:0:0:
192,192,75919,1,0,0:0:0:0:
320,192,75994,1,0,0:0:0:0:
448,192,76144,1,0,0:0:0:0:
64,192,76444,1,0,0:0:0:0:
192,192,76519,1,0,0:0:0:0:
320,192,76594,1,0,0:0:0:0:
448,192,76594,1,0,0:0:0:0:
64,192,76744,1,0,0:0:0:0:
192,192,76894,1,0,0:0:0:0:
448,192,76894,1,0,0:0:0:0:
320,192,76894,1,0,0:0:0:0:
64,192,77194,1,0,0:0:0:0:
192,192,77344,1,0,0:0:0:0:
320,192,77494,1,0,0:0:0:0:
192,192,77644,1,0,0:0:0:0:
64,192,77644,1,0,0:0:0:0:
448,192,77644,1,0,0:0:0:0:
320,192,77944,1,0,0:0:0:0:
448,192,77944,1,0,0:0:0:0:
192,192,77944,1,0,0:0:0:0:
64,192,78244,1,0,0:0:0:0:
448,192,78394,1,0,0:0:0:0:
320,192,78544,1,0,0:0:0:0:
192,192,78694,1,0,0:0:0:0:
320,192,78844,1,0,0:0:0:0:
64,192,79294,1,0,0:0:0:0:
192,192,79294,1,0,0:0:0:0:
320,192,79294,1,0,0:0:0:0:
448,192,79594,1,0,0:0:0:0:
64,192,79744,1,0,0:0:0:0:
192,192,79894,1,0,0:0:0:0:
320,192,80044,1,0,0:0:0:0:
448,192,80044,1,0,0:0:0:0:
64,192,80044,1,0,0:0:0:0:
64,192,80344,1,0,0:0:0:0:
192,192,80344,1,0,0:0:0:0:
320,192,80344,1,0,0:0:0:0:
320,192,80644,1,0,0:0:0:0:
448,192,80644,1,0,0:0:0:0:
64,192,80719,1,0,0:0:0:0:
192,192,80794,1,0,0:0:0:0:
64,192,80944,1,0,0:0:0:0:
448,192,80944,1,0,0:0:0:0:
320,192,81019,1,0,0:0:0:0:
192,192,81019,1,0,0:0:0:0:
448,192,81094,1,0,0:0:0:0:
64,192,81244,1,0,0:0:0:0:
192,192,81244,1,0,0:0:0:0:
320,192,81394,1,0,0:0:0:0:
448,192,81394,1,0,0:0:0:0:
192,192,81544,1,0,0:0:0:0:
320,192,81619,1,0,0:0:0:0:
64,192,81694,1,0,0:0:0:0:
192,192,81694,1,0,0:0:0:0:
448,192,81694,1,0,0:0:0:0:
448,192,81994,1,0,0:0:0:0:
320,192,82069,1,0,0:0:0:0:
64,192,82144,1,0,0:0:0:0:
192,192,82219,1,0,0:0:0:0:
448,192,82294,1,0,0:0:0:0:
320,192,82369,1,0,0:0:0:0:
64,192,82444,1,0,0:0:0:0:
192,192,82519,1,0,0:0:0:0:
448,192,82594,1,0,0:0:0:0:
320,192,82669,1,0,0:0:0:0:
64,192,82744,1,0,0:0:0:0:
192,192,82819,1,0,0:0:0:0:
448,192,82894,1,0,0:0:0:0:
320,192,82969,1,0,0:0:0:0:
64,192,83044,1,0,0:0:0:0:
192,192,83119,1,0,0:0:0:0:
448,192,83194,1,0,0:0:0:0:
320,192,83194,1,0,0:0:0:0:
64,192,83269,1,0,0:0:0:0:
192,192,83344,1,0,0:0:0:0:
320,192,83419,1,0,0:0:0:0:
64,192,83494,1,0,0:0:0:0:
192,192,83494,1,0,0:0:0:0:
448,192,83569,1,0,0:0:0:0:
320,192,83644,1,0,0:0:0:0:
192,192,83719,1,0,0:0:0:0:
448,192,83794,1,0,0:0:0:0:
320,192,83794,1,0,0:0:0:0:
64,192,83944,1,0,0:0:0:0:
192,192,84019,1,0,0:0:0:0:
320,192,84094,1,0,0:0:0:0:
448,192,84094,1,0,0:0:0:0:
64,192,84244,1,0,0:0:0:0:
320,192,84394,1,0,0:0:0:0:
192,192,84544,1,0,0:0:0:0:
448,192,84694,1,0,0:0:0:0:
320,192,84844,1,0,0:0:0:0:
64,192,84994,1,0,0:0:0:0:
192,192,85144,1,0,0:0:0:0:
320,192,85294,1,0,0:0:0:0:
448,192,85294,1,0,0:0:0:0:
64,192,85594,1,0,0:0:0:0:
192,192,85669,1,0,0:0:0:0:
448,192,85744,1,0,0:0:0:0:
320,192,85819,1,0,0:0:0:0:
192,192,85894,1,0,0:0:0:0:
64,192,85894,1,0,0:0:0:0:
320,192,86494,1,0,0:0:0:0:
64,192,86494,1,0,0:0:0:0:
448,192,86494,128,0,87094:0:0:0:0:
192,192,86794,1,0,0:0:0:0:
320,192,86794,1,0,0:0:0:0:
64,192,87094,128,0,87694:0:0:0:0:
320,192,87094,1,0,0:0:0:0:
192,192,87394,1,0,0:0:0:0:
448,192,87394,1,0,0:0:0:0:
320,192,87694,128,0,88294:0:0:0:0:
192,192,87694,1,0,0:0:0:0:
448,192,87994,1,0,0:0:0:0:
64,192,87994,1,0,0:0:0:0:
192,192,88294,128,0,88894:0:0:0:0:
64,192,88294,1,0,0:0:0:0:
448,192,88594,1,0,0:0:0:0:
320,192,88594,1,0,0:0:0:0:
320,192,88894,1,0,0:0:0:0:
448,192,88894,128,0,89494:0:0:0:0:
64,192,89194,1,0,0:0:0:0:
320,192,89194,1,0,0:0:0:0:
64,192,89494,128,0,90094:0:0:0:0:
192,192,89494,1,0,0:0:0:0:
320,192,89794,1,0,0:0:0:0:
448,192,89794,1,0,0:0:0:0:
448,192,90094,128,0,90694:0:0:0:0:
192,192,90094,1,0,0:0:0:0:
320,192,90394,1,0,0:0:0:0:
64,192,90394,1,0,0:0:0:0:
192,192,90694,1,0,0:0:0:0:
320,192,90694,1,0,0:0:0:0:
64,192,90844,1,0,0:0:0:0:
192,192,90919,1,0,0:0:0:0:
320,192,90994,1,0,0:0:0:0:
448,192,90994,1,0,0:0:0:0:
448,192,91144,1,0,0:0:0:0:
320,192,91219,1,0,0:0:0:0:
192,192,91294,1,0,0:0:0:0:
64,192,91294,128,0,91894:0:0:0:0:
320,192,91594,1,0,0:0:0:0:
448,192,91594,1,0,0:0:0:0:
448,192,91894,128,0,92494:0:0:0:0:
192,192,91894,1,0,0:0:0:0:
320,192,92194,1,0,0:0:0:0:
64,192,92194,1,0,0:0:0:0:
192,192,92494,128,0,93094:0:0:0:0:
320,192,92494,1,0,0:0:0:0:
64,192,92794,1,0,0:0:0:0:
448,192,92794,1,0,0:0:0:0:
64,192,93094,128,0,93694:0:0:0:0:
320,192,93094,1,0,0:0:0:0:
320,192,93394,1,0,0:0:0:0:
448,192,93394,1,0,0:0:0:0:
320,192,93694,128,0,94294:0:0:0:0:
192,192,93694,1,0,0:0:0:0:
448,192,93994,1,0,0:0:0:0:
64,192,93994,1,0,0:0:0:0:
64,192,94294,128,0,94894:0:0:0:0:
192,192,94294,1,0,0:0:0:0:
448,192,94444,1,0,0:0:0:0:
320,192,94594,1,0,0:0:0:0:
192,192,94594,1,0,0:0:0:0:
448,192,94744,1,0,0:0:0:0:
192,192,94894,1,0,0:0:0:0:
320,192,94969,1,0,0:0:0:0:
448,192,94969,1,0,0:0:0:0:
64,192,95044,1,0,0:0:0:0:
192,192,95044,1,0,0:0:0:0:
320,192,95119,1,0,0:0:0:0:
448,192,95119,1,0,0:0:0:0:
64,192,95194,1,0,0:0:0:0:
192,192,95269,1,0,0:0:0:0:
320,192,95344,1,0,0:0:0:0:
448,192,95344,1,0,0:0:0:0:
192,192,95419,1,0,0:0:0:0:
64,192,95419,1,0,0:0:0:0:
320,192,95494,1,0,0:0:0:0:
448,192,95494,1,0,0:0:0:0:
64,192,95569,1,0,0:0:0:0:
192,192,95569,1,0,0:0:0:0:
448,192,95644,1,0,0:0:0:0:
320,192,95719,1,0,0:0:0:0:
192,192,95794,1,0,0:0:0:0:
64,192,95794,1,0,0:0:0:0:
320,192,95869,1,0,0:0:0:0:
448,192,95869,1,0,0:0:0:0:
64,192,95944,1,0,0:0:0:0:
192,192,95944,1,0,0:0:0:0:
320,192,96019,1,0,0:0:0:0:
448,192,96019,1,0,0:0:0:0:
64,192,96094,1,0,0:0:0:0:
192,192,96094,1,0,0:0:0:0:
448,192,96094,1,0,0:0:0:0:
64,192,96394,1,0,0:0:0:0:
448,192,96394,1,0,0:0:0:0:
320,192,96469,1,0,0:0:0:0:
64,192,96544,1,0,0:0:0:0:
192,192,96619,1,0,0:0:0:0:
320,192,96694,1,0,0:0:0:0:
448,192,96694,1,0,0:0:0:0:
64,192,96769,1,0,0:0:0:0:
192,192,96844,1,0,0:0:0:0:
320,192,96919,1,0,0:0:0:0:
448,192,96994,1,0,0:0:0:0:
64,192,96994,1,0,0:0:0:0:
192,192,97069,1,0,0:0:0:0:
448,192,97144,1,0,0:0:0:0:
320,192,97219,1,0,0:0:0:0:
64,192,97294,1,0,0:0:0:0:
192,192,97294,1,0,0:0:0:0:
448,192,97369,1,0,0:0:0:0:
320,192,97444,1,0,0:0:0:0:
192,192,97519,1,0,0:0:0:0:
320,192,97594,1,0,0:0:0:0:
448,192,97594,1,0,0:0:0:0:
64,192,97669,1,0,0:0:0:0:
448,192,97744,1,0,0:0:0:0:
320,192,97819,1,0,0:0:0:0:
64,192,97894,1,0,0:0:0:0:
192,192,97894,1,0,0:0:0:0:
448,192,97969,1,0,0:0:0:0:
320,192,98044,1,0,0:0:0:0:
64,192,98119,1,0,0:0:0:0:
192,192,98194,1,0,0:0:0:0:
448,192,98194,1,0,0:0:0:0:
320,192,98269,1,0,0:0:0:0:
64,192,98344,1,0,0:0:0:0:
192,192,98419,1,0,0:0:0:0:
448,192,98494,1,0,0:0:0:0:
320,192,98494,1,0,0:0:0:0:
64,192,98569,1,0,0:0:0:0:
192,192,98644,1,0,0:0:0:0:
320,192,98719,1,0,0:0:0:0:
64,192,98794,1,0,0:0:0:0:
192,192,98794,1,0,0:0:0:0:
448,192,98869,1,0,0:0:0:0:
64,192,98944,1,0,0:0:0:0:
192,192,99019,1,0,0:0:0:0:
320,192,99094,1,0,0:0:0:0:
448,192,99094,1,0,0:0:0:0:
64,192,99169,1,0,0:0:0:0:
192,192,99244,1,0,0:0:0:0:
448,192,99319,1,0,0:0:0:0:
320,192,99394,1,0,0:0:0:0:
64,192,99394,1,0,0:0:0:0:
192,192,99469,1,0,0:0:0:0:
448,192,99544,1,0,0:0:0:0:
320,192,99619,1,0,0:0:0:0:
64,192,99694,1,0,0:0:0:0:
192,192,99694,1,0,0:0:0:0:
448,192,99769,1,0,0:0:0:0:
64,192,99844,1,0,0:0:0:0:
192,192,99919,1,0,0:0:0:0:
320,192,99994,1,0,0:0:0:0:
448,192,99994,1,0,0:0:0:0:
64,192,100069,1,0,0:0:0:0:
448,192,100144,1,0,0:0:0:0:
320,192,100219,1,0,0:0:0:0:
64,192,100294,1,0,0:0:0:0:
192,192,100294,1,0,0:0:0:0:
448,192,100369,1,0,0:0:0:0:
320,192,100444,1,0,0:0:0:0:
192,192,100519,1,0,0:0:0:0:
64,192,100594,1,0,0:0:0:0:
448,192,100594,1,0,0:0:0:0:
320,192,100669,1,0,0:0:0:0:
64,192,100744,1,0,0:0:0:0:
448,192,100744,1,0,0:0:0:0:
192,192,100819,1,0,0:0:0:0:
64,192,100894,1,0,0:0:0:0:
448,192,100894,1,0,0:0:0:0:
448,192,101194,1,0,0:0:0:0:
64,192,101194,1,0,0:0:0:0:
320,192,101269,1,0,0:0:0:0:
64,192,101344,1,0,0:0:0:0:
192,192,101419,1,0,0:0:0:0:
320,192,101494,1,0,0:0:0:0:
448,192,101494,1,0,0:0:0:0:
64,192,101569,1,0,0:0:0:0:
448,192,101644,1,0,0:0:0:0:
320,192,101719,1,0,0:0:0:0:
64,192,101794,1,0,0:0:0:0:
192,192,101794,1,0,0:0:0:0:
448,192,101869,1,0,0:0:0:0:
320,192,101944,1,0,0:0:0:0:
192,192,102019,1,0,0:0:0:0:
64,192,102094,1,0,0:0:0:0:
448,192,102094,1,0,0:0:0:0:
320,192,102169,1,0,0:0:0:0:
64,192,102244,1,0,0:0:0:0:
192,192,102319,1,0,0:0:0:0:
320,192,102394,1,0,0:0:0:0:
448,192,102394,1,0,0:0:0:0:
64,192,102469,1,0,0:0:0:0:
192,192,102544,1,0,0:0:0:0:
320,192,102619,1,0,0:0:0:0:
64,192,102694,1,0,0:0:0:0:
192,192,102694,1,0,0:0:0:0:
448,192,102769,1,0,0:0:0:0:
320,192,102844,1,0,0:0:0:0:
192,192,102919,1,0,0:0:0:0:
64,192,102994,1,0,0:0:0:0:
448,192,102994,1,0,0:0:0:0:
320,192,103144,1,0,0:0:0:0:
64,192,103294,1,0,0:0:0:0:
192,192,103444,1,0,0:0:0:0:
448,192,103594,1,0,0:0:0:0:
320,192,103594,1,0,0:0:0:0:
64,192,103594,1,0,0:0:0:0:
192,192,103744,1,0,0:0:0:0:
64,192,103894,1,0,0:0:0:0:
448,192,103894,1,0,0:0:0:0:
320,192,103969,1,0,0:0:0:0:
192,192,103969,1,0,0:0:0:0:
64,192,104044,1,0,0:0:0:0:
192,192,104119,1,0,0:0:0:0:
320,192,104194,1,0,0:0:0:0:
448,192,104194,1,0,0:0:0:0:
64,192,104344,1,0,0:0:0:0:
192,192,104344,1,0,0:0:0:0:
448,192,104344,1,0,0:0:0:0:
448,192,104644,1,0,0:0:0:0:
192,192,104794,1,0,0:0:0:0:
320,192,104794,1,0,0:0:0:0:
448,192,104794,1,0,0:0:0:0:
64,192,104944,1,0,0:0:0:0:
448,192,105094,1,0,0:0:0:0:
64,192,105094,1,0,0:0:0:0:
320,192,105094,1,0,0:0:0:0:
192,192,105244,1,0,0:0:0:0:
192,192,105394,1,0,0:0:0:0:
320,192,105394,1,0,0:0:0:0:
448,192,105394,1,0,0:0:0:0:
64,192,105544,1,0,0:0:0:0:
64,192,105694,1,0,0:0:0:0:
320,192,105694,1,0,0:0:0:0:
448,192,105694,1,0,0:0:0:0:
192,192,105844,1,0,0:0:0:0:
64,192,105994,1,0,0:0:0:0:
192,192,105994,1,0,0:0:0:0:
448,192,105994,1,0,0:0:0:0:
320,192,106144,1,0,0:0:0:0:
320,192,106294,1,0,0:0:0:0:
448,192,106294,1,0,0:0:0:0:
64,192,106294,1,0,0:0:0:0:
192,192,106444,1,0,0:0:0:0:
64,192,106594,1,0,0:0:0:0:
192,192,106594,1,0,0:0:0:0:
448,192,106594,1,0,0:0:0:0:
320,192,106669,1,0,0:0:0:0:
192,192,106744,1,0,0:0:0:0:
64,192,106819,1,0,0:0:0:0:
320,192,106894,1,0,0:0:0:0:
448,192,106894,1,0,0:0:0:0:
64,192,107194,1,0,0:0:0:0:
192,192,107194,1,0,0:0:0:0:
448,192,107269,1,0,0:0:0:0:
320,192,107344,1,0,0:0:0:0:
192,192,107419,1,0,0:0:0:0:
448,192,107494,1,0,0:0:0:0:
320,192,107494,1,0,0:0:0:0:
64,192,107569,1,0,0:0:0:0:
192,192,107644,1,0,0:0:0:0:
320,192,107719,1,0,0:0:0:0:
64,192,107794,1,0,0:0:0:0:
192,192,107794,1,0,0:0:0:0:
448,192,107869,1,0,0:0:0:0:
320,192,107944,1,0,0:0:0:0:
192,192,108019,1,0,0:0:0:0:
320,192,108094,1,0,0:0:0:0:
448,192,108094,1,0,0:0:0:0:
64,192,108244,1,0,0:0:0:0:
192,192,108244,1,0,0:0:0:0:
448,192,108244,1,0,0:0:0:0:
320,192,108394,1,0,0:0:0:0:
192,192,108469,1,0,0:0:0:0:
320,192,108544,1,0,0:0:0:0:
64,192,108694,1,0,0:0:0:0:
448,192,108844,1,0,0:0:0:0:
320,192,108919,1,0,0:0:0:0:
192,192,108994,1,0,0:0:0:0:
320,192,109144,1,0,0:0:0:0:
64,192,109294,1,0,0:0:0:0:
192,192,109294,1,0,0:0:0:0:
448,192,109294,1,0,0:0:0:0:
64,192,109594,1,0,0:0:0:0:
192,192,109594,128,0,109744:0:0:0:0:
320,192,109744,1,0,0:0:0:0:
64,192,109894,1,0,0:0:0:0:
448,192,109894,128,0,110044:0:0:0:0:
320,192,110044,1,0,0:0:0:0:
64,192,110194,1,0,0:0:0:0:
192,192,110194,128,0,110344:0:0:0:0:
320,192,110344,1,0,0:0:0:0:
64,192,110494,1,0,0:0:0:0:
448,192,110494,128,0,110644:0:0:0:0:
320,192,110644,1,0,0:0:0:0:
64,192,110794,1,0,0:0:0:0:
192,192,110794,128,0,110944:0:0:0:0:
320,192,110944,1,0,0:0:0:0:
64,192,111094,1,0,0:0:0:0:
448,192,111094,128,0,111244:0:0:0:0:
192,192,111244,1,0,0:0:0:0:
320,192,111394,1,0,0:0:0:0:
64,192,111394,128,0,111544:0:0:0:0:
192,192,111544,1,0,0:0:0:0:
448,192,111694,128,0,111844:0:0:0:0:
64,192,111694,1,0,0:0:0:0:
320,192,111844,1,0,0:0:0:0:
64,192,111994,128,0,112144:0:0:0:0:
192,192,111994,1,0,0:0:0:0:
448,192,112144,1,0,0:0:0:0:
320,192,112294,128,0,112444:0:0:0:0:
192,192,112294,1,0,0:0:0:0:
448,192,112444,1,0,0:0:0:0:
192,192,112594,1,0,0:0:0:0:
64,192,112594,128,0,112744:0:0:0:0:
320,192,112744,1,0,0:0:0:0:
192,192,112894,1,0,0:0:0:0:
448,192,112894,128,0,113044:0:0:0:0:
64,192,113044,1,0,0:0:0:0:
192,192,113194,128,0,113344:0:0:0:0:
320,192,113194,1,0,0:0:0:0:
64,192,113344,1,0,0:0:0:0:
320,192,113494,1,0,0:0:0:0:
448,192,113494,128,0,113644:0:0:0:0:
64,192,113644,1,0,0:0:0:0:
320,192,113794,1,0,0:0:0:0:
192,192,113794,128,0,113944:0:0:0:0:
64,192,113944,1,0,0:0:0:0:
448,192,114094,128,0,114394:0:0:0:0:
320,192,114094,1,0,0:0:0:0:
192,192,114094,128,0,114244:0:0:0:0:
64,192,114244,1,0,0:0:0:0:
64,192,114394,128,0,114694:0:0:0:0:
320,192,114394,128,0,114544:0:0:0:0:
192,192,114544,1,0,0:0:0:0:
448,192,114694,128,0,114844:0:0:0:0:
320,192,114694,1,0,0:0:0:0:
192,192,114844,1,0,0:0:0:0:
64,192,114994,128,0,115144:0:0:0:0:
320,192,114994,1,0,0:0:0:0:
448,192,115144,1,0,0:0:0:0:
192,192,115294,1,0,0:0:0:0:
320,192,115294,128,0,115444:0:0:0:0:
448,192,115294,128,0,115594:0:0:0:0:
64,192,115444,1,0,0:0:0:0:
192,192,115594,128,0,115744:0:0:0:0:
320,192,115594,128,0,115894:0:0:0:0:
64,192,115744,1,0,0:0:0:0:
448,192,115894,1,0,0:0:0:0:
64,192,115894,128,0,116044:0:0:0:0:
192,192,116044,1,0,0:0:0:0:
320,192,116194,1,0,0:0:0:0:
448,192,116194,128,0,116344:0:0:0:0:
192,192,116344,1,0,0:0:0:0:
320,192,116494,1,0,0:0:0:0:
448,192,116494,1,0,0:0:0:0:
64,192,116494,128,0,116644:0:0:0:0:
192,192,116644,1,0,0:0:0:0:
320,192,116794,128,0,116944:0:0:0:0:
448,192,116794,1,0,0:0:0:0:
64,192,116944,1,0,0:0:0:0:
192,192,117094,1,0,0:0:0:0:
448,192,117094,128,0,117244:0:0:0:0:
320,192,117244,1,0,0:0:0:0:
64,192,117244,1,0,0:0:0:0:
64,192,117394,1,0,0:0:0:0:
192,192,117394,1,0,0:0:0:0:
448,192,117544,1,0,0:0:0:0:
320,192,117619,1,0,0:0:0:0:
64,192,117694,1,0,0:0:0:0:
192,192,117694,1,0,0:0:0:0:
64,192,117844,1,0,0:0:0:0:
192,192,117919,1,0,0:0:0:0:
320,192,117994,1,0,0:0:0:0:
448,192,117994,1,0,0:0:0:0:
192,192,118144,1,0,0:0:0:0:
320,192,118219,1,0,0:0:0:0:
64,192,118294,1,0,0:0:0:0:
448,192,118294,1,0,0:0:0:0:
192,192,118369,1,0,0:0:0:0:
448,192,118444,1,0,0:0:0:0:
320,192,118519,1,0,0:0:0:0:
64,192,118594,1,0,0:0:0:0:
192,192,118594,1,0,0:0:0:0:
320,192,118744,1,0,0:0:0:0:
448,192,118744,1,0,0:0:0:0:
448,192,118894,1,0,0:0:0:0:
192,192,118894,1,0,0:0:0:0:
64,192,118894,128,0,119794:0:0:0:0:
320,192,119194,1,0,0:0:0:0:
448,192,119194,1,0,0:0:0:0:
320,192,119494,1,0,0:0:0:0:
448,192,119494,1,0,0:0:0:0:
192,192,119794,128,0,120094:0:0:0:0:
320,192,119794,1,0,0:0:0:0:
448,192,120094,128,0,120694:0:0:0:0:
64,192,120094,1,0,0:0:0:0:
192,192,120394,1,0,0:0:0:0:
320,192,120394,1,0,0:0:0:0:
64,192,120694,1,0,0:0:0:0:
192,192,120694,1,0,0:0:0:0:
320,192,120694,128,0,121294:0:0:0:0:
64,192,120994,1,0,0:0:0:0:
448,192,120994,1,0,0:0:0:0:
448,192,121294,128,0,122194:0:0:0:0:
192,192,121294,1,0,0:0:0:0:
64,192,121294,1,0,0:0:0:0:
64,192,121594,1,0,0:0:0:0:
320,192,121594,1,0,0:0:0:0:
192,192,121894,1,0,0:0:0:0:
320,192,121894,1,0,0:0:0:0:
64,192,122194,128,0,122344:0:0:0:0:
320,192,122344,128,0,122494:0:0:0:0:
64,192,122494,1,0,0:0:0:0:
192,192,122494,1,0,0:0:0:0:
448,192,122494,1,0,0:0:0:0:
320,192,122794,1,0,0:0:0:0:
448,192,122794,1,0,0:0:0:0:
192,192,122944,1,0,0:0:0:0:
64,192,123094,1,0,0:0:0:0:
448,192,123094,1,0,0:0:0:0:
64,192,123394,1,0,0:0:0:0:
320,192,123394,1,0,0:0:0:0:
192,192,123694,1,0,0:0:0:0:
320,192,123694,1,0,0:0:0:0:
448,192,123694,1,0,0:0:0:0:
64,192,123844,1,0,0:0:0:0:
192,192,123919,1,0,0:0:0:0:
448,192,123994,1,0,0:0:0:0:
320,192,124144,1,0,0:0:0:0:
64,192,124294,1,0,0:0:0:0:
192,192,124444,1,0,0:0:0:0:
448,192,124594,1,0,0:0:0:0:
320,192,124744,1,0,0:0:0:0:
64,192,125044,1,0,0:0:0:0:
192,192,125044,1,0,0:0:0:0:
448,192,125044,1,0,0:0:0:0:
64,192,125494,1,0,0:0:0:0:
192,192,125494,1,0,0:0:0:0:
320,192,125494,1,0,0:0:0:0:
448,192,125794,1,0,0:0:0:0:
192,192,125794,1,0,0:0:0:0:
320,192,125794,1,0,0:0:0:0:
64,192,126094,1,0,0:0:0:0:
192,192,126094,1,0,0:0:0:0:
448,192,126394,1,0,0:0:0:0:
64,192,126394,1,0,0:0:0:0:
320,192,126544,1,0,0:0:0:0:
192,192,126619,1,0,0:0:0:0:
320,192,126694,1,0,0:0:0:0:
448,192,126694,1,0,0:0:0:0:
64,192,126919,1,0,0:0:0:0:
448,192,126919,1,0,0:0:0:0:
192,192,127144,1,0,0:0:0:0:
448,192,127144,1,0,0:0:0:0:
320,192,127294,1,0,0:0:0:0:
64,192,127294,1,0,0:0:0:0:
448,192,127294,1,0,0:0:0:0:
192,192,127444,1,0,0:0:0:0:
320,192,127594,1,0,0:0:0:0:
448,192,127594,1,0,0:0:0:0:
192,192,127744,1,0,0:0:0:0:
64,192,127819,1,0,0:0:0:0:
192,192,127894,1,0,0:0:0:0:
320,192,127894,1,0,0:0:0:0:
448,192,127969,1,0,0:0:0:0:
320,192,128044,1,0,0:0:0:0:
64,192,128194,1,0,0:0:0:0:
192,192,128194,1,0,0:0:0:0:
320,192,128344,1,0,0:0:0:0:
192,192,128419,1,0,0:0:0:0:
448,192,128494,1,0,0:0:0:0:
320,192,128494,1,0,0:0:0:0:
64,192,128644,1,0,0:0:0:0:
192,192,128794,1,0,0:0:0:0:
448,192,128794,1,0,0:0:0:0:
64,192,128944,1,0,0:0:0:0:
192,192,129019,1,0,0:0:0:0:
448,192,129094,1,0,0:0:0:0:
320,192,129094,1,0,0:0:0:0:
192,192,129169,1,0,0:0:0:0:
64,192,129244,1,0,0:0:0:0:
192,192,129394,1,0,0:0:0:0:
320,192,129394,1,0,0:0:0:0:
448,192,129544,1,0,0:0:0:0:
320,192,129619,1,0,0:0:0:0:
64,192,129694,1,0,0:0:0:0:
192,192,129694,1,0,0:0:0:0:
320,192,129844,1,0,0:0:0:0:
64,192,129994,1,0,0:0:0:0:
448,192,129994,1,0,0:0:0:0:
320,192,130144,1,0,0:0:0:0:
192,192,130219,1,0,0:0:0:0:
448,192,130294,1,0,0:0:0:0:
64,192,130294,1,0,0:0:0:0:
320,192,130369,1,0,0:0:0:0:
192,192,130444,1,0,0:0:0:0:
448,192,130594,1,0,0:0:0:0:
320,192,130594,1,0,0:0:0:0:
192,192,130744,1,0,0:0:0:0:
64,192,130819,1,0,0:0:0:0:
192,192,130894,1,0,0:0:0:0:
320,192,130894,1,0,0:0:0:0:
448,192,130969,1,0,0:0:0:0:
320,192,131044,1,0,0:0:0:0:
64,192,131194,1,0,0:0:0:0:
192,192,131194,1,0,0:0:0:0:
448,192,131344,1,0,0:0:0:0:
320,192,131419,1,0,0:0:0:0:
64,192,131494,1,0,0:0:0:0:
192,192,131569,1,0,0:0:0:0:
320,192,131644,1,0,0:0:0:0:
448,192,131644,1,0,0:0:0:0:
64,192,131794,1,0,0:0:0:0:
192,192,131794,1,0,0:0:0:0:
448,192,131794,1,0,0:0:0:0:
320,192,132094,1,0,0:0:0:0:
448,192,132094,1,0,0:0:0:0:
64,192,132094,128,0,132244:0:0:0:0:
192,192,132244,1,0,0:0:0:0:
320,192,132394,128,0,132544:0:0:0:0:
448,192,132394,1,0,0:0:0:0:
64,192,132544,1,0,0:0:0:0:
64,192,132694,128,0,132844:0:0:0:0:
448,192,132694,1,0,0:0:0:0:
192,192,132844,1,0,0:0:0:0:
320,192,132994,1,0,0:0:0:0:
448,192,132994,128,0,133144:0:0:0:0:
192,192,133144,1,0,0:0:0:0:
320,192,133294,1,0,0:0:0:0:
64,192,133294,128,0,133444:0:0:0:0:
192,192,133444,1,0,0:0:0:0:
320,192,133594,128,0,133744:0:0:0:0:
448,192,133594,1,0,0:0:0:0:
64,192,133744,1,0,0:0:0:0:
192,192,133894,128,0,134044:0:0:0:0:
448,192,133894,1,0,0:0:0:0:
64,192,134044,1,0,0:0:0:0:
320,192,134194,128,0,134344:0:0:0:0:
448,192,134194,1,0,0:0:0:0:
192,192,134344,1,0,0:0:0:0:
64,192,134494,1,0,0:0:0:0:
192,192,134494,1,0,0:0:0:0:
448,192,134494,1,0,0:0:0:0:
320,192,134644,1,0,0:0:0:0:
64,192,134719,1,0,0:0:0:0:
192,192,134794,1,0,0:0:0:0:
320,192,134869,1,0,0:0:0:0:
64,192,134944,1,0,0:0:0:0:
448,192,134944,1,0,0:0:0:0:
192,192,135094,1,0,0:0:0:0:
320,192,135094,1,0,0:0:0:0:
448,192,135169,1,0,0:0:0:0:
64,192,135244,1,0,0:0:0:0:
192,192,135319,1,0,0:0:0:0:
320,192,135394,1,0,0:0:0:0:
448,192,135394,1,0,0:0:0:0:
192,192,135469,1,0,0:0:0:0:
64,192,135544,1,0,0:0:0:0:
448,192,135544,1,0,0:0:0:0:
320,192,135619,1,0,0:0:0:0:
64,192,135694,1,0,0:0:0:0:
192,192,135694,1,0,0:0:0:0:
448,192,135769,1,0,0:0:0:0:
320,192,135844,1,0,0:0:0:0:
64,192,135919,1,0,0:0:0:0:
192,192,135994,1,0,0:0:0:0:
320,192,135994,1,0,0:0:0:0:
448,192,136069,1,0,0:0:0:0:
320,192,136144,1,0,0:0:0:0:
192,192,136219,1,0,0:0:0:0:
320,192,136294,1,0,0:0:0:0:
448,192,136294,1,0,0:0:0:0:
64,192,136369,1,0,0:0:0:0:
192,192,136369,1,0,0:0:0:0:
320,192,136444,1,0,0:0:0:0:
448,192,136444,1,0,0:0:0:0:
64,192,136519,1,0,0:0:0:0:
192,192,136519,1,0,0:0:0:0:
320,192,136594,1,0,0:0:0:0:
448,192,136594,1,0,0:0:0:0:
192,192,136669,1,0,0:0:0:0:
64,192,136669,1,0,0:0:0:0:
320,192,136744,1,0,0:0:0:0:
448,192,136744,1,0,0:0:0:0:
64,192,136819,1,0,0:0:0:0:
192,192,136819,1,0,0:0:0:0:
320,192,136894,1,0,0:0:0:0:
64,192,136894,1,0,0:0:0:0:
448,192,136894,128,0,141394:0:0:0:0:
64,192,137194,1,0,0:0:0:0:
192,192,137194,1,0,0:0:0:0:
320,192,137494,1,0,0:0:0:0:
320,192,137794,1,0,0:0:0:0:
64,192,137794,1,0,0:0:0:0:
64,192,138094,1,0,0:0:0:0:
64,192,138394,1,0,0:0:0:0:
192,192,138394,1,0,0:0:0:0:
320,192,138694,1,0,0:0:0:0:
320,192,138994,1,0,0:0:0:0:
64,192,138994,1,0,0:0:0:0:
192,192,139294,1,0,0:0:0:0:
64,192,139594,1,0,0:0:0:0:
192,192,139594,1,0,0:0:0:0:
320,192,139894,1,0,0:0:0:0:
320,192,140194,1,0,0:0:0:0:
64,192,140194,1,0,0:0:0:0:
64,192,140494,1,0,0:0:0:0:
192,192,140794,1,0,0:0:0:0:
320,192,140794,1,0,0:0:0:0:
320,192,141094,1,0,0:0:0:0:
192,192,141244,1,0,0:0:0:0:
64,192,141319,1,0,0:0:0:0:
192,192,141394,1,0,0:0:0:0:
320,192,141394,1,0,0:0:0:0:
64,192,141544,1,0,0:0:0:0:
192,192,141619,1,0,0:0:0:0:
320,192,141694,1,0,0:0:0:0:
448,192,141694,1,0,0:0:0:0:
64,192,141694,1,0,0:0:0:0:
192,192,141994,1,0,0:0:0:0:
64,192,141994,1,0,0:0:0:0:
320,192,142144,1,0,0:0:0:0:
192,192,142219,1,0,0:0:0:0:
320,192,142294,1,0,0:0:0:0:
448,192,142294,1,0,0:0:0:0:
64,192,142444,1,0,0:0:0:0:
192,192,142519,1,0,0:0:0:0:
448,192,142594,1,0,0:0:0:0:
320,192,142594,1,0,0:0:0:0:
64,192,142744,1,0,0:0:0:0:
192,192,142819,1,0,0:0:0:0:
448,192,142894,1,0,0:0:0:0:
64,192,142894,1,0,0:0:0:0:
320,192,143044,1,0,0:0:0:0:
64,192,143194,1,0,0:0:0:0:
192,192,143194,1,0,0:0:0:0:
448,192,143344,1,0,0:0:0:0:
64,192,143494,1,0,0:0:0:0:
320,192,143494,1,0,0:0:0:0:
192,192,143644,1,0,0:0:0:0:
320,192,143794,1,0,0:0:0:0:
448,192,143794,1,0,0:0:0:0:
192,192,143944,1,0,0:0:0:0:
64,192,144019,1,0,0:0:0:0:
320,192,144094,1,0,0:0:0:0:
448,192,144094,1,0,0:0:0:0:
192,192,144094,1,0,0:0:0:0:
64,192,144394,1,0,0:0:0:0:
192,192,144394,1,0,0:0:0:0:
320,192,144544,1,0,0:0:0:0:
64,192,144694,1,0,0:0:0:0:
448,192,144694,1,0,0:0:0:0:
320,192,144844,1,0,0:0:0:0:
64,192,144994,1,0,0:0:0:0:
192,192,144994,1,0,0:0:0:0:
448,192,144994,1,0,0:0:0:0:
320,192,145144,1,0,0:0:0:0:
64,192,145294,1,0,0:0:0:0:
192,192,145294,1,0,0:0:0:0:
448,192,145369,1,0,0:0:0:0:
320,192,145444,1,0,0:0:0:0:
192,192,145519,1,0,0:0:0:0:
320,192,145594,1,0,0:0:0:0:
448,192,145594,1,0,0:0:0:0:
64,192,145669,1,0,0:0:0:0:
192,192,145744,1,0,0:0:0:0:
320,192,145819,1,0,0:0:0:0:
64,192,145894,1,0,0:0:0:0:
192,192,145894,1,0,0:0:0:0:
448,192,145969,1,0,0:0:0:0:
320,192,146044,1,0,0:0:0:0:
192,192,146119,1,0,0:0:0:0:
448,192,146194,1,0,0:0:0:0:
64,192,146194,1,0,0:0:0:0:
320,192,146269,1,0,0:0:0:0:
192,192,146344,1,0,0:0:0:0:
320,192,146419,1,0,0:0:0:0:
64,192,146494,1,0,0:0:0:0:
192,192,146494,1,0,0:0:0:0:
448,192,146494,1,0,0:0:0:0:
