osu file format v14

[General]
AudioFilename: banger.mp3
AudioLeadIn: 0
PreviewTime: 214949
Countdown: 0
SampleSet: Normal
StackLeniency: 0.7
Mode: 1
LetterboxInBreaks: 0
WidescreenStoryboard: 1

[Editor]
DistanceSpacing: 2.3
BeatDivisor: 4
GridSize: 32
TimelineZoom: 2.599999

[Metadata]
Title:It's you
TitleUnicode:It's you
Artist:PassCode
ArtistUnicode:PassCode
Creator:arcpotato
Version:skolodojko's oni
Source:
Tags:female vocals j-rock jrock rock japanese 高嶋楓 Takashima Kaede 南菜生 Minami Nao 今田夢菜 Imada Yuna 大上陽奈子 Oogami Hinako skolodojko clarity idol
BeatmapID:3226526
BeatmapSetID:1578913

[Difficulty]
HPDrainRate:5
CircleSize:2
OverallDifficulty:6
ApproachRate:10
SliderMultiplier:1.4
SliderTickRate:1

[Events]
//Background and Video events
0,0,"girl.jpg",0,-110
//Break Periods
2,215435,222499
//Storyboard Layer 0 (Background)
//Storyboard Layer 1 (Fail)
//Storyboard Layer 2 (Pass)
//Storyboard Layer 3 (Foreground)
//Storyboard Layer 4 (Overlay)
//Storyboard Sound Samples

[TimingPoints]
378,285.714285714286,4,1,0,60,1,0
378,-128.205128205128,4,1,0,60,0,0
592,-123.456790123457,4,1,0,65,0,0
806,-119.047619047619,4,1,0,70,0,0
1092,-114.942528735632,4,1,0,75,0,0
1520,-111.111111111111,4,1,0,80,0,0
5235,-112.359550561798,4,1,0,80,0,0
5378,-113.636363636364,4,1,0,80,0,0
5520,-114.942528735632,4,1,0,80,0,0
5663,-116.279069767442,4,1,0,80,0,0
5806,-117.647058823529,4,1,0,80,0,0
5949,-119.047619047619,4,1,0,80,0,0
6092,-120.481927710843,4,1,0,80,0,0
8663,-119.047619047619,4,1,0,80,0,0
8806,-117.647058823529,4,1,0,80,0,0
9092,-116.279069767442,4,1,0,80,0,0
9235,-114.942528735632,4,1,0,80,0,0
9306,-113.636363636364,4,1,0,80,0,0
9378,-112.359550561798,4,1,0,80,0,0
9449,-111.111111111111,4,1,0,80,0,0
9520,-109.89010989011,4,1,0,80,0,0
10592,-100,4,1,0,100,0,0
26663,-100,4,1,0,100,0,0
26949,-103.092783505155,4,1,0,100,0,0
27235,-106.382978723404,4,1,0,100,0,0
27520,-109.89010989011,4,1,0,100,0,0
27806,-113.636363636364,4,1,0,90,0,0
28378,-113.636363636364,4,1,0,80,0,0
37520,-112.359550561798,4,1,0,80,0,0
37663,-111.111111111111,4,1,0,80,0,0
37806,-109.89010989011,4,1,0,80,0,0
37949,-108.695652173913,4,1,0,80,0,0
38092,-107.52688172043,4,1,0,80,0,0
64378,-108.991825613079,4,1,0,80,0,0
64520,-110.497237569061,4,1,0,80,0,0
64663,-112.044817927171,4,1,0,80,0,0
64806,-113.636363636364,4,1,0,80,0,0
65092,-115.273775216138,4,1,0,80,0,0
65235,-116.959064327485,4,1,0,80,0,0
65378,-118.694362017804,4,1,0,80,0,0
65503,-120.481927710843,4,1,0,70,0,0
73194,-117.647058823529,4,1,0,80,0,0
73378,-114.942528735632,4,1,0,80,0,0
73663,-112.359550561798,4,1,0,80,0,0
73806,-109.89010989011,4,1,0,80,0,0
73949,-107.52688172043,4,1,0,80,0,0
74092,-105.263157894737,4,1,0,80,0,0
74235,-103.092783505155,4,1,0,80,0,0
74378,-101.010101010101,4,1,0,80,0,0
74628,-101.010101010101,4,1,0,100,0,0
74663,-95.2380952380952,4,1,0,100,0,1
92663,-95.2380952380952,4,1,0,100,0,0
92806,-100,4,1,0,100,0,0
100092,-103.092783505155,4,1,0,100,0,0
100235,-106.382978723404,4,1,0,100,0,0
100378,-109.89010989011,4,1,0,100,0,0
100663,-113.636363636364,4,1,0,100,0,0
100854,-117.647058823529,4,1,0,80,0,0
111235,-111.111111111111,4,1,0,80,0,0
115520,-109.89010989011,4,1,0,80,0,0
115592,-108.695652173913,4,1,0,80,0,0
115663,-107.52688172043,4,1,0,80,0,0
115735,-106.382978723404,4,1,0,80,0,0
115806,-105.263157894737,4,1,0,80,0,0
127235,-104.972375690608,4,1,0,80,0,0
127378,-104.683195592287,4,1,0,80,0,0
127520,-104.395604395604,4,1,0,80,0,0
127663,-104.109589041096,4,1,0,80,0,0
127735,-103.825136612022,4,1,0,80,0,0
127806,-103.542234332425,4,1,0,80,0,0
127949,-103.260869565217,4,1,0,80,0,0
128020,-102.981029810298,4,1,0,80,0,0
128092,-102.702702702703,4,1,0,80,0,0
128235,-102.425876010782,4,1,0,80,0,0
128378,-102.150537634409,4,1,0,80,0,0
128520,-101.876675603217,4,1,0,80,0,0
128663,-101.604278074866,4,1,0,80,0,0
128735,-101.333333333333,4,1,0,80,0,0
128806,-101.063829787234,4,1,0,80,0,0
128878,-100.79575596817,4,1,0,80,0,0
128949,-100.529100529101,4,1,0,80,0,0
129092,-100.263852242744,4,1,0,80,0,0
129235,-100,4,1,0,80,0,0
129449,-100,4,1,0,100,0,0
129520,-95.2380952380952,4,1,0,100,0,1
147520,-95.2380952380952,4,1,0,100,0,0
147806,-100,4,1,0,100,0,0
148735,-101.010101010101,4,1,0,100,0,0
148806,-102.040816326531,4,1,0,100,0,0
148878,-103.092783505155,4,1,0,100,0,0
148949,-104.166666666667,4,1,0,100,0,0
149092,-106.382978723404,4,1,0,100,0,0
149378,-108.695652173913,4,1,0,100,0,0
149663,-111.111111111111,4,1,0,100,0,0
149806,-113.636363636364,4,1,0,100,0,0
150092,-100,4,1,0,100,0,0
151235,-101.449275362319,4,1,0,100,0,0
151306,-102.941176470588,4,1,0,100,0,0
151378,-104.477611940299,4,1,0,100,0,0
151520,-106.060606060606,4,1,0,100,0,0
151663,-107.692307692308,4,1,0,100,0,0
151949,-109.375,4,1,0,100,0,0
152092,-111.111111111111,4,1,0,100,0,0
152378,-100,4,1,0,100,0,0
153520,-101.694915254237,4,1,0,100,0,0
153616,-103.092783505155,4,1,0,100,0,0
153663,-104.166666666667,4,1,0,100,0,0
153806,-106.382978723404,4,1,0,100,0,0
153949,-108.695652173913,4,1,0,100,0,0
154092,-109.89010989011,4,1,0,100,0,0
154282,-112.359550561798,4,1,0,100,0,0
154378,-113.636363636364,4,1,0,100,0,0
154663,-100,4,1,0,100,0,0
155806,-101.694915254237,4,1,0,100,0,0
155949,-103.448275862069,4,1,0,100,0,0
156235,-105.263157894737,4,1,0,100,0,0
156378,-100,4,1,0,100,0,0
156878,-111.111111111111,4,1,0,90,0,0
174092,-110,4,1,0,90,0,0
174163,-108.910891089109,4,1,0,90,0,0
174235,-107.843137254902,4,1,0,90,0,0
174306,-106.796116504854,4,1,0,90,0,0
174378,-105.769230769231,4,1,0,90,0,0
174520,-104.761904761905,4,1,0,90,0,0
174663,-103.77358490566,4,1,0,90,0,0
174735,-102.803738317757,4,1,0,90,0,0
174806,-101.851851851852,4,1,0,90,0,0
174878,-100.917431192661,4,1,0,90,0,0
174949,-100,4,1,0,90,0,0
175449,-111.111111111111,4,1,0,100,0,0
175520,-95.2380952380952,4,1,0,100,0,1
184378,-95.2380952380952,4,1,0,100,0,0
191520,-94.7867298578199,4,1,0,100,0,0
191663,-94.3396226415094,4,1,0,100,0,0
191949,-93.8967136150235,4,1,0,100,0,0
192092,-93.4579439252336,4,1,0,100,0,0
192163,-93.0232558139535,4,1,0,100,0,0
192235,-92.5925925925926,4,1,0,100,0,0
192306,-92.1658986175115,4,1,0,100,0,0
192378,-91.743119266055,4,1,0,100,0,0
192520,-100,4,1,0,100,0,0
211806,-97.5609756097561,4,1,0,100,0,0
211949,-95.2380952380952,4,1,0,100,0,0
212235,-100,4,1,0,100,0,0
212806,-95.2380952380952,4,1,0,100,0,0
213235,-111.111111111111,4,1,0,95,0,0
213520,-111.111111111111,4,1,0,90,0,0
213806,-111.111111111111,4,1,0,85,0,0
214092,-111.111111111111,4,1,0,80,0,0
214378,-111.111111111111,4,1,0,75,0,0
223235,-110.429447852761,4,1,0,75,0,0
223378,-109.756097560976,4,1,0,75,0,0
223663,-109.090909090909,4,1,0,75,0,0
223806,-108.433734939759,4,1,0,75,0,0
223949,-107.784431137725,4,1,0,75,0,0
224092,-107.142857142857,4,1,0,75,0,0
224163,-106.508875739645,4,1,0,75,0,0
224235,-105.882352941176,4,1,0,75,0,0
224354,-105.263157894737,4,1,0,90,0,0
231235,-104.838709677419,4,1,0,90,0,0
231306,-104.417670682731,4,1,0,90,0,0
231378,-104,4,1,0,90,0,0
231449,-103.585657370518,4,1,0,90,0,0
231520,-103.174603174603,4,1,0,90,0,0
231663,-102.766798418972,4,1,0,90,0,0
231806,-102.362204724409,4,1,0,90,0,0
231878,-101.960784313725,4,1,0,90,0,0
231949,-101.5625,4,1,0,90,0,0
232020,-101.167315175097,4,1,0,90,0,0
232092,-100.77519379845,4,1,0,90,0,0
232235,-100.3861003861,4,1,0,90,0,0
232378,-100,4,1,0,90,0,0
233449,-100,4,1,0,100,0,0
235306,-99.009900990099,4,1,0,100,0,0
235378,-98.0392156862745,4,1,0,100,0,0
235449,-97.0873786407767,4,1,0,100,0,0
235520,-96.1538461538461,4,1,0,100,0,0
235806,-95.2380952380952,4,1,0,100,0,1
251217,-95.2380952380952,4,1,0,90,0,1
251235,-97.0873786407767,4,1,0,90,0,0
251330,-99.009900990099,4,1,0,90,0,0
251425,-101.010101010101,4,1,0,90,0,0
251520,-103.092783505155,4,1,0,90,0,0
256282,-100,4,1,0,100,0,0
274092,-98.0392156862745,4,1,0,100,0,0
274235,-96.1538461538461,4,1,0,100,0,0
274378,-94.3396226415094,4,1,0,100,0,0
274520,-92.5925925925926,4,1,0,100,0,0

[HitObjects]
136,20,378,5,8,0:0:0:0:
188,207,663,1,8,0:0:0:0:
188,207,949,1,8,0:0:0:0:
188,207,1235,1,8,0:0:0:0:
188,207,1520,1,4,0:0:0:0:
188,207,1806,1,8,0:0:0:0:
143,235,2092,1,8,0:0:0:0:
143,235,2378,1,8,0:0:0:0:
183,233,2520,1,0,0:0:0:0:
143,235,2663,1,12,0:0:0:0:
143,235,2949,1,0,0:0:0:0:
143,235,3235,1,8,0:0:0:0:
197,220,3520,1,0,0:0:0:0:
197,220,3806,1,12,0:0:0:0:
197,220,4092,1,0,0:0:0:0:
197,220,4378,1,4,0:0:0:0:
197,220,4663,1,8,0:0:0:0:
197,220,4949,1,4,0:0:0:0:
337,195,5163,1,8,0:0:0:0:
197,220,5235,1,0,0:0:0:0:
232,246,5378,1,0,0:0:0:0:
232,246,5520,1,8,0:0:0:0:
232,246,5663,1,8,0:0:0:0:
232,246,5806,1,0,0:0:0:0:
232,246,5949,1,0,0:0:0:0:
232,246,6092,1,12,0:0:0:0:
232,246,6378,1,0,0:0:0:0:
232,246,6663,1,8,0:0:0:0:
232,246,6949,1,0,0:0:0:0:
232,246,7235,1,8,0:0:0:0:
232,246,7520,1,8,0:0:0:0:
232,246,7806,1,8,0:0:0:0:
225,244,8092,1,8,0:0:0:0:
224,244,8378,1,4,0:0:0:0:
224,244,8663,1,0,0:0:0:0:
224,244,8806,1,8,0:0:0:0:
225,244,9092,1,0,0:0:0:0:
224,244,9235,1,8,0:0:0:0:
222,213,9306,1,8,0:0:0:0:
224,244,9378,1,8,0:0:0:0:
219,215,9449,1,8,0:0:0:0:
224,244,9520,1,0,0:0:0:0:
221,244,10663,5,0,0:0:0:0:
274,226,10735,1,0,0:0:0:0:
177,255,10806,1,8,0:0:0:0:
177,255,10949,1,8,0:0:0:0:
177,255,11092,1,0,0:0:0:0:
177,255,11235,1,8,0:0:0:0:
199,166,11306,1,8,0:0:0:0:
177,255,11378,1,0,0:0:0:0:
177,255,11520,1,8,0:0:0:0:
177,255,11663,1,0,0:0:0:0:
274,226,11806,1,8,0:0:0:0:
274,226,11949,1,0,0:0:0:0:
174,203,12020,1,0,0:0:0:0:
177,255,12092,1,8,0:0:0:0:
177,255,12235,1,8,0:0:0:0:
174,203,12306,1,8,0:0:0:0:
177,255,12378,1,8,0:0:0:0:
231,228,12520,1,0,0:0:0:0:
177,255,12663,1,8,0:0:0:0:
206,255,12949,1,0,0:0:0:0:
206,254,13092,1,0,0:0:0:0:
206,254,13235,1,8,0:0:0:0:
206,254,13378,1,0,0:0:0:0:
219,163,13449,1,0,0:0:0:0:
206,254,13520,1,8,0:0:0:0:
206,253,13663,1,0,0:0:0:0:
206,255,13806,1,8,0:0:0:0:
206,255,13949,1,8,0:0:0:0:
219,163,14020,1,8,0:0:0:0:
206,254,14092,1,0,0:0:0:0:
206,254,14235,1,8,0:0:0:0:
219,163,14306,1,0,0:0:0:0:
206,254,14378,1,8,0:0:0:0:
184,154,14449,1,8,0:0:0:0:
206,254,14520,1,0,0:0:0:0:
206,253,14663,1,8,0:0:0:0:
219,163,14806,1,0,0:0:0:0:
206,255,14949,1,8,0:0:0:0:
206,254,15235,1,4,0:0:0:0:
206,254,15378,1,0,0:0:0:0:
206,254,15520,1,8,0:0:0:0:
206,253,15663,1,0,0:0:0:0:
212,138,15735,1,0,0:0:0:0:
206,255,15806,1,8,0:0:0:0:
206,255,15949,1,0,0:0:0:0:
206,254,16092,1,8,0:0:0:0:
206,254,16235,1,0,0:0:0:0:
203,146,16378,1,8,0:0:0:0:
206,254,16520,1,8,0:0:0:0:
226,143,16592,1,8,0:0:0:0:
206,253,16663,1,8,0:0:0:0:
206,255,16806,1,0,0:0:0:0:
206,255,16949,1,8,0:0:0:0:
224,145,17020,1,0,0:0:0:0:
206,254,17092,1,0,0:0:0:0:
206,254,17235,1,8,0:0:0:0:
206,254,17520,1,0,0:0:0:0:
243,141,17663,1,8,0:0:0:0:
239,150,17735,1,8,0:0:0:0:
206,255,17806,1,0,0:0:0:0:
206,255,17949,1,0,0:0:0:0:
206,254,18092,1,8,0:0:0:0:
206,254,18235,1,0,0:0:0:0:
162,182,18306,1,0,0:0:0:0:
206,254,18378,1,8,0:0:0:0:
206,254,18520,1,8,0:0:0:0:
206,253,18663,1,0,0:0:0:0:
206,255,18806,1,0,0:0:0:0:
206,255,18949,1,8,0:0:0:0:
206,254,19092,1,0,0:0:0:0:
179,178,19163,1,0,0:0:0:0:
206,254,19235,1,8,0:0:0:0:
206,254,19378,1,0,0:0:0:0:
232,191,19520,1,8,0:0:0:0:
232,191,19592,1,8,0:0:0:0:
232,191,19663,1,8,0:0:0:0:
232,191,19735,1,8,0:0:0:0:
206,255,19806,1,0,0:0:0:0:
206,254,20092,1,12,0:0:0:0:
206,254,20235,1,0,0:0:0:0:
206,254,20378,1,8,0:0:0:0:
166,266,20449,1,8,0:0:0:0:
206,254,20520,1,0,0:0:0:0:
206,255,20663,1,8,0:0:0:0:
206,255,20806,1,0,0:0:0:0:
206,255,20949,1,8,0:0:0:0:
206,254,21092,1,0,0:0:0:0:
208,164,21163,1,0,0:0:0:0:
206,254,21235,1,8,0:0:0:0:
206,254,21378,1,8,0:0:0:0:
208,164,21449,1,8,0:0:0:0:
206,254,21520,1,8,0:0:0:0:
206,255,21663,1,0,0:0:0:0:
206,255,21806,1,8,0:0:0:0:
206,254,22092,1,8,0:0:0:0:
206,254,22235,1,0,0:0:0:0:
208,164,22306,1,0,0:0:0:0:
206,254,22378,1,8,0:0:0:0:
206,254,22520,1,0,0:0:0:0:
206,255,22663,1,8,0:0:0:0:
208,164,22735,1,8,0:0:0:0:
229,159,22806,1,0,0:0:0:0:
230,154,22878,1,0,0:0:0:0:
206,254,22949,1,8,0:0:0:0:
206,254,23092,1,0,0:0:0:0:
206,254,23235,1,8,0:0:0:0:
206,254,23378,1,0,0:0:0:0:
206,254,23520,1,8,0:0:0:0:
206,255,23663,1,8,0:0:0:0:
158,233,23735,1,8,0:0:0:0:
206,255,23806,1,0,0:0:0:0:
206,254,23949,1,0,0:0:0:0:
206,254,24092,1,8,0:0:0:0:
206,254,24378,1,12,0:0:0:0:
206,254,24520,1,0,0:0:0:0:
206,255,24663,1,8,0:0:0:0:
206,255,24806,1,0,0:0:0:0:
223,158,24878,1,0,0:0:0:0:
206,254,24949,1,8,0:0:0:0:
206,254,25092,1,0,0:0:0:0:
206,254,25235,1,8,0:0:0:0:
206,254,25378,1,0,0:0:0:0:
223,158,25520,1,8,0:0:0:0:
223,158,25592,1,8,0:0:0:0:
223,158,25663,1,0,0:0:0:0:
206,255,25806,1,8,0:0:0:0:
206,254,25949,1,8,0:0:0:0:
206,254,26092,1,0,0:0:0:0:
206,254,26235,1,0,0:0:0:0:
206,254,26378,1,8,0:0:0:0:
206,255,26663,1,12,0:0:0:0:
206,254,26949,1,0,0:0:0:0:
206,254,27235,1,0,0:0:0:0:
207,231,27520,1,0,0:0:0:0:
207,231,27806,1,0,0:0:0:0:
199,215,28663,1,8,0:0:0:0:
207,230,28949,1,4,0:0:0:0:
236,269,29235,1,8,0:0:0:0:
236,269,29520,1,0,0:0:0:0:
189,179,29806,1,8,0:0:0:0:
179,126,29949,1,0,0:0:0:0:
236,269,30235,1,0,0:0:0:0:
189,179,30378,1,8,0:0:0:0:
189,179,30520,1,0,0:0:0:0:
373,140,30806,1,8,0:0:0:0:
202,169,30949,1,8,0:0:0:0:
202,168,31235,1,0,0:0:0:0:
322,180,31520,1,0,0:0:0:0:
277,231,31663,1,8,0:0:0:0:
173,227,31949,1,0,0:0:0:0:
277,231,32092,1,8,0:0:0:0:
173,227,32235,1,8,0:0:0:0:
277,231,32378,1,0,0:0:0:0:
277,231,32663,1,8,0:0:0:0:
277,231,32806,1,8,0:0:0:0:
277,231,32949,1,0,0:0:0:0:
277,231,33092,1,0,0:0:0:0:
270,228,33235,1,8,0:0:0:0:
203,201,33520,1,4,0:0:0:0:
203,201,33806,1,8,0:0:0:0:
203,201,33949,1,0,0:0:0:0:
162,166,34092,1,0,0:0:0:0:
218,124,34235,1,0,0:0:0:0:
239,183,34378,1,8,0:0:0:0:
116,200,34520,1,8,0:0:0:0:
203,201,34663,1,0,0:0:0:0:
203,201,34949,1,0,0:0:0:0:
218,124,35092,1,8,0:0:0:0:
125,214,35378,1,0,0:0:0:0:
211,191,35520,1,0,0:0:0:0:
125,214,35663,1,8,0:0:0:0:
193,194,35806,1,0,0:0:0:0:
187,191,36092,1,8,0:0:0:0:
187,191,36378,1,8,0:0:0:0:
186,194,36520,1,0,0:0:0:0:
187,191,36663,1,8,0:0:0:0:
193,194,36806,1,8,0:0:0:0:
187,191,36949,1,0,0:0:0:0:
187,191,37235,1,8,0:0:0:0:
186,194,37520,1,0,0:0:0:0:
187,191,37663,1,0,0:0:0:0:
186,195,37806,1,8,0:0:0:0:
187,191,37949,1,0,0:0:0:0:
187,191,38092,1,12,0:0:0:0:
186,194,38378,1,0,0:0:0:0:
187,191,38663,1,8,0:0:0:0:
186,195,38806,1,8,0:0:0:0:
187,191,38949,1,0,0:0:0:0:
186,194,39235,1,8,0:0:0:0:
179,196,39520,1,8,0:0:0:0:
181,196,39663,1,0,0:0:0:0:
186,195,39806,1,8,0:0:0:0:
266,131,39949,1,8,0:0:0:0:
181,196,40092,1,0,0:0:0:0:
179,196,40378,1,12,0:0:0:0:
181,196,40663,1,0,0:0:0:0:
186,195,40806,1,0,0:0:0:0:
181,196,40949,1,8,0:0:0:0:
181,196,41092,1,0,0:0:0:0:
186,194,41235,1,8,0:0:0:0:
263,135,41378,1,8,0:0:0:0:
234,170,41520,1,0,0:0:0:0:
234,170,41806,1,8,0:0:0:0:
234,170,41949,1,8,0:0:0:0:
234,170,42092,1,0,0:0:0:0:
234,170,42235,5,0,0:0:0:0:
282,175,42306,1,0,0:0:0:0:
282,175,42378,1,8,0:0:0:0:
293,143,42449,1,8,0:0:0:0:
232,162,42520,1,8,0:0:0:0:
232,162,42663,1,0,0:0:0:0:
230,243,42949,1,12,0:0:0:0:
230,243,43235,1,0,0:0:0:0:
230,243,43520,1,8,0:0:0:0:
230,243,43663,1,0,0:0:0:0:
230,243,43806,1,8,0:0:0:0:
184,233,44092,1,0,0:0:0:0:
136,120,44235,1,0,0:0:0:0:
184,233,44378,1,8,0:0:0:0:
184,233,44520,1,8,0:0:0:0:
184,233,44663,1,0,0:0:0:0:
184,233,44949,1,12,0:0:0:0:
184,233,45235,1,0,0:0:0:0:
184,233,45520,1,8,0:0:0:0:
184,233,45663,1,8,0:0:0:0:
184,233,45806,1,0,0:0:0:0:
184,233,46092,1,8,0:0:0:0:
184,233,46378,1,0,0:0:0:0:
184,233,46520,1,0,0:0:0:0:
184,233,46663,1,8,0:0:0:0:
184,233,46806,1,0,0:0:0:0:
248,222,46949,1,8,0:0:0:0:
248,222,47020,1,8,0:0:0:0:
248,222,47092,1,8,0:0:0:0:
248,222,47163,1,8,0:0:0:0:
248,222,47235,1,0,0:0:0:0:
221,169,47520,1,12,0:0:0:0:
221,169,47806,1,8,0:0:0:0:
221,169,47949,1,0,0:0:0:0:
221,169,48092,1,8,0:0:0:0:
221,169,48235,1,8,0:0:0:0:
197,189,48378,1,0,0:0:0:0:
197,189,48663,1,0,0:0:0:0:
197,188,48949,1,8,0:0:0:0:
197,188,49092,1,8,0:0:0:0:
197,188,49235,1,0,0:0:0:0:
197,189,49520,1,12,0:0:0:0:
197,188,49806,1,0,0:0:0:0:
197,188,49949,1,8,0:0:0:0:
179,217,50235,1,0,0:0:0:0:
180,216,50378,1,8,0:0:0:0:
181,216,50520,1,8,0:0:0:0:
181,215,50663,1,0,0:0:0:0:
181,215,50949,1,0,0:0:0:0:
179,217,51092,1,0,0:0:0:0:
179,217,51235,1,8,0:0:0:0:
181,216,51520,1,0,0:0:0:0:
181,215,51806,1,12,0:0:0:0:
179,217,52092,1,8,0:0:0:0:
179,217,52235,1,0,0:0:0:0:
181,216,52378,1,8,0:0:0:0:
181,215,52663,1,0,0:0:0:0:
179,217,52949,1,8,0:0:0:0:
179,217,53092,1,8,0:0:0:0:
179,217,53235,1,0,0:0:0:0:
181,215,53520,1,8,0:0:0:0:
179,217,53806,1,0,0:0:0:0:
179,217,53949,1,0,0:0:0:0:
179,217,54092,1,12,0:0:0:0:
181,215,54378,1,0,0:0:0:0:
179,217,54663,1,8,0:0:0:0:
275,106,54806,1,0,0:0:0:0:
179,217,54949,1,8,0:0:0:0:
179,217,55092,1,8,0:0:0:0:
181,215,55235,1,0,0:0:0:0:
276,169,55378,1,0,0:0:0:0:
179,217,55520,1,8,0:0:0:0:
179,217,55663,1,8,0:0:0:0:
179,217,55806,1,0,0:0:0:0:
204,274,55878,1,0,0:0:0:0:
179,217,55949,1,0,0:0:0:0:
204,274,56020,1,0,0:0:0:0:
196,275,56092,1,8,0:0:0:0:
263,182,56378,1,12,0:0:0:0:
228,212,56663,1,0,0:0:0:0:
217,180,56806,1,0,0:0:0:0:
228,212,56949,1,8,0:0:0:0:
217,180,57235,1,8,0:0:0:0:
217,180,57378,1,0,0:0:0:0:
217,180,57520,1,8,0:0:0:0:
217,180,57663,1,8,0:0:0:0:
217,180,57806,1,0,0:0:0:0:
217,180,58092,1,8,0:0:0:0:
217,180,58235,1,8,0:0:0:0:
217,180,58378,1,0,0:0:0:0:
217,180,58663,1,12,0:0:0:0:
217,180,58949,1,0,0:0:0:0:
217,180,59092,1,0,0:0:0:0:
217,180,59235,1,8,0:0:0:0:
217,180,59520,1,0,0:0:0:0:
217,180,59806,1,8,0:0:0:0:
217,180,60092,1,8,0:0:0:0:
169,212,60235,1,0,0:0:0:0:
217,180,60378,1,8,0:0:0:0:
217,180,60520,1,8,0:0:0:0:
217,180,60663,1,0,0:0:0:0:
217,180,60806,1,8,0:0:0:0:
217,180,60949,1,4,0:0:0:0:
169,166,61235,1,0,0:0:0:0:
212,134,61520,1,8,0:0:0:0:
212,134,61663,1,8,0:0:0:0:
212,134,61806,1,0,0:0:0:0:
212,134,61949,1,8,0:0:0:0:
186,146,62235,1,0,0:0:0:0:
186,146,62378,1,8,0:0:0:0:
186,143,62663,1,0,0:0:0:0:
186,143,62806,1,0,0:0:0:0:
186,143,62949,1,8,0:0:0:0:
186,146,63235,1,12,0:0:0:0:
186,143,63520,1,0,0:0:0:0:
186,143,63806,1,8,0:0:0:0:
186,143,63949,1,8,0:0:0:0:
186,146,64092,1,0,0:0:0:0:
311,163,64306,1,8,0:0:0:0:
186,143,64378,5,8,0:0:0:0:
229,214,64520,1,0,0:0:0:0:
223,221,64663,1,8,0:0:0:0:
223,178,64806,1,0,0:0:0:0:
223,178,65092,1,0,0:0:0:0:
223,178,65235,1,8,0:0:0:0:
223,178,65378,1,8,0:0:0:0:
223,178,65520,1,4,0:0:0:0:
191,155,66092,1,0,0:0:0:0:
191,155,66378,1,8,0:0:0:0:
191,155,66520,1,8,0:0:0:0:
191,155,66663,1,0,0:0:0:0:
191,155,67235,1,8,0:0:0:0:
191,155,67520,1,0,0:0:0:0:
191,155,67806,1,8,0:0:0:0:
211,158,68092,1,0,0:0:0:0:
211,158,68378,1,0,0:0:0:0:
210,158,68663,1,8,0:0:0:0:
211,158,68949,1,8,0:0:0:0:
211,158,69378,1,0,0:0:0:0:
210,158,69520,1,8,0:0:0:0:
211,158,69806,1,0,0:0:0:0:
211,158,70092,1,8,0:0:0:0:
202,160,70663,1,8,0:0:0:0:
202,160,71235,1,0,0:0:0:0:
202,160,71806,1,8,0:0:0:0:
202,160,72092,1,0,0:0:0:0:
205,175,72235,1,8,0:0:0:0:
202,160,72378,1,8,0:0:0:0:
204,176,72663,1,0,0:0:0:0:
204,176,72806,1,0,0:0:0:0:
204,176,72949,1,8,0:0:0:0:
209,187,73092,1,0,0:0:0:0:
209,187,73235,5,8,0:0:0:0:
209,187,73378,1,8,0:0:0:0:
209,184,73663,5,8,0:0:0:0:
209,184,73806,1,8,0:0:0:0:
210,182,73949,1,0,0:0:0:0:
209,187,74092,1,8,0:0:0:0:
209,187,74235,1,0,0:0:0:0:
209,187,74378,1,12,0:0:0:0:
209,184,74663,5,4,0:0:0:0:
253,159,74806,1,0,0:0:0:0:
241,165,74878,1,0,0:0:0:0:
128,217,74949,1,8,0:0:0:0:
128,217,75092,1,0,0:0:0:0:
128,217,75235,1,8,0:0:0:0:
128,217,75378,1,8,0:0:0:0:
128,217,75520,1,0,0:0:0:0:
128,217,75663,1,0,0:0:0:0:
202,182,75735,1,0,0:0:0:0:
128,217,75806,1,8,0:0:0:0:
128,217,75949,1,0,0:0:0:0:
128,217,76092,1,8,0:0:0:0:
236,119,76163,1,8,0:0:0:0:
128,217,76235,1,0,0:0:0:0:
128,217,76378,1,8,0:0:0:0:
128,217,76520,1,0,0:0:0:0:
128,217,76663,1,8,0:0:0:0:
225,138,76806,1,8,0:0:0:0:
165,253,76949,1,4,0:0:0:0:
165,253,77235,1,0,0:0:0:0:
165,253,77378,1,0,0:0:0:0:
165,253,77520,1,8,0:0:0:0:
184,109,77592,1,8,0:0:0:0:
165,253,77663,1,0,0:0:0:0:
165,253,77806,1,8,0:0:0:0:
165,253,77949,1,0,0:0:0:0:
165,253,78092,1,8,0:0:0:0:
191,164,78163,1,0,0:0:0:0:
191,164,78235,1,0,0:0:0:0:
190,177,78306,1,0,0:0:0:0:
165,253,78378,1,8,0:0:0:0:
165,253,78520,1,0,0:0:0:0:
165,253,78663,1,8,0:0:0:0:
165,253,78806,1,0,0:0:0:0:
203,172,78878,1,0,0:0:0:0:
165,253,78949,1,8,0:0:0:0:
203,169,79092,1,8,0:0:0:0:
165,253,79235,1,4,0:0:0:0:
165,253,79520,1,8,0:0:0:0:
165,253,79663,1,0,0:0:0:0:
165,253,79806,1,8,0:0:0:0:
165,253,79949,1,8,0:0:0:0:
235,161,80092,1,0,0:0:0:0:
165,253,80235,1,0,0:0:0:0:
179,201,80306,1,0,0:0:0:0:
165,253,80378,1,8,0:0:0:0:
165,253,80520,1,0,0:0:0:0:
165,253,80663,1,8,0:0:0:0:
165,253,80806,1,0,0:0:0:0:
165,253,80949,1,8,0:0:0:0:
203,205,81020,1,0,0:0:0:0:
165,253,81092,1,8,0:0:0:0:
202,204,81163,1,8,0:0:0:0:
165,253,81235,1,0,0:0:0:0:
210,214,81378,1,12,0:0:0:0:
165,253,81663,1,0,0:0:0:0:
165,253,81806,1,8,0:0:0:0:
165,253,81949,1,0,0:0:0:0:
189,159,82020,1,0,0:0:0:0:
162,224,82092,1,0,0:0:0:0:
162,224,82235,1,0,0:0:0:0:
162,224,82378,1,8,0:0:0:0:
162,224,82520,1,0,0:0:0:0:
162,223,82663,1,8,0:0:0:0:
162,223,82806,1,8,0:0:0:0:
162,223,82949,1,0,0:0:0:0:
162,224,83092,1,8,0:0:0:0:
232,133,83163,1,8,0:0:0:0:
162,224,83235,1,0,0:0:0:0:
162,224,83378,1,8,0:0:0:0:
212,145,83449,1,8,0:0:0:0:
162,224,83520,1,8,0:0:0:0:
211,146,83592,1,8,0:0:0:0:
162,223,83663,1,0,0:0:0:0:
176,229,83806,1,12,0:0:0:0:
176,228,84092,1,0,0:0:0:0:
176,228,84235,1,8,0:0:0:0:
195,163,84306,1,8,0:0:0:0:
176,228,84378,1,0,0:0:0:0:
195,163,84449,1,0,0:0:0:0:
176,228,84520,1,8,0:0:0:0:
176,228,84663,1,8,0:0:0:0:
176,229,84806,1,0,0:0:0:0:
176,228,84949,1,0,0:0:0:0:
176,228,85092,1,8,0:0:0:0:
176,228,85235,1,0,0:0:0:0:
152,189,85306,1,0,0:0:0:0:
176,228,85378,1,8,0:0:0:0:
176,228,85520,1,0,0:0:0:0:
176,228,85663,1,8,0:0:0:0:
152,189,85735,1,8,0:0:0:0:
176,229,85806,1,8,0:0:0:0:
176,228,85949,1,8,0:0:0:0:
176,228,86092,1,4,0:0:0:0:
176,228,86378,1,8,0:0:0:0:
176,228,86520,1,0,0:0:0:0:
176,228,86663,1,8,0:0:0:0:
161,181,86735,1,0,0:0:0:0:
176,229,86806,1,0,0:0:0:0:
176,228,86949,1,8,0:0:0:0:
176,228,87092,1,0,0:0:0:0:
176,228,87235,1,8,0:0:0:0:
176,228,87378,1,0,0:0:0:0:
161,181,87449,1,0,0:0:0:0:
176,228,87520,1,8,0:0:0:0:
176,228,87663,1,8,0:0:0:0:
176,229,87806,1,0,0:0:0:0:
161,181,87878,1,0,0:0:0:0:
176,228,87949,1,0,0:0:0:0:
161,181,88020,1,0,0:0:0:0:
176,228,88092,1,8,0:0:0:0:
176,228,88235,1,0,0:0:0:0:
176,228,88378,1,12,0:0:0:0:
176,228,88663,1,8,0:0:0:0:
176,229,88806,1,0,0:0:0:0:
161,181,88878,1,0,0:0:0:0:
176,228,88949,1,8,0:0:0:0:
176,228,89092,1,0,0:0:0:0:
176,228,89235,1,0,0:0:0:0:
176,228,89378,1,12,0:0:0:0:
176,228,89663,1,0,0:0:0:0:
176,229,89806,1,8,0:0:0:0:
214,175,89878,1,8,0:0:0:0:
176,228,89949,1,0,0:0:0:0:
214,167,90020,1,0,0:0:0:0:
176,228,90092,1,8,0:0:0:0:
176,228,90235,1,0,0:0:0:0:
188,216,90378,1,0,0:0:0:0:
176,228,90520,1,12,0:0:0:0:
188,217,90806,1,0,0:0:0:0:
188,217,90949,1,8,0:0:0:0:
201,142,91092,1,0,0:0:0:0:
208,144,91163,1,0,0:0:0:0:
188,217,91235,1,8,0:0:0:0:
188,216,91378,1,0,0:0:0:0:
188,217,91520,1,8,0:0:0:0:
223,132,91663,1,0,0:0:0:0:
188,217,91806,1,8,0:0:0:0:
188,217,91949,1,8,0:0:0:0:
236,109,92020,1,8,0:0:0:0:
188,217,92092,1,0,0:0:0:0:
243,194,92235,1,0,0:0:0:0:
188,216,92378,1,8,0:0:0:0:
238,111,92449,1,8,0:0:0:0:
236,109,92520,1,8,0:0:0:0:
236,110,92592,1,8,0:0:0:0:
188,217,92663,1,0,0:0:0:0:
207,155,92949,1,12,0:0:0:0:
157,211,93092,1,0,0:0:0:0:
230,119,93163,1,0,0:0:0:0:
156,211,93235,1,8,0:0:0:0:
156,211,93378,1,0,0:0:0:0:
156,211,93520,1,8,0:0:0:0:
229,121,93592,1,0,0:0:0:0:
230,119,93663,1,0,0:0:0:0:
157,211,93806,1,8,0:0:0:0:
157,211,93949,1,0,0:0:0:0:
157,211,94092,1,0,0:0:0:0:
156,211,94235,1,8,0:0:0:0:
239,118,94306,1,8,0:0:0:0:
156,211,94378,1,8,0:0:0:0:
156,211,94520,1,0,0:0:0:0:
205,200,94663,1,8,0:0:0:0:
201,133,94806,1,0,0:0:0:0:
157,211,94949,1,8,0:0:0:0:
155,218,95235,1,12,0:0:0:0:
154,217,95378,1,0,0:0:0:0:
201,169,95449,1,0,0:0:0:0:
156,211,95520,1,8,0:0:0:0:
157,211,95663,1,0,0:0:0:0:
169,221,95806,1,8,0:0:0:0:
289,140,95878,1,8,0:0:0:0:
157,211,95949,1,0,0:0:0:0:
169,221,96092,1,8,0:0:0:0:
169,221,96235,1,0,0:0:0:0:
169,220,96378,1,8,0:0:0:0:
169,220,96520,1,0,0:0:0:0:
171,220,96663,1,0,0:0:0:0:
197,140,96735,1,0,0:0:0:0:
169,221,96806,1,8,0:0:0:0:
171,219,96949,1,0,0:0:0:0:
169,221,97092,1,8,0:0:0:0:
196,146,97163,1,8,0:0:0:0:
176,222,97235,1,0,0:0:0:0:
196,147,97306,1,0,0:0:0:0:
207,221,97378,1,8,0:0:0:0:
176,222,97520,1,4,0:0:0:0:
199,219,97806,1,8,0:0:0:0:
199,219,97949,1,0,0:0:0:0:
199,219,98092,1,8,0:0:0:0:
234,150,98163,1,8,0:0:0:0:
199,219,98235,1,0,0:0:0:0:
199,219,98378,1,8,0:0:0:0:
199,219,98520,1,0,0:0:0:0:
199,219,98663,1,0,0:0:0:0:
199,219,98806,1,8,0:0:0:0:
223,158,98878,1,8,0:0:0:0:
199,219,98949,1,8,0:0:0:0:
199,219,99092,1,0,0:0:0:0:
202,172,99163,1,0,0:0:0:0:
207,169,99235,1,8,0:0:0:0:
223,158,99306,1,8,0:0:0:0:
199,219,99378,1,0,0:0:0:0:
199,219,99520,1,8,0:0:0:0:
199,219,99663,1,8,0:0:0:0:
199,219,99806,1,4,0:0:0:0:
199,219,100092,1,0,0:0:0:0:
199,219,100235,1,8,0:0:0:0:
192,222,100378,1,0,0:0:0:0:
186,224,100663,1,0,0:0:0:0:
185,224,100949,1,8,0:0:0:0:
249,325,101044,1,8,0:0:0:0:
249,325,101139,1,8,0:0:0:0:
242,319,101235,1,0,0:0:0:0:
223,203,101425,1,0,0:0:0:0:
223,210,101520,1,8,0:0:0:0:
196,257,101663,1,0,0:0:0:0:
212,209,102092,1,4,0:0:0:0:
234,262,102378,1,8,0:0:0:0:
234,262,102663,1,0,0:0:0:0:
234,262,102949,1,8,0:0:0:0:
234,262,103092,1,0,0:0:0:0:
163,236,103378,1,0,0:0:0:0:
190,271,103520,1,8,0:0:0:0:
190,271,103806,1,8,0:0:0:0:
235,174,103949,1,8,0:0:0:0:
190,271,104092,1,0,0:0:0:0:
190,271,104378,1,8,0:0:0:0:
240,209,104663,1,0,0:0:0:0:
240,210,104806,1,0,0:0:0:0:
215,212,104949,1,8,0:0:0:0:
216,212,105092,1,8,0:0:0:0:
216,212,105235,1,0,0:0:0:0:
216,212,105520,1,8,0:0:0:0:
216,212,105806,1,0,0:0:0:0:
215,212,105949,1,0,0:0:0:0:
216,212,106092,1,8,0:0:0:0:
216,212,106378,1,0,0:0:0:0:
216,212,106663,1,8,0:0:0:0:
222,216,106949,1,0,0:0:0:0:
222,216,107092,1,8,0:0:0:0:
222,216,107378,1,8,0:0:0:0:
222,216,107520,1,0,0:0:0:0:
222,216,107806,1,8,0:0:0:0:
222,216,108092,1,8,0:0:0:0:
222,216,108235,1,8,0:0:0:0:
222,216,108378,1,0,0:0:0:0:
222,216,108520,1,8,0:0:0:0:
222,216,108663,1,0,0:0:0:0:
222,216,108949,1,8,0:0:0:0:
222,216,109235,1,0,0:0:0:0:
222,216,109378,1,0,0:0:0:0:
222,216,109520,1,0,0:0:0:0:
222,216,109806,1,8,0:0:0:0:
222,216,110092,1,0,0:0:0:0:
209,96,110235,1,0,0:0:0:0:
173,239,110520,1,8,0:0:0:0:
173,239,111235,1,4,0:0:0:0:
217,190,111520,1,0,0:0:0:0:
217,190,111663,1,8,0:0:0:0:
205,167,111806,1,0,0:0:0:0:
204,168,112092,1,8,0:0:0:0:
207,166,112378,1,0,0:0:0:0:
207,166,112520,1,8,0:0:0:0:
207,166,112663,1,0,0:0:0:0:
204,168,112949,1,8,0:0:0:0:
205,167,113092,1,8,0:0:0:0:
205,167,113235,1,0,0:0:0:0:
207,166,113378,1,0,0:0:0:0:
207,166,113520,1,12,0:0:0:0:
204,168,113806,1,0,0:0:0:0:
204,168,113949,1,8,0:0:0:0:
205,167,114092,1,0,0:0:0:0:
205,167,114235,1,0,0:0:0:0:
207,166,114378,1,8,0:0:0:0:
204,168,114663,1,0,0:0:0:0:
204,168,114949,1,8,0:0:0:0:
205,167,115092,1,8,0:0:0:0:
205,167,115235,1,0,0:0:0:0:
207,166,115378,1,8,0:0:0:0:
204,168,115520,1,0,0:0:0:0:
286,159,115592,1,0,0:0:0:0:
204,168,115663,1,0,0:0:0:0:
286,159,115735,1,0,0:0:0:0:
204,168,115806,1,12,0:0:0:0:
235,216,116092,1,8,0:0:0:0:
235,216,116235,1,0,0:0:0:0:
235,216,116378,1,8,0:0:0:0:
235,216,116663,1,0,0:0:0:0:
235,216,116949,1,8,0:0:0:0:
235,216,117092,1,8,0:0:0:0:
235,216,117235,1,0,0:0:0:0:
235,216,117378,1,8,0:0:0:0:
172,254,117520,1,0,0:0:0:0:
239,228,117663,1,0,0:0:0:0:
235,216,117806,1,8,0:0:0:0:
235,216,118092,1,4,0:0:0:0:
235,216,118378,1,8,0:0:0:0:
235,216,118520,1,8,0:0:0:0:
235,216,118663,1,0,0:0:0:0:
235,216,118949,1,0,0:0:0:0:
235,216,119092,1,8,0:0:0:0:
235,216,119378,1,8,0:0:0:0:
235,216,119520,1,0,0:0:0:0:
384,217,119735,1,0,0:0:0:0:
235,216,119806,1,8,0:0:0:0:
235,216,119949,1,8,0:0:0:0:
235,216,120092,1,0,0:0:0:0:
211,220,120235,1,0,0:0:0:0:
209,221,120378,1,12,0:0:0:0:
199,189,120663,1,12,0:0:0:0:
199,189,120949,1,12,0:0:0:0:
199,189,121235,1,12,0:0:0:0:
199,189,121520,1,4,0:0:0:0:
199,189,121806,1,4,0:0:0:0:
199,189,122092,1,4,0:0:0:0:
199,189,122378,1,12,0:0:0:0:
199,189,122663,1,12,0:0:0:0:
235,149,122949,1,12,0:0:0:0:
235,149,123235,1,12,0:0:0:0:
235,149,123520,1,12,0:0:0:0:
235,149,123806,1,4,0:0:0:0:
235,149,124092,1,4,0:0:0:0:
235,149,124378,1,4,0:0:0:0:
235,149,124663,1,12,0:0:0:0:
235,149,124949,1,12,0:0:0:0:
235,149,125235,1,12,0:0:0:0:
235,149,125520,1,12,0:0:0:0:
235,149,125806,1,12,0:0:0:0:
235,149,126092,1,4,0:0:0:0:
235,149,126378,1,4,0:0:0:0:
235,149,126663,1,4,0:0:0:0:
235,149,126949,1,12,0:0:0:0:
235,149,127235,1,12,0:0:0:0:
247,252,127378,1,0,0:0:0:0:
235,149,127520,1,8,0:0:0:0:
263,203,127663,1,0,0:0:0:0:
190,200,127735,1,0,0:0:0:0:
263,203,127806,1,8,0:0:0:0:
263,203,127949,1,0,0:0:0:0:
190,200,128020,1,0,0:0:0:0:
263,203,128092,1,0,0:0:0:0:
263,203,128235,1,8,0:0:0:0:
263,203,128378,1,0,0:0:0:0:
263,203,128520,1,0,0:0:0:0:
263,203,128663,1,8,0:0:0:0:
203,90,128735,1,8,0:0:0:0:
216,173,128806,1,0,0:0:0:0:
151,102,128878,1,0,0:0:0:0:
263,203,128949,1,8,0:0:0:0:
263,203,129092,1,8,0:0:0:0:
263,203,129235,1,4,0:0:0:0:
311,204,129520,1,12,0:0:0:0:
203,254,129806,1,0,0:0:0:0:
223,152,129949,1,8,0:0:0:0:
223,164,130020,1,0,0:0:0:0:
203,254,130092,1,0,0:0:0:0:
203,254,130235,1,8,0:0:0:0:
203,254,130378,1,0,0:0:0:0:
203,254,130520,1,8,0:0:0:0:
225,160,130592,1,8,0:0:0:0:
203,254,130663,1,8,0:0:0:0:
224,160,130735,1,8,0:0:0:0:
203,254,130806,1,0,0:0:0:0:
203,254,130949,1,0,0:0:0:0:
223,164,131020,1,0,0:0:0:0:
203,254,131092,1,8,0:0:0:0:
203,254,131235,1,0,0:0:0:0:
203,254,131378,1,0,0:0:0:0:
203,254,131520,1,8,0:0:0:0:
203,254,131663,1,8,0:0:0:0:
203,254,131806,1,4,0:0:0:0:
203,254,132092,1,0,0:0:0:0:
203,254,132235,1,0,0:0:0:0:
203,254,132378,1,8,0:0:0:0:
218,169,132449,1,8,0:0:0:0:
203,254,132520,1,0,0:0:0:0:
203,254,132663,1,8,0:0:0:0:
203,254,132806,1,0,0:0:0:0:
203,254,132949,1,8,0:0:0:0:
203,254,133092,1,0,0:0:0:0:
218,169,133163,1,0,0:0:0:0:
203,254,133235,1,8,0:0:0:0:
203,254,133378,1,0,0:0:0:0:
218,169,133449,1,0,0:0:0:0:
203,254,133520,1,8,0:0:0:0:
218,169,133592,1,8,0:0:0:0:
203,254,133663,1,0,0:0:0:0:
203,254,133806,1,8,0:0:0:0:
203,254,133949,1,8,0:0:0:0:
203,254,134092,1,4,0:0:0:0:
203,254,134378,1,0,0:0:0:0:
203,254,134520,1,0,0:0:0:0:
203,254,134663,1,8,0:0:0:0:
203,254,134806,1,0,0:0:0:0:
217,171,134949,1,8,0:0:0:0:
217,171,135020,1,0,0:0:0:0:
209,249,135092,1,0,0:0:0:0:
209,250,135235,1,8,0:0:0:0:
209,250,135378,1,0,0:0:0:0:
217,171,135449,1,0,0:0:0:0:
209,250,135520,1,8,0:0:0:0:
209,250,135663,1,0,0:0:0:0:
209,250,135806,1,8,0:0:0:0:
217,171,135878,1,8,0:0:0:0:
209,250,135949,1,8,0:0:0:0:
217,171,136020,1,8,0:0:0:0:
209,249,136092,1,0,0:0:0:0:
209,250,136235,1,12,0:0:0:0:
209,250,136520,1,0,0:0:0:0:
209,250,136663,1,8,0:0:0:0:
209,250,136806,1,0,0:0:0:0:
171,211,136878,1,0,0:0:0:0:
209,250,136949,1,8,0:0:0:0:
209,249,137092,1,0,0:0:0:0:
209,250,137235,1,8,0:0:0:0:
209,250,137378,1,8,0:0:0:0:
209,250,137520,1,0,0:0:0:0:
209,250,137806,1,8,0:0:0:0:
179,185,137878,1,8,0:0:0:0:
209,250,137949,1,0,0:0:0:0:
209,249,138092,1,0,0:0:0:0:
209,250,138235,1,8,0:0:0:0:
213,166,138306,1,0,0:0:0:0:
209,250,138378,1,8,0:0:0:0:
213,166,138449,1,8,0:0:0:0:
209,250,138520,1,0,0:0:0:0:
209,250,138663,1,12,0:0:0:0:
209,250,138949,1,0,0:0:0:0:
209,249,139092,1,0,0:0:0:0:
220,157,139163,1,0,0:0:0:0:
209,250,139235,1,8,0:0:0:0:
209,250,139378,1,8,0:0:0:0:
209,250,139520,1,0,0:0:0:0:
209,250,139663,1,8,0:0:0:0:
192,158,139735,1,8,0:0:0:0:
209,250,139806,1,0,0:0:0:0:
209,250,139949,1,0,0:0:0:0:
209,249,140092,1,8,0:0:0:0:
209,250,140235,1,0,0:0:0:0:
209,250,140378,1,8,0:0:0:0:
192,158,140449,1,8,0:0:0:0:
209,250,140520,1,0,0:0:0:0:
192,158,140592,1,0,0:0:0:0:
209,250,140663,1,8,0:0:0:0:
209,250,140806,1,8,0:0:0:0:
209,250,140949,1,4,0:0:0:0:
209,250,141235,1,0,0:0:0:0:
209,250,141378,1,0,0:0:0:0:
209,250,141520,1,8,0:0:0:0:
192,158,141592,1,8,0:0:0:0:
209,250,141663,1,0,0:0:0:0:
209,250,141806,1,8,0:0:0:0:
209,250,141949,1,0,0:0:0:0:
189,165,142020,1,0,0:0:0:0:
209,250,142092,1,8,0:0:0:0:
209,250,142235,1,0,0:0:0:0:
209,250,142378,1,8,0:0:0:0:
209,250,142520,1,0,0:0:0:0:
209,250,142663,1,8,0:0:0:0:
189,172,142735,1,8,0:0:0:0:
209,250,142806,1,0,0:0:0:0:
226,128,142878,1,0,0:0:0:0:
209,250,142949,1,8,0:0:0:0:
209,250,143092,1,8,0:0:0:0:
209,250,143235,1,4,0:0:0:0:
209,250,143520,1,8,0:0:0:0:
209,250,143663,1,0,0:0:0:0:
209,250,143806,1,0,0:0:0:0:
230,147,143878,1,0,0:0:0:0:
209,250,143949,1,8,0:0:0:0:
209,250,144092,1,0,0:0:0:0:
209,250,144235,1,12,0:0:0:0:
167,223,144520,1,0,0:0:0:0:
167,223,144663,1,8,0:0:0:0:
218,155,144735,1,8,0:0:0:0:
167,223,144806,1,8,0:0:0:0:
218,155,144878,1,8,0:0:0:0:
167,223,144949,1,0,0:0:0:0:
167,223,145092,1,0,0:0:0:0:
167,223,145235,1,0,0:0:0:0:
167,223,145378,1,12,0:0:0:0:
191,220,145663,1,0,0:0:0:0:
191,220,145806,1,8,0:0:0:0:
191,220,145949,1,0,0:0:0:0:
213,160,146020,1,0,0:0:0:0:
190,220,146092,1,8,0:0:0:0:
189,220,146235,1,0,0:0:0:0:
189,219,146378,1,8,0:0:0:0:
191,220,146520,1,0,0:0:0:0:
191,220,146806,1,8,0:0:0:0:
191,220,146949,1,0,0:0:0:0:
190,220,147092,1,8,0:0:0:0:
202,153,147163,1,8,0:0:0:0:
248,162,147235,1,0,0:0:0:0:
212,143,147306,1,0,0:0:0:0:
248,162,147378,1,0,0:0:0:0:
191,220,147520,1,8,0:0:0:0:
188,191,147806,1,4,0:0:0:0:
220,222,148092,1,0,0:0:0:0:
219,221,148235,1,12,0:0:0:0:
220,222,148663,1,8,0:0:0:0:
305,279,148735,1,8,0:0:0:0:
312,274,148806,1,0,0:0:0:0:
310,284,148878,1,0,0:0:0:0:
306,205,148949,1,8,0:0:0:0:
317,255,149092,1,0,0:0:0:0:
317,255,149378,1,0,0:0:0:0:
317,255,149663,1,0,0:0:0:0:
217,185,149806,1,8,0:0:0:0:
217,185,150092,1,12,0:0:0:0:
219,199,150378,1,0,0:0:0:0:
219,199,150520,1,12,0:0:0:0:
218,198,150806,1,8,0:0:0:0:
219,199,150949,1,0,0:0:0:0:
219,199,151235,1,0,0:0:0:0:
219,199,151306,1,0,0:0:0:0:
219,199,151378,1,8,0:0:0:0:
219,199,151520,1,0,0:0:0:0:
218,198,151663,1,0,0:0:0:0:
211,204,151949,1,0,0:0:0:0:
211,204,152092,1,8,0:0:0:0:
211,203,152378,1,4,0:0:0:0:
211,203,152663,1,0,0:0:0:0:
211,204,152806,1,12,0:0:0:0:
211,204,153092,1,8,0:0:0:0:
211,203,153235,1,0,0:0:0:0:
211,203,153520,1,8,0:0:0:0:
189,210,153616,1,0,0:0:0:0:
282,225,153711,1,0,0:0:0:0:
282,225,153806,1,8,0:0:0:0:
282,225,153997,1,0,0:0:0:0:
282,225,154092,1,8,0:0:0:0:
172,226,154282,1,0,0:0:0:0:
282,225,154378,1,0,0:0:0:0:
282,225,154663,1,12,0:0:0:0:
216,232,154949,1,0,0:0:0:0:
216,232,155092,1,12,0:0:0:0:
216,232,155378,1,8,0:0:0:0:
216,232,155520,1,0,0:0:0:0:
254,231,155735,1,8,0:0:0:0:
254,231,155806,1,0,0:0:0:0:
195,270,155949,1,8,0:0:0:0:
169,241,156235,1,8,0:0:0:0:
169,241,156378,1,4,0:0:0:0:
169,241,156949,1,4,0:0:0:0:
169,241,157235,1,8,0:0:0:0:
169,241,157378,1,8,0:0:0:0:
169,241,157520,1,0,0:0:0:0:
169,241,157663,1,8,0:0:0:0:
169,241,157949,1,0,0:0:0:0:
169,241,158092,1,8,0:0:0:0:
176,235,158235,1,0,0:0:0:0:
178,233,158378,1,0,0:0:0:0:
179,233,158663,1,8,0:0:0:0:
179,233,158949,1,0,0:0:0:0:
179,233,159092,1,0,0:0:0:0:
176,235,159235,1,8,0:0:0:0:
179,233,159520,1,8,0:0:0:0:
179,233,159663,1,8,0:0:0:0:
179,233,159806,1,0,0:0:0:0:
179,233,159949,1,0,0:0:0:0:
176,235,160235,1,8,0:0:0:0:
179,233,160378,1,0,0:0:0:0:
179,233,160663,1,8,0:0:0:0:
179,233,160949,1,0,0:0:0:0:
176,235,161092,1,0,0:0:0:0:
176,235,161235,1,8,0:0:0:0:
179,233,161520,1,4,0:0:0:0:
179,233,161806,1,8,0:0:0:0:
179,233,161949,1,8,0:0:0:0:
285,155,162092,1,0,0:0:0:0:
179,233,162235,1,8,0:0:0:0:
266,186,162520,1,8,0:0:0:0:
266,186,162806,1,0,0:0:0:0:
260,189,162949,1,8,0:0:0:0:
254,190,163235,1,8,0:0:0:0:
254,190,163378,1,8,0:0:0:0:
254,190,163520,1,0,0:0:0:0:
254,190,163806,1,12,0:0:0:0:
199,210,164092,1,0,0:0:0:0:
199,210,164235,1,0,0:0:0:0:
199,210,164378,1,8,0:0:0:0:
199,210,164520,1,0,0:0:0:0:
199,210,164663,1,8,0:0:0:0:
199,210,164949,1,0,0:0:0:0:
199,210,165235,1,8,0:0:0:0:
199,210,165378,1,8,0:0:0:0:
199,210,165520,1,0,0:0:0:0:
199,210,165806,1,8,0:0:0:0:
199,210,165949,1,0,0:0:0:0:
199,210,166092,1,12,0:0:0:0:
199,210,166378,1,0,0:0:0:0:
199,210,166520,1,0,0:0:0:0:
199,210,166663,1,8,0:0:0:0:
199,210,166949,1,0,0:0:0:0:
199,210,167092,1,8,0:0:0:0:
199,210,167378,1,8,0:0:0:0:
199,210,167520,1,0,0:0:0:0:
199,210,167806,1,8,0:0:0:0:
199,210,168092,1,0,0:0:0:0:
199,210,168235,1,8,0:0:0:0:
199,210,168378,1,0,0:0:0:0:
199,210,168663,1,8,0:0:0:0:
199,210,168949,1,8,0:0:0:0:
199,210,169092,1,0,0:0:0:0:
196,134,169378,1,8,0:0:0:0:
196,134,169663,1,0,0:0:0:0:
196,134,169806,1,0,0:0:0:0:
196,134,170092,1,8,0:0:0:0:
196,134,170378,1,0,0:0:0:0:
196,134,170520,1,0,0:0:0:0:
196,134,170663,1,12,0:0:0:0:
196,134,170949,1,0,0:0:0:0:
288,151,171092,1,0,0:0:0:0:
196,134,171235,1,8,0:0:0:0:
288,151,171378,1,0,0:0:0:0:
196,134,171663,1,8,0:0:0:0:
161,202,171949,1,0,0:0:0:0:
161,202,172092,1,8,0:0:0:0:
166,196,172235,1,8,0:0:0:0:
161,202,172378,1,0,0:0:0:0:
166,196,172663,1,0,0:0:0:0:
166,196,172806,1,0,0:0:0:0:
166,196,172949,1,12,0:0:0:0:
166,195,173235,1,0,0:0:0:0:
235,168,173520,1,8,0:0:0:0:
235,168,173663,1,8,0:0:0:0:
235,168,173806,1,0,0:0:0:0:
231,174,174092,1,0,0:0:0:0:
237,272,174163,1,0,0:0:0:0:
237,272,174235,1,8,0:0:0:0:
237,272,174306,1,0,0:0:0:0:
237,272,174378,1,8,0:0:0:0:
237,272,174520,1,0,0:0:0:0:
237,272,174663,1,8,0:0:0:0:
237,272,174735,1,8,0:0:0:0:
237,272,174806,1,0,0:0:0:0:
237,272,174878,1,0,0:0:0:0:
237,272,174949,1,8,0:0:0:0:
172,162,175092,1,8,0:0:0:0:
182,229,175235,1,4,0:0:0:0:
192,206,175520,1,12,0:0:0:0:
192,206,175806,1,0,0:0:0:0:
192,206,175949,1,0,0:0:0:0:
192,206,176092,1,8,0:0:0:0:
193,206,176235,1,0,0:0:0:0:
211,186,176306,1,0,0:0:0:0:
192,206,176378,1,8,0:0:0:0:
192,206,176520,1,0,0:0:0:0:
192,206,176663,1,8,0:0:0:0:
192,206,176806,1,0,0:0:0:0:
192,206,176949,1,8,0:0:0:0:
192,206,177092,1,8,0:0:0:0:
193,206,177235,1,0,0:0:0:0:
192,206,177520,1,12,0:0:0:0:
209,189,177663,1,0,0:0:0:0:
192,206,177806,1,0,0:0:0:0:
192,206,177949,1,8,0:0:0:0:
212,190,178020,1,8,0:0:0:0:
192,206,178092,1,0,0:0:0:0:
193,206,178235,1,0,0:0:0:0:
192,206,178378,1,8,0:0:0:0:
192,206,178520,1,0,0:0:0:0:
171,210,178806,1,0,0:0:0:0:
173,210,178949,1,8,0:0:0:0:
178,213,179092,1,0,0:0:0:0:
178,213,179235,1,8,0:0:0:0:
209,192,179306,1,8,0:0:0:0:
178,213,179378,1,0,0:0:0:0:
209,192,179449,1,0,0:0:0:0:
180,213,179520,1,8,0:0:0:0:
180,213,179663,1,0,0:0:0:0:
181,212,179806,1,12,0:0:0:0:
206,194,180092,1,0,0:0:0:0:
178,213,180235,1,8,0:0:0:0:
209,192,180306,1,8,0:0:0:0:
185,211,180378,1,0,0:0:0:0:
180,213,180520,1,0,0:0:0:0:
180,213,180663,1,8,0:0:0:0:
181,212,180806,1,8,0:0:0:0:
186,211,180949,1,0,0:0:0:0:
213,191,181235,1,8,0:0:0:0:
213,191,181378,1,0,0:0:0:0:
213,191,181520,1,8,0:0:0:0:
213,191,181663,1,8,0:0:0:0:
213,191,181806,1,0,0:0:0:0:
213,191,181949,1,0,0:0:0:0:
264,278,182092,1,8,0:0:0:0:
264,278,182282,1,0,0:0:0:0:
264,278,182378,1,8,0:0:0:0:
264,278,182473,1,0,0:0:0:0:
110,73,182568,1,0,0:0:0:0:
259,214,182663,1,8,0:0:0:0:
281,210,182949,1,0,0:0:0:0:
281,210,183092,1,8,0:0:0:0:
287,187,183235,1,0,0:0:0:0:
245,217,183520,1,8,0:0:0:0:
237,218,183663,1,0,0:0:0:0:
237,218,183806,1,8,0:0:0:0:
237,218,183949,1,0,0:0:0:0:
210,198,184020,1,0,0:0:0:0:
237,218,184092,1,8,0:0:0:0:
177,241,184163,1,8,0:0:0:0:
237,218,184235,1,8,0:0:0:0:
245,217,184378,1,4,0:0:0:0:
237,218,184663,1,12,0:0:0:0:
237,218,184806,1,0,0:0:0:0:
237,218,184949,1,0,0:0:0:0:
237,218,185092,1,8,0:0:0:0:
247,171,185163,1,8,0:0:0:0:
237,218,185235,1,0,0:0:0:0:
234,222,185378,1,8,0:0:0:0:
237,218,185520,1,0,0:0:0:0:
166,227,185806,1,8,0:0:0:0:
166,227,185949,1,0,0:0:0:0:
166,227,186235,1,0,0:0:0:0:
212,178,186378,1,8,0:0:0:0:
212,178,186663,1,0,0:0:0:0:
234,144,186806,1,0,0:0:0:0:
212,178,186949,1,8,0:0:0:0:
212,178,187092,1,0,0:0:0:0:
212,178,187235,1,8,0:0:0:0:
234,144,187330,1,8,0:0:0:0:
204,184,187425,1,8,0:0:0:0:
204,184,187520,1,8,0:0:0:0:
201,188,187806,1,8,0:0:0:0:
199,188,188092,1,8,0:0:0:0:
199,188,188378,1,8,0:0:0:0:
199,188,188520,1,8,0:0:0:0:
201,188,188663,1,0,0:0:0:0:
201,188,188806,1,0,0:0:0:0:
199,188,188949,1,12,0:0:0:0:
199,188,189235,1,8,0:0:0:0:
199,188,189378,1,0,0:0:0:0:
199,188,189520,1,8,0:0:0:0:
201,188,189663,1,0,0:0:0:0:
201,188,189806,1,8,0:0:0:0:
199,188,190092,1,8,0:0:0:0:
199,188,190235,1,0,0:0:0:0:
223,169,190306,1,0,0:0:0:0:
199,188,190378,1,8,0:0:0:0:
199,188,190520,1,0,0:0:0:0:
196,193,190663,1,8,0:0:0:0:
196,193,190806,1,0,0:0:0:0:
199,188,190949,1,8,0:0:0:0:
199,188,191235,1,8,0:0:0:0:
199,188,191520,5,0,0:0:0:0:
196,193,191663,1,8,0:0:0:0:
199,188,191949,1,0,0:0:0:0:
199,188,192092,1,8,0:0:0:0:
231,195,192163,1,8,0:0:0:0:
231,194,192235,1,8,0:0:0:0:
239,175,192306,1,8,0:0:0:0:
199,188,192378,1,0,0:0:0:0:
192,200,193520,1,4,0:0:0:0:
244,260,193806,1,8,0:0:0:0:
244,260,193949,1,4,0:0:0:0:
244,260,194235,1,8,0:0:0:0:
244,260,194378,1,4,0:0:0:0:
244,260,194663,1,8,0:0:0:0:
244,260,194806,1,4,0:0:0:0:
244,260,195092,1,8,0:0:0:0:
244,260,195235,1,0,0:0:0:0:
244,260,195378,1,0,0:0:0:0:
244,260,195520,1,8,0:0:0:0:
244,260,195663,1,0,0:0:0:0:
312,228,195735,1,0,0:0:0:0:
244,260,195806,1,12,0:0:0:0:
206,264,196092,1,0,0:0:0:0:
192,216,196235,1,12,0:0:0:0:
192,216,196520,1,0,0:0:0:0:
192,216,196663,1,12,0:0:0:0:
192,216,196949,1,0,0:0:0:0:
192,216,197092,1,12,0:0:0:0:
192,216,197378,1,0,0:0:0:0:
192,216,197520,1,8,0:0:0:0:
192,216,197663,1,0,0:0:0:0:
192,216,197806,1,8,0:0:0:0:
192,216,197949,1,8,0:0:0:0:
348,151,198020,1,8,0:0:0:0:
192,216,198092,1,4,0:0:0:0:
270,174,198378,1,8,0:0:0:0:
270,174,198520,1,4,0:0:0:0:
270,174,198806,1,8,0:0:0:0:
270,174,198949,1,4,0:0:0:0:
270,174,199235,1,8,0:0:0:0:
270,174,199378,1,4,0:0:0:0:
270,174,199663,1,8,0:0:0:0:
270,174,199806,1,0,0:0:0:0:
236,184,199949,1,8,0:0:0:0:
270,174,200092,1,0,0:0:0:0:
236,184,200235,1,0,0:0:0:0:
316,162,200306,1,0,0:0:0:0:
338,165,200378,1,12,0:0:0:0:
265,238,200663,1,0,0:0:0:0:
265,238,200806,1,12,0:0:0:0:
265,238,201092,1,0,0:0:0:0:
265,238,201235,1,12,0:0:0:0:
265,238,201520,1,12,0:0:0:0:
265,238,201663,1,0,0:0:0:0:
228,234,201806,1,12,0:0:0:0:
228,234,201949,1,0,0:0:0:0:
228,234,202092,1,8,0:0:0:0:
271,182,202163,1,8,0:0:0:0:
271,182,202235,1,8,0:0:0:0:
251,183,202306,1,8,0:0:0:0:
271,182,202378,1,0,0:0:0:0:
251,183,202520,1,0,0:0:0:0:
229,234,202663,1,12,0:0:0:0:
191,212,202949,1,0,0:0:0:0:
197,192,203092,1,12,0:0:0:0:
221,122,203378,1,0,0:0:0:0:
191,212,203520,1,12,0:0:0:0:
189,212,203806,1,0,0:0:0:0:
191,212,203949,1,12,0:0:0:0:
191,212,204235,1,0,0:0:0:0:
191,212,204378,1,8,0:0:0:0:
236,160,204520,1,0,0:0:0:0:
191,212,204663,1,8,0:0:0:0:
236,160,204806,1,0,0:0:0:0:
110,133,204878,1,0,0:0:0:0:
191,212,204949,1,12,0:0:0:0:
191,212,205235,1,0,0:0:0:0:
191,212,205378,1,12,0:0:0:0:
191,212,205663,1,8,0:0:0:0:
191,212,205806,1,4,0:0:0:0:
191,212,206092,1,0,0:0:0:0:
191,212,206235,1,12,0:0:0:0:
191,212,206520,1,0,0:0:0:0:
191,212,206663,1,8,0:0:0:0:
272,164,206806,1,0,0:0:0:0:
191,212,206949,1,8,0:0:0:0:
272,164,207092,1,0,0:0:0:0:
343,162,207163,1,0,0:0:0:0:
191,212,207235,1,12,0:0:0:0:
191,212,207520,1,0,0:0:0:0:
191,212,207663,1,12,0:0:0:0:
191,212,207949,1,0,0:0:0:0:
191,212,208092,1,12,0:0:0:0:
191,212,208378,1,0,0:0:0:0:
191,212,208520,1,12,0:0:0:0:
191,212,208806,1,0,0:0:0:0:
191,212,208949,1,8,0:0:0:0:
191,212,209092,1,0,0:0:0:0:
191,212,209235,1,8,0:0:0:0:
191,212,209378,1,0,0:0:0:0:
320,166,209449,1,0,0:0:0:0:
191,212,209520,1,12,0:0:0:0:
278,195,209806,1,0,0:0:0:0:
278,195,209949,1,12,0:0:0:0:
278,195,210235,1,0,0:0:0:0:
278,195,210378,1,12,0:0:0:0:
278,195,210663,5,12,0:0:0:0:
278,195,210806,1,0,0:0:0:0:
218,212,210949,1,12,0:0:0:0:
218,212,211092,1,0,0:0:0:0:
218,212,211235,1,12,0:0:0:0:
218,212,211378,1,0,0:0:0:0:
218,212,211520,1,12,0:0:0:0:
218,212,211806,1,8,0:0:0:0:
218,212,211949,1,4,0:0:0:0:
218,212,212235,1,0,0:0:0:0:
218,212,212378,1,0,0:0:0:0:
232,177,212520,1,0,0:0:0:0:
199,193,212806,1,12,0:0:0:0:
256,192,212949,12,0,214520,0:0:0:0:
254,227,214663,5,8,0:0:0:0:
204,193,215235,5,4,0:0:0:0:
332,185,222949,5,0,0:0:0:0:
332,185,223235,1,8,0:0:0:0:
215,214,223378,1,0,0:0:0:0:
50,94,223663,1,0,0:0:0:0:
152,105,223806,5,8,0:0:0:0:
50,94,223949,1,0,0:0:0:0:
316,69,224092,1,8,0:0:0:0:
347,164,224163,1,0,0:0:0:0:
317,69,224235,1,0,0:0:0:0:
347,164,224378,1,8,0:0:0:0:
216,249,224663,1,0,0:0:0:0:
216,249,224949,1,0,0:0:0:0:
216,249,225235,1,0,0:0:0:0:
216,249,225520,1,8,0:0:0:0:
202,204,225806,1,0,0:0:0:0:
202,204,226092,1,0,0:0:0:0:
202,204,226378,1,0,0:0:0:0:
202,204,226663,1,8,0:0:0:0:
202,204,226949,1,0,0:0:0:0:
202,204,227235,1,0,0:0:0:0:
202,204,227520,1,0,0:0:0:0:
209,203,227806,1,8,0:0:0:0:
209,205,228092,1,0,0:0:0:0:
209,205,228378,1,8,0:0:0:0:
209,203,228663,1,0,0:0:0:0:
209,205,228949,1,8,0:0:0:0:
209,205,229092,1,8,0:0:0:0:
209,205,229235,1,0,0:0:0:0:
209,205,229378,1,0,0:0:0:0:
209,203,229520,1,8,0:0:0:0:
209,203,229663,1,0,0:0:0:0:
209,205,229806,1,8,0:0:0:0:
244,161,229949,1,0,0:0:0:0:
209,205,230092,1,8,0:0:0:0:
209,205,230235,1,8,0:0:0:0:
209,205,230378,1,0,0:0:0:0:
209,203,230520,1,0,0:0:0:0:
209,203,230663,1,8,0:0:0:0:
209,205,230806,1,0,0:0:0:0:
209,205,230949,1,8,0:0:0:0:
209,205,231235,1,0,0:0:0:0:
264,204,231306,1,0,0:0:0:0:
264,204,231378,1,0,0:0:0:0:
264,204,231449,1,0,0:0:0:0:
264,204,231520,1,8,0:0:0:0:
264,204,231663,1,0,0:0:0:0:
264,204,231806,1,8,0:0:0:0:
264,204,231878,1,8,0:0:0:0:
264,204,231949,1,0,0:0:0:0:
272,203,232020,1,0,0:0:0:0:
264,204,232092,1,8,0:0:0:0:
272,203,232235,1,8,0:0:0:0:
267,188,233520,1,8,0:0:0:0:
259,261,233592,1,8,0:0:0:0:
259,261,233663,1,8,0:0:0:0:
259,261,233735,1,8,0:0:0:0:
259,261,233806,1,0,0:0:0:0:
259,261,233949,1,8,0:0:0:0:
184,166,234092,1,0,0:0:0:0:
259,261,234235,1,0,0:0:0:0:
259,261,234378,1,8,0:0:0:0:
259,261,234449,1,8,0:0:0:0:
259,261,234520,1,8,0:0:0:0:
259,261,234592,1,8,0:0:0:0:
259,261,234663,1,0,0:0:0:0:
259,261,234806,1,8,0:0:0:0:
242,198,234949,1,0,0:0:0:0:
186,239,235092,1,0,0:0:0:0:
186,239,235235,1,8,0:0:0:0:
186,239,235306,1,8,0:0:0:0:
186,239,235378,1,0,0:0:0:0:
186,239,235449,1,0,0:0:0:0:
186,239,235520,1,8,0:0:0:0:
186,239,235806,1,12,0:0:0:0:
208,197,236092,1,4,0:0:0:0:
197,181,236378,1,8,0:0:0:0:
197,181,236520,1,0,0:0:0:0:
258,207,236592,1,0,0:0:0:0:
197,183,236663,1,8,0:0:0:0:
197,183,236806,1,0,0:0:0:0:
197,183,236949,1,8,0:0:0:0:
197,183,237092,1,0,0:0:0:0:
258,207,237163,1,0,0:0:0:0:
197,181,237235,1,0,0:0:0:0:
197,181,237378,1,0,0:0:0:0:
197,181,237520,1,8,0:0:0:0:
197,183,237663,1,0,0:0:0:0:
197,183,237806,1,8,0:0:0:0:
287,137,237878,1,0,0:0:0:0:
197,183,237949,1,8,0:0:0:0:
287,137,238020,1,8,0:0:0:0:
258,207,238092,1,0,0:0:0:0:
197,181,238235,1,0,0:0:0:0:
197,181,238378,1,8,0:0:0:0:
239,191,238663,1,0,0:0:0:0:
239,191,238806,1,0,0:0:0:0:
239,191,238949,1,8,0:0:0:0:
239,191,239092,1,0,0:0:0:0:
206,168,239235,1,8,0:0:0:0:
286,137,239306,1,8,0:0:0:0:
286,137,239378,1,0,0:0:0:0:
206,168,239520,1,8,0:0:0:0:
206,168,239663,1,0,0:0:0:0:
177,141,239735,1,0,0:0:0:0:
206,168,239806,1,8,0:0:0:0:
286,137,239878,1,0,0:0:0:0:
206,168,239949,1,8,0:0:0:0:
206,168,240092,1,0,0:0:0:0:
206,168,240235,1,12,0:0:0:0:
206,168,240520,1,0,0:0:0:0:
206,168,240663,1,8,0:0:0:0:
257,173,240735,1,8,0:0:0:0:
206,168,240806,1,8,0:0:0:0:
257,173,240878,1,8,0:0:0:0:
206,168,240949,1,0,0:0:0:0:
206,168,241092,1,8,0:0:0:0:
257,173,241235,1,0,0:0:0:0:
257,173,241306,1,0,0:0:0:0:
257,173,241378,1,0,0:0:0:0:
206,168,241520,1,12,0:0:0:0:
203,175,241806,1,8,0:0:0:0:
202,175,241949,1,8,0:0:0:0:
202,175,242092,1,0,0:0:0:0:
202,175,242235,1,8,0:0:0:0:
216,136,242306,1,8,0:0:0:0:
202,175,242378,1,0,0:0:0:0:
211,136,242449,1,0,0:0:0:0:
202,175,242520,1,0,0:0:0:0:
203,175,242663,1,12,0:0:0:0:
202,175,242949,5,0,0:0:0:0:
202,175,243092,1,8,0:0:0:0:
271,212,243163,1,8,0:0:0:0:
202,175,243235,1,0,0:0:0:0:
202,175,243378,1,8,0:0:0:0:
202,175,243520,1,0,0:0:0:0:
203,175,243663,1,0,0:0:0:0:
271,212,243735,1,0,0:0:0:0:
202,175,243806,1,8,0:0:0:0:
271,212,243878,1,8,0:0:0:0:
202,175,243949,1,0,0:0:0:0:
202,175,244092,1,8,0:0:0:0:
202,175,244235,1,0,0:0:0:0:
202,175,244378,1,8,0:0:0:0:
202,175,244520,1,0,0:0:0:0:
271,212,244592,1,0,0:0:0:0:
203,175,244663,1,8,0:0:0:0:
202,175,244806,1,8,0:0:0:0:
202,175,244949,1,0,0:0:0:0:
240,212,245235,1,8,0:0:0:0:
251,216,245378,1,8,0:0:0:0:
251,216,245520,1,0,0:0:0:0:
271,212,245592,1,0,0:0:0:0:
251,215,245663,1,0,0:0:0:0:
251,215,245806,1,8,0:0:0:0:
251,215,245949,1,0,0:0:0:0:
250,215,246092,1,8,0:0:0:0:
229,203,246235,1,8,0:0:0:0:
251,216,246378,1,0,0:0:0:0:
251,215,246663,1,0,0:0:0:0:
251,215,246806,1,0,0:0:0:0:
211,158,246878,1,0,0:0:0:0:
230,192,246949,1,8,0:0:0:0:
250,215,247092,1,0,0:0:0:0:
251,216,247235,1,8,0:0:0:0:
200,217,247378,1,0,0:0:0:0:
251,215,247520,1,8,0:0:0:0:
263,144,247663,1,8,0:0:0:0:
216,191,247735,1,8,0:0:0:0:
198,210,247806,1,0,0:0:0:0:
254,193,247949,1,0,0:0:0:0:
196,210,248092,1,8,0:0:0:0:
197,209,248235,1,12,0:0:0:0:
198,210,248520,1,0,0:0:0:0:
198,210,248663,1,8,0:0:0:0:
198,210,248806,1,0,0:0:0:0:
196,210,248949,1,8,0:0:0:0:
209,144,249020,1,8,0:0:0:0:
196,210,249092,1,0,0:0:0:0:
209,144,249163,1,0,0:0:0:0:
197,209,249235,1,0,0:0:0:0:
197,209,249378,1,12,0:0:0:0:
230,166,249663,1,0,0:0:0:0:
230,166,249806,1,8,0:0:0:0:
230,166,249949,1,8,0:0:0:0:
230,166,250092,1,0,0:0:0:0:
230,166,250235,1,8,0:0:0:0:
207,143,250306,1,8,0:0:0:0:
230,166,250378,1,0,0:0:0:0:
230,166,250520,1,0,0:0:0:0:
230,166,250663,1,0,0:0:0:0:
209,143,250735,1,0,0:0:0:0:
239,168,250806,1,8,0:0:0:0:
210,143,250949,1,0,0:0:0:0:
239,169,251092,1,0,0:0:0:0:
240,169,251235,1,8,0:0:0:0:
354,198,251330,1,8,0:0:0:0:
354,198,251425,1,8,0:0:0:0:
240,169,251520,1,0,0:0:0:0:
239,168,251806,1,4,0:0:0:0:
244,165,252949,1,12,0:0:0:0:
240,177,253520,1,4,0:0:0:0:
242,176,253949,1,8,0:0:0:0:
351,104,255663,1,8,0:0:0:0:
398,123,255735,1,8,0:0:0:0:
258,216,255806,1,0,0:0:0:0:
250,205,255949,1,0,0:0:0:0:
187,235,256378,1,12,0:0:0:0:
187,235,256520,1,0,0:0:0:0:
187,235,256663,1,0,0:0:0:0:
187,235,256949,1,8,0:0:0:0:
187,235,257235,1,0,0:0:0:0:
187,235,257378,1,8,0:0:0:0:
187,235,257520,1,0,0:0:0:0:
187,235,257663,1,8,0:0:0:0:
187,235,257806,1,0,0:0:0:0:
187,235,257949,1,0,0:0:0:0:
187,235,258092,1,8,0:0:0:0:
187,235,258378,1,8,0:0:0:0:
187,235,258520,1,8,0:0:0:0:
187,235,258663,1,0,0:0:0:0:
187,235,258806,1,0,0:0:0:0:
187,235,258949,1,8,0:0:0:0:
187,235,259235,1,0,0:0:0:0:
187,235,259520,1,8,0:0:0:0:
187,235,259663,1,8,0:0:0:0:
187,235,259806,1,0,0:0:0:0:
187,235,259949,1,8,0:0:0:0:
187,235,260092,1,0,0:0:0:0:
187,235,260235,1,0,0:0:0:0:
187,235,260378,1,8,0:0:0:0:
187,235,260520,1,8,0:0:0:0:
187,235,260663,1,0,0:0:0:0:
187,235,260949,1,8,0:0:0:0:
187,235,261092,1,8,0:0:0:0:
187,235,261235,1,8,0:0:0:0:
187,235,261520,1,0,0:0:0:0:
187,235,261806,1,8,0:0:0:0:
187,235,261949,1,8,0:0:0:0:
187,235,262092,1,0,0:0:0:0:
187,235,262235,1,0,0:0:0:0:
187,235,262378,1,8,0:0:0:0:
187,235,262520,1,0,0:0:0:0:
187,235,262663,1,8,0:0:0:0:
187,235,262949,1,8,0:0:0:0:
187,235,263092,1,8,0:0:0:0:
187,235,263235,1,0,0:0:0:0:
187,235,263378,1,0,0:0:0:0:
187,235,263520,1,8,0:0:0:0:
187,235,263806,1,0,0:0:0:0:
187,235,264092,1,8,0:0:0:0:
187,235,264235,1,8,0:0:0:0:
187,235,264378,1,0,0:0:0:0:
187,235,264520,1,8,0:0:0:0:
187,235,264663,1,0,0:0:0:0:
187,235,264806,1,0,0:0:0:0:
187,235,264949,1,8,0:0:0:0:
187,235,265092,1,0,0:0:0:0:
187,235,265235,1,8,0:0:0:0:
187,235,265520,1,8,0:0:0:0:
187,235,265663,1,8,0:0:0:0:
187,235,265806,1,0,0:0:0:0:
187,235,266092,1,8,0:0:0:0:
187,235,266378,1,0,0:0:0:0:
187,235,266520,1,8,0:0:0:0:
187,235,266663,1,0,0:0:0:0:
187,235,266806,1,0,0:0:0:0:
187,235,266949,1,8,0:0:0:0:
187,235,267092,1,8,0:0:0:0:
187,235,267235,1,0,0:0:0:0:
187,235,267520,1,8,0:0:0:0:
187,235,267663,1,8,0:0:0:0:
187,235,267806,1,0,0:0:0:0:
187,235,267949,1,0,0:0:0:0:
187,235,268092,1,8,0:0:0:0:
187,235,268378,1,0,0:0:0:0:
187,235,268663,1,8,0:0:0:0:
187,235,268806,1,8,0:0:0:0:
187,235,268949,1,0,0:0:0:0:
187,235,269092,1,8,0:0:0:0:
187,235,269235,1,0,0:0:0:0:
187,235,269378,1,0,0:0:0:0:
187,235,269520,1,8,0:0:0:0:
187,235,269663,1,8,0:0:0:0:
187,235,269806,1,0,0:0:0:0:
187,235,270092,1,8,0:0:0:0:
187,235,270235,1,8,0:0:0:0:
187,235,270378,1,8,0:0:0:0:
187,235,270663,1,0,0:0:0:0:
187,235,270949,1,8,0:0:0:0:
187,235,271092,1,0,0:0:0:0:
187,235,271235,1,8,0:0:0:0:
187,235,271378,1,8,0:0:0:0:
187,235,271520,1,0,0:0:0:0:
187,235,271663,1,0,0:0:0:0:
187,235,271806,1,8,0:0:0:0:
187,235,272092,1,0,0:0:0:0:
187,235,272235,1,0,0:0:0:0:
187,235,272378,1,8,0:0:0:0:
187,235,272520,1,8,0:0:0:0:
187,235,272663,1,0,0:0:0:0:
187,235,272949,1,8,0:0:0:0:
187,235,273235,1,0,0:0:0:0:
187,235,273378,1,8,0:0:0:0:
187,235,273520,1,0,0:0:0:0:
187,235,273663,1,8,0:0:0:0:
187,235,273806,1,0,0:0:0:0:
187,235,273949,1,0,0:0:0:0:
187,235,274092,1,12,0:0:0:0:
187,235,274235,1,12,0:0:0:0:
187,235,274378,1,12,0:0:0:0:
264,146,274520,1,4,0:0:0:0:
