osu file format v14

[General]
AudioFilename: banger.mp3
AudioLeadIn: 0
PreviewTime: 214949
Countdown: 0
SampleSet: Normal
StackLeniency: 0.7
Mode: 1
LetterboxInBreaks: 0
WidescreenStoryboard: 0

[Editor]
Bookmarks: 9437,28937,38080,56366,73080,102080,148080,154937,193508,211794
DistanceSpacing: 2.2
BeatDivisor: 4
GridSize: 32
TimelineZoom: 1.8

[Metadata]
Title:It's you
TitleUnicode:It's you
Artist:PassCode
ArtistUnicode:PassCode
Creator:arcpotato
Version:illuminating the future
Source:
Tags:female vocals j-rock jrock rock japanese 高嶋楓 Takashima Kaede 南菜生 Minami Nao 今田夢菜 Imada Yuna 大上陽奈子 Oogami Hinako skolodojko clarity idol
BeatmapID:3223935
BeatmapSetID:1578913

[Difficulty]
HPDrainRate:6
CircleSize:2
OverallDifficulty:7
ApproachRate:5
SliderMultiplier:1.4
SliderTickRate:1

[Events]
//Background and Video events
0,0,"girl.jpg",0,-110
//Break Periods
2,215435,221749
//Storyboard Layer 0 (Background)
//Storyboard Layer 1 (Fail)
//Storyboard Layer 2 (Pass)
//Storyboard Layer 3 (Foreground)
//Storyboard Layer 4 (Overlay)
//Storyboard Sound Samples

[TimingPoints]
378,285.714285714286,4,1,0,40,1,0
378,-142.857142857143,4,1,0,40,0,0
520,-135.593220338983,4,1,0,40,0,0
663,-129.032258064516,4,1,0,40,0,0
806,-123.076923076923,4,1,0,40,0,0
949,-117.647058823529,4,1,0,48,0,0
1092,-112.676056338028,4,1,0,56,0,0
1235,-108.695652173913,4,1,0,64,0,0
1378,-103.896103896104,4,1,0,72,0,0
1520,-100,4,1,0,80,0,0
27806,-100,4,1,0,40,0,0
28235,-100,4,1,0,80,0,0
64806,-102.040816326531,4,1,0,80,0,0
65092,-104.166666666667,4,1,0,80,0,0
65235,-106.382978723404,4,1,0,80,0,0
65520,-108.695652173913,4,1,0,50,0,0
65663,-125,4,1,0,50,0,0
73092,-117.647058823529,4,1,0,50,0,0
73235,-111.111111111111,4,1,0,50,0,0
73378,-105.263157894737,4,1,0,50,0,0
73520,-100,4,1,0,50,0,0
73663,-95.2380952380952,4,1,0,50,0,0
74378,-80,4,1,0,80,0,0
74663,-100,4,1,0,90,0,1
91520,-100.71942444594,4,1,0,90,0,1
91592,-101.08435,4,1,0,90,0,1
91663,-101.449275332913,4,1,0,90,0,1
91735,-101.819528,4,1,0,90,0,1
91806,-102.189780977143,4,1,0,90,0,1
91949,-102.941176516003,4,1,0,90,0,1
92092,-103.703703734431,4,1,0,90,0,1
92235,-104.477611955892,4,1,0,90,0,1
92306,-105.263157894737,4,1,0,90,0,1
92378,-106.060606044536,4,1,0,90,0,1
92449,-106.870228975001,4,1,0,90,0,1
92520,-107.692307642604,4,1,0,90,0,1
92592,-108.527131833423,4,1,0,90,0,1
92663,-109.37500003418,4,1,0,90,0,1
92806,-110.236220489801,4,1,0,90,0,1
92949,-111.111111111111,4,1,0,80,0,0
110092,-109.58904109589,4,1,0,80,0,0
110163,-108.108108108108,4,1,0,80,0,0
110235,-106.666666666667,4,1,0,80,0,0
110306,-105.263157894737,4,1,0,80,0,0
110378,-103.896103896104,4,1,0,80,0,0
110520,-102.564102564103,4,1,0,80,0,0
110663,-101.26582278481,4,1,0,80,0,0
110949,-100,4,1,0,80,0,0
120378,-90.9090909090909,4,1,0,80,0,0
126378,-93.0232558139535,4,1,0,80,0,0
126663,-95.2380952380952,4,1,0,80,0,0
126949,-97.5609756097561,4,1,0,80,0,0
127092,-100,4,1,0,80,0,0
129520,-100,4,1,0,90,0,1
147806,-100,4,1,0,80,0,0
148663,-102.040816326531,4,1,0,80,0,0
148735,-102.564102564103,4,1,0,80,0,0
148806,-103.092783505155,4,1,0,80,0,0
148878,-103.626943005181,4,1,0,80,0,0
148949,-104.166666666667,4,1,0,80,0,0
149092,-104.712041884817,4,1,0,80,0,0
149378,-105.263157894737,4,1,0,80,0,0
150092,-100,4,1,0,80,0,0
151306,-100.502512562814,4,1,0,80,0,0
151377,-101.010101010101,4,1,0,80,0,0
151449,-101.522842639594,4,1,0,80,0,0
151520,-102.040816326531,4,1,0,80,0,0
151592,-102.564102564103,4,1,0,80,0,0
151663,-103.092783505155,4,1,0,80,0,0
151735,-103.626943005181,4,1,0,80,0,0
151806,-104.166666666667,4,1,0,80,0,0
151949,-104.712041884817,4,1,0,80,0,0
152092,-105.263157894737,4,1,0,80,0,0
152378,-95.2380952380952,4,1,0,80,0,0
156663,-97.0873786407767,4,1,0,80,0,0
156949,-99.009900990099,4,1,0,80,0,0
157092,-101.010101010101,4,1,0,80,0,0
157235,-103.092783505155,4,1,0,80,0,0
157378,-105.263157894737,4,1,0,80,0,0
173378,-104.477923814698,4,1,0,80,0,0
173520,-103.704318247812,4,1,0,80,0,0
173663,-102.942084783101,4,1,0,80,0,0
173806,-102.195151861996,4,1,0,80,0,0
173949,-101.454862731571,4,1,0,80,0,0
174092,-100.719134621195,4,1,0,80,0,0
174235,-100,4,1,0,80,0,0
193520,-100,4,1,0,80,0,1
211806,-100,4,1,0,80,0,0
212949,-100,4,1,0,60,0,0
215235,-111.111111111111,4,1,0,60,0,0
215378,-133.333333333333,4,1,0,10,0,0
222949,-125,4,1,0,70,0,0
223235,-117.647058823529,4,1,0,80,0,0
223378,-111.111111111111,4,1,0,80,0,0
223663,-105.263157894737,4,1,0,80,0,0
232449,-106.382978723404,4,1,0,50,0,0
232592,-107.52688172043,4,1,0,20,0,0
233378,-103.626943005181,4,1,0,60,0,0
233520,-100,4,1,0,100,0,0
235806,-100,4,1,0,90,0,1
251806,-100,4,1,0,80,0,0
252092,-102.564102564103,4,1,0,80,0,0
252378,-105.263157894737,4,1,0,80,0,0
252663,-106.382978723404,4,1,0,80,0,0
252806,-108.695652173913,4,1,0,80,0,0
252949,-111.111111111111,4,1,0,80,0,0
253235,-114.285714285714,4,1,0,80,0,0
253520,-117.647058823529,4,1,0,80,0,0
253806,-122.699386503067,4,1,0,80,0,0
253949,-125,4,1,0,80,0,0
254092,-125,4,1,0,60,0,0
254235,-142.857142857143,4,1,0,60,0,0
255235,-125,4,1,0,60,0,0
255592,-111.111111111111,4,1,0,80,0,0
256306,-105.263157894737,4,1,0,80,0,0
274092,-100,4,1,0,80,0,0

[HitObjects]
335,153,378,5,0,0:0:0:0:
267,149,520,1,0,0:0:0:0:
267,149,663,1,8,0:0:0:0:
267,149,806,1,0,0:0:0:0:
154,53,949,1,8,0:0:0:0:
154,53,1092,1,0,0:0:0:0:
154,53,1235,1,8,0:0:0:0:
134,133,1378,1,8,0:0:0:0:
218,81,1520,1,4,0:0:0:0:
346,216,1806,1,0,0:0:0:0:
346,216,2092,1,8,0:0:0:0:
346,216,2378,1,8,0:0:0:0:
346,216,2520,1,0,0:0:0:0:
381,171,2663,1,12,0:0:0:0:
346,216,2949,1,8,0:0:0:0:
346,216,3235,1,0,0:0:0:0:
354,219,3520,1,0,0:0:0:0:
217,125,3663,1,8,0:0:0:0:
381,172,3806,1,4,0:0:0:0:
217,125,4092,1,8,0:0:0:0:
332,104,4378,1,4,0:0:0:0:
193,110,4663,1,8,0:0:0:0:
337,108,4949,1,4,0:0:0:0:
249,168,5092,1,0,0:0:0:0:
249,168,5163,1,8,0:0:0:0:
249,168,5235,1,8,0:0:0:0:
249,168,5378,1,8,0:0:0:0:
249,168,5520,1,0,0:0:0:0:
249,168,5663,1,0,0:0:0:0:
249,168,5806,1,8,0:0:0:0:
249,168,5949,1,8,0:0:0:0:
249,168,6092,1,4,0:0:0:0:
215,232,6378,1,0,0:0:0:0:
227,74,6663,1,0,0:0:0:0:
227,74,6949,1,0,0:0:0:0:
227,74,7235,1,8,0:0:0:0:
227,74,7520,1,8,0:0:0:0:
227,74,7806,1,8,0:0:0:0:
225,94,8092,1,8,0:0:0:0:
264,211,8378,1,0,0:0:0:0:
264,211,8449,1,8,0:0:0:0:
264,211,8520,1,8,0:0:0:0:
264,211,8663,1,0,0:0:0:0:
264,211,8806,1,0,0:0:0:0:
224,192,8878,1,8,0:0:0:0:
264,211,8949,1,0,0:0:0:0:
256,224,9092,1,0,0:0:0:0:
271,203,9235,1,8,0:0:0:0:
271,203,9306,1,0,0:0:0:0:
271,203,9378,1,8,0:0:0:0:
205,187,9449,1,8,0:0:0:0:
271,203,9520,1,0,0:0:0:0:
185,88,9663,1,0,0:0:0:0:
256,192,9735,1,0,0:0:0:0:
185,88,9806,1,8,0:0:0:0:
18,179,9949,1,0,0:0:0:0:
184,188,10235,1,8,0:0:0:0:
184,188,10378,1,0,0:0:0:0:
358,159,10663,1,12,0:0:0:0:
193,199,10949,1,8,0:0:0:0:
395,249,11092,1,0,0:0:0:0:
213,305,11235,1,8,0:0:0:0:
240,125,11520,1,0,0:0:0:0:
240,125,11663,1,8,0:0:0:0:
395,249,11735,1,0,0:0:0:0:
398,237,11806,1,8,0:0:0:0:
240,125,11949,1,0,0:0:0:0:
240,125,12092,1,8,0:0:0:0:
240,125,12378,1,8,0:0:0:0:
250,106,12520,1,0,0:0:0:0:
250,106,12663,1,8,0:0:0:0:
430,186,12806,1,8,0:0:0:0:
430,186,12878,1,8,0:0:0:0:
256,160,12949,1,0,0:0:0:0:
256,160,13092,1,0,0:0:0:0:
256,160,13235,1,8,0:0:0:0:
256,128,13378,1,0,0:0:0:0:
256,128,13520,1,8,0:0:0:0:
256,128,13806,1,8,0:0:0:0:
256,128,13949,1,0,0:0:0:0:
400,224,14020,1,0,0:0:0:0:
400,224,14092,1,8,0:0:0:0:
192,160,14235,1,0,0:0:0:0:
192,160,14378,1,8,0:0:0:0:
192,160,14520,1,8,0:0:0:0:
331,82,14592,1,8,0:0:0:0:
192,160,14663,1,0,0:0:0:0:
192,160,14806,1,0,0:0:0:0:
192,160,14949,1,8,0:0:0:0:
192,160,15092,1,8,0:0:0:0:
192,160,15235,1,4,0:0:0:0:
192,160,15520,1,8,0:0:0:0:
192,160,15663,1,0,0:0:0:0:
271,243,15806,1,8,0:0:0:0:
192,160,16092,1,0,0:0:0:0:
192,160,16235,1,8,0:0:0:0:
419,296,16306,1,0,0:0:0:0:
419,296,16378,1,8,0:0:0:0:
288,160,16520,1,0,0:0:0:0:
288,160,16663,1,8,0:0:0:0:
288,160,16949,1,8,0:0:0:0:
288,160,17092,1,0,0:0:0:0:
288,96,17235,1,8,0:0:0:0:
404,166,17378,1,8,0:0:0:0:
404,166,17449,1,8,0:0:0:0:
256,96,17520,1,0,0:0:0:0:
256,96,17663,1,0,0:0:0:0:
256,96,17806,1,8,0:0:0:0:
256,96,17949,1,0,0:0:0:0:
256,96,18092,1,8,0:0:0:0:
256,160,18378,1,8,0:0:0:0:
256,160,18520,1,0,0:0:0:0:
348,241,18592,1,0,0:0:0:0:
348,241,18663,1,8,0:0:0:0:
256,160,18806,1,0,0:0:0:0:
224,96,18949,1,12,0:0:0:0:
224,96,19092,1,0,0:0:0:0:
224,96,19235,1,0,0:0:0:0:
224,160,19378,1,8,0:0:0:0:
224,160,19449,1,8,0:0:0:0:
224,160,19520,1,0,0:0:0:0:
224,160,19592,1,0,0:0:0:0:
224,160,19663,1,8,0:0:0:0:
224,160,19735,1,8,0:0:0:0:
224,160,19806,1,0,0:0:0:0:
256,160,20092,1,12,0:0:0:0:
343,126,20235,1,0,0:0:0:0:
256,160,20378,1,8,0:0:0:0:
256,160,20520,1,8,0:0:0:0:
256,160,20663,1,0,0:0:0:0:
417,211,20806,1,0,0:0:0:0:
160,160,20949,1,8,0:0:0:0:
417,211,21020,1,8,0:0:0:0:
44,149,21092,1,0,0:0:0:0:
417,211,21163,1,0,0:0:0:0:
160,128,21235,1,8,0:0:0:0:
216,265,21378,1,8,0:0:0:0:
192,128,21520,1,0,0:0:0:0:
192,128,21663,1,8,0:0:0:0:
192,128,21806,1,0,0:0:0:0:
192,128,22092,1,8,0:0:0:0:
192,128,22163,1,8,0:0:0:0:
192,128,22235,1,8,0:0:0:0:
320,128,22306,1,8,0:0:0:0:
192,128,22378,1,0,0:0:0:0:
352,224,22520,1,8,0:0:0:0:
128,96,22663,1,0,0:0:0:0:
128,96,22735,1,0,0:0:0:0:
128,96,22806,1,0,0:0:0:0:
128,96,22949,1,8,0:0:0:0:
128,96,23092,1,0,0:0:0:0:
160,192,23378,1,0,0:0:0:0:
392,110,23520,1,8,0:0:0:0:
392,110,23663,1,8,0:0:0:0:
256,160,23806,1,0,0:0:0:0:
300,183,23878,1,0,0:0:0:0:
256,160,23949,1,0,0:0:0:0:
256,160,24092,1,8,0:0:0:0:
224,224,24235,1,0,0:0:0:0:
224,224,24378,1,12,0:0:0:0:
224,224,24663,1,8,0:0:0:0:
224,224,24949,1,0,0:0:0:0:
224,224,25092,1,0,0:0:0:0:
224,224,25235,1,8,0:0:0:0:
224,224,25520,1,0,0:0:0:0:
224,224,25592,1,0,0:0:0:0:
224,224,25663,1,0,0:0:0:0:
224,224,25735,1,0,0:0:0:0:
224,224,25806,1,8,0:0:0:0:
96,128,25949,1,8,0:0:0:0:
224,224,26092,1,0,0:0:0:0:
387,147,26163,1,0,0:0:0:0:
224,192,26235,1,0,0:0:0:0:
224,224,26378,1,8,0:0:0:0:
224,192,26663,1,12,0:0:0:0:
224,192,26949,1,0,0:0:0:0:
224,192,27235,1,0,0:0:0:0:
224,192,27520,1,0,0:0:0:0:
224,192,27806,1,0,0:0:0:0:
224,192,27878,1,0,0:0:0:0:
224,192,27949,1,0,0:0:0:0:
224,192,28020,1,0,0:0:0:0:
224,192,28092,1,8,0:0:0:0:
448,256,28235,1,8,0:0:0:0:
448,256,28306,1,8,0:0:0:0:
448,256,28378,1,0,0:0:0:0:
448,256,28449,1,8,0:0:0:0:
448,256,28520,1,0,0:0:0:0:
448,256,28592,1,0,0:0:0:0:
448,256,28663,1,12,0:0:0:0:
256,160,28949,1,4,0:0:0:0:
256,160,29235,1,8,0:0:0:0:
179,196,29378,1,0,0:0:0:0:
256,160,29520,1,8,0:0:0:0:
85,115,29592,1,8,0:0:0:0:
256,160,29663,1,0,0:0:0:0:
256,160,29806,1,8,0:0:0:0:
256,160,29949,1,8,0:0:0:0:
256,160,30235,1,0,0:0:0:0:
256,160,30378,1,8,0:0:0:0:
288,160,30520,1,8,0:0:0:0:
288,160,30663,1,0,0:0:0:0:
480,224,30806,1,0,0:0:0:0:
276,70,30878,1,0,0:0:0:0:
160,128,30949,1,8,0:0:0:0:
160,128,31092,1,8,0:0:0:0:
160,128,31235,1,0,0:0:0:0:
192,128,31378,1,0,0:0:0:0:
160,128,31520,1,8,0:0:0:0:
160,128,31592,1,8,0:0:0:0:
160,128,31663,1,0,0:0:0:0:
427,263,31806,1,8,0:0:0:0:
224,224,31949,1,0,0:0:0:0:
256,224,32092,1,8,0:0:0:0:
64,192,32235,1,8,0:0:0:0:
256,224,32378,1,0,0:0:0:0:
414,243,32449,1,0,0:0:0:0:
396,226,32520,1,0,0:0:0:0:
297,67,32663,1,8,0:0:0:0:
256,116,32806,1,0,0:0:0:0:
279,285,32949,1,8,0:0:0:0:
103,195,33020,1,0,0:0:0:0:
301,74,33092,1,0,0:0:0:0:
103,195,33163,1,0,0:0:0:0:
256,116,33235,1,8,0:0:0:0:
467,92,33378,1,8,0:0:0:0:
333,159,33520,1,4,0:0:0:0:
254,236,33806,1,8,0:0:0:0:
254,236,33949,1,0,0:0:0:0:
196,73,34020,1,8,0:0:0:0:
254,236,34092,1,0,0:0:0:0:
254,236,34235,1,8,0:0:0:0:
254,236,34378,1,8,0:0:0:0:
254,236,34520,1,8,0:0:0:0:
126,90,34592,1,0,0:0:0:0:
126,90,34663,1,8,0:0:0:0:
126,90,34735,1,8,0:0:0:0:
126,90,34806,1,0,0:0:0:0:
254,236,34949,1,8,0:0:0:0:
232,89,35092,1,0,0:0:0:0:
232,89,35235,1,0,0:0:0:0:
232,89,35378,1,0,0:0:0:0:
232,89,35520,1,8,0:0:0:0:
232,89,35663,1,0,0:0:0:0:
232,89,35806,1,8,0:0:0:0:
207,274,35878,1,0,0:0:0:0:
216,274,35949,1,0,0:0:0:0:
216,274,36020,1,0,0:0:0:0:
484,291,36092,1,8,0:0:0:0:
392,157,36235,1,8,0:0:0:0:
478,268,36378,1,0,0:0:0:0:
478,268,36520,1,8,0:0:0:0:
478,268,36663,1,8,0:0:0:0:
126,155,36735,1,8,0:0:0:0:
307,200,36806,1,0,0:0:0:0:
206,59,36878,1,8,0:0:0:0:
307,200,36949,1,8,0:0:0:0:
124,61,37020,1,8,0:0:0:0:
124,61,37092,1,0,0:0:0:0:
186,200,37235,1,8,0:0:0:0:
349,127,37520,1,0,0:0:0:0:
349,127,37663,1,0,0:0:0:0:
349,127,37806,1,8,0:0:0:0:
349,127,37949,1,0,0:0:0:0:
349,127,38092,1,12,0:0:0:0:
227,221,38378,1,8,0:0:0:0:
397,258,38449,1,8,0:0:0:0:
427,109,38520,1,0,0:0:0:0:
227,221,38663,1,8,0:0:0:0:
158,219,38806,1,0,0:0:0:0:
267,120,38878,1,0,0:0:0:0:
227,221,38949,1,8,0:0:0:0:
158,219,39092,1,0,0:0:0:0:
227,221,39235,1,0,0:0:0:0:
288,51,39306,1,0,0:0:0:0:
21,120,39378,1,8,0:0:0:0:
288,51,39449,1,8,0:0:0:0:
178,87,39520,1,0,0:0:0:0:
288,51,39592,1,0,0:0:0:0:
191,217,39663,1,8,0:0:0:0:
328,109,39806,1,8,0:0:0:0:
450,260,39949,1,0,0:0:0:0:
411,87,40020,1,8,0:0:0:0:
328,109,40092,1,0,0:0:0:0:
263,165,40235,1,0,0:0:0:0:
263,165,40378,1,12,0:0:0:0:
210,136,40663,1,8,0:0:0:0:
267,88,40735,1,0,0:0:0:0:
210,136,40806,1,0,0:0:0:0:
267,88,40878,1,0,0:0:0:0:
223,48,40949,1,8,0:0:0:0:
273,186,41092,1,8,0:0:0:0:
223,48,41235,1,0,0:0:0:0:
260,57,41306,1,0,0:0:0:0:
421,99,41378,1,8,0:0:0:0:
446,221,41520,1,0,0:0:0:0:
315,74,41663,1,0,0:0:0:0:
433,241,41806,1,12,0:0:0:0:
433,241,42092,1,8,0:0:0:0:
90,114,42163,1,8,0:0:0:0:
229,123,42235,1,0,0:0:0:0:
307,178,42306,1,0,0:0:0:0:
307,178,42378,1,8,0:0:0:0:
307,178,42449,1,0,0:0:0:0:
307,178,42520,1,0,0:0:0:0:
132,222,42592,1,0,0:0:0:0:
229,125,42663,1,8,0:0:0:0:
262,212,42806,1,0,0:0:0:0:
194,234,42949,1,12,0:0:0:0:
194,234,43235,1,0,0:0:0:0:
194,234,43520,1,0,0:0:0:0:
274,132,43663,1,0,0:0:0:0:
218,142,43806,1,8,0:0:0:0:
141,128,43878,1,8,0:0:0:0:
274,132,43949,1,0,0:0:0:0:
218,142,44092,1,8,0:0:0:0:
218,142,44235,1,0,0:0:0:0:
469,275,44520,1,0,0:0:0:0:
343,128,44663,1,8,0:0:0:0:
343,128,44949,1,12,0:0:0:0:
343,128,45235,1,8,0:0:0:0:
472,264,45378,1,8,0:0:0:0:
343,128,45520,1,0,0:0:0:0:
241,196,45592,1,0,0:0:0:0:
209,114,45663,1,0,0:0:0:0:
343,128,45806,1,8,0:0:0:0:
209,114,45949,1,0,0:0:0:0:
214,118,46092,1,0,0:0:0:0:
361,49,46163,1,0,0:0:0:0:
369,56,46235,1,8,0:0:0:0:
343,128,46378,1,0,0:0:0:0:
440,217,46520,1,8,0:0:0:0:
440,217,46663,1,0,0:0:0:0:
280,219,46806,1,8,0:0:0:0:
280,219,46878,1,0,0:0:0:0:
280,219,46949,1,8,0:0:0:0:
280,219,47020,1,8,0:0:0:0:
280,219,47092,1,0,0:0:0:0:
280,219,47163,1,0,0:0:0:0:
280,219,47235,1,12,0:0:0:0:
130,98,47520,1,8,0:0:0:0:
130,98,47592,1,8,0:0:0:0:
130,98,47663,1,0,0:0:0:0:
278,71,47806,1,8,0:0:0:0:
268,72,47949,1,0,0:0:0:0:
268,72,48092,1,8,0:0:0:0:
268,72,48235,1,8,0:0:0:0:
266,75,48378,1,0,0:0:0:0:
266,75,48663,1,8,0:0:0:0:
268,72,48949,1,0,0:0:0:0:
268,72,49092,1,0,0:0:0:0:
268,72,49235,1,8,0:0:0:0:
266,75,49378,1,8,0:0:0:0:
266,75,49520,1,4,0:0:0:0:
268,72,49806,1,8,0:0:0:0:
175,46,49949,1,8,0:0:0:0:
144,63,50092,1,0,0:0:0:0:
145,64,50235,1,0,0:0:0:0:
387,190,50306,1,0,0:0:0:0:
145,64,50378,1,8,0:0:0:0:
149,63,50520,1,8,0:0:0:0:
157,53,50663,1,0,0:0:0:0:
387,190,50735,1,0,0:0:0:0:
326,91,50806,1,0,0:0:0:0:
350,203,50949,1,8,0:0:0:0:
169,219,51235,1,0,0:0:0:0:
169,219,51306,1,0,0:0:0:0:
169,219,51378,1,0,0:0:0:0:
169,219,51520,1,8,0:0:0:0:
492,301,51663,1,0,0:0:0:0:
492,301,51806,1,12,0:0:0:0:
369,228,52092,1,8,0:0:0:0:
271,187,52378,1,0,0:0:0:0:
271,187,52520,1,0,0:0:0:0:
271,187,52663,1,8,0:0:0:0:
271,187,52806,1,0,0:0:0:0:
271,187,52949,1,8,0:0:0:0:
447,268,53235,1,8,0:0:0:0:
447,268,53520,1,0,0:0:0:0:
221,65,53663,1,8,0:0:0:0:
221,65,53806,1,0,0:0:0:0:
293,119,53949,1,0,0:0:0:0:
246,85,54092,1,12,0:0:0:0:
301,122,54378,1,8,0:0:0:0:
303,124,54663,1,0,0:0:0:0:
192,149,54806,1,0,0:0:0:0:
303,124,54949,1,8,0:0:0:0:
301,122,55092,1,0,0:0:0:0:
309,129,55163,1,0,0:0:0:0:
309,129,55235,1,8,0:0:0:0:
445,191,55378,1,0,0:0:0:0:
445,191,55520,1,8,0:0:0:0:
445,191,55663,1,0,0:0:0:0:
445,191,55806,1,8,0:0:0:0:
445,191,55878,1,8,0:0:0:0:
445,191,55949,1,0,0:0:0:0:
445,191,56020,1,0,0:0:0:0:
222,72,56092,1,8,0:0:0:0:
304,178,56378,1,0,0:0:0:0:
398,282,56449,1,0,0:0:0:0:
237,250,56520,1,0,0:0:0:0:
304,178,56663,1,8,0:0:0:0:
242,242,56806,1,8,0:0:0:0:
355,60,56878,1,8,0:0:0:0:
304,178,56949,1,0,0:0:0:0:
98,230,57092,1,0,0:0:0:0:
304,178,57235,1,8,0:0:0:0:
350,67,57306,1,0,0:0:0:0:
120,235,57378,1,0,0:0:0:0:
304,178,57520,1,8,0:0:0:0:
274,299,57592,1,8,0:0:0:0:
194,128,57663,1,0,0:0:0:0:
274,299,57735,1,0,0:0:0:0:
194,128,57806,1,8,0:0:0:0:
412,209,57878,1,0,0:0:0:0:
272,170,57949,1,8,0:0:0:0:
306,82,58092,1,0,0:0:0:0:
221,77,58235,1,8,0:0:0:0:
221,77,58378,1,8,0:0:0:0:
416,108,58449,1,8,0:0:0:0:
221,77,58520,1,0,0:0:0:0:
221,77,58663,1,12,0:0:0:0:
221,77,58949,1,8,0:0:0:0:
348,177,59020,1,8,0:0:0:0:
221,77,59092,1,8,0:0:0:0:
370,312,59235,1,0,0:0:0:0:
221,77,59378,1,8,0:0:0:0:
290,56,59449,1,8,0:0:0:0:
221,77,59520,1,0,0:0:0:0:
290,56,59592,1,0,0:0:0:0:
154,238,59663,1,8,0:0:0:0:
221,77,59806,1,0,0:0:0:0:
309,68,59878,1,8,0:0:0:0:
420,130,59949,1,0,0:0:0:0:
309,68,60020,1,0,0:0:0:0:
221,77,60092,1,8,0:0:0:0:
313,81,60163,1,0,0:0:0:0:
221,77,60235,1,8,0:0:0:0:
313,247,60378,1,0,0:0:0:0:
198,136,60520,1,0,0:0:0:0:
323,176,60663,1,12,0:0:0:0:
323,176,60949,1,0,0:0:0:0:
434,278,61092,1,8,0:0:0:0:
323,176,61235,1,8,0:0:0:0:
239,92,61378,1,0,0:0:0:0:
323,176,61520,1,8,0:0:0:0:
445,228,61663,1,0,0:0:0:0:
323,176,61806,1,0,0:0:0:0:
245,95,61949,1,8,0:0:0:0:
323,176,62092,1,0,0:0:0:0:
374,216,62378,1,8,0:0:0:0:
422,235,62520,1,8,0:0:0:0:
374,216,62663,1,0,0:0:0:0:
374,216,62806,1,0,0:0:0:0:
374,216,62949,1,8,0:0:0:0:
200,194,63092,1,0,0:0:0:0:
374,216,63235,1,12,0:0:0:0:
240,92,63520,1,8,0:0:0:0:
240,92,63663,1,0,0:0:0:0:
240,92,63806,1,0,0:0:0:0:
245,97,63949,1,0,0:0:0:0:
251,106,64092,1,8,0:0:0:0:
280,225,64235,1,0,0:0:0:0:
280,225,64306,1,0,0:0:0:0:
280,225,64378,1,8,0:0:0:0:
280,225,64520,1,8,0:0:0:0:
246,192,64806,1,0,0:0:0:0:
246,192,65092,1,0,0:0:0:0:
246,192,65235,1,0,0:0:0:0:
253,193,65520,1,12,0:0:0:0:
83,172,66378,1,0,0:0:0:0:
83,172,66520,1,0,0:0:0:0:
83,172,66663,1,8,0:0:0:0:
280,142,67520,1,8,0:0:0:0:
280,142,67806,1,0,0:0:0:0:
280,142,68092,1,0,0:0:0:0:
280,142,68378,1,8,0:0:0:0:
280,142,68663,1,8,0:0:0:0:
280,142,68949,1,0,0:0:0:0:
280,142,69378,1,0,0:0:0:0:
280,142,69520,1,8,0:0:0:0:
248,174,69806,1,8,0:0:0:0:
153,268,70092,1,4,0:0:0:0:
153,268,70663,1,8,0:0:0:0:
498,316,71235,1,0,0:0:0:0:
240,171,72092,1,0,0:0:0:0:
240,171,72235,1,0,0:0:0:0:
89,200,72378,1,8,0:0:0:0:
214,78,72663,1,8,0:0:0:0:
214,78,72806,1,0,0:0:0:0:
231,105,73092,1,0,0:0:0:0:
231,105,73235,1,8,0:0:0:0:
335,306,73378,1,0,0:0:0:0:
481,216,73520,1,0,0:0:0:0:
336,199,73663,1,12,0:0:0:0:
238,208,73806,1,12,0:0:0:0:
238,208,73949,1,0,0:0:0:0:
331,206,74092,1,12,0:0:0:0:
214,194,74378,1,4,0:0:0:0:
416,232,74663,1,12,0:0:0:0:
250,259,74949,1,8,0:0:0:0:
250,259,75092,1,0,0:0:0:0:
89,170,75235,1,8,0:0:0:0:
250,220,75306,1,0,0:0:0:0:
250,249,75378,1,0,0:0:0:0:
214,114,75449,1,0,0:0:0:0:
94,179,75520,1,8,0:0:0:0:
261,246,75663,1,8,0:0:0:0:
19,173,75806,1,0,0:0:0:0:
259,248,75949,1,8,0:0:0:0:
458,129,76020,1,8,0:0:0:0:
19,173,76092,1,0,0:0:0:0:
19,173,76163,1,0,0:0:0:0:
28,169,76235,1,8,0:0:0:0:
233,83,76378,1,0,0:0:0:0:
233,83,76520,1,0,0:0:0:0:
298,136,76592,1,0,0:0:0:0:
233,83,76663,1,8,0:0:0:0:
233,83,76806,1,8,0:0:0:0:
330,117,76949,1,0,0:0:0:0:
381,190,77020,1,0,0:0:0:0:
217,207,77092,1,8,0:0:0:0:
433,267,77163,1,0,0:0:0:0:
217,207,77235,1,0,0:0:0:0:
155,286,77378,1,8,0:0:0:0:
160,101,77520,1,0,0:0:0:0:
124,85,77663,1,0,0:0:0:0:
288,288,77735,1,0,0:0:0:0:
124,85,77806,1,8,0:0:0:0:
155,89,77949,1,8,0:0:0:0:
155,89,78092,1,0,0:0:0:0:
294,74,78163,1,8,0:0:0:0:
281,65,78235,1,0,0:0:0:0:
243,319,78306,1,0,0:0:0:0:
281,65,78378,1,8,0:0:0:0:
281,65,78520,1,0,0:0:0:0:
281,65,78663,1,8,0:0:0:0:
273,168,78735,1,8,0:0:0:0:
296,80,78806,1,0,0:0:0:0:
294,74,78949,1,8,0:0:0:0:
294,74,79092,1,0,0:0:0:0:
80,177,79163,1,0,0:0:0:0:
298,82,79235,1,8,0:0:0:0:
123,185,79306,1,8,0:0:0:0:
298,82,79378,1,0,0:0:0:0:
298,82,79520,1,8,0:0:0:0:
256,192,79592,1,0,0:0:0:0:
265,208,79663,1,8,0:0:0:0:
136,166,79806,1,0,0:0:0:0:
136,167,79949,1,0,0:0:0:0:
265,208,80020,1,0,0:0:0:0:
136,167,80092,1,8,0:0:0:0:
336,316,80163,1,0,0:0:0:0:
201,283,80235,1,0,0:0:0:0:
265,208,80378,1,8,0:0:0:0:
398,115,80449,1,8,0:0:0:0:
265,208,80520,1,8,0:0:0:0:
265,208,80663,1,0,0:0:0:0:
265,208,80806,1,8,0:0:0:0:
251,222,80949,1,0,0:0:0:0:
266,174,81020,1,8,0:0:0:0:
262,166,81092,1,8,0:0:0:0:
266,166,81235,1,0,0:0:0:0:
244,76,81378,1,8,0:0:0:0:
415,253,81449,1,8,0:0:0:0:
388,279,81520,1,0,0:0:0:0:
388,279,81592,1,8,0:0:0:0:
88,180,81663,1,0,0:0:0:0:
154,282,81735,1,0,0:0:0:0:
136,139,81806,1,8,0:0:0:0:
256,192,81949,1,8,0:0:0:0:
136,139,82092,1,0,0:0:0:0:
314,101,82235,1,8,0:0:0:0:
323,89,82378,1,0,0:0:0:0:
224,192,82449,1,0,0:0:0:0:
323,89,82520,1,8,0:0:0:0:
231,82,82663,1,8,0:0:0:0:
231,82,82806,1,0,0:0:0:0:
315,217,82949,1,8,0:0:0:0:
256,192,83020,1,0,0:0:0:0:
315,217,83092,1,0,0:0:0:0:
320,192,83163,1,0,0:0:0:0:
401,83,83235,1,8,0:0:0:0:
159,204,83378,1,0,0:0:0:0:
159,204,83449,1,0,0:0:0:0:
159,204,83520,1,8,0:0:0:0:
159,204,83592,1,0,0:0:0:0:
176,177,83663,1,8,0:0:0:0:
176,177,83735,1,8,0:0:0:0:
198,182,83806,1,4,0:0:0:0:
379,267,84092,1,0,0:0:0:0:
379,267,84235,1,8,0:0:0:0:
94,119,84306,1,0,0:0:0:0:
94,119,84378,1,0,0:0:0:0:
484,290,84520,1,8,0:0:0:0:
292,81,84663,1,0,0:0:0:0:
291,271,84806,1,8,0:0:0:0:
170,253,84878,1,0,0:0:0:0:
284,135,84949,1,8,0:0:0:0:
498,129,85020,1,8,0:0:0:0:
480,224,85092,1,0,0:0:0:0:
47,238,85163,1,8,0:0:0:0:
173,134,85235,1,0,0:0:0:0:
194,136,85378,1,8,0:0:0:0:
200,134,85520,1,0,0:0:0:0:
391,158,85592,1,0,0:0:0:0:
428,95,85663,1,8,0:0:0:0:
241,141,85806,1,0,0:0:0:0:
229,66,85949,1,8,0:0:0:0:
73,73,86020,1,8,0:0:0:0:
352,96,86092,1,0,0:0:0:0:
188,222,86163,1,0,0:0:0:0:
171,255,86235,1,0,0:0:0:0:
341,207,86378,1,8,0:0:0:0:
439,76,86520,1,0,0:0:0:0:
335,179,86663,1,8,0:0:0:0:
300,276,86735,1,8,0:0:0:0:
440,53,86806,1,0,0:0:0:0:
380,180,86949,1,8,0:0:0:0:
449,75,87092,1,0,0:0:0:0:
380,180,87235,1,8,0:0:0:0:
300,276,87306,1,0,0:0:0:0:
461,67,87378,1,0,0:0:0:0:
380,180,87520,1,8,0:0:0:0:
239,242,87592,1,8,0:0:0:0:
461,71,87663,1,0,0:0:0:0:
210,125,87735,1,0,0:0:0:0:
380,180,87806,1,8,0:0:0:0:
270,88,88092,1,8,0:0:0:0:
270,88,88235,1,0,0:0:0:0:
270,88,88378,1,4,0:0:0:0:
244,99,88520,1,8,0:0:0:0:
127,116,88663,1,0,0:0:0:0:
319,251,88806,1,8,0:0:0:0:
127,116,88949,1,8,0:0:0:0:
146,274,89020,1,8,0:0:0:0:
359,202,89092,1,0,0:0:0:0:
127,116,89235,1,8,0:0:0:0:
127,116,89378,1,4,0:0:0:0:
127,116,89520,1,8,0:0:0:0:
291,106,89663,1,8,0:0:0:0:
291,106,89806,1,0,0:0:0:0:
394,139,89878,1,0,0:0:0:0:
394,139,89949,1,8,0:0:0:0:
274,220,90092,1,8,0:0:0:0:
258,185,90163,1,8,0:0:0:0:
456,185,90235,1,8,0:0:0:0:
222,213,90378,1,0,0:0:0:0:
394,139,90520,1,8,0:0:0:0:
187,73,90592,1,8,0:0:0:0:
187,73,90663,1,0,0:0:0:0:
187,73,90735,1,8,0:0:0:0:
187,73,90806,1,0,0:0:0:0:
187,73,90878,1,0,0:0:0:0:
187,73,90949,1,8,0:0:0:0:
187,73,91020,1,8,0:0:0:0:
187,73,91092,1,0,0:0:0:0:
187,73,91163,1,0,0:0:0:0:
187,73,91235,1,8,0:0:0:0:
187,73,91378,1,8,0:0:0:0:
109,187,91520,1,0,0:0:0:0:
265,174,91592,1,0,0:0:0:0:
339,71,91663,1,8,0:0:0:0:
218,219,91735,1,8,0:0:0:0:
109,187,91806,1,0,0:0:0:0:
299,221,91949,1,0,0:0:0:0:
120,177,92092,1,8,0:0:0:0:
193,55,92235,1,0,0:0:0:0:
365,77,92306,1,0,0:0:0:0:
255,151,92378,1,8,0:0:0:0:
255,151,92449,1,0,0:0:0:0:
247,149,92520,1,8,0:0:0:0:
238,148,92592,1,8,0:0:0:0:
238,148,92663,1,0,0:0:0:0:
130,310,92806,1,8,0:0:0:0:
212,53,92949,1,4,0:0:0:0:
350,116,93235,1,8,0:0:0:0:
350,116,93520,1,0,0:0:0:0:
278,214,93806,1,0,0:0:0:0:
278,214,93949,1,0,0:0:0:0:
269,131,94020,1,8,0:0:0:0:
269,131,94092,1,0,0:0:0:0:
285,214,94235,1,0,0:0:0:0:
418,73,94378,1,8,0:0:0:0:
445,173,94520,1,0,0:0:0:0:
418,73,94663,1,8,0:0:0:0:
467,230,94949,1,0,0:0:0:0:
470,223,95092,1,0,0:0:0:0:
270,160,95163,1,0,0:0:0:0:
270,160,95235,1,8,0:0:0:0:
246,58,95378,1,0,0:0:0:0:
246,58,95520,1,8,0:0:0:0:
246,58,95663,1,8,0:0:0:0:
246,58,95806,1,0,0:0:0:0:
249,144,96092,1,0,0:0:0:0:
353,81,96235,1,8,0:0:0:0:
443,269,96306,1,0,0:0:0:0:
455,253,96378,1,8,0:0:0:0:
333,100,96520,1,8,0:0:0:0:
334,102,96663,1,8,0:0:0:0:
334,102,96806,1,0,0:0:0:0:
334,102,96949,1,8,0:0:0:0:
221,60,97092,1,0,0:0:0:0:
136,51,97163,1,0,0:0:0:0:
118,85,97235,1,8,0:0:0:0:
118,85,97306,1,0,0:0:0:0:
118,85,97378,1,0,0:0:0:0:
118,85,97449,1,0,0:0:0:0:
118,85,97520,1,12,0:0:0:0:
401,149,97806,1,8,0:0:0:0:
401,149,98092,1,0,0:0:0:0:
286,204,98378,1,0,0:0:0:0:
286,204,98520,1,0,0:0:0:0:
469,260,98592,1,0,0:0:0:0:
469,260,98663,1,8,0:0:0:0:
219,114,98806,1,0,0:0:0:0:
219,114,98949,1,8,0:0:0:0:
219,114,99092,1,8,0:0:0:0:
290,50,99163,1,8,0:0:0:0:
290,50,99235,1,0,0:0:0:0:
427,155,99306,1,0,0:0:0:0:
178,214,99378,1,8,0:0:0:0:
178,214,99520,1,0,0:0:0:0:
178,214,99663,1,0,0:0:0:0:
178,214,99806,1,12,0:0:0:0:
250,137,100092,1,8,0:0:0:0:
250,137,100235,1,0,0:0:0:0:
250,137,100378,1,8,0:0:0:0:
250,137,100663,1,8,0:0:0:0:
269,53,100949,1,8,0:0:0:0:
269,53,101044,1,8,0:0:0:0:
269,53,101139,1,8,0:0:0:0:
269,53,101235,1,0,0:0:0:0:
269,53,101425,1,0,0:0:0:0:
269,53,101520,1,8,0:0:0:0:
405,32,101663,1,0,0:0:0:0:
405,32,102092,1,12,0:0:0:0:
332,202,102378,1,8,0:0:0:0:
226,119,102520,1,8,0:0:0:0:
144,288,102663,1,0,0:0:0:0:
144,288,102949,1,8,0:0:0:0:
144,288,103092,1,0,0:0:0:0:
144,288,103164,1,0,0:0:0:0:
53,181,103235,1,0,0:0:0:0:
252,184,103378,1,8,0:0:0:0:
129,123,103520,1,8,0:0:0:0:
129,123,103663,1,8,0:0:0:0:
387,269,103735,1,0,0:0:0:0:
387,269,103806,1,8,0:0:0:0:
356,133,103949,1,0,0:0:0:0:
356,133,104092,1,8,0:0:0:0:
356,133,104235,1,8,0:0:0:0:
356,133,104378,1,0,0:0:0:0:
356,133,104663,1,8,0:0:0:0:
356,133,104806,1,8,0:0:0:0:
239,82,104949,1,0,0:0:0:0:
239,82,105092,1,0,0:0:0:0:
239,82,105235,1,8,0:0:0:0:
239,82,105378,1,0,0:0:0:0:
239,82,105520,1,8,0:0:0:0:
289,206,105592,1,8,0:0:0:0:
167,157,105663,1,0,0:0:0:0:
446,246,105735,1,0,0:0:0:0:
248,154,105806,1,8,0:0:0:0:
349,96,106092,1,0,0:0:0:0:
385,95,106235,1,0,0:0:0:0:
385,95,106378,1,8,0:0:0:0:
432,120,106520,1,0,0:0:0:0:
432,120,106663,1,4,0:0:0:0:
210,150,106949,1,8,0:0:0:0:
210,150,107092,1,8,0:0:0:0:
247,60,107235,1,0,0:0:0:0:
247,60,107378,1,0,0:0:0:0:
247,60,107520,1,8,0:0:0:0:
315,69,107663,1,8,0:0:0:0:
315,69,107735,1,8,0:0:0:0:
182,166,107806,1,0,0:0:0:0:
222,155,107949,1,0,0:0:0:0:
198,161,108092,1,8,0:0:0:0:
313,100,108235,1,0,0:0:0:0:
312,110,108378,1,0,0:0:0:0:
312,110,108520,1,8,0:0:0:0:
312,110,108663,1,8,0:0:0:0:
299,69,108806,1,0,0:0:0:0:
299,69,108949,1,8,0:0:0:0:
43,151,109020,1,8,0:0:0:0:
95,169,109092,1,0,0:0:0:0:
379,233,109163,1,0,0:0:0:0:
162,98,109235,1,8,0:0:0:0:
158,156,109378,1,8,0:0:0:0:
158,156,109520,1,0,0:0:0:0:
428,86,109663,1,0,0:0:0:0:
158,156,109806,1,8,0:0:0:0:
197,103,109949,1,0,0:0:0:0:
294,143,110092,1,0,0:0:0:0:
509,219,110163,1,0,0:0:0:0:
235,61,110235,1,0,0:0:0:0:
265,285,110306,1,0,0:0:0:0:
235,61,110378,1,8,0:0:0:0:
163,53,110520,1,8,0:0:0:0:
268,207,110663,1,0,0:0:0:0:
295,203,110949,1,0,0:0:0:0:
472,230,111092,1,8,0:0:0:0:
187,59,111235,1,4,0:0:0:0:
141,145,111520,1,8,0:0:0:0:
382,84,111592,1,8,0:0:0:0:
154,135,111663,1,8,0:0:0:0:
154,135,111806,1,0,0:0:0:0:
154,135,111949,1,0,0:0:0:0:
251,51,112020,1,0,0:0:0:0:
154,135,112092,1,8,0:0:0:0:
341,94,112235,1,0,0:0:0:0:
272,119,112378,1,8,0:0:0:0:
272,119,112449,1,0,0:0:0:0:
272,119,112520,1,0,0:0:0:0:
272,119,112592,1,0,0:0:0:0:
279,94,112663,1,8,0:0:0:0:
272,119,112735,1,8,0:0:0:0:
279,94,112806,1,0,0:0:0:0:
283,93,112949,1,8,0:0:0:0:
175,43,113092,1,0,0:0:0:0:
175,43,113163,1,0,0:0:0:0:
175,43,113235,1,8,0:0:0:0:
175,43,113378,1,0,0:0:0:0:
175,43,113520,1,12,0:0:0:0:
263,208,113806,1,0,0:0:0:0:
263,208,113949,1,8,0:0:0:0:
408,205,114020,1,8,0:0:0:0:
376,76,114092,1,8,0:0:0:0:
263,208,114235,1,8,0:0:0:0:
263,208,114378,1,0,0:0:0:0:
109,88,114449,1,0,0:0:0:0:
230,71,114520,1,8,0:0:0:0:
230,71,114663,1,8,0:0:0:0:
331,119,114735,1,0,0:0:0:0:
376,76,114806,1,0,0:0:0:0:
367,135,114878,1,0,0:0:0:0:
376,76,114949,1,8,0:0:0:0:
160,204,115092,1,8,0:0:0:0:
376,76,115235,1,0,0:0:0:0:
417,265,115378,1,8,0:0:0:0:
417,265,115449,1,8,0:0:0:0:
417,265,115520,1,0,0:0:0:0:
417,265,115592,1,0,0:0:0:0:
417,265,115663,1,0,0:0:0:0:
417,265,115735,1,0,0:0:0:0:
417,265,115806,1,12,0:0:0:0:
47,169,116092,1,8,0:0:0:0:
77,171,116235,1,0,0:0:0:0:
210,86,116378,1,8,0:0:0:0:
304,201,116449,1,0,0:0:0:0:
210,86,116520,1,0,0:0:0:0:
217,85,116663,1,8,0:0:0:0:
221,82,116806,1,0,0:0:0:0:
221,82,116949,1,0,0:0:0:0:
203,55,117092,1,0,0:0:0:0:
221,82,117235,1,8,0:0:0:0:
221,82,117520,1,8,0:0:0:0:
256,55,117663,1,0,0:0:0:0:
264,64,117806,1,8,0:0:0:0:
264,64,118092,1,4,0:0:0:0:
264,64,118378,1,8,0:0:0:0:
298,163,118520,1,0,0:0:0:0:
298,163,118663,1,0,0:0:0:0:
298,163,118806,1,8,0:0:0:0:
149,141,118878,1,0,0:0:0:0:
149,141,118949,1,0,0:0:0:0:
162,60,119092,1,8,0:0:0:0:
162,60,119235,1,0,0:0:0:0:
39,161,119378,1,0,0:0:0:0:
39,161,119520,1,8,0:0:0:0:
253,204,119663,1,8,0:0:0:0:
253,204,119735,1,8,0:0:0:0:
253,204,119806,1,0,0:0:0:0:
253,204,119878,1,8,0:0:0:0:
253,204,119949,1,0,0:0:0:0:
253,204,120020,1,8,0:0:0:0:
253,204,120092,1,0,0:0:0:0:
169,183,120163,1,8,0:0:0:0:
169,183,120235,1,0,0:0:0:0:
44,79,120378,1,12,0:0:0:0:
379,183,120663,1,12,0:0:0:0:
379,183,120949,1,4,0:0:0:0:
379,183,121235,1,4,0:0:0:0:
379,183,121520,1,12,0:0:0:0:
379,183,121806,1,12,0:0:0:0:
233,127,122092,1,4,0:0:0:0:
233,127,122378,1,4,0:0:0:0:
221,99,122663,1,12,0:0:0:0:
221,99,122949,1,12,0:0:0:0:
295,87,123235,1,12,0:0:0:0:
295,87,123520,1,4,0:0:0:0:
295,87,123806,1,12,0:0:0:0:
301,95,124092,1,4,0:0:0:0:
301,95,124378,1,12,0:0:0:0:
344,102,124663,1,12,0:0:0:0:
344,102,124949,1,4,0:0:0:0:
345,111,125235,1,12,0:0:0:0:
345,111,125520,1,4,0:0:0:0:
336,135,125806,1,4,0:0:0:0:
336,135,126092,1,12,0:0:0:0:
233,158,126378,1,4,0:0:0:0:
239,157,126663,1,12,0:0:0:0:
239,157,126949,1,12,0:0:0:0:
128,119,127235,1,0,0:0:0:0:
260,102,127306,1,0,0:0:0:0:
260,102,127378,1,8,0:0:0:0:
260,102,127449,1,8,0:0:0:0:
260,102,127520,1,0,0:0:0:0:
185,50,127592,1,8,0:0:0:0:
185,50,127663,1,0,0:0:0:0:
185,50,127735,1,0,0:0:0:0:
87,41,127806,1,8,0:0:0:0:
87,41,127878,1,8,0:0:0:0:
87,41,127949,1,0,0:0:0:0:
87,41,128020,1,0,0:0:0:0:
87,41,128092,1,8,0:0:0:0:
87,41,128163,1,0,0:0:0:0:
87,41,128235,1,0,0:0:0:0:
87,41,128306,1,0,0:0:0:0:
87,41,128378,1,8,0:0:0:0:
107,49,128449,1,0,0:0:0:0:
213,156,128520,1,8,0:0:0:0:
107,49,128592,1,8,0:0:0:0:
213,156,128663,1,0,0:0:0:0:
107,49,128735,1,0,0:0:0:0:
107,49,128806,1,8,0:0:0:0:
223,78,128878,1,8,0:0:0:0:
283,92,128949,1,0,0:0:0:0:
283,92,129020,1,0,0:0:0:0:
283,92,129092,1,0,0:0:0:0:
283,92,129163,1,0,0:0:0:0:
283,92,129235,1,12,0:0:0:0:
255,198,129520,1,4,0:0:0:0:
250,259,129806,1,8,0:0:0:0:
250,259,129949,1,0,0:0:0:0:
89,170,130092,1,8,0:0:0:0:
224,192,130163,1,8,0:0:0:0:
250,249,130235,1,0,0:0:0:0:
214,114,130306,1,0,0:0:0:0:
94,179,130378,1,8,0:0:0:0:
261,246,130520,1,8,0:0:0:0:
19,173,130663,1,0,0:0:0:0:
259,248,130806,1,8,0:0:0:0:
458,129,130878,1,0,0:0:0:0:
19,173,130949,1,0,0:0:0:0:
19,173,131020,1,0,0:0:0:0:
28,169,131092,1,8,0:0:0:0:
233,83,131235,1,0,0:0:0:0:
233,83,131378,1,0,0:0:0:0:
298,136,131449,1,0,0:0:0:0:
233,83,131520,1,8,0:0:0:0:
233,83,131663,1,8,0:0:0:0:
330,117,131806,1,0,0:0:0:0:
381,190,131878,1,0,0:0:0:0:
217,207,131949,1,8,0:0:0:0:
433,267,132020,1,8,0:0:0:0:
217,207,132092,1,0,0:0:0:0:
155,286,132235,1,8,0:0:0:0:
160,101,132378,1,0,0:0:0:0:
124,85,132520,1,0,0:0:0:0:
288,288,132592,1,0,0:0:0:0:
124,85,132663,1,8,0:0:0:0:
155,89,132806,1,8,0:0:0:0:
155,89,132949,1,8,0:0:0:0:
294,74,133020,1,8,0:0:0:0:
281,65,133092,1,0,0:0:0:0:
243,319,133163,1,8,0:0:0:0:
281,65,133235,1,8,0:0:0:0:
281,65,133378,1,0,0:0:0:0:
281,65,133520,1,8,0:0:0:0:
273,168,133592,1,8,0:0:0:0:
296,80,133663,1,0,0:0:0:0:
294,74,133806,1,8,0:0:0:0:
294,74,133949,1,8,0:0:0:0:
80,177,134020,1,8,0:0:0:0:
298,82,134092,1,0,0:0:0:0:
123,185,134163,1,0,0:0:0:0:
298,82,134235,1,8,0:0:0:0:
442,239,134306,1,0,0:0:0:0:
298,82,134378,1,8,0:0:0:0:
265,208,134520,1,8,0:0:0:0:
136,166,134663,1,0,0:0:0:0:
136,167,134806,1,0,0:0:0:0:
265,208,134878,1,0,0:0:0:0:
136,167,134949,1,8,0:0:0:0:
336,316,135020,1,8,0:0:0:0:
201,283,135092,1,0,0:0:0:0:
265,208,135235,1,8,0:0:0:0:
398,115,135306,1,8,0:0:0:0:
265,208,135378,1,0,0:0:0:0:
265,208,135520,1,0,0:0:0:0:
265,208,135663,1,8,0:0:0:0:
251,222,135806,1,8,0:0:0:0:
266,174,135878,1,8,0:0:0:0:
262,166,135949,1,8,0:0:0:0:
266,166,136092,1,0,0:0:0:0:
244,76,136235,1,8,0:0:0:0:
406,188,136306,1,8,0:0:0:0:
73,158,136378,1,0,0:0:0:0:
73,158,136449,1,8,0:0:0:0:
73,158,136520,1,0,0:0:0:0:
156,250,136592,1,0,0:0:0:0:
73,158,136663,1,8,0:0:0:0:
331,128,136806,1,0,0:0:0:0:
65,168,136949,1,8,0:0:0:0:
86,170,137092,1,0,0:0:0:0:
331,203,137163,1,0,0:0:0:0:
86,170,137235,1,8,0:0:0:0:
250,292,137306,1,8,0:0:0:0:
248,107,137378,1,0,0:0:0:0:
236,88,137520,1,0,0:0:0:0:
347,218,137592,1,8,0:0:0:0:
248,107,137663,1,0,0:0:0:0:
177,79,137735,1,0,0:0:0:0:
242,93,137806,1,8,0:0:0:0:
352,144,137878,1,8,0:0:0:0:
242,93,137949,1,0,0:0:0:0:
160,191,138092,1,0,0:0:0:0:
160,191,138163,1,0,0:0:0:0:
160,191,138235,1,8,0:0:0:0:
160,191,138306,1,0,0:0:0:0:
160,191,138378,1,0,0:0:0:0:
160,191,138449,1,0,0:0:0:0:
160,191,138520,1,8,0:0:0:0:
160,191,138592,1,8,0:0:0:0:
160,191,138663,1,4,0:0:0:0:
379,267,138949,1,0,0:0:0:0:
379,267,139092,1,8,0:0:0:0:
372,71,139163,1,8,0:0:0:0:
372,71,139235,1,0,0:0:0:0:
484,290,139378,1,8,0:0:0:0:
292,81,139520,1,0,0:0:0:0:
291,271,139663,1,8,0:0:0:0:
170,253,139735,1,0,0:0:0:0:
284,135,139806,1,8,0:0:0:0:
498,129,139878,1,8,0:0:0:0:
284,135,139949,1,0,0:0:0:0:
47,238,140020,1,8,0:0:0:0:
173,134,140092,1,0,0:0:0:0:
176,53,140163,1,0,0:0:0:0:
194,136,140235,1,8,0:0:0:0:
200,134,140378,1,0,0:0:0:0:
391,158,140449,1,0,0:0:0:0:
428,95,140520,1,8,0:0:0:0:
241,141,140663,1,0,0:0:0:0:
229,66,140806,1,8,0:0:0:0:
318,96,140949,1,0,0:0:0:0:
188,222,141020,1,0,0:0:0:0:
171,255,141092,1,0,0:0:0:0:
171,254,141163,1,0,0:0:0:0:
341,207,141235,1,8,0:0:0:0:
439,76,141378,1,0,0:0:0:0:
335,179,141520,1,8,0:0:0:0:
300,276,141592,1,8,0:0:0:0:
440,53,141663,1,0,0:0:0:0:
461,67,141806,1,8,0:0:0:0:
380,180,141949,1,0,0:0:0:0:
449,75,142092,1,8,0:0:0:0:
288,192,142163,1,0,0:0:0:0:
380,180,142235,1,0,0:0:0:0:
380,180,142378,1,8,0:0:0:0:
239,242,142449,1,8,0:0:0:0:
461,71,142520,1,0,0:0:0:0:
210,125,142592,1,0,0:0:0:0:
380,180,142663,1,8,0:0:0:0:
270,88,142949,1,8,0:0:0:0:
270,88,143092,1,0,0:0:0:0:
270,88,143235,1,4,0:0:0:0:
244,99,143378,1,8,0:0:0:0:
127,116,143520,1,0,0:0:0:0:
319,251,143663,1,8,0:0:0:0:
127,116,143806,1,8,0:0:0:0:
146,274,143878,1,8,0:0:0:0:
359,202,143949,1,0,0:0:0:0:
127,116,144092,1,8,0:0:0:0:
127,116,144235,1,4,0:0:0:0:
127,116,144378,1,8,0:0:0:0:
291,106,144520,1,8,0:0:0:0:
291,106,144663,1,0,0:0:0:0:
394,139,144735,1,0,0:0:0:0:
394,139,144806,1,8,0:0:0:0:
274,220,144949,1,8,0:0:0:0:
256,256,145020,1,0,0:0:0:0:
222,213,145092,1,8,0:0:0:0:
456,185,145235,1,0,0:0:0:0:
394,139,145378,1,8,0:0:0:0:
187,73,145449,1,0,0:0:0:0:
187,73,145520,1,8,0:0:0:0:
187,73,145592,1,8,0:0:0:0:
187,73,145663,1,0,0:0:0:0:
187,73,145735,1,8,0:0:0:0:
187,73,145806,1,0,0:0:0:0:
187,73,145878,1,8,0:0:0:0:
187,73,145949,1,0,0:0:0:0:
187,73,146020,1,0,0:0:0:0:
187,73,146092,1,8,0:0:0:0:
187,73,146235,1,0,0:0:0:0:
109,187,146378,1,0,0:0:0:0:
336,139,146449,1,0,0:0:0:0:
339,71,146520,1,8,0:0:0:0:
109,187,146663,1,0,0:0:0:0:
248,253,146735,1,0,0:0:0:0:
299,221,146806,1,0,0:0:0:0:
120,177,146949,1,8,0:0:0:0:
427,133,147020,1,0,0:0:0:0:
193,55,147092,1,8,0:0:0:0:
215,259,147163,1,8,0:0:0:0:
255,151,147235,1,0,0:0:0:0:
247,149,147378,1,0,0:0:0:0:
238,148,147520,1,8,0:0:0:0:
212,53,147663,1,0,0:0:0:0:
212,53,147806,1,4,0:0:0:0:
334,159,148092,1,8,0:0:0:0:
334,159,148235,1,4,0:0:0:0:
344,162,148663,1,8,0:0:0:0:
343,159,148735,1,8,0:0:0:0:
343,159,148806,1,8,0:0:0:0:
343,159,148878,1,8,0:0:0:0:
343,156,148949,1,0,0:0:0:0:
222,54,149092,1,0,0:0:0:0:
227,62,149378,1,0,0:0:0:0:
227,62,149663,1,0,0:0:0:0:
228,62,149806,1,0,0:0:0:0:
245,128,150092,1,12,0:0:0:0:
341,223,150378,1,0,0:0:0:0:
336,229,150520,1,12,0:0:0:0:
341,223,150806,1,0,0:0:0:0:
336,229,150949,1,8,0:0:0:0:
357,103,151092,1,0,0:0:0:0:
229,71,151235,1,8,0:0:0:0:
437,38,151306,1,8,0:0:0:0:
437,38,151378,1,0,0:0:0:0:
86,146,151449,1,0,0:0:0:0:
437,38,151520,1,8,0:0:0:0:
94,148,151592,1,0,0:0:0:0:
290,63,151663,1,0,0:0:0:0:
290,63,151735,1,0,0:0:0:0:
290,63,151806,1,8,0:0:0:0:
217,173,151949,1,0,0:0:0:0:
217,173,152092,1,12,0:0:0:0:
328,145,152378,1,8,0:0:0:0:
158,197,152449,1,8,0:0:0:0:
158,197,152520,1,8,0:0:0:0:
158,197,152592,1,8,0:0:0:0:
158,197,152663,1,0,0:0:0:0:
177,197,152735,1,0,0:0:0:0:
177,197,152806,1,8,0:0:0:0:
177,197,152878,1,8,0:0:0:0:
177,197,152949,1,8,0:0:0:0:
322,304,153020,1,8,0:0:0:0:
177,197,153092,1,0,0:0:0:0:
322,304,153163,1,0,0:0:0:0:
177,197,153235,1,8,0:0:0:0:
414,260,153378,1,0,0:0:0:0:
332,100,153520,1,8,0:0:0:0:
332,100,153616,1,0,0:0:0:0:
332,100,153711,1,0,0:0:0:0:
201,51,153806,1,8,0:0:0:0:
201,51,153901,1,0,0:0:0:0:
201,51,153997,1,0,0:0:0:0:
201,51,154092,1,8,0:0:0:0:
179,68,154187,1,8,0:0:0:0:
179,68,154282,1,8,0:0:0:0:
198,139,154378,1,0,0:0:0:0:
198,139,154473,1,0,0:0:0:0:
198,139,154568,1,0,0:0:0:0:
198,139,154663,1,12,0:0:0:0:
161,218,154949,1,0,0:0:0:0:
95,131,155092,1,12,0:0:0:0:
235,59,155378,1,0,0:0:0:0:
298,149,155520,1,8,0:0:0:0:
298,149,155616,1,8,0:0:0:0:
298,149,155711,1,8,0:0:0:0:
298,149,155806,1,0,0:0:0:0:
54,229,155949,1,0,0:0:0:0:
398,141,156092,1,8,0:0:0:0:
205,88,156187,1,0,0:0:0:0:
398,141,156282,1,0,0:0:0:0:
398,141,156378,1,8,0:0:0:0:
262,186,156663,1,0,0:0:0:0:
262,186,156949,1,8,0:0:0:0:
370,110,157092,1,8,0:0:0:0:
107,135,157235,1,0,0:0:0:0:
107,135,157378,1,8,0:0:0:0:
114,131,157663,1,8,0:0:0:0:
114,131,157949,1,0,0:0:0:0:
117,131,158235,1,0,0:0:0:0:
117,131,158378,1,0,0:0:0:0:
114,131,158520,1,0,0:0:0:0:
127,128,158663,1,8,0:0:0:0:
313,144,158949,1,8,0:0:0:0:
313,144,159235,1,0,0:0:0:0:
317,66,159378,1,0,0:0:0:0:
218,227,159520,1,8,0:0:0:0:
198,212,159663,1,0,0:0:0:0:
147,93,159949,1,0,0:0:0:0:
147,93,160235,1,8,0:0:0:0:
147,93,160520,1,8,0:0:0:0:
147,93,160663,1,8,0:0:0:0:
147,93,160806,1,8,0:0:0:0:
147,93,160949,1,0,0:0:0:0:
147,93,161235,1,0,0:0:0:0:
147,93,161520,1,12,0:0:0:0:
228,152,161806,1,0,0:0:0:0:
228,152,161949,1,8,0:0:0:0:
332,83,162092,1,8,0:0:0:0:
223,40,162235,1,0,0:0:0:0:
223,40,162378,1,0,0:0:0:0:
156,37,162520,1,8,0:0:0:0:
156,37,162663,1,0,0:0:0:0:
156,37,162949,1,8,0:0:0:0:
270,291,163020,1,8,0:0:0:0:
156,37,163092,1,0,0:0:0:0:
156,37,163235,1,8,0:0:0:0:
124,196,163378,1,8,0:0:0:0:
280,98,163520,1,0,0:0:0:0:
280,98,163663,1,0,0:0:0:0:
375,78,163806,1,12,0:0:0:0:
301,152,164092,1,8,0:0:0:0:
182,76,164235,1,0,0:0:0:0:
182,76,164378,1,8,0:0:0:0:
182,76,164520,1,8,0:0:0:0:
182,76,164663,1,0,0:0:0:0:
182,76,164806,1,0,0:0:0:0:
268,54,164878,1,8,0:0:0:0:
268,54,164949,1,8,0:0:0:0:
178,89,165235,1,8,0:0:0:0:
178,90,165378,1,8,0:0:0:0:
178,90,165520,1,0,0:0:0:0:
241,220,165806,1,0,0:0:0:0:
241,220,165949,1,8,0:0:0:0:
250,213,166092,1,0,0:0:0:0:
123,175,166163,1,0,0:0:0:0:
250,213,166235,1,8,0:0:0:0:
250,214,166378,1,8,0:0:0:0:
250,215,166520,1,0,0:0:0:0:
250,215,166663,1,8,0:0:0:0:
250,215,166806,1,0,0:0:0:0:
250,213,167092,1,0,0:0:0:0:
250,214,167378,1,0,0:0:0:0:
242,223,167520,1,8,0:0:0:0:
242,223,167663,1,0,0:0:0:0:
242,223,167806,1,0,0:0:0:0:
421,235,167949,1,8,0:0:0:0:
103,179,168092,1,8,0:0:0:0:
186,36,168235,1,0,0:0:0:0:
211,133,168378,1,8,0:0:0:0:
186,47,168663,1,0,0:0:0:0:
424,162,168735,1,0,0:0:0:0:
245,100,168806,1,0,0:0:0:0:
245,100,168949,1,8,0:0:0:0:
245,100,169092,1,0,0:0:0:0:
407,263,169235,1,8,0:0:0:0:
245,100,169378,1,0,0:0:0:0:
245,100,169663,1,0,0:0:0:0:
186,58,169806,1,0,0:0:0:0:
327,62,169949,1,0,0:0:0:0:
186,58,170092,1,8,0:0:0:0:
186,58,170378,1,0,0:0:0:0:
238,67,170520,1,8,0:0:0:0:
233,115,170663,1,4,0:0:0:0:
238,67,170949,1,0,0:0:0:0:
423,145,171020,1,8,0:0:0:0:
84,132,171092,1,0,0:0:0:0:
84,132,171235,1,8,0:0:0:0:
84,132,171378,1,0,0:0:0:0:
316,217,171520,1,8,0:0:0:0:
205,71,171663,1,0,0:0:0:0:
205,72,171949,1,0,0:0:0:0:
205,71,172092,1,8,0:0:0:0:
205,71,172235,1,0,0:0:0:0:
313,49,172378,1,8,0:0:0:0:
313,49,172520,1,8,0:0:0:0:
313,49,172663,1,0,0:0:0:0:
255,43,172806,1,0,0:0:0:0:
227,72,172949,1,12,0:0:0:0:
227,72,173235,1,0,0:0:0:0:
394,261,173378,1,0,0:0:0:0:
394,261,173520,1,8,0:0:0:0:
394,261,173663,1,0,0:0:0:0:
394,261,173806,1,8,0:0:0:0:
394,261,173949,1,0,0:0:0:0:
226,130,174092,1,0,0:0:0:0:
111,83,174235,1,8,0:0:0:0:
61,90,174306,1,0,0:0:0:0:
61,90,174378,1,0,0:0:0:0:
61,90,174449,1,0,0:0:0:0:
61,90,174520,1,8,0:0:0:0:
61,90,174592,1,8,0:0:0:0:
61,90,174663,1,0,0:0:0:0:
61,90,174735,1,0,0:0:0:0:
61,90,174806,1,8,0:0:0:0:
61,90,174878,1,8,0:0:0:0:
61,90,174949,1,0,0:0:0:0:
61,90,175020,1,8,0:0:0:0:
61,90,175092,1,8,0:0:0:0:
61,90,175163,1,8,0:0:0:0:
61,90,175235,1,4,0:0:0:0:
205,78,175520,1,8,0:0:0:0:
284,87,175592,1,0,0:0:0:0:
357,212,175663,1,0,0:0:0:0:
363,75,175735,1,0,0:0:0:0:
205,78,175806,1,8,0:0:0:0:
363,75,175878,1,8,0:0:0:0:
205,78,175949,1,0,0:0:0:0:
219,152,176092,1,8,0:0:0:0:
139,159,176235,1,0,0:0:0:0:
421,96,176378,1,8,0:0:0:0:
335,279,176449,1,8,0:0:0:0:
324,124,176520,1,0,0:0:0:0:
293,114,176663,1,8,0:0:0:0:
449,225,176806,1,0,0:0:0:0:
449,225,176878,1,8,0:0:0:0:
330,214,176949,1,0,0:0:0:0:
330,214,177092,1,0,0:0:0:0:
330,214,177235,1,8,0:0:0:0:
330,214,177378,1,0,0:0:0:0:
330,214,177520,1,12,0:0:0:0:
166,122,177663,1,0,0:0:0:0:
166,122,177806,1,8,0:0:0:0:
251,255,177878,1,0,0:0:0:0:
166,122,177949,1,8,0:0:0:0:
391,163,178092,1,0,0:0:0:0:
391,163,178235,1,8,0:0:0:0:
391,163,178306,1,8,0:0:0:0:
391,163,178378,1,0,0:0:0:0:
157,184,178520,1,8,0:0:0:0:
157,184,178592,1,0,0:0:0:0:
157,184,178663,1,0,0:0:0:0:
157,184,178806,1,8,0:0:0:0:
227,70,178949,1,0,0:0:0:0:
233,70,179092,1,8,0:0:0:0:
236,70,179235,1,0,0:0:0:0:
250,81,179378,1,0,0:0:0:0:
250,81,179520,1,8,0:0:0:0:
250,81,179663,1,8,0:0:0:0:
157,158,179806,1,0,0:0:0:0:
106,77,179901,1,8,0:0:0:0:
273,155,179997,1,0,0:0:0:0:
388,76,180092,1,8,0:0:0:0:
388,76,180187,1,0,0:0:0:0:
388,76,180282,1,0,0:0:0:0:
388,76,180378,1,8,0:0:0:0:
422,141,180520,1,0,0:0:0:0:
116,81,180663,1,8,0:0:0:0:
4,200,180735,1,8,0:0:0:0:
4,200,180806,1,0,0:0:0:0:
4,200,180949,1,8,0:0:0:0:
175,189,181020,1,0,0:0:0:0:
175,189,181092,1,0,0:0:0:0:
175,189,181163,1,0,0:0:0:0:
175,189,181235,1,8,0:0:0:0:
292,154,181378,1,0,0:0:0:0:
325,107,181449,1,0,0:0:0:0:
235,67,181520,1,8,0:0:0:0:
309,49,181663,1,0,0:0:0:0:
235,67,181806,1,8,0:0:0:0:
399,253,181949,1,8,0:0:0:0:
196,192,182092,1,0,0:0:0:0:
347,193,182187,1,8,0:0:0:0:
347,193,182282,1,0,0:0:0:0:
347,193,182378,1,0,0:0:0:0:
347,193,182473,1,8,0:0:0:0:
347,193,182568,1,0,0:0:0:0:
347,193,182663,1,8,0:0:0:0:
431,78,182806,1,0,0:0:0:0:
347,193,182949,1,0,0:0:0:0:
431,78,183092,1,8,0:0:0:0:
61,212,183163,1,8,0:0:0:0:
193,72,183235,1,0,0:0:0:0:
252,184,183378,1,0,0:0:0:0:
252,184,183520,1,0,0:0:0:0:
283,81,183663,1,8,0:0:0:0:
283,81,183806,1,0,0:0:0:0:
353,151,183949,1,8,0:0:0:0:
353,151,184020,1,0,0:0:0:0:
353,151,184092,1,8,0:0:0:0:
353,151,184163,1,0,0:0:0:0:
353,170,184235,1,8,0:0:0:0:
353,170,184306,1,8,0:0:0:0:
353,165,184378,1,0,0:0:0:0:
141,156,184520,1,0,0:0:0:0:
141,156,184663,1,8,0:0:0:0:
141,156,184806,1,8,0:0:0:0:
309,215,185092,1,8,0:0:0:0:
270,80,185235,1,8,0:0:0:0:
309,215,185378,1,0,0:0:0:0:
270,80,185520,1,0,0:0:0:0:
235,237,185592,1,0,0:0:0:0:
261,86,185663,1,8,0:0:0:0:
261,86,185806,1,0,0:0:0:0:
261,86,185949,1,8,0:0:0:0:
261,90,186235,1,0,0:0:0:0:
262,90,186378,1,8,0:0:0:0:
247,250,186520,1,8,0:0:0:0:
202,72,186663,1,0,0:0:0:0:
202,72,186806,1,0,0:0:0:0:
202,72,186949,1,8,0:0:0:0:
175,76,187235,1,8,0:0:0:0:
202,79,187330,1,8,0:0:0:0:
202,79,187425,1,0,0:0:0:0:
202,79,187520,1,0,0:0:0:0:
386,166,187663,1,0,0:0:0:0:
314,59,187806,1,8,0:0:0:0:
181,242,187878,1,8,0:0:0:0:
300,194,187949,1,8,0:0:0:0:
314,59,188092,1,0,0:0:0:0:
311,193,188235,1,0,0:0:0:0:
314,59,188378,1,8,0:0:0:0:
314,174,188520,1,8,0:0:0:0:
321,68,188663,1,0,0:0:0:0:
452,270,188806,1,0,0:0:0:0:
321,68,188949,1,12,0:0:0:0:
135,196,189235,1,8,0:0:0:0:
254,200,189306,1,8,0:0:0:0:
228,226,189378,1,0,0:0:0:0:
314,207,189449,1,0,0:0:0:0:
135,196,189520,1,8,0:0:0:0:
228,226,189663,1,0,0:0:0:0:
144,194,189806,1,8,0:0:0:0:
230,206,189949,1,0,0:0:0:0:
314,207,190020,1,0,0:0:0:0:
144,194,190092,1,8,0:0:0:0:
253,210,190235,1,0,0:0:0:0:
144,194,190378,1,8,0:0:0:0:
230,206,190520,1,0,0:0:0:0:
226,211,190592,1,0,0:0:0:0:
153,185,190663,1,8,0:0:0:0:
284,215,190735,1,8,0:0:0:0:
196,168,190806,1,0,0:0:0:0:
343,175,190878,1,0,0:0:0:0:
328,127,190949,1,12,0:0:0:0:
136,64,191235,1,8,0:0:0:0:
136,64,191306,1,8,0:0:0:0:
136,64,191378,1,0,0:0:0:0:
136,64,191449,1,0,0:0:0:0:
136,64,191520,1,8,0:0:0:0:
136,64,191592,1,0,0:0:0:0:
136,64,191663,1,8,0:0:0:0:
136,64,191735,1,8,0:0:0:0:
136,64,191806,1,0,0:0:0:0:
123,67,191878,1,0,0:0:0:0:
123,67,191949,1,8,0:0:0:0:
123,67,192020,1,0,0:0:0:0:
127,51,192092,1,8,0:0:0:0:
127,51,192163,1,8,0:0:0:0:
127,51,192235,1,0,0:0:0:0:
127,51,192306,1,0,0:0:0:0:
127,51,192378,1,8,0:0:0:0:
318,82,192520,1,8,0:0:0:0:
240,165,192663,1,0,0:0:0:0:
327,68,192806,1,0,0:0:0:0:
386,203,192949,1,8,0:0:0:0:
141,270,193020,1,8,0:0:0:0:
141,270,193092,1,0,0:0:0:0:
141,270,193163,1,0,0:0:0:0:
141,270,193235,1,0,0:0:0:0:
141,270,193306,1,0,0:0:0:0:
141,270,193378,1,0,0:0:0:0:
141,270,193449,1,0,0:0:0:0:
141,270,193520,1,12,0:0:0:0:
25,104,193663,1,0,0:0:0:0:
166,197,193806,1,0,0:0:0:0:
166,197,193949,1,12,0:0:0:0:
25,104,194092,1,0,0:0:0:0:
166,197,194235,1,0,0:0:0:0:
236,118,194378,1,12,0:0:0:0:
285,182,194520,1,0,0:0:0:0:
285,182,194663,1,0,0:0:0:0:
285,182,194806,1,12,0:0:0:0:
285,182,194949,1,0,0:0:0:0:
285,182,195092,1,8,0:0:0:0:
285,182,195235,1,8,0:0:0:0:
204,252,195306,1,8,0:0:0:0:
285,182,195378,1,0,0:0:0:0:
285,182,195520,1,0,0:0:0:0:
285,182,195663,1,8,0:0:0:0:
249,189,195735,1,8,0:0:0:0:
146,141,195806,1,0,0:0:0:0:
51,178,195878,1,0,0:0:0:0:
51,178,195949,1,8,0:0:0:0:
58,185,196092,1,0,0:0:0:0:
61,190,196235,1,8,0:0:0:0:
61,190,196306,1,8,0:0:0:0:
61,190,196378,1,0,0:0:0:0:
62,190,196520,1,8,0:0:0:0:
62,190,196663,1,0,0:0:0:0:
265,197,196735,1,0,0:0:0:0:
253,116,196806,1,8,0:0:0:0:
253,116,196949,1,0,0:0:0:0:
186,107,197092,1,8,0:0:0:0:
186,107,197163,1,8,0:0:0:0:
186,107,197235,1,0,0:0:0:0:
239,179,197306,1,8,0:0:0:0:
312,68,197378,1,0,0:0:0:0:
227,178,197520,1,8,0:0:0:0:
278,190,197806,1,0,0:0:0:0:
320,70,197949,1,0,0:0:0:0:
278,190,198092,1,8,0:0:0:0:
458,209,198163,1,8,0:0:0:0:
88,179,198235,1,0,0:0:0:0:
196,141,198378,1,0,0:0:0:0:
196,141,198520,1,8,0:0:0:0:
230,268,198592,1,8,0:0:0:0:
75,185,198663,1,0,0:0:0:0:
376,152,198735,1,0,0:0:0:0:
216,146,198806,1,8,0:0:0:0:
216,146,198949,1,8,0:0:0:0:
221,123,199092,1,0,0:0:0:0:
230,268,199163,1,0,0:0:0:0:
229,127,199235,1,0,0:0:0:0:
429,79,199306,1,0,0:0:0:0:
229,127,199378,1,8,0:0:0:0:
260,256,199520,1,8,0:0:0:0:
283,212,199592,1,8,0:0:0:0:
439,186,199663,1,0,0:0:0:0:
327,79,199806,1,8,0:0:0:0:
439,186,199949,1,0,0:0:0:0:
327,79,200092,1,8,0:0:0:0:
126,150,200163,1,0,0:0:0:0:
445,183,200235,1,0,0:0:0:0:
327,79,200378,1,8,0:0:0:0:
381,237,200449,1,8,0:0:0:0:
153,172,200520,1,0,0:0:0:0:
409,82,200592,1,8,0:0:0:0:
153,172,200663,1,0,0:0:0:0:
409,82,200735,1,0,0:0:0:0:
153,172,200806,1,8,0:0:0:0:
153,172,200949,1,0,0:0:0:0:
153,172,201092,1,0,0:0:0:0:
153,172,201235,1,8,0:0:0:0:
171,53,201306,1,8,0:0:0:0:
171,53,201378,1,8,0:0:0:0:
171,53,201449,1,8,0:0:0:0:
182,88,201520,1,4,0:0:0:0:
282,157,201806,1,4,0:0:0:0:
502,136,201949,1,8,0:0:0:0:
249,58,202092,1,0,0:0:0:0:
343,58,202163,1,0,0:0:0:0:
402,136,202235,1,8,0:0:0:0:
394,135,202306,1,0,0:0:0:0:
70,61,202378,1,8,0:0:0:0:
79,69,202449,1,8,0:0:0:0:
84,71,202520,1,0,0:0:0:0:
84,71,202592,1,0,0:0:0:0:
84,71,202663,1,8,0:0:0:0:
156,106,202949,1,0,0:0:0:0:
307,237,203020,1,0,0:0:0:0:
317,258,203092,1,8,0:0:0:0:
156,106,203235,1,0,0:0:0:0:
209,219,203378,1,0,0:0:0:0:
156,106,203520,1,8,0:0:0:0:
179,103,203663,1,8,0:0:0:0:
450,76,203735,1,8,0:0:0:0:
180,103,203806,1,0,0:0:0:0:
417,214,203878,1,8,0:0:0:0:
180,103,203949,1,8,0:0:0:0:
384,116,204092,1,0,0:0:0:0:
384,116,204163,1,0,0:0:0:0:
384,116,204235,1,8,0:0:0:0:
236,163,204378,1,8,0:0:0:0:
304,44,204520,1,0,0:0:0:0:
304,44,204663,1,8,0:0:0:0:
262,251,204806,1,0,0:0:0:0:
162,146,204949,1,8,0:0:0:0:
136,74,205020,1,8,0:0:0:0:
359,221,205092,1,8,0:0:0:0:
136,74,205163,1,8,0:0:0:0:
236,152,205235,1,0,0:0:0:0:
359,221,205378,1,8,0:0:0:0:
241,145,205520,1,0,0:0:0:0:
193,92,205663,1,0,0:0:0:0:
287,174,205806,1,8,0:0:0:0:
287,174,205949,1,0,0:0:0:0:
210,74,206020,1,0,0:0:0:0:
214,71,206092,1,8,0:0:0:0:
63,114,206163,1,0,0:0:0:0:
351,80,206235,1,8,0:0:0:0:
351,80,206378,1,0,0:0:0:0:
185,246,206520,1,0,0:0:0:0:
201,84,206663,1,8,0:0:0:0:
201,84,206949,1,8,0:0:0:0:
187,234,207092,1,0,0:0:0:0:
201,84,207235,1,8,0:0:0:0:
356,178,207306,1,0,0:0:0:0:
195,225,207378,1,0,0:0:0:0:
56,133,207449,1,8,0:0:0:0:
201,84,207520,1,0,0:0:0:0:
201,84,207663,1,8,0:0:0:0:
426,150,207735,1,8,0:0:0:0:
202,239,207806,1,0,0:0:0:0:
201,84,207949,1,0,0:0:0:0:
299,75,208092,1,8,0:0:0:0:
201,84,208235,1,0,0:0:0:0:
419,87,208306,1,8,0:0:0:0:
206,91,208378,1,0,0:0:0:0:
413,73,208449,1,0,0:0:0:0:
413,73,208520,1,8,0:0:0:0:
268,148,208663,1,8,0:0:0:0:
315,111,208806,1,0,0:0:0:0:
369,179,208878,1,0,0:0:0:0:
410,148,208949,1,8,0:0:0:0:
209,237,209092,1,0,0:0:0:0:
319,120,209235,1,8,0:0:0:0:
209,237,209378,1,0,0:0:0:0:
321,120,209520,1,8,0:0:0:0:
369,179,209592,1,0,0:0:0:0:
369,179,209663,1,8,0:0:0:0:
369,179,209735,1,8,0:0:0:0:
262,99,209806,1,0,0:0:0:0:
262,99,209949,1,8,0:0:0:0:
51,144,210020,1,0,0:0:0:0:
51,144,210092,1,0,0:0:0:0:
262,99,210235,1,0,0:0:0:0:
262,99,210378,1,8,0:0:0:0:
262,99,210520,1,0,0:0:0:0:
218,73,210663,1,12,0:0:0:0:
218,73,210949,1,12,0:0:0:0:
218,73,211235,1,12,0:0:0:0:
218,73,211520,1,12,0:0:0:0:
218,73,211806,1,8,0:0:0:0:
219,83,211949,1,4,0:0:0:0:
280,194,212235,1,8,0:0:0:0:
280,194,212378,1,8,0:0:0:0:
280,194,212520,1,0,0:0:0:0:
280,194,212806,1,12,0:0:0:0:
256,192,212949,12,0,214520,0:0:0:0:
353,274,214663,5,8,0:0:0:0:
204,137,215235,1,4,0:0:0:0:
332,185,222949,5,0,0:0:0:0:
332,185,223235,1,8,0:0:0:0:
215,214,223378,1,0,0:0:0:0:
50,94,223663,1,0,0:0:0:0:
152,105,223806,1,8,0:0:0:0:
50,94,223949,1,0,0:0:0:0:
316,69,224092,1,8,0:0:0:0:
347,164,224163,1,0,0:0:0:0:
317,69,224235,1,0,0:0:0:0:
347,164,224306,1,0,0:0:0:0:
347,164,224378,1,8,0:0:0:0:
442,180,224663,1,0,0:0:0:0:
442,180,224949,1,8,0:0:0:0:
442,180,225235,1,0,0:0:0:0:
228,123,225520,1,8,0:0:0:0:
241,157,225806,1,0,0:0:0:0:
241,157,226092,1,8,0:0:0:0:
241,157,226378,1,8,0:0:0:0:
241,157,226663,1,0,0:0:0:0:
206,93,226949,1,8,0:0:0:0:
206,93,227235,1,0,0:0:0:0:
206,93,227520,1,0,0:0:0:0:
206,93,227806,1,8,0:0:0:0:
328,72,228092,1,8,0:0:0:0:
368,244,228378,1,8,0:0:0:0:
316,69,228663,1,0,0:0:0:0:
332,220,228949,1,0,0:0:0:0:
332,220,229092,1,0,0:0:0:0:
332,220,229235,1,8,0:0:0:0:
257,202,229378,1,0,0:0:0:0:
257,202,229520,1,0,0:0:0:0:
148,79,229663,1,8,0:0:0:0:
148,79,229806,1,8,0:0:0:0:
148,79,229949,1,0,0:0:0:0:
148,79,230092,1,8,0:0:0:0:
148,79,230235,1,0,0:0:0:0:
325,138,230378,1,8,0:0:0:0:
242,72,230520,1,0,0:0:0:0:
242,72,230663,1,0,0:0:0:0:
242,72,230806,1,8,0:0:0:0:
251,67,230949,1,0,0:0:0:0:
251,67,231092,1,8,0:0:0:0:
283,182,231235,1,8,0:0:0:0:
283,182,231306,1,8,0:0:0:0:
283,182,231378,1,0,0:0:0:0:
283,182,231449,1,0,0:0:0:0:
283,182,231520,1,8,0:0:0:0:
283,182,231592,1,0,0:0:0:0:
283,182,231663,1,0,0:0:0:0:
283,182,231735,1,0,0:0:0:0:
283,182,231806,1,8,0:0:0:0:
283,182,231878,1,8,0:0:0:0:
283,182,231949,1,0,0:0:0:0:
283,182,232020,1,0,0:0:0:0:
283,182,232092,1,8,0:0:0:0:
283,182,232163,1,0,0:0:0:0:
283,182,232235,1,0,0:0:0:0:
283,182,232306,1,0,0:0:0:0:
307,101,233378,1,8,0:0:0:0:
272,71,233520,1,4,0:0:0:0:
225,226,233663,1,0,0:0:0:0:
225,226,233735,1,0,0:0:0:0:
225,226,233806,1,8,0:0:0:0:
154,77,233878,1,0,0:0:0:0:
154,77,233949,1,0,0:0:0:0:
154,77,234020,1,0,0:0:0:0:
154,77,234092,1,8,0:0:0:0:
154,77,234163,1,8,0:0:0:0:
154,77,234235,1,0,0:0:0:0:
154,77,234306,1,0,0:0:0:0:
154,77,234378,1,8,0:0:0:0:
148,88,234449,1,0,0:0:0:0:
148,88,234520,1,8,0:0:0:0:
148,88,234592,1,8,0:0:0:0:
148,88,234663,1,0,0:0:0:0:
148,88,234735,1,0,0:0:0:0:
148,88,234806,1,8,0:0:0:0:
182,95,234878,1,0,0:0:0:0:
182,95,234949,1,8,0:0:0:0:
182,95,235020,1,8,0:0:0:0:
182,95,235092,1,8,0:0:0:0:
182,95,235163,1,8,0:0:0:0:
182,95,235235,1,0,0:0:0:0:
182,95,235306,1,0,0:0:0:0:
182,95,235378,1,0,0:0:0:0:
182,95,235449,1,0,0:0:0:0:
182,95,235520,1,8,0:0:0:0:
228,97,235806,1,12,0:0:0:0:
347,238,236092,1,0,0:0:0:0:
160,101,236378,1,8,0:0:0:0:
124,85,236520,1,0,0:0:0:0:
288,288,236592,1,0,0:0:0:0:
124,85,236663,1,8,0:0:0:0:
155,89,236806,1,8,0:0:0:0:
155,89,236949,1,8,0:0:0:0:
294,74,237020,1,0,0:0:0:0:
281,65,237092,1,0,0:0:0:0:
243,319,237163,1,0,0:0:0:0:
281,65,237235,1,8,0:0:0:0:
281,65,237378,1,0,0:0:0:0:
281,65,237520,1,8,0:0:0:0:
273,168,237592,1,0,0:0:0:0:
296,80,237663,1,0,0:0:0:0:
294,74,237806,1,8,0:0:0:0:
294,74,237949,1,0,0:0:0:0:
80,177,238020,1,0,0:0:0:0:
298,82,238092,1,8,0:0:0:0:
298,82,238235,1,0,0:0:0:0:
298,82,238378,1,8,0:0:0:0:
289,110,238449,1,8,0:0:0:0:
265,208,238520,1,0,0:0:0:0:
459,259,238592,1,0,0:0:0:0:
136,166,238663,1,8,0:0:0:0:
136,167,238806,1,0,0:0:0:0:
136,167,238949,1,0,0:0:0:0:
336,316,239020,1,0,0:0:0:0:
201,283,239092,1,8,0:0:0:0:
265,208,239235,1,8,0:0:0:0:
398,115,239306,1,8,0:0:0:0:
265,208,239378,1,0,0:0:0:0:
265,208,239520,1,0,0:0:0:0:
265,208,239663,1,8,0:0:0:0:
251,222,239806,1,8,0:0:0:0:
266,174,239878,1,0,0:0:0:0:
262,166,239949,1,8,0:0:0:0:
266,166,240092,1,0,0:0:0:0:
330,90,240235,1,8,0:0:0:0:
350,93,240306,1,8,0:0:0:0:
330,90,240378,1,0,0:0:0:0:
330,90,240520,1,0,0:0:0:0:
343,88,240663,1,8,0:0:0:0:
343,88,240735,1,8,0:0:0:0:
343,88,240806,1,0,0:0:0:0:
330,88,240878,1,0,0:0:0:0:
65,168,240949,1,0,0:0:0:0:
86,170,241092,1,0,0:0:0:0:
280,84,241163,1,0,0:0:0:0:
86,170,241235,1,8,0:0:0:0:
250,292,241306,1,8,0:0:0:0:
248,107,241378,1,0,0:0:0:0:
253,53,241449,1,8,0:0:0:0:
236,88,241520,1,8,0:0:0:0:
248,107,241663,1,0,0:0:0:0:
242,93,241806,1,8,0:0:0:0:
420,116,241878,1,8,0:0:0:0:
242,93,241949,1,0,0:0:0:0:
412,195,242020,1,8,0:0:0:0:
160,191,242092,1,0,0:0:0:0:
160,191,242235,1,8,0:0:0:0:
160,191,242306,1,8,0:0:0:0:
160,191,242378,1,0,0:0:0:0:
160,191,242449,1,0,0:0:0:0:
160,191,242520,1,8,0:0:0:0:
160,191,242592,1,8,0:0:0:0:
160,191,242663,1,4,0:0:0:0:
379,267,242949,1,0,0:0:0:0:
379,267,243092,1,8,0:0:0:0:
116,310,243163,1,0,0:0:0:0:
116,310,243235,1,0,0:0:0:0:
484,290,243378,1,8,0:0:0:0:
292,81,243520,1,0,0:0:0:0:
291,271,243663,1,8,0:0:0:0:
170,253,243735,1,0,0:0:0:0:
284,135,243806,1,8,0:0:0:0:
498,129,243878,1,0,0:0:0:0:
284,135,243949,1,8,0:0:0:0:
47,238,244020,1,8,0:0:0:0:
173,134,244092,1,0,0:0:0:0:
176,53,244163,1,0,0:0:0:0:
194,136,244235,1,8,0:0:0:0:
200,134,244378,1,0,0:0:0:0:
391,158,244449,1,0,0:0:0:0:
428,95,244520,1,8,0:0:0:0:
241,141,244663,1,0,0:0:0:0:
229,66,244806,1,8,0:0:0:0:
318,96,244949,1,8,0:0:0:0:
188,222,245020,1,8,0:0:0:0:
171,255,245092,1,0,0:0:0:0:
171,254,245163,1,0,0:0:0:0:
341,207,245235,1,8,0:0:0:0:
439,76,245378,1,0,0:0:0:0:
335,179,245520,1,8,0:0:0:0:
300,276,245592,1,8,0:0:0:0:
440,53,245663,1,0,0:0:0:0:
380,180,245806,1,8,0:0:0:0:
449,75,245949,1,0,0:0:0:0:
380,180,246092,1,8,0:0:0:0:
300,276,246163,1,0,0:0:0:0:
461,67,246235,1,0,0:0:0:0:
380,180,246378,1,8,0:0:0:0:
239,242,246449,1,8,0:0:0:0:
461,71,246520,1,0,0:0:0:0:
210,125,246592,1,8,0:0:0:0:
380,180,246663,1,0,0:0:0:0:
490,256,246806,1,0,0:0:0:0:
270,88,246949,1,8,0:0:0:0:
62,161,247020,1,8,0:0:0:0:
270,88,247092,1,0,0:0:0:0:
270,88,247235,1,4,0:0:0:0:
244,99,247378,1,8,0:0:0:0:
127,116,247520,1,0,0:0:0:0:
319,251,247663,1,8,0:0:0:0:
127,116,247806,1,8,0:0:0:0:
146,274,247878,1,0,0:0:0:0:
359,202,247949,1,0,0:0:0:0:
127,116,248092,1,8,0:0:0:0:
127,116,248235,1,4,0:0:0:0:
127,116,248378,1,8,0:0:0:0:
291,106,248520,1,8,0:0:0:0:
291,106,248663,1,0,0:0:0:0:
394,139,248735,1,0,0:0:0:0:
394,139,248806,1,8,0:0:0:0:
274,220,248949,1,0,0:0:0:0:
256,224,249020,1,8,0:0:0:0:
456,185,249092,1,8,0:0:0:0:
222,213,249235,1,0,0:0:0:0:
394,139,249378,1,8,0:0:0:0:
187,73,249449,1,0,0:0:0:0:
187,73,249520,1,8,0:0:0:0:
187,73,249592,1,8,0:0:0:0:
187,73,249663,1,0,0:0:0:0:
187,73,249735,1,0,0:0:0:0:
187,73,249806,1,8,0:0:0:0:
187,73,249878,1,0,0:0:0:0:
187,73,249949,1,0,0:0:0:0:
187,73,250020,1,0,0:0:0:0:
187,73,250092,1,8,0:0:0:0:
187,73,250235,1,0,0:0:0:0:
109,187,250378,1,0,0:0:0:0:
336,139,250449,1,0,0:0:0:0:
339,71,250520,1,8,0:0:0:0:
109,187,250663,1,0,0:0:0:0:
299,221,250806,1,8,0:0:0:0:
120,177,250949,1,0,0:0:0:0:
245,190,251092,1,0,0:0:0:0:
255,151,251235,1,8,0:0:0:0:
448,209,251330,1,0,0:0:0:0:
448,209,251425,1,0,0:0:0:0:
238,148,251520,1,8,0:0:0:0:
212,53,251806,1,4,0:0:0:0:
354,73,252092,1,0,0:0:0:0:
354,73,252378,1,8,0:0:0:0:
328,129,252663,1,8,0:0:0:0:
337,118,252806,1,8,0:0:0:0:
175,118,252949,1,4,0:0:0:0:
263,217,253235,1,8,0:0:0:0:
337,118,253520,1,4,0:0:0:0:
405,258,253806,1,0,0:0:0:0:
287,68,253949,1,8,0:0:0:0:
256,192,254092,12,0,255520,0:0:0:0:
215,132,255663,5,0,0:0:0:0:
233,143,255735,1,0,0:0:0:0:
251,150,255806,1,8,0:0:0:0:
277,220,256378,1,4,0:0:0:0:
318,213,256663,1,0,0:0:0:0:
126,101,256806,1,0,0:0:0:0:
234,56,256949,1,8,0:0:0:0:
410,178,257092,1,0,0:0:0:0:
126,182,257235,1,0,0:0:0:0:
410,178,257378,1,0,0:0:0:0:
126,182,257520,1,8,0:0:0:0:
331,273,257592,1,8,0:0:0:0:
126,182,257663,1,8,0:0:0:0:
126,182,257806,1,0,0:0:0:0:
296,140,257949,1,0,0:0:0:0:
296,140,258092,1,8,0:0:0:0:
459,281,258163,1,0,0:0:0:0:
455,290,258235,1,0,0:0:0:0:
250,188,258378,1,0,0:0:0:0:
374,124,258520,1,8,0:0:0:0:
223,79,258663,1,0,0:0:0:0:
450,171,258735,1,0,0:0:0:0:
236,84,258806,1,0,0:0:0:0:
242,88,258949,1,8,0:0:0:0:
116,155,259092,1,0,0:0:0:0:
116,155,259235,1,8,0:0:0:0:
278,163,259378,1,0,0:0:0:0:
278,163,259520,1,8,0:0:0:0:
278,163,259663,1,8,0:0:0:0:
278,163,259806,1,0,0:0:0:0:
440,141,259878,1,0,0:0:0:0:
271,259,259949,1,0,0:0:0:0:
271,259,260092,1,8,0:0:0:0:
271,259,260235,1,0,0:0:0:0:
271,259,260378,1,8,0:0:0:0:
341,140,260663,1,0,0:0:0:0:
169,180,260806,1,0,0:0:0:0:
438,116,260949,1,8,0:0:0:0:
411,213,261020,1,0,0:0:0:0:
450,215,261092,1,0,0:0:0:0:
221,117,261235,1,0,0:0:0:0:
221,117,261378,1,0,0:0:0:0:
221,117,261520,1,8,0:0:0:0:
221,117,261663,1,0,0:0:0:0:
221,117,261806,1,8,0:0:0:0:
225,56,261949,1,0,0:0:0:0:
225,56,262092,1,8,0:0:0:0:
117,71,262163,1,8,0:0:0:0:
117,71,262235,1,0,0:0:0:0:
117,71,262378,1,0,0:0:0:0:
240,190,262520,1,0,0:0:0:0:
240,190,262663,1,8,0:0:0:0:
312,66,262735,1,0,0:0:0:0:
300,70,262806,1,0,0:0:0:0:
300,70,262949,1,8,0:0:0:0:
300,70,263092,1,0,0:0:0:0:
300,70,263235,1,8,0:0:0:0:
187,96,263306,1,0,0:0:0:0:
187,96,263378,1,0,0:0:0:0:
187,96,263449,1,0,0:0:0:0:
194,92,263520,1,8,0:0:0:0:
366,118,263663,1,0,0:0:0:0:
236,46,263806,1,8,0:0:0:0:
207,162,263949,1,0,0:0:0:0:
207,162,264092,1,0,0:0:0:0:
207,162,264235,1,8,0:0:0:0:
207,162,264378,1,0,0:0:0:0:
424,205,264449,1,0,0:0:0:0:
207,162,264520,1,0,0:0:0:0:
207,162,264663,1,8,0:0:0:0:
207,162,264806,1,0,0:0:0:0:
207,162,264949,1,12,0:0:0:0:
313,82,265092,1,0,0:0:0:0:
207,162,265235,1,12,0:0:0:0:
221,117,265520,1,0,0:0:0:0:
440,123,265592,1,8,0:0:0:0:
440,123,265663,1,8,0:0:0:0:
221,117,265806,1,8,0:0:0:0:
221,117,265949,1,0,0:0:0:0:
221,117,266092,1,8,0:0:0:0:
134,226,266163,1,8,0:0:0:0:
225,56,266235,1,0,0:0:0:0:
225,56,266378,1,0,0:0:0:0:
117,71,266520,1,0,0:0:0:0:
117,71,266663,1,8,0:0:0:0:
427,112,266735,1,0,0:0:0:0:
240,190,266806,1,0,0:0:0:0:
240,190,266949,1,8,0:0:0:0:
300,70,267092,1,0,0:0:0:0:
300,70,267235,1,8,0:0:0:0:
300,70,267378,1,8,0:0:0:0:
300,70,267520,1,0,0:0:0:0:
187,96,267663,1,0,0:0:0:0:
194,92,267806,1,8,0:0:0:0:
363,128,267878,1,8,0:0:0:0:
366,118,267949,1,0,0:0:0:0:
375,238,268020,1,8,0:0:0:0:
236,46,268092,1,8,0:0:0:0:
207,162,268235,1,0,0:0:0:0:
207,162,268378,1,0,0:0:0:0:
207,162,268520,1,8,0:0:0:0:
207,162,268663,1,0,0:0:0:0:
207,162,268806,1,0,0:0:0:0:
207,162,268949,1,8,0:0:0:0:
342,108,269020,1,8,0:0:0:0:
207,162,269092,1,0,0:0:0:0:
349,113,269163,1,0,0:0:0:0:
207,162,269235,1,8,0:0:0:0:
207,162,269378,1,0,0:0:0:0:
207,162,269520,1,8,0:0:0:0:
418,132,269663,1,0,0:0:0:0:
418,132,269806,1,0,0:0:0:0:
307,90,270092,1,8,0:0:0:0:
341,289,270163,1,0,0:0:0:0:
341,289,270235,1,0,0:0:0:0:
318,213,270378,1,8,0:0:0:0:
126,101,270520,1,8,0:0:0:0:
234,56,270663,1,8,0:0:0:0:
410,178,270806,1,0,0:0:0:0:
126,182,270949,1,8,0:0:0:0:
410,178,271092,1,0,0:0:0:0:
126,182,271235,1,8,0:0:0:0:
331,273,271306,1,8,0:0:0:0:
126,182,271378,1,8,0:0:0:0:
126,182,271520,1,8,0:0:0:0:
296,140,271663,1,0,0:0:0:0:
296,140,271806,1,8,0:0:0:0:
459,281,271878,1,8,0:0:0:0:
455,290,271949,1,0,0:0:0:0:
250,188,272092,1,8,0:0:0:0:
374,124,272235,1,0,0:0:0:0:
223,79,272378,1,8,0:0:0:0:
450,171,272449,1,0,0:0:0:0:
236,84,272520,1,0,0:0:0:0:
242,88,272663,1,8,0:0:0:0:
116,155,272806,1,0,0:0:0:0:
116,155,272949,1,8,0:0:0:0:
278,163,273092,1,0,0:0:0:0:
278,163,273235,1,0,0:0:0:0:
278,163,273378,1,8,0:0:0:0:
278,163,273520,1,0,0:0:0:0:
364,79,273592,1,0,0:0:0:0:
271,259,273663,1,8,0:0:0:0:
271,259,273806,1,0,0:0:0:0:
440,226,273949,1,8,0:0:0:0:
271,259,274092,1,4,0:0:0:0:
341,140,274235,1,4,0:0:0:0:
347,145,274378,1,4,0:0:0:0:
161,98,274520,1,12,0:0:0:0:
