osu file format v14

[General]
AudioFilename: audio.mp3
AudioLeadIn: 0
PreviewTime: 174104
Countdown: 0
SampleSet: Soft
StackLeniency: 0.7
Mode: 0
LetterboxInBreaks: 0
WidescreenStoryboard: 1

[Editor]
Bookmarks: 19894,39486,49282,59078,66425,73772,93364,103160,112956,122751,130098,134996,154588,174180
DistanceSpacing: 1.3
BeatDivisor: 4
GridSize: 32
TimelineZoom: 1.8

[Metadata]
Title:Catharsis
TitleUnicode:カタルシス
Artist:PassCode
ArtistUnicode:PassCode
Creator:mrforse
Version:nemi's Hard
Source:
Tags:japanese jrock j-rock jpop j-pop pop rock female vocals vocalist ZENITH 高嶋楓 Takashima Kaede 南菜生 Minami Nao 今田夢菜 Imada Yuna 大上陽奈子 Oogami Hinako amats nemidnight Baack
BeatmapID:3651168
BeatmapSetID:1780807

[Difficulty]
HPDrainRate:4
CircleSize:3.4
OverallDifficulty:7
ApproachRate:8
SliderMultiplier:1.35
SliderTickRate:1

[Events]
//Background and Video events
0,0,"bg.jpg",0,0
//Break Periods
//Storyboard Layer 0 (Background)
//Storyboard Layer 1 (Fail)
//Storyboard Layer 2 (Pass)
//Storyboard Layer 3 (Foreground)
//Storyboard Layer 4 (Overlay)
//Storyboard Sound Samples

[TimingPoints]
303,306.122448979592,4,2,1,40,1,0
303,-142.857142857143,4,2,1,40,0,0
19894,-100,4,2,1,60,0,0
39486,-117.647058823529,4,2,1,50,0,0
49282,-111.111111111111,4,2,1,55,0,0
59078,-117.647058823529,4,2,1,55,0,0
66425,-111.111111111111,4,2,1,55,0,0
69104,-111.111111111111,4,2,1,5,0,0
69180,-111.111111111111,4,2,1,55,0,0
72547,-111.111111111111,4,2,1,5,0,0
73772,-92.5925925925926,4,2,1,70,0,1
93364,-97.0873786407767,4,2,1,70,0,0
103160,-117.647058823529,4,2,1,50,0,0
112956,-111.111111111111,4,2,1,55,0,0
122751,-117.647058823529,4,2,1,55,0,0
130098,-111.111111111111,4,2,1,55,0,0
132547,-111.111111111111,4,2,1,60,0,0
132624,-111.111111111111,4,2,1,30,0,0
133007,-111.111111111111,4,2,1,60,0,0
133083,-111.111111111111,4,2,1,30,0,0
133236,-111.111111111111,4,2,1,55,0,0
133313,-111.111111111111,4,2,1,65,0,0
133389,-111.111111111111,4,2,1,30,0,0
133466,-111.111111111111,4,2,1,60,0,0
133542,-111.111111111111,4,2,1,30,0,0
133695,-111.111111111111,4,2,1,60,0,0
133772,-111.111111111111,4,2,1,65,0,0
133848,-111.111111111111,4,2,1,30,0,0
134231,-111.111111111111,4,2,1,60,0,0
134308,-111.111111111111,4,2,1,30,0,0
134690,-111.111111111111,4,2,1,60,0,0
134996,-92.5925925925926,4,2,1,70,0,1
154588,-105.263157894737,4,2,1,65,0,0
174180,-90.9090909090909,4,2,1,75,0,1
196833,306.122448979592,4,2,1,70,1,0
196833,-95.2380952380952,4,2,1,70,0,0
210303,-95.2380952380952,4,2,1,60,0,0
210609,-117.647058823529,4,2,1,60,0,0
211527,-142.857142857143,4,2,1,50,0,0
221323,-142.857142857143,4,2,1,45,0,0
226221,-142.857142857143,4,2,1,40,0,0
228670,-142.857142857143,4,2,1,35,0,0
229894,-142.857142857143,4,2,1,30,0,0
230507,-142.857142857143,4,2,1,25,0,0
230813,-142.857142857143,4,2,1,20,0,0

[Colours]
Combo1 : 221,180,235
Combo2 : 20,191,248
Combo3 : 40,40,247
Combo4 : 190,85,225
Combo5 : 169,213,241

[HitObjects]
364,63,303,54,0,P|383:27|449:28,1,94.4999971160889,0|2,0:0|0:0,0:0:0:0:
493,74,762,2,0,P|485:106|477:134,1,47.2499985580445,2|0,0:0|0:0,0:0:0:0:
417,169,1068,2,0,P|434:232|443:272,1,94.4999971160889
499,327,1527,5,2,0:0:0:0:
499,327,1680,2,0,P|460:341|437:349,1,47.2499985580445,2|0,0:0|0:0,0:0:0:0:
375,328,1986,2,0,P|330:319|277:306,1,94.4999971160889,2|2,0:0|0:0,0:0:0:0:
205,329,2445,1,2,0:0:0:0:
71,276,2751,54,0,P|63:313|58:332,2,47.2499985580445,2|2|0,0:0|0:0|0:0,0:0:0:0:
135,227,3211,2,0,P|124:179|106:120,1,94.4999971160889,2|0,0:0|0:0,0:0:0:0:
107,55,3670,2,0,P|133:34|162:35,1,47.2499985580445,2|0,0:0|0:0,0:0:0:0:
224,15,3976,6,0,B|282:35|247:41|307:66,1,94.4999971160889,2|2,0:0|0:0,0:0:0:0:
358,122,4435,2,0,P|403:80|451:87,1,94.4999971160889,2|0,0:0|0:0,0:0:0:0:
507,111,4894,1,2,0:0:0:0:
446,245,5200,54,0,P|435:307|424:359,1,94.4999971160889,2|0,0:0|0:0,0:0:0:0:
354,369,5660,2,0,P|324:333|268:327,1,94.4999971160889
227,263,6119,1,2,0:0:0:0:
85,341,6425,6,0,P|70:276|62:232,1,94.4999971160889,2|2,0:0|0:0,0:0:0:0:
20,181,6884,2,0,P|54:176|88:120,1,94.4999971160889,2|0,0:0|0:0,0:0:0:0:
51,57,7343,1,2,0:0:0:0:
213,36,7649,54,0,P|257:29|312:18,1,94.4999971160889,2|2,0:0|0:0,0:0:0:0:
385,36,8109,2,0,P|425:56|418:120,1,94.4999971160889,2|0,0:0|0:0,0:0:0:0:
400,176,8568,1,2,0:0:0:0:
253,101,8874,6,0,B|198:110|221:125|157:140,1,94.4999971160889,2|0,0:0|0:0,0:0:0:0:
86,133,9333,2,0,P|74:171|101:226,1,94.4999971160889
107,221,10098,54,0,P|87:179|99:134,1,94.4999971160889,0|2,0:0|0:0,0:0:0:0:
163,78,10558,2,0,P|189:89|260:107,1,94.4999971160889,2|0,0:0|0:0,0:0:0:0:
326,63,11017,1,2,0:0:0:0:
457,136,11323,5,2,0:0:0:0:
457,136,11476,2,0,P|449:171|441:192,1,47.2499985580445,2|0,0:0|0:0,0:0:0:0:
372,226,11782,2,0,P|385:278|401:326,1,94.4999971160889,2|0,0:0|0:0,0:0:0:0:
333,372,12241,2,0,P|299:362|272:349,1,47.2499985580445,2|0,0:0|0:0,0:0:0:0:
218,308,12547,53,2,0:0:0:0:
218,308,12700,2,0,P|192:322|162:329,1,47.2499985580445,2|0,0:0|0:0,0:0:0:0:
100,359,13007,2,0,P|68:326|69:265,1,94.4999971160889,2|0,0:0|0:0,0:0:0:0:
45,201,13466,1,2,0:0:0:0:
166,103,13772,5,2,0:0:0:0:
166,103,13925,2,0,P|189:121|214:126,1,47.2499985580445,2|0,0:0|0:0,0:0:0:0:
274,168,14231,2,0,B|334:157|304:138|378:126,1,94.4999971160889,2|0,0:0|0:0,0:0:0:0:
419,77,14690,1,2,0:0:0:0:
492,209,14996,54,0,P|458:221|395:242,1,94.4999971160889,2|0,0:0|0:0,0:0:0:0:
348,299,15456,2,0,P|329:333|266:341,1,94.4999971160889
198,334,15915,1,2,0:0:0:0:
191,181,16221,6,0,B|127:202|158:212|95:233,1,94.4999971160889,2|2,0:0|0:0,0:0:0:0:
38,190,16680,2,0,P|33:154|82:102,1,94.4999971160889,2|0,0:0|0:0,0:0:0:0:
115,45,17139,1,2,0:0:0:0:
256,140,17445,54,0,P|278:133|368:114,1,94.4999971160889,2|2,0:0|0:0,0:0:0:0:
427,130,17905,2,0,P|464:152|463:205,1,94.4999971160889,2|0,0:0|0:0,0:0:0:0:
405,252,18364,2,0,P|375:238|347:229,1,47.2499985580445,2|0,0:0|0:0,0:0:0:0:
283,250,18670,5,2,0:0:0:0:
42,104,19588,53,8,0:0:0:0:
33,93,19894,22,0,P|61:47|141:49,1,135,4|8,3:2|0:0,0:0:0:0:
205,108,20354,1,2,0:0:0:0:
205,108,20507,2,0,P|192:159|184:186,1,67.5,2|2,3:2|3:2,0:0:0:0:
108,210,20813,1,10,0:0:0:0:
124,310,20966,6,0,B|203:339|151:357|249:388,1,135,6|0,3:2|3:0,0:0:0:0:
316,352,21425,2,0,P|357:341|393:335,1,67.5,8|2,0:0|0:0,0:0:0:0:
453,286,21731,2,0,P|460:246|437:215,1,67.5,2|0,3:2|3:0,0:0:0:0:
504,156,22037,2,0,P|472:129|434:134,1,67.5,10|2,0:0|0:0,0:0:0:0:
371,170,22343,5,4,3:2:0:0:
254,18,22649,2,0,P|246:50|238:83,1,67.5,10|0,0:0|0:0,0:0:0:0:
194,160,22956,2,0,P|201:192|209:225,1,67.5,2|2,3:2|3:2,0:0:0:0:
195,312,23262,1,10,0:0:0:0:
287,366,23415,38,0,P|350:370|382:314,1,135,6|0,3:2|3:0,0:0:0:0:
346,240,23874,1,8,0:0:0:0:
346,240,24027,2,0,P|359:199|392:179,1,67.5,2|0,0:0|3:0,0:0:0:0:
464,160,24333,1,0,3:0:0:0:
464,160,24486,2,0,P|451:119|418:99,1,67.5,8|0,0:0|0:0,0:0:0:0:
405,4,24792,6,0,B|324:23|372:47|280:69,1,135,6|8,3:2|0:0,0:0:0:0:
236,138,25251,1,2,0:0:0:0:
236,138,25405,2,0,P|213:105|175:100,1,67.5,2|2,3:2|3:2,0:0:0:0:
122,39,25711,1,10,0:0:0:0:
44,107,25864,6,0,P|56:160|74:242,1,135,6|0,3:2|3:0,0:0:0:0:
40,320,26323,2,0,P|83:338|109:348,1,67.5,8|0,0:0|0:0,0:0:0:0:
183,378,26629,2,0,P|215:370|234:344,1,67.5,2|0,3:2|3:0,0:0:0:0:
321,356,26935,2,0,P|330:324|317:294,1,67.5,10|2,0:0|0:0,0:0:0:0:
239,251,27241,37,4,3:2:0:0:
158,70,27547,2,0,P|197:61|238:52,1,67.5,10|0,0:0|0:0,0:0:0:0:
302,15,27854,2,0,P|341:24|382:33,1,67.5,2|2,3:2|3:2,0:0:0:0:
443,73,28160,1,10,0:0:0:0:
473,170,28313,6,0,P|424:219|356:209,1,135,6|0,3:2|3:0,0:0:0:0:
326,133,28772,2,0,P|291:131|261:146,1,67.5,8|2,0:0|0:0,0:0:0:0:
217,220,29078,6,0,P|180:210|158:204,3,33.75,8|0|8|8,3:0|0:0|0:0|0:0,0:0:0:0:
157,185,29384,1,10,3:2:0:0:
60,159,29537,1,8,0:0:0:0:
56,165,29614,1,8,0:0:0:0:
52,171,29690,38,0,P|64:239|79:314,1,135,6|8,3:2|0:0,0:0:0:0:
145,366,30149,1,0,0:0:0:0:
145,366,30303,2,0,P|187:362|207:333,1,67.5,2|0,3:2|3:0,0:0:0:0:
173,261,30609,1,10,0:0:0:0:
270,233,30762,6,0,B|344:255|297:275|403:309,1,135,6|0,3:2|3:0,0:0:0:0:
470,312,31221,2,0,P|493:281|489:240,1,67.5,8|0,0:0|0:0,0:0:0:0:
454,174,31527,2,0,P|444:136|435:102,1,67.5,2|0,3:2|3:0,0:0:0:0:
379,42,31833,1,10,0:0:0:0:
219,176,32139,6,0,P|165:155|156:73,1,135,6|8,3:2|0:0,0:0:0:0:
212,23,32598,1,2,0:0:0:0:
212,23,32751,2,0,P|259:36|283:41,1,67.5,2|0,3:2|3:0,0:0:0:0:
364,11,33058,1,10,0:0:0:0:
445,83,33211,38,0,P|430:155|408:227,1,135,6|0,3:2|3:0,0:0:0:0:
450,293,33670,2,0,P|433:332|405:345,1,67.5,10|0,0:0|0:0,0:0:0:0:
330,374,33976,2,0,P|288:368|261:363,1,67.5,2|2,3:2|3:2,0:0:0:0:
209,294,34282,2,0,P|210:260|232:236,1,67.5,10|2,0:0|0:0,0:0:0:0:
264,138,34588,6,0,B|348:157|304:176|388:197,2,135,6|10|2,3:2|0:0|3:2,0:0:0:0:
205,71,35354,1,2,3:2:0:0:
205,71,35507,1,10,0:0:0:0:
118,132,35660,6,0,P|80:168|88:249,1,135,6|0,3:2|3:0,0:0:0:0:
129,321,36119,2,0,P|168:315|271:300,1,135,10|2,0:0|3:2,0:0:0:0:
348,336,36578,1,0,3:0:0:0:
348,336,36731,2,0,P|388:303|391:278,1,67.5,10|0,0:0|0:0,0:0:0:0:
446,206,37037,38,0,P|384:215|340:157,1,135,6|8,3:2|0:0,0:0:0:0:
352,80,37496,1,0,0:0:0:0:
352,80,37649,2,0,P|328:47|295:43,1,67.5,2|2,3:2|3:2,0:0:0:0:
231,92,37956,1,10,0:0:0:0:
164,15,38109,6,0,B|90:47|133:52|46:93,1,135,6|0,3:2|3:0,0:0:0:0:
18,170,38568,2,0,P|11:214|37:239,1,67.5,14|0,0:0|0:0,0:0:0:0:
86,291,38874,5,10,0:0:0:0:
161,246,39027,1,8,0:0:0:0:
167,243,39104,1,8,0:0:0:0:
174,240,39180,2,0,P|207:238|224:236,3,33.75,8|8|4|4,0:3|0:3|0:3|0:3,0:0:0:0:
239,218,39486,6,0,P|222:289|212:339,2,114.750002188683,6|0|0,3:2|3:0|3:0,0:0:0:0:
334,125,40405,2,0,P|331:70|282:43,1,114.750002188683,2|0,3:2|3:0,0:0:0:0:
149,18,41017,2,0,P|132:60|123:91,1,57.3750010943413,2|0,3:2|0:0,0:0:0:0:
70,127,41323,2,0,P|87:169|96:200,1,57.3750010943413,2|0,3:2|0:0,0:0:0:0:
146,239,41629,2,0,P|129:281|120:312,1,57.3750010943413,2|0,3:2|0:0,0:0:0:0:
53,338,41935,6,0,P|86:375|166:365,1,114.750002188683,2|0,3:2|3:0,0:0:0:0:
210,322,42394,2,0,P|243:285|323:295,1,114.750002188683,2|0,3:2|3:0,0:0:0:0:
362,340,42854,2,0,P|417:341|456:301,1,114.750002188683,2|0,3:2|3:0,0:0:0:0:
486,225,43313,1,0,0:0:0:0:
486,225,43466,2,0,P|474:177|469:156,1,57.3750010943413,0|0,3:0|0:0,0:0:0:0:
441,91,43772,2,0,P|420:113|384:122,1,57.3750010943413,2|2,3:2|0:0,0:0:0:0:
322,82,44078,1,2,3:2:0:0:
210,192,44384,54,0,P|220:254|227:315,1,114.750002188683,2|0,3:2|3:0,0:0:0:0:
291,364,44843,2,0,P|325:357|344:334,1,57.3750010943413,2|0,0:0|3:0,0:0:0:0:
388,272,45149,1,2,0:0:0:0:
388,272,45303,2,0,P|377:225|370:203,1,57.3750010943413,2|2,3:2|0:0,0:0:0:0:
353,138,45609,2,0,P|383:177|464:174,2,114.750002188683,2|2|0,3:2|3:2|3:2,0:0:0:0:
326,17,46527,1,2,3:2:0:0:
332,26,46833,6,0,P|380:38|456:52,2,114.750002188683,2|0|0,3:2|3:0|3:0,0:0:0:0:
199,27,47751,2,0,P|174:38|159:62,1,57.3750010943413,2|0,3:2|0:0,0:0:0:0:
79,77,48058,2,0,P|76:105|89:130,1,57.3750010943413,2|0,3:2|0:0,0:0:0:0:
66,207,48364,2,0,P|89:223|117:224,1,57.3750010943413,2|0,3:0|0:0,0:0:0:0:
183,178,48670,53,10,3:2:0:0:
241,232,48823,1,8,0:0:0:0:
246,237,48899,1,8,0:0:0:0:
251,242,48976,2,0,P|243:282|237:305,1,57.3750010943413,8|8,0:0|0:0,0:0:0:0:
298,359,49282,22,0,P|331:373|370:357,1,60.7499981460572,4|0,3:2|0:0,0:0:0:0:
423,299,49588,1,8,0:0:0:0:
423,299,49741,2,0,P|413:248|398:157,1,121.499996292114,0|0,0:0|3:0,0:0:0:0:
465,123,50200,2,0,P|476:74|482:47,1,60.7499981460572,10|0,0:0|0:0,0:0:0:0:
415,6,50507,6,0,P|381:1|352:20,1,60.7499981460572,2|0,3:2|0:0,0:0:0:0:
312,84,50813,2,0,P|259:117|187:83,1,121.499996292114,10|2,0:0|3:2,0:0:0:0:
138,59,51272,1,0,3:0:0:0:
138,59,51425,2,0,P|106:75|75:86,1,60.7499981460572,10|0,0:0|0:0,0:0:0:0:
19,157,51731,6,0,P|60:193|37:271,1,121.499996292114,6|8,3:2|0:0,0:0:0:0:
10,328,52190,2,0,P|34:356|63:363,1,60.7499981460572,2|0,0:0|3:0,0:0:0:0:
137,332,52496,1,0,3:0:0:0:
137,332,52649,38,0,B|209:342|172:365|251:376,2,121.499996292114,10|0|8,0:0|3:0|0:0,0:0:0:0:
58,180,53568,2,0,P|95:191|131:201,1,60.7499981460572,0|0,3:0|3:0,0:0:0:0:
186,254,53874,1,10,0:0:0:0:
186,254,54027,1,2,0:0:0:0:
265,192,54180,6,0,P|306:237|389:231,2,121.499996292114,6|8|0,3:2|0:0|3:0,0:0:0:0:
217,121,54945,1,0,3:0:0:0:
217,121,55098,2,0,P|229:85|240:56,1,60.7499981460572,10|2,0:0|0:0,0:0:0:0:
319,12,55405,6,0,P|368:31|451:56,1,121.499996292114,2|10,3:2|0:0,0:0:0:0:
479,129,55864,1,2,0:0:0:0:
479,129,56017,2,0,P|493:165|482:202,1,60.7499981460572,2|2,3:2|3:2,0:0:0:0:
412,220,56323,2,0,P|398:256|409:293,1,60.7499981460572,10|0,0:0|0:0,0:0:0:0:
367,370,56629,38,0,B|292:357|336:337|245:317,1,121.499996292114,6|10,3:2|0:0,0:0:0:0:
193,264,57088,1,0,0:0:0:0:
193,264,57241,2,0,P|151:280|127:282,1,60.7499981460572,2|0,3:2|3:0,0:0:0:0:
59,320,57547,6,0,P|94:271|71:200,1,121.499996292114,10|0,0:0|3:0,0:0:0:0:
20,156,58007,1,0,3:0:0:0:
20,156,58160,2,0,P|31:116|42:78,1,60.7499981460572,10|8,0:0|0:0,0:0:0:0:
44,83,58389,5,8,0:0:0:0:
44,83,58466,2,0,P|69:110|97:116,1,60.7499981460572,8|0,0:0|3:0,0:0:0:0:
158,59,58772,2,0,P|183:32|211:26,1,60.7499981460572,12|0,0:0|0:0,0:0:0:0:
290,52,59078,6,0,P|336:44|367:37,2,57.3750010943413,4|2|10,3:2|3:2|0:0,0:0:0:0:
236,119,59537,1,2,0:0:0:0:
363,201,59843,1,2,3:2:0:0:
226,265,60149,1,2,3:0:0:0:
226,265,60303,6,0,P|234:311|241:342,2,57.3750010943413,2|0|8,3:2|3:0|0:0,0:0:0:0:
111,180,60915,2,0,P|124:136|131:115,1,57.3750010943413,0|0,3:0|3:0,0:0:0:0:
194,71,61221,1,10,0:0:0:0:
350,57,61527,54,0,P|379:77|414:76,2,57.3750010943413,2|0|10,3:2|3:0|0:0,0:0:0:0:
284,0,61986,1,2,0:0:0:0:
213,122,62292,1,2,3:2:0:0:
334,204,62598,1,2,0:0:0:0:
334,204,62751,6,0,P|362:199|384:181,2,57.3750010943413,0|0|10,3:0|3:0|0:0,0:0:0:0:
222,305,63364,2,0,P|194:298|163:290,1,57.3750010943413,0|0,3:0|3:0,0:0:0:0:
111,224,63670,2,0,P|108:192|129:165,1,57.3750010943413,12|0,0:0|0:0,0:0:0:0:
116,85,63976,54,0,P|155:78|187:72,2,57.3750010943413,6|2|10,3:2|3:2|0:0,0:0:0:0:
50,140,64435,1,2,0:0:0:0:
199,207,64741,1,2,3:2:0:0:
279,91,65047,1,2,0:0:0:0:
279,91,65200,6,0,P|272:52|266:20,2,57.3750010943413,0|0|8,3:0|3:0|0:0,0:0:0:0:
341,151,65660,1,8,0:0:0:0:
346,156,65736,1,8,0:0:0:0:
351,161,65813,2,0,P|344:200|338:232,1,57.3750010943413,10|0,0:0|3:0,0:0:0:0:
285,282,66119,1,14,0:0:0:0:
130,378,66425,6,0,P|119:332|111:298,1,60.7499981460572,6|0,3:2|3:0,0:0:0:0:
64,258,66731,1,10,0:0:0:0:
64,258,66884,2,0,P|75:212|83:178,1,60.7499981460572,2|0,0:0|3:0,0:0:0:0:
133,134,67190,2,0,P|159:113|194:114,1,60.7499981460572,2|8,3:2|0:0,0:0:0:0:
244,192,67496,6,0,B|318:208|278:227|359:248,1,121.499996292114,2|0,0:0|3:0,0:0:0:0:
437,230,67956,1,10,0:0:0:0:
437,230,68109,2,0,P|447:195|455:162,1,60.7499981460572,2|0,0:0|3:0,0:0:0:0:
499,100,68415,1,0,3:0:0:0:
499,100,68568,2,0,P|485:61|473:29,1,60.7499981460572,8|2,0:0|3:2,0:0:0:0:
388,2,68874,6,0,P|366:45|301:51,1,91.1249972190858,14|0,0:0|0:0,0:0:0:0:
307,70,69180,2,0,P|266:56|237:45,1,60.7499981460572,10|2,0:0|3:2,0:0:0:0:
167,2,69486,2,0,P|126:16|97:27,1,60.7499981460572,8|2,0:0|3:2,0:0:0:0:
49,94,69792,1,8,0:0:0:0:
49,94,69945,1,2,3:2:0:0:
106,178,70098,38,0,P|107:221|80:255,1,60.7499981460572,8|0,0:0|3:0,0:0:0:0:
19,284,70405,2,0,P|18:327|45:361,1,60.7499981460572,10|0,0:0|0:0,0:0:0:0:
114,377,70711,2,0,P|144:373|171:369,2,40.4999987640381,2|0|8,3:2|0:0|0:0,0:0:0:0:
190,343,71017,2,0,P|220:347|247:351,2,40.4999987640381,8|8|4,0:3|0:3|0:3,0:0:0:0:
268,378,71323,5,4,3:2:0:0:
256,192,71425,12,0,72547,0:0:0:0:
42,24,73772,6,0,B|133:46|71:67|164:99,1,145.80000355957,6|8,3:2|0:0,0:0:0:0:
253,70,74231,2,0,P|284:42|321:40,1,72.9000017797852,2|0,0:0|3:0,0:0:0:0:
400,76,74537,1,2,3:2:0:0:
400,76,74690,1,10,0:0:0:0:
463,167,74843,38,0,P|451:229|434:321,1,145.80000355957,6|0,3:2|3:0,0:0:0:0:
349,350,75303,2,0,P|308:336|275:322,1,72.9000017797852,8|0,0:0|0:0,0:0:0:0:
220,251,75609,2,0,P|193:287|160:293,1,72.9000017797852,2|0,3:2|3:0,0:0:0:0:
81,334,75915,2,0,P|63:292|74:261,1,72.9000017797852,10|0,0:0|0:0,0:0:0:0:
39,163,76221,6,0,P|84:111|170:121,1,145.80000355957,6|8,3:2|0:0,0:0:0:0:
226,175,76680,2,0,P|210:222|202:257,1,72.9000017797852,2|0,0:0|3:0,0:0:0:0:
243,336,76986,1,2,3:2:0:0:
243,336,77139,1,10,0:0:0:0:
319,257,77292,6,0,B|401:278|357:300|446:328,1,145.80000355957,6|0,3:2|3:0,0:0:0:0:
507,256,77751,2,0,P|497:214|490:178,1,72.9000017797852,8|0,0:0|0:0,0:0:0:0:
421,119,78058,2,0,P|409:153|398:188,1,72.9000017797852,2|0,3:2|3:0,0:0:0:0:
316,237,78364,2,0,P|279:266|225:255,1,72.9000017797852,14|0,0:0|0:0,0:0:0:0:
153,225,78670,38,0,P|137:133|122:66,1,145.80000355957,6|8,3:2|0:0,0:0:0:0:
184,7,79129,2,0,P|217:32|259:33,1,72.9000017797852,2|0,0:0|3:0,0:0:0:0:
337,6,79435,1,2,3:2:0:0:
337,6,79588,1,10,0:0:0:0:
440,58,79741,6,0,P|465:101|422:190,1,145.80000355957,6|0,3:2|3:0,0:0:0:0:
361,248,80200,2,0,P|327:205|290:202,1,72.9000017797852,8|0,0:0|0:0,0:0:0:0:
217,183,80507,2,0,P|165:202|143:205,1,72.9000017797852,2|0,3:2|3:0,0:0:0:0:
96,284,80813,2,0,P|148:303|170:306,1,72.9000017797852,10|0,0:0|0:0,0:0:0:0:
258,362,81119,6,0,B|349:347|293:322|389:306,1,145.80000355957,6|8,3:2|0:0,0:0:0:0:
483,315,81578,2,0,P|468:260|457:228,1,72.9000017797852,2|0,0:0|3:0,0:0:0:0:
490,154,81884,1,2,3:2:0:0:
490,154,82037,1,10,0:0:0:0:
405,81,82190,38,0,P|371:127|277:135,1,145.80000355957,6|0,3:2|3:0,0:0:0:0:
217,75,82649,2,0,P|161:88|131:96,1,72.9000017797852,10|0,0:0|0:0,0:0:0:0:
76,157,82956,6,0,P|81:191|85:221,3,36.4500008898926,8|0|0|0,3:0|3:0|3:0|3:0,0:0:0:0:
64,229,83262,1,10,0:0:0:0:
126,298,83415,1,8,0:0:0:0:
132,302,83491,1,8,0:0:0:0:
138,306,83568,6,0,P|211:295|287:287,1,145.80000355957,6|8,3:2|0:0,0:0:0:0:
367,242,84027,1,2,0:0:0:0:
367,242,84180,2,0,P|392:273|433:280,1,72.9000017797852,0|0,3:0|3:0,0:0:0:0:
499,225,84486,1,10,0:0:0:0:
459,118,84639,38,0,B|372:136|423:161|320:178,1,145.80000355957,6|0,3:2|3:0,0:0:0:0:
248,228,85098,2,0,P|170:225|129:152,1,145.80000355957,8|0,0:0|3:0,0:0:0:0:
79,95,85558,2,0,P|109:61|152:55,1,72.9000017797852,2|10,3:2|0:0,0:0:0:0:
216,101,85864,1,2,0:0:0:0:
296,27,86017,6,0,P|357:48|437:71,1,145.80000355957,6|8,3:2|0:0,0:0:0:0:
491,146,86476,2,0,P|473:190|457:228,1,72.9000017797852,2|0,0:0|3:0,0:0:0:0:
476,307,86782,1,2,3:2:0:0:
476,307,86935,1,10,0:0:0:0:
377,358,87088,6,0,B|282:334|341:308|233:284,1,145.80000355957,6|0,3:2|3:0,0:0:0:0:
166,248,87547,2,0,P|135:280|100:289,1,72.9000017797852,8|0,0:0|0:0,0:0:0:0:
29,235,87854,38,0,P|11:191|-7:156,1,72.9000017797852,2|0,3:2|3:0,0:0:0:0:
47,86,88160,2,0,P|94:92|133:94,1,72.9000017797852,10|0,0:0|0:0,0:0:0:0:
216,44,88466,6,0,P|175:75|186:167,1,145.80000355957,6|8,3:2|0:0,0:0:0:0:
248,228,88925,2,0,P|277:201|323:199,1,72.9000017797852,2|0,0:0|3:0,0:0:0:0:
371,266,89231,1,2,3:2:0:0:
371,266,89384,1,10,0:0:0:0:
462,205,89537,6,0,P|455:139|443:50,1,145.80000355957,6|0,3:2|3:0,0:0:0:0:
365,8,89996,2,0,P|331:31|326:70,1,72.9000017797852,8|0,0:0|0:0,0:0:0:0:
329,155,90303,2,0,P|273:142|251:137,1,72.9000017797852,2|0,3:2|3:0,0:0:0:0:
181,82,90609,2,0,P|125:95|103:100,1,72.9000017797852,10|0,0:0|0:0,0:0:0:0:
40,163,90915,38,0,P|19:191|71:298,1,145.80000355957,6|8,3:2|0:0,0:0:0:0:
135,249,91374,1,0,0:0:0:0:
191,331,91527,2,0,P|232:319|276:309,1,72.9000017797852,2|0,3:2|3:0,0:0:0:0:
319,237,91833,2,0,P|360:244|393:251,1,72.9000017797852,8|0,0:0|0:0,0:0:0:0:
457,317,92139,5,2,3:2:0:0:
457,317,92292,1,8,0:0:0:0:
498,231,92445,2,0,P|491:190|484:157,1,72.9000017797852,2|8,3:2|0:0,0:0:0:0:
454,140,92675,5,8,0:0:0:0:
449,134,92751,2,0,P|460:105|466:92,3,36.4500008898926,10|0|0|0,0:0|0:0|3:0|0:0,0:0:0:0:
453,58,93058,1,10,0:0:0:0:
349,7,93211,1,10,0:0:0:0:
344,11,93287,1,8,0:0:0:0:
339,16,93364,38,0,B|273:29|312:47|206:72,1,139.049998833046,4|8,3:2|0:0,0:0:0:0:
127,46,93823,1,0,0:0:0:0:
127,46,93976,2,0,P|110:85|121:115,1,69.524999416523,0|0,3:0|3:0,0:0:0:0:
117,198,94282,1,8,0:0:0:0:
210,172,94435,6,0,P|246:210|335:205,1,139.049998833046,6|0,3:2|3:0,0:0:0:0:
371,130,94894,2,0,P|417:146|452:157,1,69.524999416523,8|0,0:0|0:0,0:0:0:0:
482,232,95200,2,0,P|472:268|441:285,1,69.524999416523,2|0,3:2|3:0,0:0:0:0:
469,371,95507,2,0,P|432:380|402:361,1,69.524999416523,10|2,0:0|0:0,0:0:0:0:
350,294,95813,5,4,3:2:0:0:
186,371,96119,2,0,P|202:318|212:290,1,69.524999416523,10|0,0:0|0:0,0:0:0:0:
269,239,96425,2,0,P|253:186|243:158,1,69.524999416523,2|2,3:2|3:2,0:0:0:0:
188,105,96731,1,10,0:0:0:0:
282,50,96884,38,0,P|339:64|429:84,1,139.049998833046,6|0,3:2|3:0,0:0:0:0:
481,152,97343,1,8,0:0:0:0:
481,152,97496,2,0,P|468:187|430:205,1,69.524999416523,2|0,0:0|3:0,0:0:0:0:
363,245,97803,1,0,3:0:0:0:
363,245,97956,2,0,P|350:210|312:192,1,69.524999416523,8|0,0:0|0:0,0:0:0:0:
242,122,98262,6,0,B|162:151|211:159|107:192,1,139.049998833046,6|8,3:2|0:0,0:0:0:0:
46,239,98721,1,2,0:0:0:0:
46,239,98874,2,0,P|56:277|65:308,1,69.524999416523,2|2,3:2|3:2,0:0:0:0:
137,358,99180,1,10,0:0:0:0:
207,277,99333,6,0,P|262:292|352:312,1,139.049998833046,6|0,3:2|3:0,0:0:0:0:
422,350,99792,2,0,P|468:336|500:325,1,69.524999416523,8|0,0:0|0:0,0:0:0:0:
504,240,100098,2,0,P|495:200|463:185,1,69.524999416523,2|0,3:2|3:0,0:0:0:0:
493,97,100405,2,0,P|453:84|424:105,1,69.524999416523,8|2,0:0|0:0,0:0:0:0:
374,168,100711,37,4,3:2:0:0:
281,12,101017,2,0,P|233:27|206:36,1,69.524999416523,10|0,0:0|0:0,0:0:0:0:
148,94,101323,2,0,P|116:66|73:70,1,69.524999416523,2|2,3:2|3:2,0:0:0:0:
25,126,101629,1,10,0:0:0:0:
12,228,101782,6,0,P|59:248|122:187,1,139.049998833046,6|0,3:2|3:0,0:0:0:0:
201,146,102241,2,0,P|242:160|272:168,1,69.524999416523,8|0,0:0|3:0,0:0:0:0:
336,251,102547,1,14,0:0:0:0:
378,53,103160,22,0,B|454:34|408:16|488:0,2,114.750002188683,6|8|0,3:2|0:0|3:0,0:0:0:0:
313,100,103925,1,0,3:0:0:0:
313,100,104078,2,0,P|258:85|178:72,1,114.750002188683,10|0,0:0|3:0,0:0:0:0:
40,16,104690,6,0,P|53:53|60:76,1,57.3750010943413,10|0,0:0|0:0,0:0:0:0:
120,120,104996,2,0,P|107:157|100:180,1,57.3750010943413,2|0,3:2|3:0,0:0:0:0:
48,234,105303,2,0,P|61:271|68:294,1,57.3750010943413,10|0,0:0|0:0,0:0:0:0:
135,350,105609,54,0,P|158:306|229:304,1,114.750002188683,2|8,3:2|0:0,0:0:0:0:
291,329,106068,2,0,P|318:346|353:359,1,57.3750010943413,2|0,0:0|3:0,0:0:0:0:
426,375,106374,1,0,3:0:0:0:
426,375,106527,2,0,P|453:358|488:345,1,57.3750010943413,10|0,0:0|0:0,0:0:0:0:
512,275,106833,6,0,P|500:223|488:152,1,114.750002188683,0|8,3:0|0:0,0:0:0:0:
441,102,107292,1,0,0:0:0:0:
441,102,107445,2,0,P|405:120|381:121,1,57.3750010943413,2|2,3:2|3:2,0:0:0:0:
320,78,107751,1,10,0:0:0:0:
168,24,108058,54,0,P|185:75|203:146,1,114.750002188683,2|8,3:2|0:0,0:0:0:0:
193,214,108517,2,0,P|149:209|128:202,1,57.3750010943413,2|0,0:0|3:0,0:0:0:0:
65,237,108823,1,2,3:2:0:0:
65,237,108976,2,0,P|85:272|84:300,1,57.3750010943413,10|0,0:0|0:0,0:0:0:0:
146,340,109282,6,0,P|90:355|17:368,2,114.750002188683,0|8|0,3:0|0:0|3:0,0:0:0:0:
224,372,110047,1,0,3:0:0:0:
224,372,110200,2,0,P|266:374|305:375,1,57.3750010943413,10|0,0:0|0:0,0:0:0:0:
349,312,110507,54,0,P|372:344|461:351,2,114.750002188683,2|8|0,3:2|0:0|3:0,0:0:0:0:
309,242,111272,1,0,3:0:0:0:
309,242,111425,2,0,P|320:195|324:176,1,57.3750010943413,10|0,0:0|0:0,0:0:0:0:
365,118,111731,6,0,P|338:100|306:100,1,57.3750010943413,2|0,3:2|3:0,0:0:0:0:
253,151,112037,2,0,P|226:169|194:169,1,57.3750010943413,14|0,0:0|0:0,0:0:0:0:
137,122,112343,54,0,P|144:92|146:84,3,28.6875005471707,10|8|8|8,0:0|0:0|0:0|0:0,0:0:0:0:
130,64,112649,1,10,3:2:0:0:
209,22,112803,1,10,0:0:0:0:
209,22,112879,1,8,0:0:0:0:
209,22,112956,22,0,B|282:35|237:53|325:72,1,121.499996292114,4|8,3:2|0:0,0:0:0:0:
398,42,113415,2,0,P|427:58|438:93,1,60.7499981460572,0|0,0:0|3:0,0:0:0:0:
480,161,113721,1,0,3:0:0:0:
480,161,113874,2,0,P|468:198|460:221,1,60.7499981460572,10|0,0:0|0:0,0:0:0:0:
399,277,114180,6,0,P|360:231|294:232,1,121.499996292114,2|10,3:2|0:0,0:0:0:0:
234,277,114639,1,0,0:0:0:0:
234,277,114792,2,0,P|205:299|173:303,1,60.7499981460572,2|0,3:2|3:0,0:0:0:0:
102,271,115098,2,0,P|92:238|81:204,1,60.7499981460572,10|0,0:0|0:0,0:0:0:0:
27,132,115405,6,0,P|98:117|167:110,1,121.499996292114,2|8,3:2|0:0,0:0:0:0:
212,57,115864,2,0,P|252:66|273:71,1,60.7499981460572,2|0,0:0|3:0,0:0:0:0:
338,130,116170,1,0,3:0:0:0:
338,130,116323,38,0,P|329:86|396:31,2,121.499996292114,10|0|8,0:0|3:0|0:0,0:0:0:0:
473,221,117241,2,0,P|464:263|458:290,1,60.7499981460572,0|0,3:0|3:0,0:0:0:0:
427,360,117547,1,14,0:0:0:0:
427,360,117700,1,2,0:0:0:0:
344,303,117854,6,0,B|268:312|307:336|222:344,2,121.499996292114,6|8|0,3:2|0:0|3:0,0:0:0:0:
395,235,118619,1,2,3:2:0:0:
395,235,118772,2,0,P|407:191|417:166,1,60.7499981460572,10|2,0:0|0:0,0:0:0:0:
487,137,119078,6,0,P|464:84|437:16,1,121.499996292114,2|10,3:2|0:0,0:0:0:0:
358,1,119537,1,2,0:0:0:0:
358,1,119690,2,0,P|332:20|298:24,1,60.7499981460572,2|2,3:2|3:2,0:0:0:0:
247,87,119996,2,0,P|221:68|187:64,1,60.7499981460572,10|0,0:0|0:0,0:0:0:0:
101,31,120303,38,0,P|130:58|110:136,1,121.499996292114,6|10,3:2|0:0,0:0:0:0:
60,196,120762,1,0,0:0:0:0:
60,196,120915,2,0,P|70:228|80:259,1,60.7499981460572,2|0,3:2|3:0,0:0:0:0:
134,317,121221,6,0,B|208:301|174:287|252:271,1,121.499996292114,10|0,0:0|3:0,0:0:0:0:
313,221,121680,1,8,0:0:0:0:
313,221,121833,2,0,P|347:229|376:233,1,60.7499981460572,2|8,3:2|0:0,0:0:0:0:
399,233,122063,5,8,0:0:0:0:
399,233,122139,2,0,P|420:198|414:173,1,60.7499981460572,8|8,0:0|0:0,0:0:0:0:
354,122,122445,2,0,P|333:87|339:62,1,60.7499981460572,8|8,0:0|0:0,0:0:0:0:
422,28,122751,6,0,P|455:38|482:44,2,57.3750010943413,4|0|4,3:2|0:0|3:2,0:0:0:0:
262,4,123976,2,0,P|229:14|202:20,2,57.3750010943413,4|0|4,3:2|0:0|3:2,0:0:0:0:
417,170,125200,6,0,P|432:139|458:130,2,57.3750010943413,4|0|4,3:2|0:0|3:2,0:0:0:0:
266,161,126425,2,0,P|251:130|225:121,2,57.3750010943413,4|0|4,3:2|0:0|3:2,0:0:0:0:
314,225,126884,53,8,0:0:0:0:
319,230,126961,1,8,0:0:0:0:
324,235,127037,2,0,P|315:273|308:298,1,57.3750010943413,8|8,0:0|3:0,0:0:0:0:
243,335,127343,2,0,P|217:311|193:311,1,57.3750010943413,8|4,3:0|3:0,0:0:0:0:
116,276,127649,6,0,P|80:291|53:296,2,57.3750010943413,4|0|4,3:2|0:0|3:2,0:0:0:0:
180,226,128109,53,8,0:0:0:0:
185,221,128186,1,8,0:0:0:0:
190,216,128262,2,0,P|181:178|174:153,1,57.3750010943413,8|8,0:0|0:0,0:0:0:0:
115,100,128568,2,0,P|124:62|131:37,1,57.3750010943413,8|8,0:0|0:0,0:0:0:0:
202,12,128874,6,0,P|226:34|254:41,1,57.3750010943413,4|0,3:2|3:0,0:0:0:0:
300,102,129180,2,0,P|324:80|352:73,1,57.3750010943413,12|0,0:0|3:0,0:0:0:0:
414,29,129486,54,0,P|441:37|453:40,3,28.6875005471707,10|8|4|0,0:0|0:3|0:3|3:0,0:0:0:0:
470,62,129792,1,14,0:0:0:0:
506,228,130098,22,0,P|471:241|443:247,1,60.7499981460572,6|0,3:2|3:0,0:0:0:0:
370,281,130405,1,10,0:0:0:0:
370,281,130558,2,0,P|340:273|312:262,1,60.7499981460572,2|0,0:0|0:0,0:0:0:0:
244,212,130864,2,0,P|246:173|264:152,1,60.7499981460572,2|8,3:2|0:0,0:0:0:0:
339,101,131170,6,0,P|288:78|221:59,1,121.499996292114,2|0,0:0|3:0,0:0:0:0:
147,24,131629,2,0,P|118:38|87:46,1,60.7499981460572,10|0,0:0|0:0,0:0:0:0:
36,110,131935,1,2,3:2:0:0:
36,110,132088,1,0,3:0:0:0:
100,176,132241,2,0,P|108:208|117:250,1,60.7499981460572,8|0,0:0|0:0,0:0:0:0:
76,315,132547,5,10,3:2:0:0:
176,339,132700,2,0,P|199:334|219:326,3,30.3749990730286,8|8|8|8,0:0|0:0|0:0|0:0,0:0:0:0:
235,303,133007,37,8,3:0:0:0:
328,337,133160,1,8,0:0:0:0:
334,342,133236,1,8,0:0:0:0:
340,347,133313,2,0,L|336:379,4,30.3749990730286,8|8|4|8|8,0:0|0:0|3:0|0:0|0:0,0:0:0:0:
417,297,133772,70,0,P|408:262|404:251,5,30.3749990730286,10|8|8|8|8|8,3:2|0:0|0:0|0:0|0:0|0:0,0:0:0:0:
380,238,134231,2,0,P|389:203|393:192,5,30.3749990730286,10|8|8|8|8|8,3:2|0:0|0:0|0:0|0:0|0:0,0:0:0:0:
413,177,134690,1,10,3:2:0:0:
413,177,134996,6,0,B|329:192|383:216|272:240,1,145.80000355957,6|8,3:2|0:0,0:0:0:0:
198,279,135456,2,0,P|153:269|119:260,1,72.9000017797852,2|0,0:0|3:0,0:0:0:0:
42,292,135762,1,2,3:2:0:0:
42,292,135915,1,10,0:0:0:0:
0,189,136068,6,0,P|3:121|71:85,1,145.80000355957,6|0,3:2|3:0,0:0:0:0:
156,60,136527,2,0,P|189:76|225:85,1,72.9000017797852,8|0,0:0|0:0,0:0:0:0:
289,151,136833,2,0,P|314:118|351:111,1,72.9000017797852,2|0,3:2|3:0,0:0:0:0:
406,39,137139,2,0,P|431:72|468:79,1,72.9000017797852,10|0,0:0|0:0,0:0:0:0:
510,181,137445,38,0,P|493:257|474:334,1,145.80000355957,6|8,3:2|0:0,0:0:0:0:
393,368,137905,2,0,P|342:353|317:344,1,72.9000017797852,2|0,0:0|3:0,0:0:0:0:
266,270,138211,1,2,3:2:0:0:
266,270,138364,1,10,0:0:0:0:
185,352,138517,70,0,P|160:309|67:308,1,145.80000355957,6|0,3:2|3:0,0:0:0:0:
5,237,138976,2,0,P|16:194|21:163,1,72.9000017797852,8|0,0:0|0:0,0:0:0:0:
11,71,139282,2,0,P|50:78|81:62,1,72.9000017797852,2|0,3:2|3:0,0:0:0:0:
150,1,139588,2,0,P|190:14|224:24,1,72.9000017797852,10|0,0:0|0:0,0:0:0:0:
285,114,139894,6,0,B|369:102|328:71|430:62,1,145.80000355957,6|8,3:2|0:0,0:0:0:0:
493,122,140354,2,0,P|484:161|471:218,1,72.9000017797852,2|0,0:0|3:0,0:0:0:0:
506,283,140660,1,2,3:2:0:0:
506,283,140813,1,10,0:0:0:0:
424,360,140966,6,0,P|373:348|274:326,1,145.80000355957,6|0,3:2|3:0,0:0:0:0:
209,265,141425,2,0,P|218:232|232:184,1,72.9000017797852,8|0,0:0|0:0,0:0:0:0:
309,145,141731,2,0,P|277:110|233:105,1,72.9000017797852,2|0,3:2|3:0,0:0:0:0:
238,10,142037,2,0,P|191:20|165:55,1,72.9000017797852,10|0,0:0|0:0,0:0:0:0:
99,118,142343,38,0,P|141:152|112:241,1,145.80000355957,6|8,3:2|0:0,0:0:0:0:
60,304,142803,2,0,P|103:324|132:334,1,72.9000017797852,2|0,0:0|3:0,0:0:0:0:
216,376,143109,1,2,3:2:0:0:
216,376,143262,1,10,0:0:0:0:
280,288,143415,6,0,B|365:313|311:332|407:364,1,145.80000355957,6|0,3:2|3:0,0:0:0:0:
477,304,143874,2,0,P|465:259|440:242,1,72.9000017797852,10|0,0:0|0:0,0:0:0:0:
378,176,144180,6,0,P|345:186|331:189,3,36.4500008898926,10|8|8|8,0:0|0:0|0:0|0:0,0:0:0:0:
310,204,144486,2,0,P|277:194|263:191,3,36.4500008898926,8|8|4|4,0:3|0:3|0:3|0:3,0:0:0:0:
227,194,144792,38,0,P|238:127|154:73,1,145.80000355957,6|8,3:2|0:0,0:0:0:0:
102,45,145251,1,2,0:0:0:0:
102,45,145405,2,0,P|88:85|74:116,1,72.9000017797852,0|0,3:0|3:0,0:0:0:0:
4,169,145711,1,10,0:0:0:0:
87,244,145864,6,0,B|173:264|117:287|226:313,1,145.80000355957,6|0,3:2|3:0,0:0:0:0:
308,372,146323,2,0,P|328:326|421:324,1,145.80000355957,8|0,0:0|3:0,0:0:0:0:
508,306,146782,2,0,P|493:260|485:225,1,72.9000017797852,2|10,3:2|0:0,0:0:0:0:
502,142,147088,1,2,0:0:0:0:
421,69,147241,6,0,P|360:82|273:96,1,145.80000355957,6|8,3:2|0:0,0:0:0:0:
221,166,147700,2,0,P|186:158|147:142,1,72.9000017797852,2|0,0:0|3:0,0:0:0:0:
80,81,148007,1,0,3:0:0:0:
80,81,148160,1,10,0:0:0:0:
17,179,148313,38,0,P|5:232|64:300,1,145.80000355957,6|0,3:2|3:0,0:0:0:0:
134,356,148772,1,8,0:0:0:0:
134,356,148925,1,8,0:0:0:0:
210,300,149078,2,0,P|250:313|282:324,1,72.9000017797852,2|0,0:0|3:0,0:0:0:0:
365,362,149384,2,0,P|405:349|437:338,1,72.9000017797852,14|0,0:0|0:0,0:0:0:0:
500,252,149690,6,0,P|486:208|456:108,1,145.80000355957,6|8,3:2|0:0,0:0:0:0:
388,47,150149,2,0,P|363:76|324:86,1,72.9000017797852,2|0,0:0|3:0,0:0:0:0:
241,53,150456,1,2,3:2:0:0:
241,53,150609,1,10,0:0:0:0:
197,152,150762,6,0,B|118:137|144:181|51:157,1,145.80000355957,6|0,3:2|3:0,0:0:0:0:
14,71,151221,2,0,P|29:37|68:29,1,72.9000017797852,8|0,0:0|0:0,0:0:0:0:
155,17,151527,2,0,P|198:31|228:40,1,72.9000017797852,2|0,3:2|3:0,0:0:0:0:
309,80,151833,2,0,P|273:103|244:117,1,72.9000017797852,10|0,0:0|0:0,0:0:0:0:
143,172,152139,38,0,P|100:215|133:305,1,145.80000355957,6|8,3:2|0:0,0:0:0:0:
173,367,152598,1,0,0:0:0:0:
252,315,152751,2,0,P|278:291|322:288,1,72.9000017797852,2|0,3:2|3:0,0:0:0:0:
394,336,153058,2,0,P|420:360|464:363,1,72.9000017797852,12|0,0:0|0:0,0:0:0:0:
507,285,153364,5,2,3:2:0:0:
507,285,153517,1,8,0:0:0:0:
447,210,153670,2,0,P|458:168|464:137,1,72.9000017797852,6|0,3:2|0:0,0:0:0:0:
421,54,153976,6,0,P|387:63|365:68,2,48.6000011865235,10|8|8,0:0|0:0|0:0,0:0:0:0:
346,85,154282,2,0,P|322:79|298:72,2,48.6000011865235,8|8|4,0:3|0:3|0:3,0:0:0:0:
277,43,154588,38,0,P|245:77|164:70,1,128.249996575356,4|2,3:2|0:0,0:0:0:0:
111,11,155047,2,0,P|121:72|80:119,1,128.249996575356,2|2,3:2|0:0,0:0:0:0:
25,182,155507,2,0,P|33:229|39:253,1,64.1249982876778,2|10,0:0|0:0,0:0:0:0:
90,308,155813,6,0,P|125:278|151:277,1,64.1249982876778,2|8,3:2|0:0,0:0:0:0:
190,208,156119,2,0,P|233:223|247:245,1,64.1249982876778,0|0,0:0|3:0,0:0:0:0:
264,317,156425,1,10,0:0:0:0:
349,268,156578,2,0,P|397:261|424:253,1,64.1249982876778,2|0,3:2|0:0,0:0:0:0:
484,183,156884,6,0,P|440:174|355:153,1,128.249996575356,6|0,3:2|0:0,0:0:0:0:
297,98,157343,2,0,P|269:118|238:127,1,64.1249982876778,2|0,3:2|0:0,0:0:0:0:
172,174,157649,2,0,B|97:162|140:133|46:119,1,128.249996575356,10|2,0:0|0:0,0:0:0:0:
70,32,158109,38,0,P|104:39|155:50,1,64.1249982876778,10|2,0:0|3:2,0:0:0:0:
202,90,158415,2,0,P|236:83|287:72,1,64.1249982876778,10|0,0:0|0:0,0:0:0:0:
339,36,158721,1,2,3:0:0:0:
339,36,158874,2,0,P|365:54|371:89,1,64.1249982876778,8|10,0:0|0:3,0:0:0:0:
446,120,159180,2,0,P|443:151|416:174,1,64.1249982876778,10|6,0:3|0:3,0:0:0:0:
360,253,159486,6,0,B|280:269|327:287|243:310,1,128.249996575356,6|2,3:2|0:0,0:0:0:0:
169,338,159945,1,0,3:0:0:0:
89,277,160098,2,0,P|59:226|95:162,1,128.249996575356,8|2,0:0|0:0,0:0:0:0:
142,105,160558,1,2,0:0:0:0:
142,105,160711,6,0,P|183:122|208:128,1,64.1249982876778,2|8,3:2|0:3,0:0:0:0:
270,79,161017,2,0,P|311:62|336:56,1,64.1249982876778,4|2,0:3|3:2,0:0:0:0:
413,52,161323,1,10,0:0:0:0:
458,141,161476,2,0,P|447:183|437:213,1,64.1249982876778,2|0,3:2|0:0,0:0:0:0:
444,304,161782,38,0,P|426:259|339:247,1,128.249996575356,6|0,3:2|3:0,0:0:0:0:
281,280,162241,2,0,P|251:292|218:298,1,64.1249982876778,0|0,3:0|0:0,0:0:0:0:
149,342,162547,2,0,P|89:329|16:306,1,128.249996575356,8|2,0:0|0:0,0:0:0:0:
54,144,163160,6,0,P|98:132|127:125,1,64.1249982876778,2|10,3:2|0:0,0:0:0:0:
190,89,163466,2,0,P|234:101|263:108,1,64.1249982876778,2|0,3:2|0:0,0:0:0:0:
298,180,163772,1,10,0:0:0:0:
298,180,163925,2,0,P|266:209|262:239,1,64.1249982876778,8|4,0:3|0:3,0:0:0:0:
309,302,164231,1,4,0:3:0:0:
309,302,164384,6,0,B|383:287|346:270|444:251,1,128.249996575356,6|0,3:2|0:0,0:0:0:0:
485,195,164843,1,0,3:0:0:0:
453,101,164996,2,0,P|421:63|338:63,1,128.249996575356,10|2,0:0|0:0,0:0:0:0:
275,103,165456,1,2,3:2:0:0:
275,103,165609,38,0,P|284:156|296:203,2,96.1874974315167,8|8|2,0:0|0:3|3:2,0:0:0:0:
220,39,166221,1,10,0:0:0:0:
149,109,166374,2,0,P|99:102|60:94,1,64.1249982876778,2|2,3:2|0:0,0:0:0:0:
4,152,166680,6,0,P|42:177|43:264,1,128.249996575356,6|0,3:2|0:0,0:0:0:0:
60,336,167139,2,0,P|106:333|134:325,1,64.1249982876778,2|0,3:2|0:0,0:0:0:0:
184,272,167445,2,0,P|234:282|310:298,1,128.249996575356,10|2,0:0|0:0,0:0:0:0:
388,270,167905,1,2,0:0:0:0:
388,270,168058,6,0,P|400:232|426:209,1,64.1249982876778,2|8,3:2|0:0,0:0:0:0:
477,158,168364,2,0,P|465:120|439:97,1,64.1249982876778,2|0,3:2|0:0,0:0:0:0:
371,70,168670,2,0,P|326:83|303:88,1,64.1249982876778,10|0,0:0|0:0,0:0:0:0:
231,57,168976,1,0,0:0:0:0:
170,129,169129,1,8,0:0:0:0:
165,137,169206,1,8,0:0:0:0:
160,144,169282,38,0,P|173:203|186:280,1,128.249996575356,6|0,3:2|0:0,0:0:0:0:
247,324,169741,1,2,3:2:0:0:
316,257,169894,2,0,P|355:289|437:272,1,128.249996575356,10|2,0:0|0:0,0:0:0:0:
486,218,170354,1,2,0:0:0:0:
486,218,170507,6,0,P|478:176|473:153,1,64.1249982876778,2|8,3:2|0:0,0:0:0:0:
403,110,170813,2,0,P|409:78|415:47,1,64.1249982876778,0|0,3:0|3:0,0:0:0:0:
342,6,171119,2,0,P|305:28|275:32,1,64.1249982876778,8|0,0:0|3:0,0:0:0:0:
214,76,171425,2,0,P|177:54|147:50,1,64.1249982876778,14|2,0:0|0:0,0:0:0:0:
78,22,171731,5,6,3:2:0:0:
78,22,171884,1,0,3:0:0:0:
24,104,172037,2,0,P|37:154|60:234,1,128.249996575356,10|0,0:0|3:0,0:0:0:0:
75,309,172496,1,0,3:0:0:0:
162,345,172649,2,0,P|213:334|245:325,1,64.1249982876778,10|2,0:0|3:2,0:0:0:0:
284,272,172956,38,0,P|276:237|265:201,1,64.1249982876778,10|0,0:0|3:0,0:0:0:0:
190,141,173262,2,0,P|198:106|209:70,1,64.1249982876778,8|2,0:0|0:0,0:0:0:0:
261,8,173568,1,0,3:0:0:0:
328,85,173721,1,8,0:0:0:0:
328,85,173797,1,8,0:0:0:0:
328,85,173874,2,0,P|367:83|395:78,1,64.1249982876778,10|0,0:0|3:0,0:0:0:0:
501,71,174180,6,0,P|487:109|469:155,1,74.2500022659302,12|2,0:0|3:2,0:0:0:0:
508,230,174486,1,10,0:0:0:0:
424,290,174639,2,0,P|397:263|353:261,1,74.2500022659302,2|8,3:2|0:0,0:0:0:0:
287,318,174945,1,2,3:2:0:0:
287,318,175098,1,10,0:0:0:0:
198,260,175251,6,0,P|207:216|215:186,1,74.2500022659302,2|8,3:2|0:0,0:0:0:0:
294,133,175558,1,0,0:0:0:0:
224,56,175711,2,0,P|180:69|147:75,1,74.2500022659302,10|0,0:0|0:0,0:0:0:0:
51,49,176017,2,0,P|92:70|81:169,1,148.50000453186,10|8,0:0|0:0,0:0:0:0:
27,235,176476,1,0,3:0:0:0:
95,327,176629,38,0,P|142:310|173:304,1,74.2500022659302,14|2,0:0|0:0,0:0:0:0:
229,232,176935,1,10,0:0:0:0:
290,318,177088,2,0,P|326:326|360:339,1,74.2500022659302,2|8,0:0|0:0,0:0:0:0:
452,309,177394,1,2,3:2:0:0:
452,309,177547,1,10,0:0:0:0:
494,222,177700,6,0,P|482:173|472:141,1,74.2500022659302,2|8,3:2|0:0,0:0:0:0:
412,75,178007,1,0,0:0:0:0:
368,175,178160,2,0,P|325:200|279:186,1,74.2500022659302,10|0,0:0|3:0,0:0:0:0:
197,209,178466,2,0,P|196:159|231:126,1,74.2500022659302,14|0,0:0|3:0,0:0:0:0:
243,44,178772,2,0,P|286:68|297:115,1,74.2500022659302,10|0,0:0|3:0,0:0:0:0:
292,204,179078,6,0,P|276:266|253:354,2,148.50000453186,14|8|8,0:0|0:0|0:0,0:0:0:0:
368,144,179843,1,0,3:0:0:0:
288,74,179996,2,0,P|245:87|210:92,1,74.2500022659302,10|0,0:0|3:0,0:0:0:0:
139,161,180303,2,0,P|113:133|70:125,1,74.2500022659302,10|0,0:0|0:0,0:0:0:0:
6,181,180609,37,10,0:0:0:0:
61,259,180762,2,0,P|49:301|37:332,1,74.2500022659302,2|8,0:0|0:0,0:0:0:0:
121,378,181068,1,0,3:0:0:0:
201,316,181221,2,0,P|240:295|277:304,1,74.2500022659302,10|0,0:0|3:0,0:0:0:0:
348,369,181527,6,0,B|436:350|386:325|488:307,1,148.50000453186,10|8,0:0|0:0,0:0:0:0:
507,215,181986,1,2,0:0:0:0:
433,142,182139,2,0,P|392:161|351:176,1,74.2500022659302,8|0,0:0|3:0,0:0:0:0:
276,225,182445,2,0,P|235:206|194:191,1,74.2500022659302,10|0,0:0|3:0,0:0:0:0:
121,129,182751,6,0,P|137:90|175:79,1,74.2500022659302,14|0,0:0|3:0,0:0:0:0:
259,14,183058,2,0,P|275:53|313:64,1,74.2500022659302,8|2,0:0|3:2,0:0:0:0:
379,139,183364,38,0,P|406:132|417:130,3,37.1250011329651,8|8|0|0,3:0|3:0|3:0|3:0,0:0:0:0:
440,115,183670,2,0,P|467:122|478:124,3,37.1250011329651,4|4|0|0,3:0|3:0|3:0|3:0,0:0:0:0:
500,152,183976,6,0,P|487:195|480:224,1,74.2500022659302,14|2,0:0|3:2,0:0:0:0:
488,319,184282,1,10,0:0:0:0:
390,360,184435,2,0,P|350:348|313:341,1,74.2500022659302,2|8,0:0|0:0,0:0:0:0:
252,270,184741,1,2,3:2:0:0:
252,270,184894,1,10,0:0:0:0:
191,354,185047,6,0,P|157:373|121:370,1,74.2500022659302,2|8,3:2|0:0,0:0:0:0:
56,299,185354,1,0,0:0:0:0:
102,214,185507,2,0,P|90:174|81:141,1,74.2500022659302,10|2,0:0|0:0,0:0:0:0:
28,62,185813,2,0,P|60:100|153:84,1,148.50000453186,10|8,0:0|0:0,0:0:0:0:
210,12,186272,1,0,3:0:0:0:
290,65,186425,38,0,P|279:107|271:136,1,74.2500022659302,14|2,0:0|0:0,0:0:0:0:
202,204,186731,1,10,0:0:0:0:
287,278,186884,2,0,P|327:255|358:258,1,74.2500022659302,2|8,0:0|0:0,0:0:0:0:
436,305,187190,1,2,3:2:0:0:
436,305,187343,1,10,0:0:0:0:
493,218,187496,6,0,P|483:173|477:142,1,74.2500022659302,2|8,3:2|0:0,0:0:0:0:
492,49,187803,1,0,0:0:0:0:
394,9,187956,6,0,P|351:22|315:30,1,74.2500022659302,10|0,0:0|3:0,0:0:0:0:
300,47,188185,1,0,3:0:0:0:
300,47,188262,2,0,P|257:34|221:26,1,74.2500022659302,10|0,0:0|3:0,0:0:0:0:
144,75,188568,1,10,0:0:0:0:
144,75,188721,1,2,3:2:0:0:
72,163,188874,38,0,P|81:232|96:317,2,148.50000453186,14|8|8,0:0|0:0|0:0,0:0:0:0:
121,80,189639,1,0,3:0:0:0:
180,165,189792,2,0,P|210:190|248:194,1,74.2500022659302,10|0,0:0|3:0,0:0:0:0:
322,127,190098,6,0,P|352:102|390:98,1,74.2500022659302,10|0,0:0|0:0,0:0:0:0:
463,155,190405,2,0,P|473:195|479:230,1,74.2500022659302,10|0,0:0|0:0,0:0:0:0:
426,320,190711,2,0,P|375:309|348:306,1,74.2500022659302,10|0,0:0|3:0,0:0:0:0:
269,269,191017,1,10,0:0:0:0:
269,269,191170,1,0,3:0:0:0:
184,348,191323,6,0,P|135:297|60:322,2,148.50000453186,14|8|8,0:0|0:0|0:0,0:0:0:0:
265,296,192088,1,0,3:0:0:0:
270,289,192165,1,0,3:0:0:0:
275,282,192241,2,0,P|269:242|264:205,1,74.2500022659302,10|0,0:0|3:0,0:0:0:0:
223,112,192547,38,0,B|146:132|196:152|89:187,1,148.50000453186,10|8,0:0|0:0,0:0:0:0:
20,124,193007,1,0,3:0:0:0:
66,25,193160,2,0,P|108:35|147:45,1,74.2500022659302,8|0,0:0|3:0,0:0:0:0:
221,90,193466,2,0,P|263:80|302:70,1,74.2500022659302,10|0,0:0|3:0,0:0:0:0:
389,11,193772,6,0,P|364:58|414:136,1,148.50000453186,14|8,0:0|0:0,0:0:0:0:
501,159,194231,1,2,0:0:0:0:
509,266,194384,2,0,P|498:306|487:340,1,74.2500022659302,8|0,0:0|3:0,0:0:0:0:
386,364,194690,2,0,P|362:332|318:328,1,74.2500022659302,10|0,0:0|3:0,0:0:0:0:
264,248,194996,2,0,P|240:280|196:284,1,74.2500022659302,8|0,0:0|3:0,0:0:0:0:
114,260,195303,6,0,P|127:217|138:185,1,74.2500022659302,10|0,0:0|3:0,0:0:0:0:
213,130,195609,2,0,P|200:87|189:55,1,74.2500022659302,10|0,0:0|3:0,0:0:0:0:
106,11,195915,1,10,0:0:0:0:
106,11,196068,1,8,0:0:0:0:
7,135,196833,38,0,B|99:148|43:166|147:192,1,141.749995674133,6|8,3:2|0:0,0:0:0:0:
220,152,197292,2,0,P|248:120|288:117,1,70.8749978370667,0|0,0:0|3:0,0:0:0:0:
357,130,197598,1,0,3:0:0:0:
392,207,197751,2,0,P|371:253|363:290,1,70.8749978370667,10|0,0:0|0:0,0:0:0:0:
300,356,198058,6,0,P|245:345|150:325,1,141.749995674133,6|8,3:2|0:0,0:0:0:0:
74,294,198517,2,0,P|52:253|64:221,1,70.8749978370667,0|0,0:0|3:0,0:0:0:0:
142,195,198823,1,0,3:0:0:0:
142,195,198976,2,0,P|146:157|122:120,1,70.8749978370667,10|0,0:0|0:0,0:0:0:0:
131,23,199282,6,0,B|42:38|93:61|-13:76,2,141.749995674133,6|10|0,3:2|0:0|3:0,0:0:0:0:
222,11,200047,1,2,3:2:0:0:
222,11,200200,2,0,P|254:33|292:46,1,70.8749978370667,10|2,0:0|0:0,0:0:0:0:
366,116,200507,38,0,P|333:128|304:149,1,70.8749978370667,2|0,3:2|3:0,0:0:0:0:
221,191,200813,2,0,P|234:238|240:268,1,70.8749978370667,8|0,0:0|0:0,0:0:0:0:
290,335,201119,6,0,P|323:328|338:326,3,35.4374989185334,8|8|4|0,0:0|3:0|3:0|3:0,0:0:0:0:
351,302,201425,2,0,P|391:317|431:325,1,70.8749978370667,12|0,0:0|0:0,0:0:0:0:
496,275,201731,6,0,P|508:214|469:163,1,106.3124967556,6|0,3:2|0:0,0:0:0:0:
467,159,202037,2,0,P|419:162|393:167,1,70.8749978370667,10|0,0:0|0:0,0:0:0:0:
322,220,202343,2,0,P|309:178|228:175,1,106.3124967556,2|0,3:2|0:0,0:0:0:0:
230,166,202649,2,0,P|217:199|208:233,1,70.8749978370667,10|0,0:0|0:0,0:0:0:0:
156,310,202956,38,0,P|127:290|117:257,1,70.8749978370667,6|0,3:2|0:0,0:0:0:0:
28,231,203262,2,0,P|30:196|54:171,1,70.8749978370667,10|0,0:0|0:0,0:0:0:0:
52,72,203568,2,0,P|118:89|203:103,1,141.749995674133,2|8,3:2|0:0,0:0:0:0:
365,44,204180,5,6,3:2:0:0:
365,44,204333,2,0,P|375:91|381:121,1,70.8749978370667,2|8,0:0|0:0,0:0:0:0:
438,184,204639,1,2,0:0:0:0:
381,270,204792,2,0,B|293:285|344:304|233:332,2,141.749995674133,2|8|0,3:2|0:0|3:0,0:0:0:0:
424,188,205558,5,8,0:0:0:0:
424,188,205711,2,0,P|412:147|371:130,1,70.8749978370667,2|0,3:2|3:0,0:0:0:0:
308,88,206017,2,0,P|260:106|229:114,1,70.8749978370667,10|8,0:0|0:0,0:0:0:0:
204,106,206246,1,8,0:0:0:0:
204,106,206323,2,0,P|172:159|80:162,1,141.749995674133,8|6,0:3|3:2,0:0:0:0:
256,192,206706,12,8,210303,0:0:0:0:
399,278,210609,22,0,P|442:286|530:305,2,114.750002188683,0|2|0,0:0|0:3|0:0,0:0:0:0:
389,271,211527,22,0,P|375:315|315:327,1,94.4999971160889,6|0,3:2|0:0,0:0:0:0:
256,355,211986,38,0,P|218:347|201:344,1,47.2499985580445,2|0,0:0|0:0,0:0:0:0:
155,286,212292,2,0,P|131:291|108:295,1,47.2499985580445,2|2,0:0|0:0,0:0:0:0:
37,332,212598,2,0,P|28:268|22:223,1,94.4999971160889,2|0,0:0|0:0,0:0:0:0:
18,224,213364,2,0,P|45:244|72:246,1,47.2499985580445,2|0,0:0|0:0,0:0:0:0:
127,205,213670,2,0,P|144:189|166:182,1,47.2499985580445,2|0,0:0|0:0,0:0:0:0:
241,211,213976,54,0,P|288:226|350:245,1,94.4999971160889,2|0,0:0|0:0,0:0:0:0:
402,275,214435,2,0,P|443:267|464:263,1,47.2499985580445,2|0,0:0|0:0,0:0:0:0:
501,206,214741,2,0,P|508:176|500:152,1,47.2499985580445,2|2,0:0|0:0,0:0:0:0:
449,101,215047,2,0,P|413:137|364:131,1,94.4999971160889,2|0,0:0|0:0,0:0:0:0:
362,128,215813,2,0,P|356:95|330:77,1,47.2499985580445,2|0,0:0|0:0,0:0:0:0:
327,7,216119,2,0,P|295:-4|266:9,1,47.2499985580445,2|0,0:0|0:0,0:0:0:0:
219,48,216425,6,0,P|227:101|234:159,1,94.4999971160889,2|0,0:0|0:0,0:0:0:0:
275,209,216884,2,0,P|266:250|257:274,1,47.2499985580445,2|0,0:0|0:0,0:0:0:0:
197,298,217190,2,0,P|172:281|138:281,1,47.2499985580445,2|2,0:0|0:0,0:0:0:0:
79,302,217496,54,0,P|69:251|53:191,1,94.4999971160889,2|0,0:0|0:0,0:0:0:0:
50,201,218262,2,0,P|88:194|110:188,1,47.2499985580445,2|0,0:0|0:0,0:0:0:0:
159,142,218568,2,0,P|197:149|219:155,1,47.2499985580445,2|0,0:0|0:0,0:0:0:0:
262,207,218874,6,0,P|293:162|342:156,1,94.4999971160889,2|0,0:0|0:0,0:0:0:0:
405,128,219333,2,0,P|417:158|427:174,1,47.2499985580445,2|0,0:0|0:0,0:0:0:0:
472,235,219639,2,0,P|460:265|450:281,1,47.2499985580445,2|2,0:0|0:0,0:0:0:0:
399,338,219945,54,0,B|349:328|369:313|307:301,1,94.4999971160889,2|0,0:0|0:0,0:0:0:0:
252,248,220405,2,0,P|239:292|228:348,2,94.4999971160889,2|2|2,0:0|0:0|0:0,0:0:0:0:
337,127,221323,6,0,P|305:146|240:133,1,94.4999971160889,2|0,0:0|0:0,0:0:0:0:
213,68,221782,2,0,P|177:50|110:69,1,94.4999971160889,2|0,0:0|0:0,0:0:0:0:
72,119,222241,1,2,0:0:0:0:
72,119,222394,54,0,P|83:163|123:313,1,188.999994232178,2|0,0:0|0:0,0:0:0:0:
128,312,223313,2,0,P|103:322|77:331,2,47.2499985580445,2|2|2,0:0|0:0|0:0,0:0:0:0:
188,259,223772,6,0,P|214:268|287:290,1,94.4999971160889,2|0,0:0|0:0,0:0:0:0:
344,333,224231,2,0,P|374:331|402:309,1,47.2499985580445,2|0,0:0|0:0,0:0:0:0:
433,256,224537,2,0,P|429:226|423:199,1,47.2499985580445,2|2,0:0|0:0,0:0:0:0:
385,139,224843,2,0,P|354:174|301:176,1,94.4999971160889,2|0,0:0|0:0,0:0:0:0:
298,174,225609,2,0,P|292:131|279:64,1,94.4999971160889,2|2,0:0|0:0,0:0:0:0:
160,25,226221,54,0,B|101:45|134:54|65:81,1,94.4999971160889,2|0,0:0|0:0,0:0:0:0:
19,126,226680,2,0,P|8:162|21:189,1,47.2499985580445,2|0,0:0|0:0,0:0:0:0:
78,211,226986,2,0,P|89:247|76:274,1,47.2499985580445,2|2,0:0|0:0,0:0:0:0:
37,318,227292,6,0,P|81:342|140:363,1,94.4999971160889,2|0,0:0|0:0,0:0:0:0:
132,367,228058,2,0,P|165:360|184:357,1,47.2499985580445,2|0,0:0|0:0,0:0:0:0:
240,307,228364,2,0,P|273:314|292:317,1,47.2499985580445,2|0,0:0|0:0,0:0:0:0:
349,365,228670,54,0,P|389:326|368:248,1,141.749995674133,2|0,0:0|0:0,0:0:0:0:
331,178,229282,2,0,B|247:191|284:212|197:229,1,141.749995674133,2|2,0:0|0:0,0:0:0:0:
129,267,229894,6,0,P|116:200|106:157,1,94.4999971160889,2|2,0:0|0:0,0:0:0:0:
0,165,230507,2,0,P|10:211|18:257,1,94.4999971160889,2|2,0:0|0:0,0:0:0:0:
