osu file format v14

[General]
AudioFilename: audio.mp3
AudioLeadIn: 0
PreviewTime: 174104
Countdown: 0
SampleSet: Soft
StackLeniency: 0.7
Mode: 0
LetterboxInBreaks: 0
WidescreenStoryboard: 0

[Editor]
DistanceSpacing: 0.1
BeatDivisor: 4
GridSize: 32
TimelineZoom: 1.8

[Metadata]
Title:Catharsis
TitleUnicode:カタルシス
Artist:PassCode
ArtistUnicode:PassCode
Creator:mrforse
Version:Melancholy
Source:
Tags:japanese jrock j-rock jpop j-pop pop rock female vocals vocalist ZENITH 高嶋楓 Takashima Kaede 南菜生 Minami Nao 今田夢菜 Imada Yuna 大上陽奈子 Oogami Hinako amats nemidnight Baack
BeatmapID:3646995
BeatmapSetID:1780807

[Difficulty]
HPDrainRate:6
CircleSize:4
OverallDifficulty:9
ApproachRate:9.3
SliderMultiplier:1.8
SliderTickRate:1

[Events]
//Background and Video events
0,0,"bg.jpg",0,0
//Break Periods
//Storyboard Layer 0 (Background)
//Storyboard Layer 1 (Fail)
//Storyboard Layer 2 (Pass)
//Storyboard Layer 3 (Foreground)
//Storyboard Layer 4 (Overlay)
//Storyboard Sound Samples

[TimingPoints]
303,306.122448979592,4,2,1,40,1,0
303,-166.666666666667,4,2,1,40,0,0
1144,-166.666666666667,4,2,1,5,0,0
1221,-166.666666666667,4,2,1,40,0,0
2215,-166.666666666667,4,2,1,5,0,0
2292,-166.666666666667,4,2,1,40,0,0
3593,-166.666666666667,4,2,1,5,0,0
3670,-166.666666666667,4,2,1,40,0,0
7266,-166.666666666667,4,2,1,5,0,0
7343,-166.666666666667,4,2,1,40,0,0
8491,-166.666666666667,4,2,1,5,0,0
8568,-166.666666666667,4,2,1,40,0,0
9639,-250.000000000001,4,2,1,40,0,0
10098,-166.666666666667,4,2,1,40,0,0
10940,-166.666666666667,4,2,1,5,0,0
11017,-166.666666666667,4,2,1,40,0,0
12164,-166.666666666667,4,2,1,5,0,0
12241,-166.666666666667,4,2,1,40,0,0
13389,-166.666666666667,4,2,1,5,0,0
13466,-166.666666666667,4,2,1,40,0,0
13848,-166.666666666667,4,2,1,5,0,0
13925,-166.666666666667,4,2,1,40,0,0
14613,-166.666666666667,4,2,1,5,0,0
14690,-166.666666666667,4,2,1,40,0,0
18287,-166.666666666667,4,2,1,5,0,0
18364,-166.666666666667,4,2,1,40,0,0
19817,-166.666666666667,4,2,1,5,0,0
19894,-100,4,2,1,60,0,0
20889,-100,4,2,1,5,0,0
20966,-100,4,2,1,60,0,0
22343,-166.666666666667,4,2,1,60,0,0
22572,-166.666666666667,4,2,1,5,0,0
22649,-100,4,2,1,60,0,0
23338,-100,4,2,1,5,0,0
23415,-90.9090909090909,4,2,1,60,0,0
24027,-100,4,2,1,60,0,0
25787,-100,4,2,1,5,0,0
25864,-100,4,2,1,60,0,0
27241,-166.666666666667,4,2,1,60,0,0
27470,-166.666666666667,4,2,1,5,0,0
27547,-100,4,2,1,60,0,0
28236,-100,4,2,1,5,0,0
28313,-90.9090909090909,4,2,1,60,0,0
28772,-100,4,2,1,60,0,0
29690,-90.9090909090909,4,2,1,60,0,0
30685,-90.9090909090909,4,2,1,5,0,0
30762,-90.9090909090909,4,2,1,60,0,0
31833,-142.857142857143,4,2,1,60,0,0
32062,-142.857142857143,4,2,1,5,0,0
32139,-90.9090909090909,4,2,1,60,0,0
33134,-90.9090909090909,4,2,1,5,0,0
33211,-90.9090909090909,4,2,1,60,0,0
35583,-90.9090909090909,4,2,1,5,0,0
35660,-90.9090909090909,4,2,1,60,0,0
37037,-83.3333333333333,4,2,1,60,0,0
38032,-83.3333333333333,4,2,1,5,0,0
38109,-76.9230769230769,4,2,1,60,0,0
39486,-142.857142857143,4,2,1,50,0,0
44308,-142.857142857143,4,2,1,5,0,0
44384,-142.857142857143,4,2,1,50,0,0
48364,-125,4,2,1,50,0,0
49052,-125,4,2,1,5,0,0
49129,-125,4,2,1,50,0,0
49282,-111.111111111111,4,2,1,55,0,0
56323,-166.666666666667,4,2,1,55,0,0
56552,-166.666666666667,4,2,1,5,0,0
56629,-111.111111111111,4,2,1,55,0,0
58542,-111.111111111111,4,2,1,5,0,0
58619,-111.111111111111,4,2,1,55,0,0
58695,-111.111111111111,4,2,1,5,0,0
58772,-111.111111111111,4,2,1,55,0,0
59078,-111.111111111111,4,2,1,55,0,0
59155,-111.111111111111,4,2,1,5,0,0
59231,-111.111111111111,4,2,1,55,0,0
59307,-111.111111111111,4,2,1,5,0,0
59384,-142.857142857142,4,2,1,55,0,0
60303,-111.111111111111,4,2,1,55,0,0
61221,-142.857142857142,4,2,1,55,0,0
61450,-142.857142857142,4,2,1,5,0,0
61527,-111.111111111111,4,2,1,55,0,0
61833,-142.857142857142,4,2,1,55,0,0
62751,-111.111111111111,4,2,1,55,0,0
63708,-111.111111111111,4,2,1,5,0,0
63976,-111.111111111111,4,2,1,55,0,0
64053,-111.111111111111,4,2,1,5,0,0
64129,-111.111111111111,4,2,1,55,0,0
64206,-111.111111111111,4,2,1,5,0,0
64282,-111.111111111111,4,2,1,55,0,0
64359,-111.111111111111,4,2,1,5,0,0
64435,-142.857142857143,4,2,1,55,0,0
65200,-111.111111111111,4,2,1,55,0,0
66119,-249.999999999999,4,2,1,55,0,0
66348,-249.999999999999,4,2,1,5,0,0
66425,-99.9999999999998,4,2,1,55,0,0
68874,-90.9090909090909,4,2,1,55,0,0
70813,-90.9090909090909,4,2,1,55,0,0
70915,-90.9090909090909,4,2,1,55,0,0
71323,-166.666666666667,4,2,1,55,0,0
72547,-166.666666666667,4,2,1,5,0,0
73772,-83.3333333333333,4,2,1,70,0,1
74766,-83.3333333333333,4,2,1,5,0,1
74843,-83.3333333333333,4,2,1,70,0,1
77215,-83.3333333333333,4,2,1,5,0,1
77292,-83.3333333333333,4,2,1,70,0,1
79664,-83.3333333333333,4,2,1,5,0,1
79741,-83.3333333333333,4,2,1,70,0,1
82113,-83.3333333333333,4,2,1,5,0,1
82190,-83.3333333333333,4,2,1,70,0,1
82956,-125,4,2,1,70,0,1
83262,-83.3333333333333,4,2,1,70,0,1
83338,-83.3333333333333,4,2,1,5,0,1
83415,-83.3333333333333,4,2,1,70,0,1
84562,-83.3333333333333,4,2,1,5,0,1
84639,-83.3333333333333,4,2,1,70,0,1
87011,-83.3333333333333,4,2,1,5,0,1
87088,-83.3333333333333,4,2,1,70,0,1
89460,-83.3333333333333,4,2,1,5,0,1
89537,-83.3333333333333,4,2,1,70,0,1
91603,-83.3333333333333,4,2,1,5,0,1
91680,-83.3333333333333,4,2,1,70,0,1
91833,-166.666666666667,4,2,1,70,0,1
92062,-166.666666666667,4,2,1,5,0,1
92139,-83.3333333333333,4,2,1,70,0,1
92215,-83.3333333333333,4,2,1,5,0,1
92292,-83.3333333333333,4,2,1,70,0,1
92751,-100,4,2,1,70,0,1
93364,-90.9090909090909,4,2,1,70,0,0
94358,-90.9090909090909,4,2,1,5,0,0
94435,-90.9090909090909,4,2,1,70,0,0
95813,-166.666666666667,4,2,1,70,0,0
96042,-166.666666666667,4,2,1,5,0,0
96119,-100,4,2,1,70,0,0
96808,-100,4,2,1,5,0,0
96884,-90.9090909090909,4,2,1,70,0,0
97497,-100,4,2,1,70,0,0
99257,-100,4,2,1,5,0,0
99333,-100,4,2,1,70,0,0
100711,-166.666666666667,4,2,1,70,0,0
100940,-166.666666666667,4,2,1,5,0,0
101017,-100,4,2,1,70,0,0
101706,-100,4,2,1,5,0,0
101782,-90.9090909090909,4,2,1,70,0,0
102011,-90.9090909090909,4,2,1,5,0,0
102088,-90.9090909090909,4,2,1,70,0,0
102242,-100,4,2,1,70,0,0
103160,-142.857142857143,4,2,1,50,0,0
107981,-142.857142857143,4,2,1,5,0,0
108058,-142.857142857143,4,2,1,50,0,0
112038,-125,4,2,1,50,0,0
112496,-125,4,2,1,50,0,0
112803,-125,4,2,1,50,0,0
112956,-111.111111111111,4,2,1,55,0,0
119997,-166.666666666667,4,2,1,55,0,0
120226,-166.666666666667,4,2,1,5,0,0
120303,-111.111111111111,4,2,1,55,0,0
122216,-111.111111111111,4,2,1,5,0,0
122293,-111.111111111111,4,2,1,55,0,0
122369,-111.111111111111,4,2,1,5,0,0
122446,-111.111111111111,4,2,1,55,0,0
122521,-111.111111111111,4,2,1,5,0,0
122598,-111.111111111111,4,2,1,55,0,0
122674,-111.111111111111,4,2,1,5,0,0
122752,-111.111111111111,4,2,1,55,0,0
123364,-111.111111111111,4,2,1,5,0,0
123977,-111.111111111111,4,2,1,55,0,0
124129,-111.111111111111,4,2,1,5,0,0
124282,-111.111111111111,4,2,1,55,0,0
124435,-111.111111111111,4,2,1,5,0,0
125200,-111.111111111111,4,2,1,55,0,0
125813,-111.111111111111,4,2,1,5,0,0
126425,-111.111111111111,4,2,1,55,0,0
126578,-111.111111111111,4,2,1,5,0,0
126731,-111.111111111111,4,2,1,55,0,0
128950,-111.111111111111,4,2,1,5,0,0
129027,-111.111111111111,4,2,1,55,0,0
130098,-99.9999999999999,4,2,1,55,0,0
132241,-125,4,2,1,55,0,0
132470,-125,4,2,1,5,0,0
132547,-100,4,2,1,60,0,0
132623,-100,4,2,1,30,0,0
132700,-100,4,2,1,30,0,0
132930,-100,4,2,1,30,0,0
133007,-100,4,2,1,60,0,0
133083,-100,4,2,1,30,0,0
133236,-100,4,2,1,55,0,0
133313,-100,4,2,1,65,0,0
133389,-100,4,2,1,30,0,0
133466,-100,4,2,1,60,0,0
133542,-100,4,2,1,30,0,0
133695,-100,4,2,1,60,0,0
133772,-90.9090909090909,4,2,1,65,0,0
133848,-90.9090909090909,4,2,1,30,0,0
134231,-90.9090909090909,4,2,1,60,0,0
134308,-90.9090909090909,4,2,1,30,0,0
134690,-83.3333333333333,4,2,1,60,0,0
134766,-83.3333333333333,4,2,1,5,0,0
134996,-83.3333333333333,4,2,1,70,0,1
135990,-83.3333333333333,4,2,1,5,0,1
136068,-83.3333333333333,4,2,1,70,0,1
138439,-83.3333333333333,4,2,1,5,0,1
138517,-83.3333333333333,4,2,1,70,0,1
140888,-83.3333333333333,4,2,1,5,0,1
140966,-83.3333333333333,4,2,1,70,0,1
143337,-83.3333333333333,4,2,1,5,0,1
143415,-83.3333333333333,4,2,1,70,0,1
145787,-83.3333333333333,4,2,1,5,0,1
145864,-83.3333333333333,4,2,1,70,0,1
148236,-83.3333333333333,4,2,1,5,0,1
148313,-83.3333333333333,4,2,1,70,0,1
150685,-83.3333333333333,4,2,1,5,0,1
150762,-83.3333333333333,4,2,1,70,0,1
153058,-125,4,2,1,70,0,1
153287,-125,4,2,1,5,0,1
153364,-83.3333333333333,4,2,1,70,0,1
153440,-83.3333333333333,4,2,1,5,0,1
153517,-83.3333333333333,4,2,1,70,0,1
154588,-111.111111111111,4,2,1,65,0,0
155583,-111.111111111111,4,2,1,5,0,0
155660,-111.111111111111,4,2,1,65,0,0
155889,-111.111111111111,4,2,1,5,0,0
155966,-111.111111111111,4,2,1,65,0,0
156654,-111.111111111111,4,2,1,5,0,0
156731,-111.111111111111,4,2,1,65,0,0
158338,-111.111111111111,4,2,1,5,0,0
158415,-111.111111111111,4,2,1,65,0,0
158797,-111.111111111111,4,2,1,5,0,0
158874,-111.111111111111,4,2,1,65,0,0
159486,-250,4,2,1,65,0,0
159715,-250,4,2,1,5,0,0
159792,-111.111111111111,4,2,1,65,0,0
160021,-111.111111111111,4,2,1,5,0,0
160098,-111.111111111111,4,2,1,65,0,0
160481,-111.111111111111,4,2,1,5,0,0
160558,-111.111111111111,4,2,1,65,0,0
160634,-111.111111111111,4,2,1,5,0,0
160711,-111.111111111111,4,2,1,65,0,0
161552,-111.111111111111,4,2,1,5,0,0
161629,-111.111111111111,4,2,1,65,0,0
162011,-111.111111111111,4,2,1,5,0,0
162088,-111.111111111111,4,2,1,65,0,0
165072,-111.111111111111,4,2,1,5,0,0
165149,-111.111111111111,4,2,1,65,0,0
165225,-111.111111111111,4,2,1,5,0,0
165302,-111.111111111111,4,2,1,65,0,0
165378,-111.111111111111,4,2,1,5,0,0
165456,-111.111111111111,4,2,1,65,0,0
166144,-111.111111111111,4,2,1,5,0,0
166221,-111.111111111111,4,2,1,65,0,0
166450,-111.111111111111,4,2,1,5,0,0
166527,-111.111111111111,4,2,1,65,0,0
168134,-111.111111111111,4,2,1,5,0,0
168211,-111.111111111111,4,2,1,65,0,0
169358,-111.111111111111,4,2,1,5,0,0
169435,-111.111111111111,4,2,1,65,0,0
171425,-125,4,2,1,65,0,0
171654,-125,4,2,1,5,0,0
171731,-100,4,2,1,65,0,0
173415,-90.9090909090909,4,2,1,65,0,0
174180,-83.3333333333333,4,2,1,75,0,1
179078,-125,4,2,1,75,0,1
179307,-125,4,2,1,5,0,1
179384,-83.3333333333333,4,2,1,75,0,1
180303,-71.4285714285714,4,2,1,75,0,1
181527,-76.9230769230769,4,2,1,75,0,1
181986,-83.3333333333333,4,2,1,75,0,1
183976,-83.3333333333333,4,2,1,75,0,1
188874,-125,4,2,1,75,0,1
189103,-125,4,2,1,5,0,1
189180,-83.3333333333333,4,2,1,75,0,1
190098,-90.9090909090909,4,2,1,75,0,1
191323,-83.3333333333333,4,2,1,75,0,1
193772,-76.9230769230769,4,2,1,75,0,1
194001,-76.9230769230769,4,2,1,5,0,1
194078,-76.9230769230769,4,2,1,75,0,1
196068,-83.3333333333333,4,2,1,75,0,0
196527,-166.666666666667,4,2,1,75,0,0
196756,-166.666666666667,4,2,1,5,0,0
196833,306.122448979592,4,2,1,70,1,0
196833,-83.3333333333333,4,2,1,70,0,0
197062,-83.3333333333333,4,2,1,5,0,0
197139,-83.3333333333333,4,2,1,70,0,0
197292,-100,4,2,1,70,0,0
197751,-166.666666666667,4,2,1,70,0,0
197981,-166.666666666667,4,2,1,5,0,0
198058,-166.666666666667,4,2,1,70,0,0
198211,-100,4,2,1,70,0,0
198670,-166.666666666667,4,2,1,70,0,0
199205,-166.666666666667,4,2,1,5,0,0
199282,-100,4,2,1,70,0,0
200200,-166.666666666667,4,2,1,70,0,0
200429,-166.666666666667,4,2,1,5,0,0
200507,-166.666666666667,4,2,1,70,0,0
201731,-100,4,2,1,70,0,0
202649,-166.666666666667,4,2,1,70,0,0
202878,-166.666666666667,4,2,1,5,0,0
202956,-100,4,2,1,70,0,0
203874,-166.666666666667,4,2,1,70,0,0
204256,-100,4,2,1,5,0,0
204333,-100,4,2,1,70,0,0
205405,-83.3333333333334,4,2,1,70,0,0
205481,-83.3333333333334,4,2,1,5,0,0
205558,-83.3333333333334,4,2,1,70,0,0
206629,-142.857142857143,4,2,1,70,0,0
210303,-142.857142857143,4,2,1,60,0,0
210609,-142.857142857143,4,2,1,60,0,0
210915,-166.666666666667,4,2,1,60,0,0
211527,-166.666666666667,4,2,1,50,0,0
211603,-166.666666666667,4,2,1,5,0,0
211986,-200,4,2,1,50,0,0
213058,-200,4,2,1,5,0,0
213364,-200,4,2,1,50,0,0
215507,-200,4,2,1,5,0,0
215813,-200,4,2,1,50,0,0
217956,-200,4,2,1,5,0,0
218262,-200,4,2,1,50,0,0
220251,-200,4,2,1,5,0,0
220405,-200,4,2,1,50,0,0
221323,-200,4,2,1,45,0,0
225303,-200,4,2,1,5,0,0
225609,-200,4,2,1,45,0,0
226221,-200,4,2,1,40,0,0
227751,-200,4,2,1,5,0,0
228058,-200,4,2,1,40,0,0
228670,-200,4,2,1,35,0,0
229129,-200,4,2,1,5,0,0
229282,-200,4,2,1,35,0,0
229894,-200,4,2,1,30,0,0
230507,-200,4,2,1,25,0,0
230813,-200,4,2,1,20,0,0

[Colours]
Combo1 : 221,180,235
Combo2 : 20,191,248
Combo3 : 40,40,247
Combo4 : 190,85,225
Combo5 : 169,213,241

[HitObjects]
70,348,303,54,0,L|86:241,1,107.999996704102,0|2,0:0|0:0,0:0:0:0:
45,126,762,2,0,P|109:111|165:146,1,134.999995880127,2|0,0:0|0:0,0:0:0:0:
164,145,1221,2,0,L|110:136,1,53.9999983520508,2|0,0:0|0:0,0:0:0:0:
241,73,1527,5,2,0:0:0:0:
241,73,1680,2,0,L|294:64,1,53.9999983520508,2|0,0:0|0:0,0:0:0:0:
401,9,1986,2,0,P|417:45|413:85,1,80.9999975280763,2|0,0:0|0:0,0:0:0:0:
397,120,2292,1,2,0:0:0:0:
397,120,2445,2,0,L|405:173,1,53.9999983520508,2|0,0:0|0:0,0:0:0:0:
487,330,2751,53,2,0:0:0:0:
487,330,2905,2,0,L|495:276,1,53.9999983520508,2|0,0:0|0:0,0:0:0:0:
375,345,3211,2,0,P|310:359|254:324,1,134.999995880127,2|0,0:0|0:0,0:0:0:0:
254,324,3670,2,0,L|307:332,1,53.9999983520508,2|0,0:0|0:0,0:0:0:0:
418,258,3976,6,0,L|364:249,1,53.9999983520508,2|0,0:0|0:0,0:0:0:0:
301,160,4282,1,2,0:0:0:0:
301,160,4359,1,2,0:0:0:0:
301,160,4435,2,0,L|317:53,1,107.999996704102,2|0,0:0|0:0,0:0:0:0:
408,100,4894,2,0,L|399:153,1,53.9999983520508,2|0,0:0|0:0,0:0:0:0:
364,249,5200,54,0,L|257:265,2,107.999996704102,2|0|0,0:0|0:0|0:0,0:0:0:0:
359,349,6119,2,0,L|305:357,1,53.9999983520508,2|0,0:0|0:0,0:0:0:0:
257,265,6425,2,0,L|203:273,1,53.9999983520508,2|0,0:0|0:0,0:0:0:0:
96,353,6731,1,2,0:0:0:0:
96,353,6884,2,0,P|61:296|75:232,1,134.999995880127,2|0,0:0|0:0,0:0:0:0:
74,232,7343,2,0,L|82:285,1,53.9999983520508,2|0,0:0|0:0,0:0:0:0:
212,326,7649,6,0,L|203:272,1,53.9999983520508,2|0,0:0|0:0,0:0:0:0:
239,156,7956,1,2,0:0:0:0:
239,156,8109,2,0,P|296:123|360:139,1,134.999995880127,2|0,0:0|0:0,0:0:0:0:
360,139,8568,2,0,L|306:148,1,53.9999983520508,2|0,0:0|0:0,0:0:0:0:
155,123,8874,54,0,L|139:17,2,107.999996704102,2|0|0,0:0|0:0|0:0,0:0:0:0:
61,141,9639,2,0,L|50:69,1,72
85,265,10098,6,0,L|138:273,1,53.9999983520508
229,354,10405,1,2,0:0:0:0:
229,354,10558,2,0,P|263:297|249:233,1,134.999995880127,2|0,0:0|0:0,0:0:0:0:
249,233,11017,2,0,L|240:286,1,53.9999983520508,2|0,0:0|0:0,0:0:0:0:
129,326,11323,53,2,0:0:0:0:
129,326,11476,2,0,L|137:272,1,53.9999983520508,2|0,0:0|0:0,0:0:0:0:
214,163,11782,2,0,P|157:128|93:142,1,134.999995880127,2|0,0:0|0:0,0:0:0:0:
93,141,12241,2,0,L|146:149,1,53.9999983520508,2|0,0:0|0:0,0:0:0:0:
228,64,12547,5,2,0:0:0:0:
228,64,12700,2,0,L|219:10,1,53.9999983520508,2|0,0:0|0:0,0:0:0:0:
349,40,13007,2,0,P|383:96|368:160,1,134.999995880127,2|0,0:0|0:0,0:0:0:0:
368,160,13466,2,0,L|359:106,1,53.9999983520508,2|0,0:0|0:0,0:0:0:0:
477,229,13772,54,0,L|450:233,1,26.9999991760254,2|0,0:0|0:0,0:0:0:0:
413,241,13925,2,0,L|359:249,1,53.9999983520508,2|0,0:0|0:0,0:0:0:0:
260,332,14231,2,0,P|225:275|240:211,1,134.999995880127,2|0,0:0|0:0,0:0:0:0:
239,211,14690,2,0,L|247:264,1,53.9999983520508,2|0,0:0|0:0,0:0:0:0:
149,358,14996,6,0,L|42:341,2,107.999996704102,2|0|0,0:0|0:0|0:0,0:0:0:0:
65,252,15915,2,0,L|73:198,1,53.9999983520508,2|0,0:0|0:0,0:0:0:0:
174,171,16221,2,0,L|165:224,1,53.9999983520508,2|0,0:0|0:0,0:0:0:0:
227,314,16527,1,2,0:0:0:0:
227,314,16680,2,0,L|333:330,1,107.999996704102,2|0,0:0|0:0,0:0:0:0:
432,295,17139,2,0,L|440:241,1,53.9999983520508,2|0,0:0|0:0,0:0:0:0:
359,173,17445,54,0,L|350:227,1,53.9999983520508,2|0,0:0|0:0,0:0:0:0:
333,330,17751,1,2,0:0:0:0:
333,330,17905,2,0,P|268:345|213:310,1,134.999995880127,2|0,0:0|0:0,0:0:0:0:
213,310,18364,2,0,L|267:302,1,53.9999983520508,2|0,0:0|0:0,0:0:0:0:
350,226,18670,5,2,0:0:0:0:
323,338,19588,54,0,P|349:357|347:324,1,80.9999975280763,8|0,0:0|0:0,0:0:0:0:
285,264,19894,22,0,B|236:258|212:294|212:294|152:296|137:244,1,180,4|8,3:2|0:0,0:0:0:0:
209,45,20354,1,2,0:0:0:0:
45,141,20507,1,2,3:2:0:0:
225,183,20660,1,2,3:2:0:0:
101,11,20813,2,0,L|108:55,1,45,10|0,0:0|0:0,0:0:0:0:
139,170,20966,6,0,B|224:183|224:183|245:212|245:212|302:221,1,180,6|0,3:2|3:0,0:0:0:0:
503,150,21425,2,0,L|414:135,1,90,8|2,0:0|0:0,0:0:0:0:
225,183,21731,1,2,3:2:0:0:
333,35,21884,1,0,3:0:0:0:
351,219,22037,1,10,0:0:0:0:
224,82,22190,1,2,0:0:0:0:
416,0,22343,6,0,B|431:38|431:38|412:84,1,80.9999975280763,4|0,3:2|0:0,0:0:0:0:
397,108,22649,38,0,L|308:123,1,90,10|0,0:0|0:0,0:0:0:0:
154,23,22956,1,2,3:2:0:0:
234,198,23109,1,2,3:2:0:0:
334,37,23262,2,0,L|289:45,1,45,10|0,0:0|0:0,0:0:0:0:
135,112,23415,6,0,B|90:217|90:217|141:287,1,198.000006042481,6|0,3:2|3:0,0:0:0:0:
301,321,23874,1,8,0:0:0:0:
248,109,24027,2,0,L|233:197,1,90,2|0,0:0|3:0,0:0:0:0:
204,365,24333,1,0,3:0:0:0:
230,221,24486,1,8,0:0:0:0:
208,342,24639,1,0,0:0:0:0:
331,305,24792,6,0,B|444:322|444:322|408:312|393:270,1,180,6|8,3:2|0:0,0:0:0:0:
355,97,25251,1,2,0:0:0:0:
481,236,25405,1,2,3:2:0:0:
304,192,25558,1,2,3:2:0:0:
464,92,25711,2,0,L|456:136,1,45,10|0,0:0|0:0,0:0:0:0:
395,280,25864,38,0,B|331:269|331:269|319:277|319:277|218:259,1,180,6|0,3:2|3:0,0:0:0:0:
105,81,26323,2,0,L|119:169,1,90,8|0,0:0|0:0,0:0:0:0:
48,350,26629,1,2,3:2:0:0:
220,260,26782,1,0,3:0:0:0:
35,215,26935,1,10,0:0:0:0:
154,374,27088,1,2,0:0:0:0:
215,174,27241,6,0,P|175:184|148:213,1,80.9999975280763,4|0,3:2|0:0,0:0:0:0:
141,293,27547,6,0,L|126:204,1,90,10|0,0:0|0:0,0:0:0:0:
82,15,27854,1,2,3:2:0:0:
236,149,28007,1,2,3:2:0:0:
35,215,28160,2,0,L|43:170,1,45,10|0,0:0|0:0,0:0:0:0:
215,54,28313,38,0,B|298:67|298:67|327:122|327:122|378:130,1,198.000006042481,6|0,3:2|3:0,0:0:0:0:
512,0,28772,2,0,L|497:88,1,90,8|2,0:0|0:0,0:0:0:0:
443,212,29078,2,0,L|450:256,1,45,8|0,3:0|0:0,0:0:0:0:
468,340,29231,1,8,0:0:0:0:
468,340,29308,1,8,0:0:0:0:
468,340,29384,1,10,3:2:0:0:
319,372,29537,5,8,0:0:0:0:
319,372,29614,1,8,0:0:0:0:
319,372,29690,2,0,L|221:356,1,99.0000030212403,6|0,3:2|0:0,0:0:0:0:
51,239,29996,1,8,0:0:0:0:
259,205,30149,1,0,0:0:0:0:
118,363,30303,1,2,3:2:0:0:
142,150,30456,1,0,3:0:0:0:
277,335,30609,2,0,L|228:327,1,49.5000015106202,10|0,0:0|0:0,0:0:0:0:
51,239,30762,6,0,B|2:168|2:168|61:39,1,198.000006042481,6|0,3:2|3:0,0:0:0:0:
222,0,31221,2,0,L|238:97,1,99.0000030212403,8|0,0:0|0:0,0:0:0:0:
281,280,31527,1,2,3:2:0:0:
370,109,31680,1,0,3:0:0:0:
405,341,31833,38,0,P|382:372|381:333,1,94.499997116089,10|0,0:0|0:0,0:0:0:0:
455,248,32139,6,0,B|406:258|406:258|364:232,1,99.0000030212403,6|0,3:2|0:0,0:0:0:0:
192,121,32445,1,8,0:0:0:0:
266,377,32598,2,0,L|281:279,1,99.0000030212403,2|2,0:0|3:2,0:0:0:0:
323,56,32905,1,0,3:0:0:0:
144,215,33058,2,0,L|192:207,1,49.5000015106202,10|0,0:0|0:0,0:0:0:0:
389,156,33211,6,0,L|291:140,1,99.0000030212403,6|0,3:2|0:0,0:0:0:0:
127,15,33517,1,0,3:0:0:0:
192,206,33670,1,10,0:0:0:0:
10,86,33823,38,0,L|107:101,1,99.0000030212403,0|2,0:0|3:2,0:0:0:0:
175,309,34129,1,2,3:2:0:0:
297,131,34282,1,10,0:0:0:0:
92,191,34435,1,2,0:0:0:0:
291,369,34588,6,0,L|275:271,1,99.0000030212403,6|0,3:2|0:0,0:0:0:0:
460,124,34894,1,10,0:0:0:0:
409,340,35047,1,0,0:0:0:0:
309,155,35200,1,2,3:2:0:0:
504,234,35354,1,2,3:2:0:0:
312,349,35507,2,0,L|319:300,1,49.5000015106202,10|0,0:0|0:0,0:0:0:0:
381,102,35660,6,0,P|293:66|223:133,1,198.000006042481,6|0,3:2|3:0,0:0:0:0:
128,311,36119,1,10,0:0:0:0:
67,100,36272,1,0,0:0:0:0:
218,244,36425,1,2,3:2:0:0:
265,13,36578,1,0,3:0:0:0:
102,184,36731,1,10,0:0:0:0:
341,164,36884,1,0,0:0:0:0:
105,20,37037,38,0,P|146:55|157:107,1,107.999996704102,6|0,3:2|0:0,0:0:0:0:
109,336,37343,1,8,0:0:0:0:
2,157,37496,1,0,0:0:0:0:
218,244,37649,1,2,3:2:0:0:
0,326,37803,1,2,3:2:0:0:
77,98,37956,2,0,L|85:151,1,53.9999983520508,10|0,0:0|0:0,0:0:0:0:
238,363,38109,6,0,B|295:349|295:349|330:288,1,116.999994644165,6|0,3:2|0:0,0:0:0:0:
418,36,38415,1,0,3:0:0:0:
494,301,38568,2,0,B|436:287|436:287|401:226,1,116.999994644165,14|0,0:0|0:0,0:0:0:0:
306,0,38874,1,10,0:0:0:0:
162,217,39027,1,8,0:0:0:0:
162,217,39104,1,8,0:0:0:0:
162,217,39180,2,0,L|231:206,1,58.4999973220826,8|8,0:3|0:3,0:0:0:0:
321,136,39333,1,4,0:3:0:0:
321,136,39410,1,4,0:3:0:0:
321,136,39486,22,0,P|350:190|338:251,2,125.999996154785,6|0|0,3:2|3:0|3:0,0:0:0:0:
338,251,40405,2,0,L|400:260,1,62.9999980773926,2|0,3:2|0:0,0:0:0:0:
468,330,40711,1,0,3:0:0:0:
468,330,41017,6,0,P|445:308|437:277,1,62.9999980773926,2|0,3:2|0:0,0:0:0:0:
413,152,41323,2,0,P|405:182|383:204,1,62.9999980773926,2|0,3:2|0:0,0:0:0:0:
287,289,41629,2,0,P|317:280|347:288,1,62.9999980773926,2|0,3:2|0:0,0:0:0:0:
223,359,41935,54,0,P|193:304|205:243,1,125.999996154785,2|0,3:2|3:0,0:0:0:0:
252,84,42394,2,0,P|219:136|161:157,1,125.999996154785,2|0,3:2|0:0,0:0:0:0:
0,199,42854,2,0,P|61:201|108:241,2,125.999996154785,2|0|0,3:2|3:0|3:0,0:0:0:0:
155,58,43772,5,2,3:2:0:0:
68,28,43925,1,2,0:0:0:0:
84,119,44078,1,2,3:2:0:0:
84,119,44231,2,0,L|88:150,1,31.4999990386963,2|0,0:3|0:0,0:0:0:0:
95,193,44384,54,0,L|157:201,2,62.9999980773926,2|0|0,3:2|0:0|3:0,0:0:0:0:
39,274,44843,2,0,L|101:283,1,62.9999980773926,2|0,0:0|3:0,0:0:0:0:
168,358,45149,1,2,0:0:0:0:
168,358,45303,2,0,L|230:348,1,62.9999980773926,2|2,3:2|0:0,0:0:0:0:
317,284,45609,5,2,3:2:0:0:
269,216,45762,53,2,0:0:0:0:
280,198,45915,5,2,3:2:0:0:
379,212,46068,54,0,P|408:203|430:180,1,62.9999980773926,2|0,0:0|3:2,0:0:0:0:
346,9,46527,6,0,L|355:71,1,62.9999980773926,2|0,3:2|0:0,0:0:0:0:
298,154,46833,2,0,P|236:154|189:101,2,125.999996154785,2|0|0,3:2|3:0|3:0,0:0:0:0:
192,111,47751,2,0,L|201:48,1,62.9999980773926,2|0,3:2|0:0,0:0:0:0:
96,0,48058,1,2,3:2:0:0:
96,0,48364,54,0,L|84:71,1,72,2|0,3:0|0:0,0:0:0:0:
10,174,48670,2,0,L|33:266,1,72,10|8,3:2|0:0,0:0:0:0:
64,264,48899,1,8,0:0:0:0:
64,264,48976,2,0,L|99:258,1,36,8|0,0:0|0:0,0:0:0:0:
193,232,49129,1,8,0:0:0:0:
308,370,49282,22,0,B|271:315|271:315|316:207,1,161.999995056153,4|8,3:2|0:0,0:0:0:0:
466,102,49741,2,0,L|453:182,1,80.9999975280763,0|0,0:0|3:0,0:0:0:0:
433,314,50047,1,0,3:0:0:0:
333,144,50200,6,0,P|293:139|257:156,1,80.9999975280763,10|0,0:0|0:0,0:0:0:0:
165,303,50507,2,0,P|188:270|192:231,1,80.9999975280763,2|0,3:2|0:0,0:0:0:0:
112,82,50813,2,0,P|127:118|160:141,1,80.9999975280763,10|0,0:0|0:0,0:0:0:0:
197,56,51119,1,2,3:2:0:0:
197,56,51272,1,0,3:0:0:0:
74,0,51425,2,0,P|41:22|25:59,1,80.9999975280763,10|0,0:0|0:0,0:0:0:0:
65,193,51731,6,0,B|138:210|138:210|190:188|175:123,1,161.999995056153,6|8,3:2|0:0,0:0:0:0:
329,60,52190,2,0,B|277:114|277:114|270:170|334:190,1,161.999995056153,2|0,0:0|3:0,0:0:0:0:
312,355,52649,2,0,B|290:283|290:283|245:249|196:294,2,161.999995056153,10|0|8,0:0|3:0|0:0,0:0:0:0:
209,282,53568,2,0,L|221:201,1,80.9999975280763,0|0,3:0|3:0,0:0:0:0:
355,146,53874,1,10,0:0:0:0:
307,240,54027,1,2,0:0:0:0:
241,103,54180,38,0,L|81:128,2,161.999995056153,6|8|0,3:2|0:0|3:0,0:0:0:0:
174,216,54945,1,0,3:0:0:0:
174,216,55098,2,0,L|93:228,1,80.9999975280763,10|2,0:0|0:0,0:0:0:0:
32,316,55405,5,2,3:2:0:0:
51,322,55558,1,2,0:0:0:0:
107,384,55711,5,10,0:0:0:0:
131,301,55864,1,2,0:0:0:0:
209,354,56017,37,2,3:2:0:0:
174,216,56170,1,2,3:2:0:0:
305,281,56323,6,0,P|280:308|274:275,1,80.9999975280763,10|0,0:0|0:0,0:0:0:0:
336,196,56629,6,0,P|296:203|261:184,1,80.9999975280763,6|0,3:2|0:0,0:0:0:0:
196,28,56935,2,0,P|221:58|223:98,1,80.9999975280763,10|0,0:0|0:0,0:0:0:0:
121,234,57241,2,0,P|134:196|168:175,1,80.9999975280763,2|0,3:2|3:0,0:0:0:0:
18,349,57547,38,0,P|87:299|67:205,1,161.999995056153,10|0,0:0|3:0,0:0:0:0:
0,118,58007,1,0,3:0:0:0:
132,39,58160,2,0,B|148:77|148:77|130:121,1,80.9999975280763,10|8,0:0|0:0,0:0:0:0:
144,152,58389,1,8,0:0:0:0:
144,152,58466,2,0,L|184:158,1,40.4999987640381,8|0,0:0|0:0,0:0:0:0:
242,265,58619,2,0,L|201:258,1,40.4999987640381,0|0,3:0|0:0,0:0:0:0:
100,352,58772,2,0,L|86:272,1,80.9999975280763,12|0,0:0|0:0,0:0:0:0:
184,158,59078,38,0,L|224:164,1,40.4999987640381,4|0,3:2|0:0,0:0:0:0:
265,171,59231,2,0,L|305:177,1,40.4999987640381,2|0,3:2|0:0,0:0:0:0:
372,247,59384,6,0,P|404:192|389:132,1,125.999996154785,10|0,0:0|0:0,0:0:0:0:
356,265,59843,2,0,L|418:274,1,62.9999980773926,2|8,3:2|0:0,0:0:0:0:
42,359,60303,54,0,B|22:322|22:322|30:284,1,80.9999975280763,2|0,3:2|3:0,0:0:0:0:
146,340,60609,2,0,B|154:302|154:302|134:265,1,80.9999975280763,8|0,0:0|0:0,0:0:0:0:
68,201,60915,1,0,3:0:0:0:
68,201,61068,1,0,3:0:0:0:
131,130,61221,2,0,L|224:143,1,94.499997116089,10|0,0:0|0:0,0:0:0:0:
254,170,61527,6,0,L|241:250,1,80.9999975280763,2|0,3:2|3:0,0:0:0:0:
359,187,61833,2,0,L|338:316,1,125.999996154785,10|0,0:0|0:0,0:0:0:0:
373,174,62292,2,0,L|363:111,1,62.9999980773926,2|8,3:2|0:0,0:0:0:0:
46,33,62751,54,0,P|28:72|33:109,1,80.9999975280763,0|0,3:0|3:0,0:0:0:0:
90,184,63058,1,10,0:0:0:0:
174,129,63211,2,0,P|192:90|186:52,1,80.9999975280763,2|0,0:0|3:0,0:0:0:0:
184,243,63517,1,0,3:0:0:0:
184,243,63670,2,0,L|204:239,1,20.2499993820191,12|0,0:0|0:0,0:0:0:0:
467,363,63976,6,0,L|460:322,1,40.4999987640381,6|0,3:2|0:0,0:0:0:0:
454,282,64129,2,0,L|447:241,1,40.4999987640381,2|0,3:2|0:0,0:0:0:0:
441,201,64282,2,0,L|434:160,1,40.4999987640381,10|0,0:0|0:0,0:0:0:0:
459,73,64435,54,0,L|334:92,2,125.999996154785,2|2|2,0:0|3:2|0:0,0:0:0:0:
323,185,65200,6,0,B|282:178|282:178|258:146,1,80.9999975280763,0|0,3:0|3:0,0:0:0:0:
162,5,65507,1,8,0:0:0:0:
114,177,65660,1,8,0:0:0:0:
114,177,65736,1,8,0:0:0:0:
114,177,65813,53,10,0:0:0:0:
255,61,65966,1,0,3:0:0:0:
210,272,66119,6,0,L|201:218,1,54,14|0,0:0|0:0,0:0:0:0:
186,352,66425,6,0,P|226:356|269:332,1,90,6|0,3:2|3:0,0:0:0:0:
342,107,66731,1,10,0:0:0:0:
465,302,66884,2,0,L|376:287,1,90,2|0,0:0|3:0,0:0:0:0:
450,68,67190,2,0,L|361:82,1,90,2|8,3:2|0:0,0:0:0:0:
290,343,67496,6,0,B|264:297|264:297|287:218|287:218|264:178,1,180,2|0,0:0|3:0,0:0:0:0:
123,42,67956,1,10,0:0:0:0:
182,237,68109,1,2,0:0:0:0:
297,78,68262,2,0,P|253:72|213:92,1,90,0|0,3:0|3:0,0:0:0:0:
71,201,68568,1,8,0:0:0:0:
195,360,68721,5,2,3:2:0:0:
195,360,68797,1,0,3:0:0:0:
195,360,68874,2,0,B|169:317|169:317|183:261,1,99.0000030212403,14|0,0:0|3:0,0:0:0:0:
265,90,69180,37,10,0:0:0:0:
348,331,69333,1,2,3:2:0:0:
369,49,69486,5,8,0:0:0:0:
264,300,69639,1,2,3:2:0:0:
288,0,69792,5,8,0:0:0:0:
428,236,69945,2,0,L|330:251,1,99.0000030212403,2|8,3:2|0:0,0:0:0:0:
97,306,70251,1,0,3:0:0:0:
256,112,70405,37,10,0:0:0:0:
196,364,70558,1,0,0:0:0:0:
28,171,70711,6,0,L|93:160,1,66.0000020141602,2|0,3:2|0:0,0:0:0:0:
183,147,70915,5,8,0:0:0:0:
247,192,71017,37,8,0:3:0:0:
253,237,71119,5,8,0:3:0:0:
234,272,71221,5,4,0:3:0:0:
208,290,71323,38,0,B|262:245|334:280|344:338|344:338|338:231|443:240|443:240|391:243|370:287,1,431.999986816407,4|0,3:2|0:0,0:0:0:0:
242,82,73772,6,0,B|190:64|190:64|143:96|143:96|143:106|143:106|100:139|100:139|61:129,1,215.999993408203,6|8,3:2|0:0,0:0:0:0:
199,284,74231,2,0,B|228:238|228:238|214:186,1,107.999996704102,2|0,0:0|3:0,0:0:0:0:
68,37,74537,1,2,3:2:0:0:
101,293,74690,2,0,L|110:239,1,53.9999983520508,10|0,0:0|0:0,0:0:0:0:
242,82,74843,6,0,B|293:73|327:123|327:123|323:129|323:129|328:123|328:123|387:146|426:103,1,215.999993408203,6|0,3:2|3:0,0:0:0:0:
252,277,75303,2,0,P|226:230|237:178,1,107.999996704102,8|0,0:0|0:0,0:0:0:0:
392,15,75609,1,2,3:2:0:0:
316,216,75762,1,0,3:0:0:0:
175,30,75915,2,0,L|281:46,1,107.999996704102,10|0,0:0|0:0,0:0:0:0:
480,166,76221,38,0,B|428:173|422:234|422:234|432:270|432:270|444:279|444:279|460:346,1,215.999993408203,6|8,3:2|0:0,0:0:0:0:
209,233,76680,2,0,L|315:216,1,107.999996704102,2|0,0:0|3:0,0:0:0:0:
504,54,76986,1,2,3:2:0:0:
287,0,77139,2,0,L|295:53,1,53.9999983520508,10|0,0:0|0:0,0:0:0:0:
423,238,77292,6,0,B|458:219|458:219|429:173|371:173|371:173|354:209|315:215,1,215.999993408203,6|0,3:2|3:0,0:0:0:0:
191,383,77751,2,0,P|232:349|242:297,1,107.999996704102,8|0,0:0|0:0,0:0:0:0:
135,97,78058,1,2,3:2:0:0:
84,319,78211,1,0,3:0:0:0:
315,214,78364,2,0,L|209:197,1,107.999996704102,14|0,0:0|0:0,0:0:0:0:
5,63,78670,6,0,B|49:36|49:36|101:74|101:74|95:113|95:113|88:118|88:118|80:169,1,215.999993408203,6|8,3:2|0:0,0:0:0:0:
174,347,79129,2,0,B|226:361|226:361|270:332,1,107.999996704102,2|0,0:0|3:0,0:0:0:0:
446,195,79435,1,2,3:2:0:0:
249,88,79588,2,0,L|257:141,1,53.9999983520508,10|0,0:0|0:0,0:0:0:0:
374,367,79741,38,0,B|348:338|364:285|411:282|411:282|449:288|449:288|459:298|459:298|515:310,1,215.999993408203,6|0,3:2|3:0,0:0:0:0:
368,83,80200,2,0,B|351:189,1,107.999996704102,8|0,0:0|0:0,0:0:0:0:
213,382,80507,1,2,3:2:0:0:
149,158,80660,1,0,3:0:0:0:
353,287,80813,2,0,L|246:271,1,107.999996704102,10|0,0:0|0:0,0:0:0:0:
61,375,81119,6,0,B|8:326|8:326|22:260|22:260|31:256|31:256|49:191,1,215.999993408203,6|8,3:2|0:0,0:0:0:0:
233,28,81578,2,0,B|249:134,1,107.999996704102,2|0,0:0|3:0,0:0:0:0:
182,352,81884,1,2,3:2:0:0:
400,233,82037,2,0,L|347:225,1,53.9999983520508,10|0,0:0|0:0,0:0:0:0:
74,102,82190,6,0,B|103:76|156:92|159:139|159:139|153:177|153:177|143:187|143:187|131:243,1,215.999993408203,6|0,3:2|3:0,0:0:0:0:
281,384,82649,2,0,L|264:277,1,107.999996704102,10|0,0:0|0:0,0:0:0:0:
380,145,82956,38,0,L|433:153,3,36,8|0|0|0,3:0|3:0|3:0|3:0,0:0:0:0:
400,233,83262,2,0,L|346:223,1,53.9999983520508,10|0,0:0|0:0,0:0:0:0:
186,116,83415,1,8,0:0:0:0:
186,116,83491,1,8,0:0:0:0:
186,116,83568,6,0,B|190:94|237:55|293:92|299:134|292:151|292:151|267:168|263:201,1,215.999993408203,6|8,3:2|0:0,0:0:0:0:
134,367,84027,2,0,B|160:319|160:319|149:267,1,107.999996704102,2|0,0:0|3:0,0:0:0:0:
50,88,84333,1,0,3:0:0:0:
0,316,84486,2,0,L|53:307,1,53.9999983520508,10|0,0:0|0:0,0:0:0:0:
246,251,84639,6,0,B|202:242|202:242|191:247|191:247|147:238|147:238|108:198|131:149|162:136,1,215.999993408203,6|0,3:2|3:0,0:0:0:0:
346,0,85098,2,0,L|329:106,1,107.999996704102,8|0,0:0|0:0,0:0:0:0:
401,309,85405,1,0,3:0:0:0:
493,110,85558,1,2,3:2:0:0:
311,193,85711,37,10,0:0:0:0:
512,263,85864,1,2,0:0:0:0:
247,133,86017,6,0,B|212:175|212:175|225:230|225:230|234:234|234:234|250:286|250:286|227:319,1,215.999993408203,6|8,3:2|0:0,0:0:0:0:
15,366,86476,2,0,B|-14:321|-14:321|0:268,1,107.999996704102,2|0,0:0|3:0,0:0:0:0:
147,92,86782,1,2,3:2:0:0:
216,297,86935,2,0,L|162:288,1,53.9999983520508,10|0,0:0|0:0,0:0:0:0:
22,149,87088,6,0,B|47:93|137:93|155:152|155:152|121:194,1,215.999993408203,6|0,3:2|3:0,0:0:0:0:
207,384,87547,2,0,P|259:375|294:335,1,107.999996704102,8|0,0:0|0:0,0:0:0:0:
248,99,87854,1,2,3:2:0:0:
470,234,88007,1,0,3:0:0:0:
216,297,88160,2,0,L|232:190,1,107.999996704102,10|0,0:0|0:0,0:0:0:0:
388,0,88466,38,0,B|320:10|320:10|306:5|306:5|245:15|245:15|294:16|317:52,1,215.999993408203,6|8,3:2|0:0,0:0:0:0:
470,234,88925,2,0,L|363:217,1,107.999996704102,2|0,0:0|3:0,0:0:0:0:
154,314,89231,1,2,3:2:0:0:
248,99,89384,2,0,L|255:152,1,53.9999983520508,10|0,0:0|0:0,0:0:0:0:
299,369,89537,6,0,B|297:311|250:290|250:290|253:285|253:285|250:290|250:290|195:269|152:315,1,215.999993408203,6|0,3:2|3:0,0:0:0:0:
28,123,89996,2,0,B|33:176|33:176|77:207,1,107.999996704102,8|0,0:0|0:0,0:0:0:0:
201,10,90303,2,0,B|152:-12|152:-12|102:10,1,107.999996704102,2|0,3:2|3:0,0:0:0:0:
159,245,90609,1,10,0:0:0:0:
264,70,90762,1,0,0:0:0:0:
312,348,90915,6,0,L|295:241,1,107.999996704102,6|0,3:2|0:0,0:0:0:0:
459,123,91221,1,8,0:0:0:0:
403,312,91374,1,0,0:0:0:0:
253,158,91527,38,0,L|306:149,1,53.9999983520508,2|0,3:2|0:0,0:0:0:0:
487,116,91680,1,0,3:0:0:0:
325,14,91833,6,0,P|352:0|338:27,1,80.9999975280763,8|0,0:0|0:0,0:0:0:0:
264,70,92139,6,0,L|210:61,1,53.9999983520508,2|0,3:2|0:0,0:0:0:0:
38,39,92292,1,8,0:0:0:0:
88,207,92445,2,0,P|127:172|137:119,1,107.999996704102,2|8,3:2|0:0,0:0:0:0:
123,82,92675,1,8,0:0:0:0:
123,82,92751,2,0,L|167:89,2,45,10|0|0,0:0|0:0|3:0,0:0:0:0:
46,128,93058,1,10,0:0:0:0:
131,291,93211,37,10,0:0:0:0:
131,291,93287,1,8,0:0:0:0:
131,291,93364,2,0,L|228:275,1,99.0000030212403,4|0,3:2|0:0,0:0:0:0:
410,375,93670,2,0,L|312:359,1,99.0000030212403,8|0,0:0|0:0,0:0:0:0:
223,244,93976,1,0,3:0:0:0:
365,213,94129,1,0,3:0:0:0:
312,359,94282,2,0,L|304:310,1,49.5000015106202,8|0,0:0|0:0,0:0:0:0:
248,161,94435,6,0,P|176:173|149:290,1,198.000006042481,6|0,3:2|3:0,0:0:0:0:
0,384,94895,2,0,P|36:352|45:304,1,99.0000030212403,8|0,0:0|0:0,0:0:0:0:
132,148,95200,5,2,3:2:0:0:
161,314,95354,1,0,3:0:0:0:
234,123,95507,1,10,0:0:0:0:
83,222,95660,1,2,0:0:0:0:
238,354,95813,38,0,B|253:316|253:316|234:270,1,80.9999975280763,4|0,3:2|0:0,0:0:0:0:
228,253,96119,6,0,L|317:268,1,90,10|0,0:0|0:0,0:0:0:0:
469,223,96426,1,2,3:2:0:0:
391,377,96579,1,2,3:2:0:0:
301,239,96732,2,0,L|309:194,1,45,10|0,0:0|0:0,0:0:0:0:
465,55,96884,6,0,B|395:2|336:70|336:70|376:108,1,198.000006042481,6|0,3:2|3:0,0:0:0:0:
469,223,97344,1,8,0:0:0:0:
310,282,97497,2,0,L|325:194,1,90,2|0,0:0|3:0,0:0:0:0:
233,23,97803,1,0,3:0:0:0:
312,171,97956,1,8,0:0:0:0:
245,46,98109,1,0,0:0:0:0:
162,220,98262,38,0,B|87:231|87:231|59:276|59:276|8:284,1,180,6|8,3:2|0:0,0:0:0:0:
137,309,98721,1,2,0:0:0:0:
3,198,98875,1,2,3:2:0:0:
56,362,99028,1,2,3:2:0:0:
189,213,99181,2,0,L|145:205,1,45,10|0,0:0|0:0,0:0:0:0:
61,37,99333,6,0,P|138:15|157:93,1,180,6|0,3:2|3:0,0:0:0:0:
278,240,99793,2,0,L|263:151,1,90,8|0,0:0|0:0,0:0:0:0:
399,1,100099,1,2,3:2:0:0:
355,177,100252,1,0,3:0:0:0:
270,18,100405,1,8,0:0:0:0:
437,106,100558,1,2,0:0:0:0:
256,153,100711,6,0,P|216:143|189:114,1,80.9999975280763,4|0,3:2|0:0,0:0:0:0:
174,81,101017,38,0,L|159:170,1,90,10|0,0:0|0:0,0:0:0:0:
74,345,101324,1,2,3:2:0:0:
223,263,101477,1,2,3:2:0:0:
41,150,101630,2,0,L|49:195,1,45,10|0,0:0|0:0,0:0:0:0:
171,353,101782,6,0,B|247:372|247:372|305:328,1,148.50000453186,6|0,3:2|0:0,0:0:0:0:
328,233,102088,1,0,3:0:0:0:
408,384,102241,5,8,0:0:0:0:
479,146,102394,1,0,3:0:0:0:
303,330,102547,37,14,0:0:0:0:
303,330,103160,38,0,B|266:311|229:322|249:338|210:347|176:330,1,125.999996154785,6|8,3:2|0:0,0:0:0:0:
74,375,103619,1,0,0:0:0:0:
74,375,103772,2,0,L|64:312,1,62.9999980773926,0|0,3:0|3:0,0:0:0:0:
20,162,104078,2,0,P|49:214|109:214,1,125.999996154785,10|0,0:0|3:0,0:0:0:0:
109,213,104691,6,0,L|118:150,1,62.9999980773926,10|0,0:0|0:0,0:0:0:0:
257,139,104996,2,0,L|198:161,1,62.9999980773926,2|0,3:2|3:0,0:0:0:0:
119,49,105303,2,0,L|167:88,1,62.9999980773926,10|0,0:0|0:0,0:0:0:0:
244,238,105609,54,0,L|363:193,1,125.999996154785,2|8,3:2|0:0,0:0:0:0:
441,384,106068,2,0,L|342:303,1,125.999996154785,2|0,0:0|3:0,0:0:0:0:
469,141,106527,2,0,L|448:266,1,125.999996154785,10|0,0:0|3:0,0:0:0:0:
343,304,107139,2,0,L|269:292,1,62.9999980773926,8|0,0:0|0:0,0:0:0:0:
111,327,107446,5,2,3:2:0:0:
198,357,107599,1,2,3:2:0:0:
182,266,107752,1,10,0:0:0:0:
182,266,107905,2,0,L|176:234,1,31.4999990386963,2|0,0:3|0:0,0:0:0:0:
141,207,108058,54,0,P|110:199|88:177,2,62.9999980773926,2|0|8,3:2|0:0|0:0,0:0:0:0:
211,87,108517,2,0,P|180:94|158:116,1,62.9999980773926,2|0,0:0|3:0,0:0:0:0:
283,208,108823,1,2,3:2:0:0:
283,208,108976,2,0,L|302:83,2,125.999996154785,10|0|8,0:0|3:0|0:0,0:0:0:0:
379,154,109894,1,0,3:0:0:0:
379,154,110047,1,0,3:0:0:0:
379,154,110200,2,0,L|441:163,1,62.9999980773926,10|0,0:0|0:0,0:0:0:0:
373,276,110507,6,0,P|313:260|282:207,2,125.999996154785,2|8|0,3:2|0:0|3:0,0:0:0:0:
505,366,111272,1,0,3:0:0:0:
505,366,111425,2,0,L|495:303,1,62.9999980773926,10|0,0:0|0:0,0:0:0:0:
512,178,111732,1,2,3:2:0:0:
416,253,111884,1,0,3:0:0:0:
342,148,112038,54,0,L|413:160,1,72,14|0,0:0|0:0,0:0:0:0:
502,82,112343,2,0,L|466:87,1,36,10|8,0:0|0:0,0:0:0:0:
379,125,112496,1,8,0:0:0:0:
379,125,112573,1,8,0:0:0:0:
379,125,112649,2,0,L|373:89,1,36,10|8,3:2|0:0,0:0:0:0:
300,8,112803,1,10,0:0:0:0:
300,8,112879,1,8,0:0:0:0:
300,8,112956,22,0,B|230:18|230:18|205:55|205:55|158:62,1,161.999995056153,4|8,3:2|0:0,0:0:0:0:
39,226,113415,2,0,L|51:145,1,80.9999975280763,0|0,0:0|3:0,0:0:0:0:
19,29,113721,1,0,3:0:0:0:
137,193,113873,6,0,B|179:201|179:201|214:180,1,80.9999975280763,10|0,0:0|0:0,0:0:0:0:
296,31,114180,2,0,B|268:63|268:63|268:104,1,80.9999975280763,2|0,3:2|0:0,0:0:0:0:
356,249,114486,2,0,B|341:208|341:208|306:188,1,80.9999975280763,10|0,0:0|0:0,0:0:0:0:
264,273,114792,1,2,3:2:0:0:
264,273,114945,1,0,3:0:0:0:
399,334,115098,2,0,B|432:315|432:315|446:275,1,80.9999975280763,10|0,0:0|0:0,0:0:0:0:
510,130,115405,6,0,B|479:172|479:172|420:181|420:181|379:151,1,161.999995056153,2|8,3:2|0:0,0:0:0:0:
193,63,115864,2,0,B|245:68|245:68|282:114|282:114|276:164,1,161.999995056153,2|0,0:0|3:0,0:0:0:0:
297,370,116323,2,0,B|275:322|275:322|296:267|296:267|343:246,2,161.999995056153,10|0|8,0:0|3:0|0:0,0:0:0:0:
79,284,117241,2,0,L|160:272,1,80.9999975280763,0|0,3:0|3:0,0:0:0:0:
286,184,117547,1,14,0:0:0:0:
251,318,117701,1,2,0:0:0:0:
133,112,117854,38,0,L|158:272,2,161.999995056153,6|8|0,3:2|0:0|3:0,0:0:0:0:
224,18,118619,1,2,3:2:0:0:
224,18,118772,2,0,L|304:30,1,80.9999975280763,10|2,0:0|0:0,0:0:0:0:
412,104,119079,5,2,3:2:0:0:
430,96,119232,1,2,0:0:0:0:
512,82,119384,5,10,0:0:0:0:
488,156,119538,1,2,0:0:0:0:
389,26,119691,37,2,3:2:0:0:
412,183,119844,1,2,3:2:0:0:
281,95,119997,6,0,P|303:70|309:103,1,80.9999975280763,10|0,0:0|0:0,0:0:0:0:
278,180,120303,6,0,P|238:185|202:168,1,80.9999975280763,6|0,3:2|3:0,0:0:0:0:
91,53,120609,2,0,P|115:84|118:123,1,80.9999975280763,10|0,0:0|0:0,0:0:0:0:
75,279,120915,2,0,P|89:241|122:219,1,80.9999975280763,2|0,3:2|3:0,0:0:0:0:
316,291,121221,38,0,B|275:264|225:290|247:302|204:329|159:308,1,161.999995056153,10|0,0:0|3:0,0:0:0:0:
287,367,121680,1,8,0:0:0:0:
201,280,121834,2,0,B|213:199,1,80.9999975280763,2|8,3:2|0:0,0:0:0:0:
296,122,122063,5,8,0:0:0:0:
296,122,122140,2,0,P|315:128|329:142,1,40.4999987640381,8|0,0:0|0:0,0:0:0:0:
383,247,122292,2,0,P|363:240|349:226,1,40.4999987640381,8|0,0:0|0:0,0:0:0:0:
315,87,122445,2,0,P|301:102|295:121,1,40.4999987640381,8|0,0:0|0:0,0:0:0:0:
330,261,122598,2,0,P|343:245|349:226,1,40.4999987640381,8|0,0:0|0:0,0:0:0:0:
423,145,122751,22,0,B|527:161|527:161|492:160|471:184,2,161.999995056153,4|4|0,3:2|3:2|0:0,0:0:0:0:
202,374,123976,6,0,B|182:339|182:339|188:298,1,80.9999975280763,4|0,3:2|0:0,0:0:0:0:
309,355,124282,2,0,B|315:314|315:314|295:279,1,80.9999975280763,4|0,3:2|0:0,0:0:0:0:
8,57,125200,54,0,B|68:12|121:59|121:59|89:98,2,161.999995056153,4|4|0,3:2|3:2|0:0,0:0:0:0:
479,23,126425,6,0,P|439:17|403:35,1,80.9999975280763,4|0,3:2|0:0,0:0:0:0:
493,120,126731,2,0,P|457:137|417:132,1,80.9999975280763,4|8,3:2|0:0,0:0:0:0:
391,112,126961,1,8,0:0:0:0:
391,112,127037,53,8,0:0:0:0:
312,59,127190,1,8,3:0:0:0:
242,122,127343,1,8,3:0:0:0:
282,189,127496,1,4,3:0:0:0:
304,179,127649,6,0,L|223:166,1,80.9999975280763,4|0,3:2|0:0,0:0:0:0:
115,217,127956,1,4,3:2:0:0:
208,310,128109,1,8,0:0:0:0:
208,310,128185,1,8,0:0:0:0:
208,310,128262,53,8,0:0:0:0:
312,272,128415,1,8,0:0:0:0:
188,322,128568,1,8,0:0:0:0:
341,363,128721,1,8,0:0:0:0:
234,228,128874,6,0,L|240:187,1,40.4999987640381,4|0,3:2|0:0,0:0:0:0:
219,88,129027,1,0,3:0:0:0:
219,88,129104,1,0,0:0:0:0:
219,88,129180,2,0,L|304:101,1,80.9999975280763,12|0,0:0|3:0,0:0:0:0:
462,212,129486,1,10,0:0:0:0:
437,181,129563,1,8,0:3:0:0:
431,141,129639,1,4,0:3:0:0:
447,104,129716,1,0,3:0:0:0:
480,79,129792,53,14,0:0:0:0:
480,79,130098,22,0,P|436:70|407:37,1,90,6|0,3:2|3:0,0:0:0:0:
259,125,130405,1,10,0:0:0:0:
394,251,130558,2,0,B|421:212|421:212|408:162,1,90,2|0,0:0|0:0,0:0:0:0:
210,354,130864,2,0,B|184:318|184:318|195:265,1,90,2|8,3:2|0:0,0:0:0:0:
2,97,131170,6,0,P|27:175|107:158,1,180,2|0,0:0|3:0,0:0:0:0:
221,0,131629,2,0,L|206:88,1,90,10|0,0:0|0:0,0:0:0:0:
254,273,131935,1,2,3:2:0:0:
107,158,132088,1,0,3:0:0:0:
312,59,132241,6,0,B|357:92|357:92|324:131,1,108,8|0,0:0|0:0,0:0:0:0:
298,163,132547,38,0,L|253:155,1,45,10|8,3:2|0:0,0:0:0:0:
132,251,132700,1,8,0:0:0:0:
132,251,132777,1,8,0:0:0:0:
132,251,132854,2,0,L|176:243,1,45,8|8,0:0|0:0,0:0:0:0:
268,369,133007,70,0,L|275:324,3,45,8|8|8|8,3:0|0:0|0:0|0:0,0:0:0:0:
397,234,133313,1,8,0:0:0:0:
397,234,133389,1,8,0:0:0:0:
397,234,133466,2,0,L|404:278,3,45,4|8|8|8,3:0|0:0|0:0|0:0,0:0:0:0:
275,324,133772,6,0,L|226:316,1,49.5000015106202,10|8,3:2|0:0,0:0:0:0:
123,294,133925,1,8,0:0:0:0:
107,268,134001,1,8,0:0:0:0:
99,239,134078,1,8,0:0:0:0:
104,210,134154,1,8,0:0:0:0:
118,185,134231,6,0,L|167:177,1,49.5000015106202,10|8,3:2|0:0,0:0:0:0:
286,158,134384,1,8,0:0:0:0:
305,126,134461,1,8,0:0:0:0:
315,91,134537,1,8,0:0:0:0:
309,56,134613,1,8,0:0:0:0:
292,26,134690,38,0,L|232:16,1,53.9999983520508,10|0,3:2|0:0,0:0:0:0:
27,144,134996,70,0,B|0:100|0:100|38:48|38:48|77:54|77:54|82:61|82:61|133:69,1,215.999993408203,6|8,3:2|0:0,0:0:0:0:
289,260,135455,2,0,L|272:153,1,107.999996704102,2|0,0:0|3:0,0:0:0:0:
74,255,135761,1,2,3:2:0:0:
226,377,135914,2,0,L|217:323,1,53.9999983520508,10|0,0:0|0:0,0:0:0:0:
289,114,136068,6,0,B|329:72|384:91|384:91|387:86|387:86|384:91|384:91|435:124|428:176,1,215.999993408203,6|0,3:2|3:0,0:0:0:0:
386,372,136527,1,8,0:0:0:0:
512,233,136680,1,0,0:0:0:0:
289,260,136833,5,2,3:2:0:0:
492,375,136986,1,0,3:0:0:0:
388,88,137139,2,0,L|372:194,1,107.999996704102,10|0,0:0|0:0,0:0:0:0:
197,362,137445,38,0,B|249:355|255:294|255:294|245:258|245:258|233:249|233:249|217:182,1,215.999993408203,6|8,3:2|0:0,0:0:0:0:
32,13,137904,2,0,L|15:119,1,107.999996704102,2|0,0:0|3:0,0:0:0:0:
108,312,138210,1,2,3:2:0:0:
230,93,138363,2,0,L|177:101,1,53.9999983520508,10|0,0:0|0:0,0:0:0:0:
41,256,138517,70,0,B|6:237|6:237|35:191|93:191|93:191|110:226|149:233,1,215.999993408203,6|0,3:2|3:0,0:0:0:0:
310,384,138975,2,0,P|269:350|259:298,1,107.999996704102,8|0,0:0|0:0,0:0:0:0:
438,89,139282,1,2,3:2:0:0:
342,307,139435,1,0,3:0:0:0:
230,93,139588,2,0,L|336:110,1,107.999996704102,10|0,0:0|0:0,0:0:0:0:
506,353,139894,6,0,B|458:378|458:378|423:338|423:338|429:299|429:299|436:294|436:294|445:233,1,215.999993408203,6|8,3:2|0:0,0:0:0:0:
357,48,140353,2,0,B|305:34|305:34|259:63,1,107.999996704102,2|0,0:0|3:0,0:0:0:0:
66,192,140659,1,2,3:2:0:0:
275,278,140812,2,0,L|267:225,1,53.9999983520508,10|0,0:0|0:0,0:0:0:0:
67,52,140966,6,0,B|112:16|112:16|174:33|189:112|136:167,1,215.999993408203,6|0,3:2|3:0,0:0:0:0:
24,355,141425,2,0,L|130:338,1,107.999996704102,8|0,0:0|0:0,0:0:0:0:
263,174,141731,1,2,3:2:0:0:
44,257,141884,1,0,3:0:0:0:
260,377,142037,2,0,L|276:270,1,107.999996704102,10|0,0:0|0:0,0:0:0:0:
369,0,142343,38,0,B|316:49|316:49|330:115|330:115|339:119|339:119|357:184,1,215.999993408203,6|8,3:2|0:0,0:0:0:0:
496,378,142802,2,0,B|512:272,1,107.999996704102,2|0,0:0|3:0,0:0:0:0:
413,77,143108,1,2,3:2:0:0:
331,277,143261,2,0,L|384:269,1,53.9999983520508,10|0,0:0|0:0,0:0:0:0:
512,102,143415,6,0,B|445:111|445:111|431:106|431:106|370:116|370:116|410:117|433:142,1,215.999993408203,6|0,3:2|3:0,0:0:0:0:
348,384,143874,2,0,L|331:277,1,107.999996704102,10|0,0:0|0:0,0:0:0:0:
245,88,144180,5,10,0:0:0:0:
207,76,144256,1,8,0:0:0:0:
168,87,144333,1,8,0:0:0:0:
141,116,144409,1,8,0:0:0:0:
124,147,144486,37,8,0:3:0:0:
129,173,144562,1,8,0:3:0:0:
133,200,144639,1,4,0:3:0:0:
137,227,144716,1,4,0:3:0:0:
144,257,144792,6,0,B|186:292|186:292|241:279|241:279|245:270|245:270|297:254|297:254|355:293,1,215.999993408203,6|8,3:2|0:0,0:0:0:0:
497,160,145251,2,0,B|512:110|512:110|482:63,1,107.999996704102,2|0,0:0|3:0,0:0:0:0:
253,140,145558,1,0,3:0:0:0:
438,287,145711,2,0,L|429:233,1,53.9999983520508,10|0,0:0|0:0,0:0:0:0:
363,6,145864,6,0,B|356:58|295:64|295:64|259:54|259:54|250:42|250:42|183:26,1,215.999993408203,6|0,3:2|3:0,0:0:0:0:
84,267,146323,2,0,L|190:250,1,107.999996704102,8|0,0:0|0:0,0:0:0:0:
367,363,146629,1,0,3:0:0:0:
253,140,146782,37,2,3:2:0:0:
173,360,146935,1,10,0:0:0:0:
101,129,147088,1,2,0:0:0:0:
309,311,147241,6,0,B|334:263|334:263|294:228|294:228|255:234|255:234|250:241|250:241|189:250,1,215.999993408203,6|8,3:2|0:0,0:0:0:0:
4,163,147700,2,0,B|-11:113|-11:113|18:66,1,107.999996704102,2|0,0:0|3:0,0:0:0:0:
253,140,148007,1,0,3:0:0:0:
57,291,148160,2,0,L|65:237,1,53.9999983520508,10|0,0:0|0:0,0:0:0:0:
119,19,148313,6,0,B|138:66|202:63|202:63|204:70|204:70|203:63|203:63|255:23|307:64,1,215.999993408203,6|0,3:2|3:0,0:0:0:0:
397,226,148772,37,8,0:0:0:0:
434,13,148925,1,8,0:0:0:0:
253,140,149078,2,0,L|269:246,1,107.999996704102,2|0,0:0|3:0,0:0:0:0:
456,381,149384,2,0,L|472:274,1,107.999996704102,14|0,0:0|0:0,0:0:0:0:
345,68,149690,6,0,B|380:14|459:34|471:89|471:89|445:101|436:129,1,215.999993408203,6|8,3:2|0:0,0:0:0:0:
363,342,150149,2,0,P|352:290|311:256,1,107.999996704102,2|0,0:0|3:0,0:0:0:0:
88,247,150456,1,2,3:2:0:0:
244,66,150609,2,0,L|235:119,1,53.9999983520508,10|0,0:0|0:0,0:0:0:0:
147,368,150762,6,0,B|199:361|205:300|205:300|195:264|195:264|183:255|183:255|167:188,1,215.999993408203,6|0,3:2|3:0,0:0:0:0:
352,4,151221,2,0,L|334:110,1,107.999996704102,8|0,0:0|0:0,0:0:0:0:
499,330,151527,1,2,3:2:0:0:
451,81,151680,1,0,3:0:0:0:
339,307,151833,2,0,B|285:320|285:320|241:291,1,107.999996704102,10|0,0:0|0:0,0:0:0:0:
109,56,152139,38,0,P|149:90|159:142,1,107.999996704102,6|0,3:2|0:0,0:0:0:0:
31,373,152445,2,0,P|41:320|81:286,1,107.999996704102,8|0,0:0|0:0,0:0:0:0:
303,221,152751,1,2,3:2:0:0:
73,142,152905,1,0,3:0:0:0:
197,342,153058,6,0,P|162:367|170:325,1,108,12|0,0:0|0:0,0:0:0:0:
227,269,153364,6,0,L|217:215,1,53.9999983520508,2|0,3:2|0:0,0:0:0:0:
192,102,153517,1,8,0:0:0:0:
56,248,153670,38,0,L|72:141,1,107.999996704102,6|0,3:2|0:0,0:0:0:0:
145,24,153976,5,10,0:0:0:0:
225,15,154078,5,8,0:0:0:0:
266,57,154180,37,8,0:0:0:0:
278,92,154282,5,8,0:3:0:0:
274,111,154384,1,8,0:3:0:0:
270,130,154486,1,4,0:3:0:0:
266,149,154588,6,0,L|185:136,1,80.9999975280763,4|0,3:2|0:0,0:0:0:0:
112,264,154894,1,2,0:0:0:0:
112,264,155047,2,0,L|192:251,1,80.9999975280763,2|8,3:2|0:0,0:0:0:0:
299,341,155354,1,2,0:0:0:0:
299,341,155507,2,0,P|285:325|278:305,1,40.4999987640381,2|0,0:0|0:0,0:0:0:0:
362,168,155660,37,10,0:0:0:0:
362,168,155736,1,8,0:0:0:0:
362,168,155813,2,0,L|355:208,1,40.4999987640381,2|0,3:2|0:0,0:0:0:0:
399,337,155966,2,0,B|505:320|505:320|473:322|450:304,1,161.999995056153,8|0,0:0|3:0,0:0:0:0:
496,236,156425,1,10,0:0:0:0:
496,236,156578,6,0,L|489:195,1,40.4999987640381,2|0,3:2|0:0,0:0:0:0:
474,97,156731,1,0,0:0:0:0:
355,208,156884,6,0,B|279:195|279:195|251:214|251:214|185:204,1,161.999995056153,6|0,3:2|0:0,0:0:0:0:
132,44,157343,1,2,3:2:0:0:
132,44,157649,38,0,P|199:22|205:102,1,161.999995056153,10|2,0:0|0:0,0:0:0:0:
113,200,158109,1,10,0:0:0:0:
113,200,158185,1,8,0:0:0:0:
113,200,158262,6,0,L|153:193,1,40.4999987640381,2|0,3:2|0:0,0:0:0:0:
274,322,158415,2,0,P|243:295|234:257,1,80.9999975280763,10|0,0:0|0:0,0:0:0:0:
234,257,158721,6,0,P|227:275|213:291,1,40.4999987640381,2|0,3:0|0:0,0:0:0:0:
136,336,158874,1,8,0:0:0:0:
106,240,159027,38,0,L|112:199,1,40.4999987640381,10|8,0:3|0:3,0:0:0:0:
8,116,159180,2,0,L|14:156,1,40.4999987640381,10|8,0:3|0:3,0:0:0:0:
78,262,159333,2,0,L|84:221,1,40.4999987640381,6|4,0:3|0:3,0:0:0:0:
155,91,159486,6,0,L|218:100,1,54,6|0,3:2|0:0,0:0:0:0:
119,85,159792,6,0,L|239:65,1,121.499996292114,2|0,0:0|0:0,0:0:0:0:
315,122,160098,1,8,0:0:0:0:
315,122,160405,38,0,P|328:137|335:156,1,40.4999987640381,2|0,0:0|0:0,0:0:0:0:
428,177,160558,2,0,P|414:192|407:211,1,40.4999987640381,2|0,0:0|0:0,0:0:0:0:
378,288,160711,1,2,3:2:0:0:
218,224,160864,5,8,0:3:0:0:
257,289,161017,1,4,0:3:0:0:
295,222,161170,1,2,3:2:0:0:
167,319,161323,5,10,0:0:0:0:
110,213,161476,2,0,L|103:253,1,40.4999987640381,2|0,3:2|0:0,0:0:0:0:
19,384,161629,1,0,0:0:0:0:
19,384,161782,38,0,L|0:263,1,121.499996292114,6|0,3:2|0:0,0:0:0:0:
31,177,162088,5,0,3:0:0:0:
46,170,162165,5,0,3:0:0:0:
43,176,162241,38,0,P|82:183|109:212,1,80.9999975280763,0|0,3:0|0:0,0:0:0:0:
145,320,162547,1,8,0:0:0:0:
145,320,162854,2,0,L|225:307,1,80.9999975280763,2|2,0:0|0:0,0:0:0:0:
293,219,163160,5,2,3:2:0:0:
373,384,163313,1,10,0:0:0:0:
373,384,163466,2,0,P|336:368|313:335,1,80.9999975280763,2|0,3:2|0:0,0:0:0:0:
384,219,163772,1,10,0:0:0:0:
454,344,163925,5,8,0:3:0:0:
389,305,164078,1,4,0:3:0:0:
456,267,164231,1,4,0:3:0:0:
313,335,164384,38,0,L|232:322,1,80.9999975280763,6|0,3:2|0:0,0:0:0:0:
185,230,164690,1,0,0:0:0:0:
185,230,164843,1,0,3:0:0:0:
59,316,164996,6,0,L|66:275,1,40.4999987640381,10|0,0:0|0:0,0:0:0:0:
72,235,165149,2,0,L|79:194,1,40.4999987640381
85,154,165302,2,0,L|92:113,1,40.4999987640381,2|0,0:0|0:0,0:0:0:0:
57,24,165456,1,2,3:2:0:0:
176,141,165609,6,0,P|212:125|235:92,1,80.9999975280763,8|8,0:0|0:3,0:0:0:0:
281,13,165838,1,8,0:3:0:0:
314,8,165914,1,8,0:3:0:0:
343,24,165991,1,0,0:0:0:0:
359,55,166068,38,0,L|352:95,1,40.4999987640381,2|0,3:2|0:0,0:0:0:0:
335,175,166221,1,10,0:0:0:0:
485,156,166374,6,0,L|463:199,1,40.4999987640381,2|0,3:2|0:0,0:0:0:0:
407,292,166527,1,2,0:0:0:0:
335,175,166680,6,0,P|259:152|194:196,1,161.999995056153,6|0,3:2|0:0,0:0:0:0:
160,381,167139,2,0,P|178:345|173:305,1,80.9999975280763,2|0,3:2|0:0,0:0:0:0:
0,212,167445,2,0,B|38:228|49:274|49:274|73:236|115:237,1,161.999995056153,10|2,0:0|0:0,0:0:0:0:
115,237,167905,1,2,0:0:0:0:
73,143,168058,2,0,L|79:102,1,40.4999987640381,2|0,3:2|0:0,0:0:0:0:
85,59,168211,1,8,0:0:0:0:
173,14,168364,1,2,3:2:0:0:
173,14,168670,38,0,B|198:51|248:46|248:46|277:3|347:14,1,161.999995056153,10|0,0:0|0:0,0:0:0:0:
331,18,169129,5,8,0:0:0:0:
331,18,169206,1,8,0:0:0:0:
331,18,169282,2,0,L|337:58,1,40.4999987640381,6|0,3:2|0:0,0:0:0:0:
395,114,169435,2,0,L|382:194,1,80.9999975280763,2|0,0:0|0:0,0:0:0:0:
437,305,169741,1,2,3:2:0:0:
437,305,169894,2,0,B|478:312|478:312|512:293,1,80.9999975280763,10|0,0:0|0:0,0:0:0:0:
382,193,170201,1,2,0:0:0:0:
304,354,170354,2,0,L|291:273,1,80.9999975280763,2|2,0:0|3:2,0:0:0:0:
223,118,170660,5,8,0:0:0:0:
172,255,170813,1,0,3:0:0:0:
172,255,170966,1,0,3:0:0:0:
100,144,171119,37,8,0:0:0:0:
285,226,171272,1,0,3:0:0:0:
74,354,171425,6,0,P|53:313|98:314,1,108,14|0,0:0|0:0,0:0:0:0:
153,375,171731,5,6,3:2:0:0:
210,173,171884,1,0,3:0:0:0:
334,345,172037,38,0,B|290:353|290:353|250:331,1,90,10|2,0:0|0:0,0:0:0:0:
356,111,172343,2,0,B|399:102|399:102|439:124,1,90,0|0,3:0|3:0,0:0:0:0:
250,331,172649,5,10,0:0:0:0:
190,88,172803,1,2,3:2:0:0:
43,288,172956,5,10,0:0:0:0:
130,17,173109,1,0,3:0:0:0:
272,239,173262,37,8,0:0:0:0:
0,117,173415,2,0,L|98:99,1,99.0000030212403,2|0,0:0|3:0,0:0:0:0:
250,331,173721,1,8,0:0:0:0:
250,331,173797,1,8,0:0:0:0:
250,331,173874,2,0,L|153:315,1,99.0000030212403,10|0,0:0|3:0,0:0:0:0:
287,69,174180,5,12,0:0:0:0:
152,314,174333,1,2,3:2:0:0:
428,226,174486,1,10,0:0:0:0:
166,33,174639,2,0,L|182:139,1,107.999996704102,2|8,3:2|0:0,0:0:0:0:
328,366,174945,5,2,3:2:0:0:
114,217,175098,1,10,0:0:0:0:
401,117,175251,1,2,3:2:0:0:
232,382,175405,2,0,L|248:275,1,107.999996704102,8|0,0:0|0:0,0:0:0:0:
12,128,175711,37,10,0:0:0:0:
104,360,175864,1,0,0:0:0:0:
218,121,176017,2,0,B|268:106|268:106|315:136,1,107.999996704102,10|0,0:0|3:0,0:0:0:0:
469,370,176323,2,0,B|418:384|418:384|371:354,1,107.999996704102,8|0,0:0|3:0,0:0:0:0:
339,54,176629,5,14,0:0:0:0:
512,287,176782,1,2,0:0:0:0:
225,216,176935,1,10,0:0:0:0:
499,22,177088,2,0,L|482:127,1,107.999996704102,2|8,0:0|0:0,0:0:0:0:
267,301,177394,5,2,3:2:0:0:
216,20,177547,1,10,0:0:0:0:
271,325,177700,1,2,3:2:0:0:
35,155,177854,2,0,P|68:114|120:103,1,107.999996704102,8|0,0:0|0:0,0:0:0:0:
192,384,178160,38,0,L|175:277,1,107.999996704102,10|0,0:0|3:0,0:0:0:0:
334,78,178466,1,14,0:0:0:0:
334,78,178542,1,0,0:0:0:0:
334,78,178619,1,0,3:0:0:0:
395,302,178772,5,10,0:0:0:0:
240,218,178925,1,0,3:0:0:0:
438,101,179078,6,0,P|481:96|456:132,1,108,14|0,0:0|0:0,0:0:0:0:
374,153,179384,38,0,P|321:162|274:138,1,107.999996704102,8|0,0:0|0:0,0:0:0:0:
77,1,179690,2,0,P|111:41|113:94,1,107.999996704102,8|0,0:0|3:0,0:0:0:0:
5,364,179996,5,10,0:0:0:0:
271,240,180149,1,0,3:0:0:0:
14,78,180303,6,0,L|34:203,1,125.999996154785,10|0,0:0|0:0,0:0:0:0:
279,340,180609,1,10,0:0:0:0:
168,40,180762,1,2,0:0:0:0:
170,361,180915,37,8,0:0:0:0:
257,62,181068,1,0,3:0:0:0:
395,349,181221,2,0,B|455:367|455:367|509:335,1,125.999996154785,10|0,0:0|3:0,0:0:0:0:
348,0,181527,6,0,B|367:124,1,116.999994644165,10|0,0:0|0:0,0:0:0:0:
279,340,181833,1,8,0:0:0:0:
158,79,181986,2,0,B|174:186,1,107.999996704102,2|8,0:0|0:0,0:0:0:0:
101,378,182292,1,0,3:0:0:0:
339,290,182445,2,0,B|285:303|285:303|241:274,1,107.999996704102,10|0,0:0|3:0,0:0:0:0:
49,120,182751,5,14,0:0:0:0:
296,66,182905,1,0,3:0:0:0:
0,209,183058,37,8,0:0:0:0:
279,340,183211,1,2,3:2:0:0:
122,17,183364,5,8,3:0:0:0:
122,17,183440,1,8,3:0:0:0:
122,17,183517,2,0,L|134:94,1,53.9999983520508,0|0,3:0|3:0,0:0:0:0:
194,287,183670,1,4,3:0:0:0:
194,287,183746,1,4,3:0:0:0:
194,287,183823,2,0,L|206:209,1,53.9999983520508,0|0,3:0|3:0,0:0:0:0:
296,66,183976,5,14,0:0:0:0:
352,266,184129,1,2,3:2:0:0:
152,162,184282,1,10,0:0:0:0:
419,24,184435,38,0,L|402:130,1,107.999996704102,2|8,0:0|0:0,0:0:0:0:
291,372,184741,1,2,3:2:0:0:
512,231,184894,1,10,0:0:0:0:
232,144,185047,1,2,3:2:0:0:
456,384,185200,6,0,L|439:277,1,107.999996704102,8|0,0:0|0:0,0:0:0:0:
301,31,185507,1,10,0:0:0:0:
226,300,185660,1,2,0:0:0:0:
454,152,185813,2,0,P|419:112|366:103,1,107.999996704102,10|0,0:0|3:0,0:0:0:0:
216,384,186119,2,0,P|267:373|301:332,1,107.999996704102,8|0,0:0|3:0,0:0:0:0:
207,56,186425,5,14,0:0:0:0:
397,300,186578,1,2,0:0:0:0:
100,207,186731,1,10,0:0:0:0:
326,17,186884,2,0,L|309:123,1,107.999996704102,2|8,0:0|0:0,0:0:0:0:
135,342,187190,37,2,3:2:0:0:
58,71,187343,1,10,0:0:0:0:
312,247,187496,1,2,3:2:0:0:
12,378,187649,2,0,L|28:271,1,107.999996704102,8|0,0:0|0:0,0:0:0:0:
214,19,187956,6,0,L|230:125,1,107.999996704102,10|0,0:0|3:0,0:0:0:0:
255,213,188185,1,0,3:0:0:0:
255,213,188262,2,0,B|308:225|308:225|353:197,1,107.999996704102,10|0,0:0|3:0,0:0:0:0:
470,16,188568,1,10,0:0:0:0:
506,225,188721,1,2,3:2:0:0:
332,97,188874,6,0,P|307:60|351:65,1,108,14|0,0:0|0:0,0:0:0:0:
411,137,189180,38,0,P|419:189|395:237,1,107.999996704102,8|0,0:0|0:0,0:0:0:0:
178,351,189486,2,0,P|154:303|163:251,1,107.999996704102,8|0,0:0|3:0,0:0:0:0:
252,67,189792,1,10,0:0:0:0:
357,267,189945,1,0,3:0:0:0:
149,152,190098,6,0,L|51:167,1,99.0000030212403,10|0,0:0|0:0,0:0:0:0:
178,351,190405,2,0,L|213:258,1,99.0000030212403,10|0,0:0|0:0,0:0:0:0:
0,278,190711,2,0,L|62:354,1,99.0000030212403,10|0,0:0|3:0,0:0:0:0:
213,258,191017,1,10,0:0:0:0:
51,167,191170,1,0,3:0:0:0:
178,351,191323,6,0,B|231:362|231:362|276:333,1,107.999996704102,14|0,0:0|0:0,0:0:0:0:
366,93,191629,2,0,B|329:133|329:133|331:186,1,107.999996704102,8|0,0:0|0:0,0:0:0:0:
495,384,191935,2,0,B|478:331|478:331|431:307,1,107.999996704102,8|0,0:0|3:0,0:0:0:0:
345,273,192165,1,0,3:0:0:0:
345,273,192241,1,10,0:0:0:0:
512,121,192394,1,0,3:0:0:0:
213,40,192547,38,0,P|253:74|265:125,1,107.999996704102,10|0,0:0|0:0,0:0:0:0:
44,349,192854,2,0,P|53:296|92:260,1,107.999996704102,8|0,0:0|3:0,0:0:0:0:
397,340,193160,2,0,P|347:358|296:342,1,107.999996704102,8|0,0:0|3:0,0:0:0:0:
91,97,193466,1,10,0:0:0:0:
189,359,193619,1,0,3:0:0:0:
406,144,193772,6,0,B|330:155|330:155|304:205|304:205|258:212,1,175.499991966248,14|0,0:0|0:0,0:0:0:0:
174,233,194078,1,8,0:0:0:0:
422,364,194231,2,0,L|403:248,1,116.999994644165,2|8,0:0|0:0,0:0:0:0:
214,23,194537,1,0,3:0:0:0:
110,305,194690,6,0,B|54:319|54:319|3:287,1,116.999994644165,10|0,0:0|3:0,0:0:0:0:
301,75,194996,2,0,B|356:60|356:60|407:92,1,116.999994644165,8|0,0:0|3:0,0:0:0:0:
195,378,195303,38,0,L|213:262,1,116.999994644165,10|0,0:0|3:0,0:0:0:0:
120,24,195609,1,10,0:0:0:0:
337,171,195762,1,0,3:0:0:0:
29,255,195915,5,10,0:0:0:0:
398,79,196068,1,8,0:0:0:0:
398,79,196527,6,0,P|440:93|434:135,1,80.9999975280763,2|0,0:0|0:0,0:0:0:0:
497,247,196833,38,0,B|494:220|453:199|431:212|431:212|421:204|421:204|406:235|406:235|350:249,1,161.999995056153,6|0,3:2|0:0,0:0:0:0:
315,300,197139,1,8,0:0:0:0:
162,182,197292,2,0,B|147:155|147:155|157:93,1,90,0|0,0:0|3:0,0:0:0:0:
215,17,197598,1,0,3:0:0:0:
306,147,197752,2,0,B|269:126|269:126|231:139,1,80.9999975280763,10|0,0:0|0:0,0:0:0:0:
162,182,198058,5,6,3:2:0:0:
61,61,198211,1,0,0:0:0:0:
40,70,198364,2,0,B|58:111|58:111|41:152,1,90,8|0,0:0|0:0,0:0:0:0:
77,276,198670,1,0,3:0:0:0:
23,189,198823,1,0,3:0:0:0:
44,350,198976,6,0,B|79:372|79:372|120:345,1,80.9999975280763,10|0,0:0|0:0,0:0:0:0:
161,285,199282,38,0,B|188:300|188:300|250:290,1,90,6|0,3:2|0:0,0:0:0:0:
439,198,199588,2,0,B|412:213|412:213|350:203,1,90,10|0,0:0|0:0,0:0:0:0:
247,15,199894,1,0,3:0:0:0:
391,124,200047,1,2,3:2:0:0:
201,168,200200,6,0,P|199:135|226:153,1,80.9999975280763,10|0,0:0|0:0,0:0:0:0:
253,239,200507,5,2,3:2:0:0:
136,66,200660,1,0,3:0:0:0:
175,287,200813,37,8,0:0:0:0:
285,85,200966,1,0,0:0:0:0:
334,300,201119,5,8,0:0:0:0:
359,315,201195,1,8,3:0:0:0:
398,309,201272,1,4,3:0:0:0:
427,329,201348,1,0,3:0:0:0:
465,317,201425,1,12,0:0:0:0:
465,317,201731,6,0,B|458:272|458:272|451:261|451:261|450:228,1,90,6|0,3:2|0:0,0:0:0:0:
325,36,202037,2,0,B|324:67|324:67|317:78|317:78|310:123,1,90,10|0,0:0|0:0,0:0:0:0:
231,297,202343,1,2,3:2:0:0:
179,128,202496,1,0,3:0:0:0:
296,225,202649,38,0,B|283:216|266:224|266:224|263:213|252:207|252:207|240:215|220:207,1,80.9999975280763,10|0,0:0|0:0,0:0:0:0:
151,242,202956,6,0,B|136:269|136:269|146:331,1,90,6|0,3:2|0:0,0:0:0:0:
2,154,203262,2,0,B|17:181|17:181|7:243,1,90,10|0,0:0|0:0,0:0:0:0:
111,35,203568,2,0,B|126:60|126:60|164:67|164:67|166:70|166:70|164:67|164:67|193:42|225:46,1,135,2|0,3:2|0:0,0:0:0:0:
286,81,203874,2,0,L|295:134,1,53.9999983520508,8|0,0:0|0:0,0:0:0:0:
470,254,204180,6,0,L|460:202,1,26.9999991760254,6|0,3:2|0:0,0:0:0:0:
450,153,204333,2,0,B|425:178|425:178|425:188|425:188|399:224,1,90,2|8,0:0|0:0,0:0:0:0:
323,330,204639,1,2,0:0:0:0:
197,230,204792,2,0,B|222:220|222:220|253:237|253:237|284:227,1,90,2|0,3:2|3:0,0:0:0:0:
170,361,205098,2,0,B|145:378|145:378|83:358,1,90,8|8,0:0|0:0,0:0:0:0:
44,292,205328,1,8,0:0:0:0:
44,292,205405,2,0,L|53:238,1,53.9999983520508,0|0,3:0|0:0,0:0:0:0:
22,156,205558,1,8,0:0:0:0:
182,38,205711,38,0,B|204:50|234:37|234:37|238:33|238:33|260:45|268:69,1,107.999996704102,2|0,3:2|3:0,0:0:0:0:
365,231,206017,2,0,B|358:201|358:201|377:176,1,53.9999983520508,10|0,0:0|0:0,0:0:0:0:
432,110,206170,1,8,0:0:0:0:
432,110,206246,1,8,0:0:0:0:
432,110,206323,2,0,B|439:80|439:80|424:61,2,53.9999983520508,8|8|4,0:3|0:3|0:3,0:0:0:0:
406,310,206629,5,6,3:2:0:0:
256,192,206782,12,8,210303,0:0:0:0:
78,76,210609,38,0,L|109:80,3,31.4999990386963
19,133,210915,54,0,L|125:116,1,107.999996704102,2|0,0:3|0:0,0:0:0:0:
223,221,211527,38,0,L|196:216,1,26.9999991760254,6|0,3:2|0:0,0:0:0:0:
242,248,211986,38,0,L|286:240,1,45,2|0,0:0|0:0,0:0:0:0:
381,286,212292,1,2,0:0:0:0:
381,286,212445,1,2,0:0:0:0:
381,286,212598,2,0,P|395:221|361:165,1,135,2|0,0:0|0:0,0:0:0:0:
194,15,213364,54,0,P|201:36|216:53,1,45,2|0,0:0|0:0,0:0:0:0:
294,81,213670,2,0,P|286:102|271:119,1,45,2|0,0:0|0:0,0:0:0:0:
187,171,213976,2,0,L|98:156,1,90,2|0,0:0|0:0,0:0:0:0:
207,155,214435,6,0,L|251:147,1,45,2|0,0:0|0:0,0:0:0:0:
333,213,214741,1,2,0:0:0:0:
333,213,214894,1,2,0:0:0:0:
333,213,215047,2,0,L|311:346,1,135,2|0,0:0|0:0,0:0:0:0:
486,349,215813,54,0,L|441:341,1,45,2|0,0:0|0:0,0:0:0:0:
393,258,216119,2,0,L|348:265,1,45,2|0,0:0|0:0,0:0:0:0:
271,324,216425,2,0,P|251:284|256:239,1,90,2|0,0:0|0:0,0:0:0:0:
278,347,216884,6,0,L|233:339,1,45,2|0,0:0|0:0,0:0:0:0:
114,374,217190,1,2,0:0:0:0:
114,374,217343,1,2,0:0:0:0:
114,374,217496,2,0,B|112:355|137:325|137:325|112:291|108:238,1,135,2|0,0:0|0:0,0:0:0:0:
33,74,218262,54,0,P|54:66|71:51,1,45,2|0,0:0|0:0,0:0:0:0:
150,13,218568,2,0,P|167:27|188:35,1,45,2|0,0:0|0:0,0:0:0:0:
251,114,218874,2,0,P|282:83|293:39,1,90,2|0,0:0|0:0,0:0:0:0:
229,125,219333,6,0,L|184:117,1,45,2|0,0:0|0:0,0:0:0:0:
95,55,219639,1,2,0:0:0:0:
95,55,219792,1,2,0:0:0:0:
95,55,219945,2,0,L|80:143,1,90,2|0,0:0|0:0,0:0:0:0:
111,247,220405,54,0,L|66:254,1,45,2|0,0:0|0:0,0:0:0:0:
53,346,220711,2,0,L|141:331,1,90,2|2,0:0|0:0,0:0:0:0:
237,285,221323,6,0,P|242:240|223:200,1,90,2|0,0:0|0:0,0:0:0:0:
226,304,221782,2,0,L|314:318,1,90,2|0,0:0|0:0,0:0:0:0:
421,288,222241,1,2,0:0:0:0:
421,288,222394,2,0,B|458:244|427:184|412:209|388:156|424:107,1,180,2|0,0:0|0:0,0:0:0:0:
238,28,223313,53,2,0:0:0:0:
238,28,223466,2,0,L|228:84,1,45,2|2,0:0|0:0,0:0:0:0:
261,167,223772,2,0,P|218:174|173:153,1,90,2|0,0:0|0:0,0:0:0:0:
280,150,224231,6,0,L|272:194,1,45,2|0,0:0|0:0,0:0:0:0:
320,292,224537,1,2,0:0:0:0:
320,292,224690,1,2,0:0:0:0:
320,292,224843,2,0,B|340:327|382:322|382:322|436:291,1,135,2|0,0:0|0:0,0:0:0:0:
147,364,225609,54,0,P|139:342|124:325,1,45,2|0,0:0|0:0,0:0:0:0:
47,298,225915,2,0,P|54:276|69:259,1,45,2|0,0:0|0:0,0:0:0:0:
196,190,226221,2,0,P|152:197|113:176,1,90,2|0,0:0|0:0,0:0:0:0:
216,176,226680,6,0,L|223:131,1,45,2|0,0:0|0:0,0:0:0:0:
294,66,226986,1,2,0:0:0:0:
294,66,227139,1,2,0:0:0:0:
294,66,227292,2,0,P|237:32|173:47,1,135,2|0,0:0|0:0,0:0:0:0:
14,221,228058,54,0,L|58:214,1,45,2|0,0:0|0:0,0:0:0:0:
106,294,228364,2,0,L|150:300,1,45,2|0,0:0|0:0,0:0:0:0:
216,372,228670,2,0,P|248:314|234:248,1,135,2|0,0:0|0:0,0:0:0:0:
144,202,229282,2,0,P|112:144|126:78,1,135,2|2,0:0|0:0,0:0:0:0:
204,129,229894,5,2,0:0:0:0:
275,73,230200,53,2,0:0:0:0:
326,133,230507,5,2,0:0:0:0:
351,113,230813,53,2,0:0:0:0:
